  0
SECTION
  2
HEADER
  9
$ACADVER
  1
AC1015
  9
$ACADMAINTVER
 70
     6
  9
$DWGCODEPAGE
  3
ANSI_932
  9
$INSBASE
 10
0.0
 20
0.0
 30
0.0
  9
$EXTMIN
 10
-65.7556289998057
 20
-53.85072431524419
 30
0.0
  9
$EXTMAX
 10
169.0
 20
194.612720930233
 30
0.0
  9
$LIMMIN
 10
0.0
 20
0.0
  9
$LIMMAX
 10
12.0
 20
9.0
  9
$ORTHOMODE
 70
     0
  9
$REGENMODE
 70
     1
  9
$FILLMODE
 70
     1
  9
$QTEXTMODE
 70
     0
  9
$MIRRTEXT
 70
     1
  9
$LTSCALE
 40
1.0
  9
$ATTMODE
 70
     1
  9
$TEXTSIZE
 40
0.2
  9
$TRACEWID
 40
0.05
  9
$TEXTSTYLE
  7
Standard
  9
$CLAYER
  8
0
  9
$CELTYPE
  6
ByLayer
  9
$CECOLOR
 62
   256
  9
$CELTSCALE
 40
1.0
  9
$DISPSILH
 70
     0
  9
$DIMSCALE
 40
1.0
  9
$DIMASZ
 40
0.18
  9
$DIMEXO
 40
0.0625
  9
$DIMDLI
 40
0.38
  9
$DIMRND
 40
0.0
  9
$DIMDLE
 40
0.0
  9
$DIMEXE
 40
0.18
  9
$DIMTP
 40
0.0
  9
$DIMTM
 40
0.0
  9
$DIMTXT
 40
0.18
  9
$DIMCEN
 40
0.09
  9
$DIMTSZ
 40
0.0
  9
$DIMTOL
 70
     0
  9
$DIMLIM
 70
     0
  9
$DIMTIH
 70
     1
  9
$DIMTOH
 70
     1
  9
$DIMSE1
 70
     0
  9
$DIMSE2
 70
     0
  9
$DIMTAD
 70
     0
  9
$DIMZIN
 70
     0
  9
$DIMBLK
  1

  9
$DIMASO
 70
     1
  9
$DIMSHO
 70
     1
  9
$DIMPOST
  1

  9
$DIMAPOST
  1

  9
$DIMALT
 70
     0
  9
$DIMALTD
 70
     2
  9
$DIMALTF
 40
25.4
  9
$DIMLFAC
 40
1.0
  9
$DIMTOFL
 70
     0
  9
$DIMTVP
 40
0.0
  9
$DIMTIX
 70
     0
  9
$DIMSOXD
 70
     0
  9
$DIMSAH
 70
     0
  9
$DIMBLK1
  1

  9
$DIMBLK2
  1

  9
$DIMSTYLE
  2
Standard
  9
$DIMCLRD
 70
     0
  9
$DIMCLRE
 70
     0
  9
$DIMCLRT
 70
     0
  9
$DIMTFAC
 40
1.0
  9
$DIMGAP
 40
0.09
  9
$DIMJUST
 70
     0
  9
$DIMSD1
 70
     0
  9
$DIMSD2
 70
     0
  9
$DIMTOLJ
 70
     1
  9
$DIMTZIN
 70
     0
  9
$DIMALTZ
 70
     0
  9
$DIMALTTZ
 70
     0
  9
$DIMUPT
 70
     0
  9
$DIMDEC
 70
     4
  9
$DIMTDEC
 70
     4
  9
$DIMALTU
 70
     2
  9
$DIMALTTD
 70
     2
  9
$DIMTXSTY
  7
Standard
  9
$DIMAUNIT
 70
     0
  9
$DIMADEC
 70
     0
  9
$DIMALTRND
 40
0.0
  9
$DIMAZIN
 70
     0
  9
$DIMDSEP
 70
    46
  9
$DIMATFIT
 70
     3
  9
$DIMFRAC
 70
     0
  9
$DIMLDRBLK
  1

  9
$DIMLUNIT
 70
     2
  9
$DIMLWD
 70
    -2
  9
$DIMLWE
 70
    -2
  9
$DIMTMOVE
 70
     0
  9
$LUNITS
 70
     2
  9
$LUPREC
 70
     4
  9
$SKETCHINC
 40
0.1
  9
$FILLETRAD
 40
0.5
  9
$AUNITS
 70
     0
  9
$AUPREC
 70
     0
  9
$MENU
  1
.
  9
$ELEVATION
 40
0.0
  9
$PELEVATION
 40
0.0
  9
$THICKNESS
 40
0.0
  9
$LIMCHECK
 70
     0
  9
$CHAMFERA
 40
0.5
  9
$CHAMFERB
 40
0.5
  9
$CHAMFERC
 40
1.0
  9
$CHAMFERD
 40
0.0
  9
$SKPOLY
 70
     0
  9
$TDCREATE
 40
2457624.408411481
  9
$TDUCREATE
 40
2457624.033411481
  9
$TDUPDATE
 40
2457624.408411493
  9
$TDUUPDATE
 40
2457624.033411493
  9
$TDINDWG
 40
0.0000000116
  9
$TDUSRTIMER
 40
0.0000000116
  9
$USRTIMER
 70
     1
  9
$ANGBASE
 50
0.0
  9
$ANGDIR
 70
     0
  9
$PDMODE
 70
     0
  9
$PDSIZE
 40
0.0
  9
$PLINEWID
 40
0.0
  9
$SPLFRAME
 70
     0
  9
$SPLINETYPE
 70
     6
  9
$SPLINESEGS
 70
     8
  9
$HANDSEED
  5
270
  9
$SURFTAB1
 70
     6
  9
$SURFTAB2
 70
     6
  9
$SURFTYPE
 70
     6
  9
$SURFU
 70
     6
  9
$SURFV
 70
     6
  9
$UCSBASE
  2

  9
$UCSNAME
  2

  9
$UCSORG
 10
0.0
 20
0.0
 30
0.0
  9
$UCSXDIR
 10
1.0
 20
0.0
 30
0.0
  9
$UCSYDIR
 10
0.0
 20
1.0
 30
0.0
  9
$UCSORTHOREF
  2

  9
$UCSORTHOVIEW
 70
     0
  9
$UCSORGTOP
 10
0.0
 20
0.0
 30
0.0
  9
$UCSORGBOTTOM
 10
0.0
 20
0.0
 30
0.0
  9
$UCSORGLEFT
 10
0.0
 20
0.0
 30
0.0
  9
$UCSORGRIGHT
 10
0.0
 20
0.0
 30
0.0
  9
$UCSORGFRONT
 10
0.0
 20
0.0
 30
0.0
  9
$UCSORGBACK
 10
0.0
 20
0.0
 30
0.0
  9
$PUCSBASE
  2

  9
$PUCSNAME
  2

  9
$PUCSORG
 10
0.0
 20
0.0
 30
0.0
  9
$PUCSXDIR
 10
1.0
 20
0.0
 30
0.0
  9
$PUCSYDIR
 10
0.0
 20
1.0
 30
0.0
  9
$PUCSORTHOREF
  2

  9
$PUCSORTHOVIEW
 70
     0
  9
$PUCSORGTOP
 10
0.0
 20
0.0
 30
0.0
  9
$PUCSORGBOTTOM
 10
0.0
 20
0.0
 30
0.0
  9
$PUCSORGLEFT
 10
0.0
 20
0.0
 30
0.0
  9
$PUCSORGRIGHT
 10
0.0
 20
0.0
 30
0.0
  9
$PUCSORGFRONT
 10
0.0
 20
0.0
 30
0.0
  9
$PUCSORGBACK
 10
0.0
 20
0.0
 30
0.0
  9
$USERI1
 70
     0
  9
$USERI2
 70
     0
  9
$USERI3
 70
     0
  9
$USERI4
 70
     0
  9
$USERI5
 70
     0
  9
$USERR1
 40
18.0
  9
$USERR2
 40
0.0
  9
$USERR3
 40
0.0
  9
$USERR4
 40
0.0
  9
$USERR5
 40
0.0
  9
$WORLDVIEW
 70
     1
  9
$SHADEDGE
 70
     3
  9
$SHADEDIF
 70
    70
  9
$TILEMODE
 70
     1
  9
$MAXACTVP
 70
    64
  9
$PINSBASE
 10
0.0
 20
0.0
 30
0.0
  9
$PLIMCHECK
 70
     0
  9
$PEXTMIN
 10
1.00000000000000E+20
 20
1.00000000000000E+20
 30
1.00000000000000E+20
  9
$PEXTMAX
 10
-1.00000000000000E+20
 20
-1.00000000000000E+20
 30
-1.00000000000000E+20
  9
$PLIMMIN
 10
0.0
 20
0.0
  9
$PLIMMAX
 10
12.0
 20
9.0
  9
$UNITMODE
 70
     0
  9
$VISRETAIN
 70
     1
  9
$PLINEGEN
 70
     0
  9
$PSLTSCALE
 70
     1
  9
$TREEDEPTH
 70
  3020
  9
$CMLSTYLE
  2
Standard
  9
$CMLJUST
 70
     0
  9
$CMLSCALE
 40
1.0
  9
$PROXYGRAPHICS
 70
     1
  9
$MEASUREMENT
 70
     1
  9
$CELWEIGHT
370
    -1
  9
$ENDCAPS
280
     0
  9
$JOINSTYLE
280
     0
  9
$LWDISPLAY
290
     0
  9
$INSUNITS
 70
     1
  9
$HYPERLINKBASE
  1

  9
$STYLESHEET
  1

  9
$XEDIT
290
     1
  9
$CEPSNTYPE
380
     0
  9
$PSTYLEMODE
290
     1
  9
$FINGERPRINTGUID
  2
{9C658761-E1CB-4C98-A1B4-2B88F84447DC}
  9
$VERSIONGUID
  2
{FAEB1C32-E019-11D5-929B-00C0DF256EC4}
  9
$EXTNAMES
290
     1
  9
$PSVPSCALE
 40
0.0
  9
$OLESTARTUP
290
     0
  0
ENDSEC
  0
SECTION
  2
CLASSES
  0
CLASS
  1
ACDBDICTIONARYWDFLT
  2
AcDbDictionaryWithDefault
  3
ObjectDBX Classes
 90
        0
280
     0
281
     0
  0
CLASS
  1
VISUALSTYLE
  2
AcDbVisualStyle
  3
ObjectDBX Classes
 90
     4095
280
     0
281
     0
  0
CLASS
  1
MATERIAL
  2
AcDbMaterial
  3
ObjectDBX Classes
 90
     1153
280
     0
281
     0
  0
CLASS
  1

  2
exOdDbCircle
  3

 90
        0
280
     0
281
     1
  0
CLASS
  1

  2
exOdDbPolyline
  3

 90
        0
280
     0
281
     1
  0
CLASS
  1
SCALE
  2
AcDbScale
  3
ObjectDBX Classes
 90
     1153
280
     0
281
     0
  0
CLASS
  1
DICTIONARYVAR
  2
AcDbDictionaryVar
  3
ObjectDBX Classes
 90
        0
280
     0
281
     0
  0
CLASS
  1
ACDBPLACEHOLDER
  2
AcDbPlaceHolder
  3
ObjectDBX Classes
 90
        0
280
     0
281
     0
  0
CLASS
  1
LAYOUT
  2
AcDbLayout
  3
ObjectDBX Classes
 90
        0
280
     0
281
     0
  0
ENDSEC
  0
SECTION
  2
TABLES
  0
TABLE
  2
VPORT
  5
8
330
0
100
AcDbSymbolTable
 70
     1
  0
VPORT
  5
29
330
8
100
AcDbSymbolTableRecord
100
AcDbViewportTableRecord
  2
*Active
 70
     0
 10
0.0
 20
0.0
 11
1.0
 21
1.0
 12
51.62218550009715
 22
70.3809983074944
 13
0.0
 23
0.0
 14
0.5
 24
0.5
 15
0.5
 25
0.5
 16
0.0
 26
0.0
 36
1.0
 17
0.0
 27
0.0
 37
0.0
 40
273.309789770025
 41
1.60267857142857
 42
50.0
 43
0.0
 44
0.0
 50
0.0
 51
0.0
 71
     0
 72
   100
 73
     1
 74
     3
 75
     0
 76
     0
 77
     0
 78
     0
281
     0
 65
     1
110
0.0
120
0.0
130
0.0
111
1.0
121
0.0
131
0.0
112
0.0
122
1.0
132
0.0
 79
     0
146
0.0
  0
ENDTAB
  0
TABLE
  2
LTYPE
  5
5
330
0
100
AcDbSymbolTable
 70
     9
  0
LTYPE
  5
14
330
5
100
AcDbSymbolTableRecord
100
AcDbLinetypeTableRecord
  2
ByBlock
 70
     0
  3

 72
    65
 73
     0
 40
0.0
  0
LTYPE
  5
15
330
5
100
AcDbSymbolTableRecord
100
AcDbLinetypeTableRecord
  2
ByLayer
 70
     0
  3

 72
    65
 73
     0
 40
0.0
  0
LTYPE
  5
16
330
5
100
AcDbSymbolTableRecord
100
AcDbLinetypeTableRecord
  2
Continuous
 70
     0
  3
Solid line
 72
    65
 73
     0
 40
0.0
  0
LTYPE
  5
3F
330
5
100
AcDbSymbolTableRecord
100
AcDbLinetypeTableRecord
  2
DASHED
 70
     0
  3
Dashed
 72
    65
 73
     2
 40
15.0
 49
7.0
 74
     0
 49
-8.0
 74
     0
  0
LTYPE
  5
40
330
5
100
AcDbSymbolTableRecord
100
AcDbLinetypeTableRecord
  2
DOTTED
 70
     0
  3
Dotted
 72
    65
 73
     2
 40
1.0
 49
0.0
 74
     0
 49
-1.0
 74
     0
  0
LTYPE
  5
41
330
5
100
AcDbSymbolTableRecord
100
AcDbLinetypeTableRecord
  2
DOT_CENTER
 70
     0
  3
Dot_Center
 72
    65
 73
     4
 40
14.0
 49
12.0
 74
     0
 49
-1.0
 74
     0
 49
0.0
 74
     0
 49
-1.0
 74
     0
  0
LTYPE
  5
42
330
5
100
AcDbSymbolTableRecord
100
AcDbLinetypeTableRecord
  2
LONG_DASHED
 70
     0
  3
Long_Dashed
 72
    65
 73
     2
 40
15.0
 49
10.0
 74
     0
 49
-5.0
 74
     0
  0
LTYPE
  5
43
330
5
100
AcDbSymbolTableRecord
100
AcDbLinetypeTableRecord
  2
DASH_CENTER
 70
     0
  3
Dash_Center
 72
    65
 73
     4
 40
14.0
 49
11.0
 74
     0
 49
-1.0
 74
     0
 49
1.0
 74
     0
 49
-1.0
 74
     0
  0
LTYPE
  5
44
330
5
100
AcDbSymbolTableRecord
100
AcDbLinetypeTableRecord
  2
PHANTOM
 70
     0
  3
Phantom
 72
    65
 73
     6
 40
13.0
 49
10.0
 74
     0
 49
-1.0
 74
     0
 49
0.0
 74
     0
 49
-1.0
 74
     0
 49
0.0
 74
     0
 49
-1.0
 74
     0
  0
LTYPE
  5
45
330
5
100
AcDbSymbolTableRecord
100
AcDbLinetypeTableRecord
  2
CENTER_DASH_DASH
 70
     0
  3
Center_Dash_Dash
 72
    65
 73
     6
 40
14.0
 49
9.0
 74
     0
 49
-1.0
 74
     0
 49
1.0
 74
     0
 49
-1.0
 74
     0
 49
1.0
 74
     0
 49
-1.0
 74
     0
  0
LTYPE
  5
46
330
5
100
AcDbSymbolTableRecord
100
AcDbLinetypeTableRecord
  2
CENTER
 70
     0
  3
CENTER
 72
    65
 73
     4
 40
6.0
 49
3.0
 74
     0
 49
-1.0
 74
     0
 49
1.0
 74
     0
 49
-1.0
 74
     0
  0
ENDTAB
  0
TABLE
  2
LAYER
  5
2
330
0
100
AcDbSymbolTable
 70
     5
  0
LAYER
  5
10
330
2
100
AcDbSymbolTableRecord
100
AcDbLayerTableRecord
  2
0
 70
     0
 62
     7
  6
Continuous
370
    -3
390
F
  0
LAYER
  5
47
330
2
100
AcDbSymbolTableRecord
100
AcDbLayerTableRecord
  2
1
 70
     0
 62
     7
  6
Continuous
370
    -3
390
F
  0
LAYER
  5
48
330
2
100
AcDbSymbolTableRecord
100
AcDbLayerTableRecord
  2
100
 70
     0
 62
     7
  6
Continuous
370
    -3
390
F
  0
LAYER
  5
49
330
2
100
AcDbSymbolTableRecord
100
AcDbLayerTableRecord
  2
2
 70
     0
 62
     7
  6
Continuous
370
    -3
390
F
  0
LAYER
  5
4A
330
2
100
AcDbSymbolTableRecord
100
AcDbLayerTableRecord
  2
3
 70
     0
 62
     7
  6
Continuous
370
    -3
390
F
  0
ENDTAB
  0
TABLE
  2
STYLE
  5
3
330
0
100
AcDbSymbolTable
 70
     2
  0
STYLE
  5
11
330
3
100
AcDbSymbolTableRecord
100
AcDbTextStyleTableRecord
  2
Standard
 70
     0
 40
0.0
 41
1.0
 50
0.0
 71
     0
 42
0.2
  3
txt
  4

  0
STYLE
  5
209
330
3
100
AcDbSymbolTableRecord
100
AcDbTextStyleTableRecord
  2
CONVERTER_11
 70
     0
 40
0.0
 41
0.9
 50
0.0
 71
     0
 42
0.2
  3
txt.shx
  4

  0
ENDTAB
  0
TABLE
  2
VIEW
  5
6
330
0
100
AcDbSymbolTable
 70
     0
  0
ENDTAB
  0
TABLE
  2
UCS
  5
7
330
0
100
AcDbSymbolTable
 70
     0
  0
ENDTAB
  0
TABLE
  2
APPID
  5
9
330
0
100
AcDbSymbolTable
 70
     1
  0
APPID
  5
12
330
9
100
AcDbSymbolTableRecord
100
AcDbRegAppTableRecord
  2
ACAD
 70
     0
  0
ENDTAB
  0
TABLE
  2
DIMSTYLE
  5
A
330
0
100
AcDbSymbolTable
 70
     3
100
AcDbDimStyleTable
  0
DIMSTYLE
105
27
330
A
100
AcDbSymbolTableRecord
100
AcDbDimStyleTableRecord
  2
Standard
 70
     0
340
11
  0
DIMSTYLE
105
235
102
{ACAD_REACTORS
330
236
102
}
330
A
100
AcDbSymbolTableRecord
100
AcDbDimStyleTableRecord
  2
ME10_DIM_10
 70
     0
 41
8.0
 42
1.0
 44
1.0
 73
     0
 74
     0
 77
     1
 78
    12
140
10.0
147
1.0
172
     1
173
     1
174
     1
175
     1
176
     2
177
     2
178
     2
271
     3
340
209
343
22F
344
22F
  0
DIMSTYLE
105
242
102
{ACAD_REACTORS
330
243
102
}
330
A
100
AcDbSymbolTableRecord
100
AcDbDimStyleTableRecord
  2
ME10_DIM_11
 70
     0
 41
8.0
 42
1.0
 44
1.0
 73
     0
 74
     0
 77
     1
 78
    12
140
10.0
147
1.0
172
     1
173
     1
174
     1
175
     1
176
     2
177
     2
178
     2
271
     3
340
209
343
22F
344
22F
  0
ENDTAB
  0
TABLE
  2
BLOCK_RECORD
  5
1
330
0
100
AcDbSymbolTable
 70
     4
  0
BLOCK_RECORD
  5
1F
330
1
100
AcDbSymbolTableRecord
100
AcDbBlockTableRecord
  2
*Model_Space
340
22
  0
BLOCK_RECORD
  5
1B
330
1
100
AcDbSymbolTableRecord
100
AcDbBlockTableRecord
  2
*Paper_Space
340
1E
  0
BLOCK_RECORD
  5
23
330
1
100
AcDbSymbolTableRecord
100
AcDbBlockTableRecord
  2
*Paper_Space0
340
26
  0
BLOCK_RECORD
  5
201
330
1
100
AcDbSymbolTableRecord
100
AcDbBlockTableRecord
  2
*D1
340
0
  0
BLOCK_RECORD
  5
22F
330
1
100
AcDbSymbolTableRecord
100
AcDbBlockTableRecord
  2
_OPEN30
340
0
  0
BLOCK_RECORD
  5
237
330
1
100
AcDbSymbolTableRecord
100
AcDbBlockTableRecord
  2
*D3
340
0
  0
ENDTAB
  0
ENDSEC
  0
SECTION
  2
BLOCKS
  0
BLOCK
  5
20
330
1F
100
AcDbEntity
  8
0
100
AcDbBlockBegin
  2
*Model_Space
 70
     0
 10
0.0
 20
0.0
 30
0.0
  3
*Model_Space
  1

  0
ENDBLK
  5
21
330
1F
100
AcDbEntity
  8
0
100
AcDbBlockEnd
  0
BLOCK
  5
1C
330
1B
100
AcDbEntity
 67
     1
  8
0
100
AcDbBlockBegin
  2
*Paper_Space
 70
     0
 10
0.0
 20
0.0
 30
0.0
  3
*Paper_Space
  1

  0
ENDBLK
  5
1D
330
1B
100
AcDbEntity
 67
     1
  8
0
100
AcDbBlockEnd
  0
BLOCK
  5
24
330
23
100
AcDbEntity
  8
0
100
AcDbBlockBegin
  2
*Paper_Space0
 70
     0
 10
0.0
 20
0.0
 30
0.0
  3
*Paper_Space0
  1

  0
ENDBLK
  5
25
330
23
100
AcDbEntity
  8
0
100
AcDbBlockEnd
  0
BLOCK
  5
22D
330
201
100
AcDbEntity
  8
0
100
AcDbBlockBegin
  2
*D1
 70
     1
 10
0.0
 20
0.0
 30
0.0
  3
*D1
  1

  0
LINE
  5
202
330
201
100
AcDbEntity
  8
1
  6
Continuous
 62
     2
100
AcDbLine
 10
40.0
 20
-51.7071307757952
 30
0.0
 11
-40.0
 21
-51.70713077579521
 31
0.0
  0
LINE
  5
203
330
201
100
AcDbEntity
  8
1
  6
Continuous
 62
     2
100
AcDbLine
 10
40.0
 20
-17.45
 30
0.0
 11
40.0
 21
-52.7071307757952
 31
0.0
  0
LINE
  5
204
330
201
100
AcDbEntity
  8
1
  6
Continuous
 62
     2
100
AcDbLine
 10
-40.0
 20
-17.45
 30
0.0
 11
-40.0
 21
-52.70713077579521
 31
0.0
  0
LINE
  5
205
330
201
100
AcDbEntity
  8
1
 62
     2
100
AcDbLine
 10
-40.0
 20
-51.70713077579521
 30
0.0
 11
-32.0
 21
-49.56353723634623
 31
0.0
  0
LINE
  5
206
330
201
100
AcDbEntity
  8
1
 62
     2
100
AcDbLine
 10
-40.0
 20
-51.70713077579521
 30
0.0
 11
-32.0
 21
-53.85072431524419
 31
0.0
  0
LINE
  5
207
330
201
100
AcDbEntity
  8
1
 62
     2
100
AcDbLine
 10
40.0
 20
-51.7071307757952
 30
0.0
 11
32.0
 21
-53.85072431524418
 31
0.0
  0
LINE
  5
208
330
201
100
AcDbEntity
  8
1
 62
     2
100
AcDbLine
 10
40.0
 20
-51.7071307757952
 30
0.0
 11
32.0
 21
-49.56353723634621
 31
0.0
  0
MTEXT
  5
22C
330
201
100
AcDbEntity
  8
1
 62
     2
100
AcDbMText
 10
-7.37998787963629
 20
-50.70714866540534
 30
0.0
 40
10.0
 41
0.0
 71
     7
 72
     1
  1
80
  7
CONVERTER_11
 11
0.9999999999882478
 21
4.848136811095759E-6
 31
0.0
 73
     1
 44
0.60024009603842
  0
ENDBLK
  5
22E
330
201
100
AcDbEntity
  8
0
100
AcDbBlockEnd
  0
BLOCK
  5
230
330
22F
100
AcDbEntity
  8
0
100
AcDbBlockBegin
  2
_OPEN30
 70
     0
 10
0.0
 20
0.0
 30
0.0
  3
_OPEN30
  1

  0
LINE
  5
232
330
22F
100
AcDbEntity
  8
0
  6
ByBlock
 62
     0
370
    -2
100
AcDbLine
 10
-1.0
 20
0.267949
 30
0.0
 11
0.0
 21
0.0
 31
0.0
  0
LINE
  5
233
330
22F
100
AcDbEntity
  8
0
  6
ByBlock
 62
     0
370
    -2
100
AcDbLine
 10
0.0
 20
0.0
 30
0.0
 11
-1.0
 21
-0.267949
 31
0.0
  0
LINE
  5
234
330
22F
100
AcDbEntity
  8
0
  6
ByBlock
 62
     0
370
    -2
100
AcDbLine
 10
0.0
 20
0.0
 30
0.0
 11
-1.0
 21
0.0
 31
0.0
  0
ENDBLK
  5
231
330
22F
100
AcDbEntity
  8
0
100
AcDbBlockEnd
  0
BLOCK
  5
240
330
237
100
AcDbEntity
  8
0
100
AcDbBlockBegin
  2
*D3
 70
     1
 10
0.0
 20
0.0
 30
0.0
  3
*D3
  1

  0
LINE
  5
238
330
237
100
AcDbEntity
  8
1
  6
Continuous
 62
     2
100
AcDbLine
 10
62.17919437797461
 20
85.0
 30
0.0
 11
62.17919437797461
 21
0.0
 31
0.0
  0
LINE
  5
239
330
237
100
AcDbEntity
  8
1
  6
Continuous
 62
     2
100
AcDbLine
 10
13.5
 20
85.0
 30
0.0
 11
63.17919437797461
 21
85.0
 31
0.0
  0
LINE
  5
23A
330
237
100
AcDbEntity
  8
1
  6
Continuous
 62
     2
100
AcDbLine
 10
49.1595615780152
 20
0.0
 30
0.0
 11
63.17919437797461
 21
0.0
 31
0.0
  0
LINE
  5
23B
330
237
100
AcDbEntity
  8
1
 62
     2
100
AcDbLine
 10
62.17919437797461
 20
0.0
 30
0.0
 11
60.03560083852563
 21
8.0
 31
0.0
  0
LINE
  5
23C
330
237
100
AcDbEntity
  8
1
 62
     2
100
AcDbLine
 10
62.17919437797461
 20
0.0
 30
0.0
 11
64.3227879174236
 21
8.0
 31
0.0
  0
LINE
  5
23D
330
237
100
AcDbEntity
  8
1
 62
     2
100
AcDbLine
 10
62.17919437797461
 20
85.0
 30
0.0
 11
64.32278791742358
 21
77.0
 31
0.0
  0
LINE
  5
23E
330
237
100
AcDbEntity
  8
1
 62
     2
100
AcDbLine
 10
62.17919437797461
 20
85.0
 30
0.0
 11
60.03560083852563
 21
77.0
 31
0.0
  0
MTEXT
  5
23F
330
237
100
AcDbEntity
  8
1
 62
     2
100
AcDbMText
 10
61.1791943779746
 20
37.9805319214909
 30
0.0
 40
10.0
 41
0.0
 71
     7
 72
     1
  1
85
  7
CONVERTER_11
 11
0.0
 21
1.0
 31
0.0
 73
     1
 44
0.60024009603842
  0
ENDBLK
  5
241
330
237
100
AcDbEntity
  8
0
100
AcDbBlockEnd
  0
ENDSEC
  0
SECTION
  2
ENTITIES
  0
POINT
  5
4B
330
1F
100
AcDbEntity
  8
1
 62
     7
100
AcDbPoint
 10
40.0
 20
-16.45
 30
0.0
  0
POINT
  5
4C
330
1F
100
AcDbEntity
  8
1
 62
     7
100
AcDbPoint
 10
-40.0
 20
-16.45
 30
0.0
  0
POINT
  5
4D
330
1F
100
AcDbEntity
  8
1
 62
     7
100
AcDbPoint
 10
12.5
 20
85.0
 30
0.0
  0
POINT
  5
4E
330
1F
100
AcDbEntity
  8
1
 62
     7
100
AcDbPoint
 10
48.1595615780152
 20
0.0
 30
0.0
  0
POINT
  5
4F
330
1F
100
AcDbEntity
  8
1
 62
     7
100
AcDbPoint
 10
40.0
 20
-16.45
 30
0.0
  0
POINT
  5
50
330
1F
100
AcDbEntity
  8
1
 62
     7
100
AcDbPoint
 10
-40.0
 20
-16.45
 30
0.0
  0
POINT
  5
51
330
1F
100
AcDbEntity
  8
1
 62
     7
100
AcDbPoint
 10
12.5
 20
85.0
 30
0.0
  0
POINT
  5
52
330
1F
100
AcDbEntity
  8
1
 62
     7
100
AcDbPoint
 10
48.1595615780152
 20
0.0
 30
0.0
  0
LINE
  5
53
330
1F
100
AcDbEntity
  8
1
  6
Continuous
 62
     4
100
AcDbLine
 10
22.58878374718431
 20
-31.2240695605761
 30
0.0
 11
21.7966837471843
 21
-32.4740695605761
 31
0.0
  0
LINE
  5
54
330
1F
100
AcDbEntity
  8
1
  6
Continuous
 62
     4
100
AcDbLine
 10
21.7966837471843
 20
-29.9740695605761
 30
0.0
 11
22.58878374718431
 21
-31.2240695605761
 31
0.0
  0
LINE
  5
55
330
1F
100
AcDbEntity
  8
1
  6
Continuous
 62
     4
100
AcDbLine
 10
16.6480337471843
 20
-31.2240695605761
 30
0.0
 11
22.58878374718431
 21
-31.2240695605761
 31
0.0
  0
LINE
  5
56
330
1F
100
AcDbEntity
  8
1
  6
Continuous
 62
     4
100
AcDbLine
 10
10.11320874718431
 20
-28.3490695605761
 30
0.0
 11
14.66778374718431
 21
-28.3490695605761
 31
0.0
  0
LINE
  5
57
330
1F
100
AcDbEntity
  8
1
  6
Continuous
 62
     4
100
AcDbLine
 10
10.11320874718431
 20
-28.3490695605761
 30
0.0
 11
11.20234624718431
 21
-26.4740695605761
 31
0.0
  0
LINE
  5
58
330
1F
100
AcDbEntity
  8
1
  6
Continuous
 62
     4
100
AcDbLine
 10
12.68753374718431
 20
-33.0990695605761
 30
0.0
 11
11.00432124718431
 21
-33.0990695605761
 31
0.0
  0
LINE
  5
59
330
1F
100
AcDbEntity
  8
1
  6
Continuous
 62
     4
100
AcDbLine
 10
12.68753374718431
 20
-30.5990695605761
 30
0.0
 11
12.68753374718431
 21
-33.0990695605761
 31
0.0
  0
LINE
  5
5A
330
1F
100
AcDbEntity
  8
1
  6
Continuous
 62
     4
100
AcDbLine
 10
11.00432124718431
 20
-30.5990695605761
 30
0.0
 11
12.68753374718431
 21
-30.5990695605761
 31
0.0
  0
LINE
  5
5B
330
1F
100
AcDbEntity
  8
1
  6
Continuous
 62
     4
100
AcDbLine
 10
11.00432124718431
 20
-33.0990695605761
 30
0.0
 11
11.00432124718431
 21
-30.5990695605761
 31
0.0
  0
LINE
  5
5C
330
1F
100
AcDbEntity
  8
1
  6
Continuous
 62
     4
100
AcDbLine
 10
14.66778374718431
 20
-35.8490695605761
 30
0.0
 11
13.57864624718431
 21
-35.8490695605761
 31
0.0
  0
LINE
  5
5D
330
1F
100
AcDbEntity
  8
1
  6
Continuous
 62
     4
100
AcDbLine
 10
14.66778374718431
 20
-28.3490695605761
 30
0.0
 11
14.66778374718431
 21
-35.8490695605761
 31
0.0
  0
LINE
  5
5E
330
1F
100
AcDbEntity
  8
1
  6
Continuous
 62
     4
100
AcDbLine
 10
9.02407124718431
 20
-28.3490695605761
 30
0.0
 11
10.11320874718431
 21
-28.3490695605761
 31
0.0
  0
LINE
  5
5F
330
1F
100
AcDbEntity
  8
1
  6
Continuous
 62
     4
100
AcDbLine
 10
9.02407124718431
 20
-35.8490695605761
 30
0.0
 11
9.02407124718431
 21
-28.3490695605761
 31
0.0
  0
LINE
  5
60
330
1F
100
AcDbEntity
  8
1
  6
Continuous
 62
     4
100
AcDbLine
 10
4.7665337471843
 20
-36.2240695605761
 30
0.0
 11
3.9744337471843
 21
-35.5990695605761
 31
0.0
  0
LINE
  5
61
330
1F
100
AcDbEntity
  8
1
  6
Continuous
 62
     4
100
AcDbLine
 10
5.2615962471843
 20
-35.2240695605761
 30
0.0
 11
4.7665337471843
 21
-36.2240695605761
 31
0.0
  0
LINE
  5
62
330
1F
100
AcDbEntity
  8
1
  6
Continuous
 62
     4
100
AcDbLine
 10
5.6576462471843
 20
-33.7240695605761
 30
0.0
 11
5.2615962471843
 21
-35.2240695605761
 31
0.0
  0
LINE
  5
63
330
1F
100
AcDbEntity
  8
1
  6
Continuous
 62
     4
100
AcDbLine
 10
6.1527087471843
 20
-31.4740695605761
 30
0.0
 11
5.6576462471843
 21
-33.7240695605761
 31
0.0
  0
LINE
  5
64
330
1F
100
AcDbEntity
  8
1
  6
Continuous
 62
     4
100
AcDbLine
 10
6.1527087471843
 20
-30.5990695605761
 30
0.0
 11
6.1527087471843
 21
-31.4740695605761
 31
0.0
  0
LINE
  5
65
330
1F
100
AcDbEntity
  8
1
  6
Continuous
 62
     4
100
AcDbLine
 10
3.2813462471843
 20
-30.5990695605761
 30
0.0
 11
6.1527087471843
 21
-30.5990695605761
 31
0.0
  0
LINE
  5
66
330
1F
100
AcDbEntity
  8
1
  6
Continuous
 62
     4
100
AcDbLine
 10
0.6080087471843
 20
-28.0990695605761
 30
0.0
 11
7.2418462471843
 21
-28.0990695605761
 31
0.0
  0
LINE
  5
67
330
1F
100
AcDbEntity
  8
1
  6
Continuous
 62
     4
100
AcDbLine
 10
3.4793712471843
 20
-28.9740695605761
 30
0.0
 11
3.6773962471843
 21
-26.4740695605761
 31
0.0
  0
LINE
  5
68
330
1F
100
AcDbEntity
  8
1
  6
Continuous
 62
     4
100
AcDbLine
 10
3.0833212471843
 20
-31.4740695605761
 30
0.0
 11
3.4793712471843
 21
-28.9740695605761
 31
0.0
  0
LINE
  5
69
330
1F
100
AcDbEntity
  8
1
  6
Continuous
 62
     4
100
AcDbLine
 10
2.5882587471843
 20
-33.0990695605761
 30
0.0
 11
3.0833212471843
 21
-31.4740695605761
 31
0.0
  0
LINE
  5
6A
330
1F
100
AcDbEntity
  8
1
  6
Continuous
 62
     4
100
AcDbLine
 10
1.9941837471843
 20
-34.5990695605761
 30
0.0
 11
2.5882587471843
 21
-33.0990695605761
 31
0.0
  0
LINE
  5
6B
330
1F
100
AcDbEntity
  8
1
  6
Continuous
 62
     4
100
AcDbLine
 10
1.1030712471843
 20
-35.8490695605761
 30
0.0
 11
1.9941837471843
 21
-34.5990695605761
 31
0.0
  0
LINE
  5
6C
330
1F
100
AcDbEntity
  8
1
  6
Continuous
 62
     4
100
AcDbLine
 10
-1.5702662528157
 20
-33.0990695605761
 30
0.0
 11
-0.4811287528157
 21
-34.5990695605761
 31
0.0
  0
LINE
  5
6D
330
1F
100
AcDbEntity
  8
1
  6
Continuous
 62
     4
100
AcDbLine
 10
-2.4613787528157
 20
-31.2240695605761
 30
0.0
 11
-1.5702662528157
 21
-33.0990695605761
 31
0.0
  0
LINE
  5
6E
330
1F
100
AcDbEntity
  8
1
  6
Continuous
 62
     4
100
AcDbLine
 10
-3.1544662528157
 20
-28.9740695605761
 30
0.0
 11
-2.4613787528157
 21
-31.2240695605761
 31
0.0
  0
LINE
  5
6F
330
1F
100
AcDbEntity
  8
1
  6
Continuous
 62
     4
100
AcDbLine
 10
-1.1742162528157
 20
-28.7240695605761
 30
0.0
 11
-2.6594037528157
 21
-30.2240695605761
 31
0.0
  0
LINE
  5
70
330
1F
100
AcDbEntity
  8
1
  6
Continuous
 62
     4
100
AcDbLine
 10
-3.7485412528157
 20
-36.2240695605761
 30
0.0
 11
-4.4416287528157
 21
-35.8490695605761
 31
0.0
  0
LINE
  5
71
330
1F
100
AcDbEntity
  8
1
  6
Continuous
 62
     4
100
AcDbLine
 10
-3.7485412528157
 20
-26.4740695605761
 30
0.0
 11
-3.7485412528157
 21
-36.2240695605761
 31
0.0
  0
LINE
  5
72
330
1F
100
AcDbEntity
  8
1
  6
Continuous
 62
     4
100
AcDbLine
 10
-4.8376787528157
 20
-29.5990695605761
 30
0.0
 11
-7.1149662528157
 21
-29.5990695605761
 31
0.0
  0
LINE
  5
73
330
1F
100
AcDbEntity
  8
1
  6
Continuous
 62
     4
100
AcDbLine
 10
-5.3327412528157
 20
-31.4740695605761
 30
0.0
 11
-4.8376787528157
 21
-29.5990695605761
 31
0.0
  0
LINE
  5
74
330
1F
100
AcDbEntity
  8
1
  6
Continuous
 62
     4
100
AcDbLine
 10
-6.2238537528157
 20
-33.3490695605761
 30
0.0
 11
-5.3327412528157
 21
-31.4740695605761
 31
0.0
  0
LINE
  5
75
330
1F
100
AcDbEntity
  8
1
  6
Continuous
 62
     4
100
AcDbLine
 10
-7.1149662528157
 20
-34.5990695605761
 30
0.0
 11
-6.2238537528157
 21
-33.3490695605761
 31
0.0
  0
LINE
  5
76
330
1F
100
AcDbEntity
  8
1
  6
Continuous
 62
     4
100
AcDbLine
 10
-11.4715162528157
 20
-27.7240695605761
 30
0.0
 11
-8.7981787528157
 21
-27.7240695605761
 31
0.0
  0
LINE
  5
77
330
1F
100
AcDbEntity
  8
1
  6
Continuous
 62
     4
100
AcDbLine
 10
-8.4021287528157
 20
-35.2240695605761
 30
0.0
 11
-8.4021287528157
 21
-34.5990695605761
 31
0.0
  0
LINE
  5
78
330
1F
100
AcDbEntity
  8
1
  6
Continuous
 62
     4
100
AcDbLine
 10
-8.7981787528157
 20
-35.8490695605761
 30
0.0
 11
-8.4021287528157
 21
-35.2240695605761
 31
0.0
  0
LINE
  5
79
330
1F
100
AcDbEntity
  8
1
  6
Continuous
 62
     4
100
AcDbLine
 10
-9.6892912528157
 20
-35.8490695605761
 30
0.0
 11
-8.7981787528157
 21
-35.8490695605761
 31
0.0
  0
LINE
  5
7A
330
1F
100
AcDbEntity
  8
1
  6
Continuous
 62
     4
100
AcDbLine
 10
-10.1843537528157
 20
-34.9740695605761
 30
0.0
 11
-9.6892912528157
 21
-35.8490695605761
 31
0.0
  0
LINE
  5
7B
330
1F
100
AcDbEntity
  8
1
  6
Continuous
 62
     4
100
AcDbLine
 10
-10.1843537528157
 20
-31.8490695605761
 30
0.0
 11
-10.1843537528157
 21
-34.9740695605761
 31
0.0
  0
LINE
  5
7C
330
1F
100
AcDbEntity
  8
1
  6
Continuous
 62
     4
100
AcDbLine
 10
-11.4715162528157
 20
-35.8490695605761
 30
0.0
 11
-11.4715162528157
 21
-31.8490695605761
 31
0.0
  0
LINE
  5
7D
330
1F
100
AcDbEntity
  8
1
  6
Continuous
 62
     4
100
AcDbLine
 10
-13.4517662528157
 20
-35.5990695605761
 30
0.0
 11
-14.1448537528157
 21
-36.2240695605761
 31
0.0
  0
LINE
  5
7E
330
1F
100
AcDbEntity
  8
1
  6
Continuous
 62
     4
100
AcDbLine
 10
-13.0557162528157
 20
-34.9740695605761
 30
0.0
 11
-13.4517662528157
 21
-35.5990695605761
 31
0.0
  0
LINE
  5
7F
330
1F
100
AcDbEntity
  8
1
  6
Continuous
 62
     4
100
AcDbLine
 10
-12.7586787528157
 20
-33.9740695605761
 30
0.0
 11
-13.0557162528157
 21
-34.9740695605761
 31
0.0
  0
LINE
  5
80
330
1F
100
AcDbEntity
  8
1
  6
Continuous
 62
     4
100
AcDbLine
 10
-12.5606537528157
 20
-31.8490695605761
 30
0.0
 11
-12.7586787528157
 21
-33.9740695605761
 31
0.0
  0
LINE
  5
81
330
1F
100
AcDbEntity
  8
1
  6
Continuous
 62
     4
100
AcDbLine
 10
-10.3823787528157
 20
-28.7240695605761
 30
0.0
 11
-9.4912662528157
 21
-30.8490695605761
 31
0.0
  0
LINE
  5
82
330
1F
100
AcDbEntity
  8
1
  6
Continuous
 62
     4
100
AcDbLine
 10
-13.2537412528157
 20
-30.2240695605761
 30
0.0
 11
-9.8873162528157
 21
-29.9740695605761
 31
0.0
  0
LINE
  5
83
330
1F
100
AcDbEntity
  8
1
  6
Continuous
 62
     4
100
AcDbLine
 10
-11.4715162528157
 20
-27.7240695605761
 30
0.0
 11
-12.3626287528157
 21
-30.2240695605761
 31
0.0
  0
LINE
  5
84
330
1F
100
AcDbEntity
  8
1
  6
Continuous
 62
     4
100
AcDbLine
 10
-11.2734912528157
 20
-26.2240695605761
 30
0.0
 11
-11.2734912528157
 21
-27.7240695605761
 31
0.0
  0
LINE
  5
85
330
1F
100
AcDbEntity
  8
1
  6
Continuous
 62
     4
100
AcDbLine
 10
-13.6497912528157
 20
-27.7240695605761
 30
0.0
 11
-11.4715162528157
 21
-27.7240695605761
 31
0.0
  0
LINE
  5
86
330
1F
100
AcDbEntity
  8
1
  6
Continuous
 62
     4
100
AcDbLine
 10
-15.2339912528157
 20
-35.8490695605761
 30
0.0
 11
-14.3428787528157
 21
-31.8490695605761
 31
0.0
  0
LINE
  5
87
330
1F
100
AcDbEntity
  8
1
  6
Continuous
 62
     4
100
AcDbLine
 10
-15.4320162528157
 20
-29.3490695605761
 30
0.0
 11
-14.7389287528157
 21
-30.2240695605761
 31
0.0
  0
LINE
  5
88
330
1F
100
AcDbEntity
  8
1
  6
Continuous
 62
     4
100
AcDbLine
 10
-14.7389287528157
 20
-26.4740695605761
 30
0.0
 11
-14.3428787528157
 21
-27.4740695605761
 31
0.0
  0
LINE
  5
89
330
1F
100
AcDbEntity
  8
1
  6
Continuous
 62
     4
100
AcDbLine
 10
-49.4437484741211
 20
-21.0
 30
0.0
 11
-49.4437484741211
 21
-31.0
 31
0.0
  0
LINE
  5
8A
330
1F
100
AcDbEntity
  8
1
  6
Continuous
 62
     4
100
AcDbLine
 10
-52.4437484741211
 20
-24.0
 30
0.0
 11
-49.4437484741211
 21
-21.0
 31
0.0
  0
LINE
  5
8B
330
1F
100
AcDbEntity
  8
1
  6
Continuous
 62
     4
100
AcDbLine
 10
-55.4437484741211
 20
-25.5
 30
0.0
 11
-57.9437484741211
 21
-25.5
 31
0.0
  0
LINE
  5
8C
330
1F
100
AcDbEntity
  8
1
  6
Continuous
 62
     4
100
AcDbLine
 10
-55.4437484741211
 20
-31.0
 30
0.0
 11
-55.4437484741211
 21
-25.5
 31
0.0
  0
LINE
  5
8D
330
1F
100
AcDbEntity
  8
1
  6
Continuous
 62
     4
100
AcDbLine
 10
-59.6937484741211
 20
-31.0
 30
0.0
 11
-55.4437484741211
 21
-31.0
 31
0.0
  0
LINE
  5
8E
330
1F
100
AcDbEntity
  8
1
  6
Continuous
 62
     4
100
AcDbLine
 10
-60.4437484741211
 20
-30.75
 30
0.0
 11
-59.6937484741211
 21
-31.0
 31
0.0
  0
LINE
  5
8F
330
1F
100
AcDbEntity
  8
1
  6
Continuous
 62
     4
100
AcDbLine
 10
-61.4437484741211
 20
-30.25
 30
0.0
 11
-60.4437484741211
 21
-30.75
 31
0.0
  0
LINE
  5
90
330
1F
100
AcDbEntity
  8
1
  6
Continuous
 62
     4
100
AcDbLine
 10
-61.9437484741211
 20
-29.75
 30
0.0
 11
-61.4437484741211
 21
-30.25
 31
0.0
  0
LINE
  5
91
330
1F
100
AcDbEntity
  8
1
  6
Continuous
 62
     4
100
AcDbLine
 10
-62.1937484741211
 20
-29.0
 30
0.0
 11
-61.9437484741211
 21
-29.75
 31
0.0
  0
LINE
  5
92
330
1F
100
AcDbEntity
  8
1
  6
Continuous
 62
     4
100
AcDbLine
 10
-62.4437484741211
 20
-28.0
 30
0.0
 11
-62.1937484741211
 21
-29.0
 31
0.0
  0
LINE
  5
93
330
1F
100
AcDbEntity
  8
1
  6
Continuous
 62
     4
100
AcDbLine
 10
-62.4437484741211
 20
-24.0
 30
0.0
 11
-62.4437484741211
 21
-28.0
 31
0.0
  0
LINE
  5
94
330
1F
100
AcDbEntity
  8
1
  6
Continuous
 62
     4
100
AcDbLine
 10
-62.1937484741211
 20
-23.0
 30
0.0
 11
-62.4437484741211
 21
-24.0
 31
0.0
  0
LINE
  5
95
330
1F
100
AcDbEntity
  8
1
  6
Continuous
 62
     4
100
AcDbLine
 10
-61.9437484741211
 20
-22.25
 30
0.0
 11
-62.1937484741211
 21
-23.0
 31
0.0
  0
LINE
  5
96
330
1F
100
AcDbEntity
  8
1
  6
Continuous
 62
     4
100
AcDbLine
 10
-61.4437484741211
 20
-21.75
 30
0.0
 11
-61.9437484741211
 21
-22.25
 31
0.0
  0
LINE
  5
97
330
1F
100
AcDbEntity
  8
1
  6
Continuous
 62
     4
100
AcDbLine
 10
-60.6937484741211
 20
-21.25
 30
0.0
 11
-61.4437484741211
 21
-21.75
 31
0.0
  0
LINE
  5
98
330
1F
100
AcDbEntity
  8
1
  6
Continuous
 62
     4
100
AcDbLine
 10
-59.6937484741211
 20
-21.0
 30
0.0
 11
-60.6937484741211
 21
-21.25
 31
0.0
  0
LINE
  5
99
330
1F
100
AcDbEntity
  8
1
  6
Continuous
 62
     4
100
AcDbLine
 10
-55.4437484741211
 20
-21.0
 30
0.0
 11
-59.6937484741211
 21
-21.0
 31
0.0
  0
LINE
  5
9A
330
1F
100
AcDbEntity
  8
1
  6
Continuous
 62
     4
100
AcDbLine
 10
58.40625
 20
-20.5
 30
0.0
 11
58.40625
 21
-30.5
 31
0.0
  0
LINE
  5
9B
330
1F
100
AcDbEntity
  8
1
  6
Continuous
 62
     4
100
AcDbLine
 10
55.40625
 20
-23.5
 30
0.0
 11
58.40625
 21
-20.5
 31
0.0
  0
LINE
  5
9C
330
1F
100
AcDbEntity
  8
1
  6
Continuous
 62
     4
100
AcDbLine
 10
52.40625
 20
-25.0
 30
0.0
 11
49.90625
 21
-25.0
 31
0.0
  0
LINE
  5
9D
330
1F
100
AcDbEntity
  8
1
  6
Continuous
 62
     4
100
AcDbLine
 10
52.40625
 20
-30.5
 30
0.0
 11
52.40625
 21
-25.0
 31
0.0
  0
LINE
  5
9E
330
1F
100
AcDbEntity
  8
1
  6
Continuous
 62
     4
100
AcDbLine
 10
48.15625
 20
-30.5
 30
0.0
 11
52.40625
 21
-30.5
 31
0.0
  0
LINE
  5
9F
330
1F
100
AcDbEntity
  8
1
  6
Continuous
 62
     4
100
AcDbLine
 10
47.40625
 20
-30.25
 30
0.0
 11
48.15625
 21
-30.5
 31
0.0
  0
LINE
  5
A0
330
1F
100
AcDbEntity
  8
1
  6
Continuous
 62
     4
100
AcDbLine
 10
46.40625
 20
-29.75
 30
0.0
 11
47.40625
 21
-30.25
 31
0.0
  0
LINE
  5
A1
330
1F
100
AcDbEntity
  8
1
  6
Continuous
 62
     4
100
AcDbLine
 10
45.90625
 20
-29.25
 30
0.0
 11
46.40625
 21
-29.75
 31
0.0
  0
LINE
  5
A2
330
1F
100
AcDbEntity
  8
1
  6
Continuous
 62
     4
100
AcDbLine
 10
45.65625
 20
-28.5
 30
0.0
 11
45.90625
 21
-29.25
 31
0.0
  0
LINE
  5
A3
330
1F
100
AcDbEntity
  8
1
  6
Continuous
 62
     4
100
AcDbLine
 10
45.40625
 20
-27.5
 30
0.0
 11
45.65625
 21
-28.5
 31
0.0
  0
LINE
  5
A4
330
1F
100
AcDbEntity
  8
1
  6
Continuous
 62
     4
100
AcDbLine
 10
45.40625
 20
-23.5
 30
0.0
 11
45.40625
 21
-27.5
 31
0.0
  0
LINE
  5
A5
330
1F
100
AcDbEntity
  8
1
  6
Continuous
 62
     4
100
AcDbLine
 10
45.65625
 20
-22.5
 30
0.0
 11
45.40625
 21
-23.5
 31
0.0
  0
LINE
  5
A6
330
1F
100
AcDbEntity
  8
1
  6
Continuous
 62
     4
100
AcDbLine
 10
45.90625
 20
-21.75
 30
0.0
 11
45.65625
 21
-22.5
 31
0.0
  0
LINE
  5
A7
330
1F
100
AcDbEntity
  8
1
  6
Continuous
 62
     4
100
AcDbLine
 10
46.40625
 20
-21.25
 30
0.0
 11
45.90625
 21
-21.75
 31
0.0
  0
LINE
  5
A8
330
1F
100
AcDbEntity
  8
1
  6
Continuous
 62
     4
100
AcDbLine
 10
47.15625
 20
-20.75
 30
0.0
 11
46.40625
 21
-21.25
 31
0.0
  0
LINE
  5
A9
330
1F
100
AcDbEntity
  8
1
  6
Continuous
 62
     4
100
AcDbLine
 10
48.15625
 20
-20.5
 30
0.0
 11
47.15625
 21
-20.75
 31
0.0
  0
LINE
  5
AA
330
1F
100
AcDbEntity
  8
1
  6
Continuous
 62
     4
100
AcDbLine
 10
52.40625
 20
-20.5
 30
0.0
 11
48.15625
 21
-20.5
 31
0.0
  0
LINE
  5
AB
330
1F
100
AcDbEntity
  8
1
  6
Continuous
 62
     4
100
AcDbLine
 10
164.905920354898
 20
156.908965754517
 30
0.0
 11
164.905920354898
 21
154.408965754517
 31
0.0
  0
LINE
  5
AC
330
1F
100
AcDbEntity
  8
1
  6
Continuous
 62
     4
100
AcDbLine
 10
164.655920354898
 20
158.408965754517
 30
0.0
 11
164.905920354898
 21
156.908965754517
 31
0.0
  0
LINE
  5
AD
330
1F
100
AcDbEntity
  8
1
  6
Continuous
 62
     4
100
AcDbLine
 10
164.155920354898
 20
159.408965754517
 30
0.0
 11
164.655920354898
 21
158.408965754517
 31
0.0
  0
LINE
  5
AE
330
1F
100
AcDbEntity
  8
1
  6
Continuous
 62
     4
100
AcDbLine
 10
163.655920354898
 20
159.908965754517
 30
0.0
 11
164.155920354898
 21
159.408965754517
 31
0.0
  0
LINE
  5
AF
330
1F
100
AcDbEntity
  8
1
  6
Continuous
 62
     4
100
AcDbLine
 10
162.905920354898
 20
160.408965754517
 30
0.0
 11
163.655920354898
 21
159.908965754517
 31
0.0
  0
LINE
  5
B0
330
1F
100
AcDbEntity
  8
1
  6
Continuous
 62
     4
100
AcDbLine
 10
162.155920354898
 20
160.658965754517
 30
0.0
 11
162.905920354898
 21
160.408965754517
 31
0.0
  0
LINE
  5
B1
330
1F
100
AcDbEntity
  8
1
  6
Continuous
 62
     4
100
AcDbLine
 10
161.655920354898
 20
160.658965754517
 30
0.0
 11
162.155920354898
 21
160.658965754517
 31
0.0
  0
LINE
  5
B2
330
1F
100
AcDbEntity
  8
1
  6
Continuous
 62
     4
100
AcDbLine
 10
160.905920354898
 20
160.408965754517
 30
0.0
 11
161.655920354898
 21
160.658965754517
 31
0.0
  0
LINE
  5
B3
330
1F
100
AcDbEntity
  8
1
  6
Continuous
 62
     4
100
AcDbLine
 10
160.155920354898
 20
159.908965754517
 30
0.0
 11
160.905920354898
 21
160.408965754517
 31
0.0
  0
LINE
  5
B4
330
1F
100
AcDbEntity
  8
1
  6
Continuous
 62
     4
100
AcDbLine
 10
159.655920354898
 20
159.408965754517
 30
0.0
 11
160.155920354898
 21
159.908965754517
 31
0.0
  0
LINE
  5
B5
330
1F
100
AcDbEntity
  8
1
  6
Continuous
 62
     4
100
AcDbLine
 10
159.155920354898
 20
158.408965754517
 30
0.0
 11
159.655920354898
 21
159.408965754517
 31
0.0
  0
LINE
  5
B6
330
1F
100
AcDbEntity
  8
1
  6
Continuous
 62
     4
100
AcDbLine
 10
158.905920354898
 20
156.908965754517
 30
0.0
 11
159.155920354898
 21
158.408965754517
 31
0.0
  0
LINE
  5
B7
330
1F
100
AcDbEntity
  8
1
  6
Continuous
 62
     4
100
AcDbLine
 10
158.905920354898
 20
154.408965754517
 30
0.0
 11
158.905920354898
 21
156.908965754517
 31
0.0
  0
LINE
  5
B8
330
1F
100
AcDbEntity
  8
1
  6
Continuous
 62
     4
100
AcDbLine
 10
159.155920354898
 20
152.908965754517
 30
0.0
 11
158.905920354898
 21
154.408965754517
 31
0.0
  0
LINE
  5
B9
330
1F
100
AcDbEntity
  8
1
  6
Continuous
 62
     4
100
AcDbLine
 10
159.655920354898
 20
151.908965754517
 30
0.0
 11
159.155920354898
 21
152.908965754517
 31
0.0
  0
LINE
  5
BA
330
1F
100
AcDbEntity
  8
1
  6
Continuous
 62
     4
100
AcDbLine
 10
160.155920354898
 20
151.408965754517
 30
0.0
 11
159.655920354898
 21
151.908965754517
 31
0.0
  0
LINE
  5
BB
330
1F
100
AcDbEntity
  8
1
  6
Continuous
 62
     4
100
AcDbLine
 10
160.905920354898
 20
150.908965754517
 30
0.0
 11
160.155920354898
 21
151.408965754517
 31
0.0
  0
LINE
  5
BC
330
1F
100
AcDbEntity
  8
1
  6
Continuous
 62
     4
100
AcDbLine
 10
161.655920354898
 20
150.658965754517
 30
0.0
 11
160.905920354898
 21
150.908965754517
 31
0.0
  0
LINE
  5
BD
330
1F
100
AcDbEntity
  8
1
  6
Continuous
 62
     4
100
AcDbLine
 10
162.155920354898
 20
150.658965754517
 30
0.0
 11
161.655920354898
 21
150.658965754517
 31
0.0
  0
LINE
  5
BE
330
1F
100
AcDbEntity
  8
1
  6
Continuous
 62
     4
100
AcDbLine
 10
162.905920354898
 20
150.908965754517
 30
0.0
 11
162.155920354898
 21
150.658965754517
 31
0.0
  0
LINE
  5
BF
330
1F
100
AcDbEntity
  8
1
  6
Continuous
 62
     4
100
AcDbLine
 10
163.655920354898
 20
151.408965754517
 30
0.0
 11
162.905920354898
 21
150.908965754517
 31
0.0
  0
LINE
  5
C0
330
1F
100
AcDbEntity
  8
1
  6
Continuous
 62
     4
100
AcDbLine
 10
164.155920354898
 20
151.908965754517
 30
0.0
 11
163.655920354898
 21
151.408965754517
 31
0.0
  0
LINE
  5
C1
330
1F
100
AcDbEntity
  8
1
  6
Continuous
 62
     4
100
AcDbLine
 10
164.655920354898
 20
152.908965754517
 30
0.0
 11
164.155920354898
 21
151.908965754517
 31
0.0
  0
LINE
  5
C2
330
1F
100
AcDbEntity
  8
1
  6
Continuous
 62
     4
100
AcDbLine
 10
164.905920354898
 20
154.408965754517
 30
0.0
 11
164.655920354898
 21
152.908965754517
 31
0.0
  0
LINE
  5
C3
330
1F
100
AcDbEntity
  8
1
  6
Continuous
 62
     4
100
AcDbLine
 10
149.905920354898
 20
150.658965754517
 30
0.0
 11
155.905920354898
 21
150.658965754517
 31
0.0
  0
LINE
  5
C4
330
1F
100
AcDbEntity
  8
1
  6
Continuous
 62
     4
100
AcDbLine
 10
155.405920354898
 20
157.158965754517
 30
0.0
 11
149.905920354898
 21
150.658965754517
 31
0.0
  0
LINE
  5
C5
330
1F
100
AcDbEntity
  8
1
  6
Continuous
 62
     4
100
AcDbLine
 10
155.905920354898
 20
158.158965754517
 30
0.0
 11
155.405920354898
 21
157.158965754517
 31
0.0
  0
LINE
  5
C6
330
1F
100
AcDbEntity
  8
1
  6
Continuous
 62
     4
100
AcDbLine
 10
155.905920354898
 20
159.158965754517
 30
0.0
 11
155.905920354898
 21
158.158965754517
 31
0.0
  0
LINE
  5
C7
330
1F
100
AcDbEntity
  8
1
  6
Continuous
 62
     4
100
AcDbLine
 10
155.405920354898
 20
159.908965754517
 30
0.0
 11
155.905920354898
 21
159.158965754517
 31
0.0
  0
LINE
  5
C8
330
1F
100
AcDbEntity
  8
1
  6
Continuous
 62
     4
100
AcDbLine
 10
154.655920354898
 20
160.408965754517
 30
0.0
 11
155.405920354898
 21
159.908965754517
 31
0.0
  0
LINE
  5
C9
330
1F
100
AcDbEntity
  8
1
  6
Continuous
 62
     4
100
AcDbLine
 10
153.655920354898
 20
160.658965754517
 30
0.0
 11
154.655920354898
 21
160.408965754517
 31
0.0
  0
LINE
  5
CA
330
1F
100
AcDbEntity
  8
1
  6
Continuous
 62
     4
100
AcDbLine
 10
152.155920354898
 20
160.658965754517
 30
0.0
 11
153.655920354898
 21
160.658965754517
 31
0.0
  0
LINE
  5
CB
330
1F
100
AcDbEntity
  8
1
  6
Continuous
 62
     4
100
AcDbLine
 10
151.155920354898
 20
160.408965754517
 30
0.0
 11
152.155920354898
 21
160.658965754517
 31
0.0
  0
LINE
  5
CC
330
1F
100
AcDbEntity
  8
1
  6
Continuous
 62
     4
100
AcDbLine
 10
150.405920354898
 20
159.908965754517
 30
0.0
 11
151.155920354898
 21
160.408965754517
 31
0.0
  0
LINE
  5
CD
330
1F
100
AcDbEntity
  8
1
  6
Continuous
 62
     4
100
AcDbLine
 10
149.905920354898
 20
159.158965754517
 30
0.0
 11
150.405920354898
 21
159.908965754517
 31
0.0
  0
LINE
  5
CE
330
1F
100
AcDbEntity
  8
1
  6
Continuous
 62
     4
100
AcDbLine
 10
141.905920354898
 20
154.158965754517
 30
0.0
 11
146.905920354898
 21
154.158965754517
 31
0.0
  0
LINE
  5
CF
330
1F
100
AcDbEntity
  8
1
  6
Continuous
 62
     4
100
AcDbLine
 10
137.655920354898
 20
151.408965754517
 30
0.0
 11
136.905920354898
 21
150.908965754517
 31
0.0
  0
LINE
  5
D0
330
1F
100
AcDbEntity
  8
1
  6
Continuous
 62
     4
100
AcDbLine
 10
138.155920354898
 20
151.908965754517
 30
0.0
 11
137.655920354898
 21
151.408965754517
 31
0.0
  0
LINE
  5
D1
330
1F
100
AcDbEntity
  8
1
  6
Continuous
 62
     4
100
AcDbLine
 10
138.655920354898
 20
152.658965754517
 30
0.0
 11
138.155920354898
 21
151.908965754517
 31
0.0
  0
LINE
  5
D2
330
1F
100
AcDbEntity
  8
1
  6
Continuous
 62
     4
100
AcDbLine
 10
138.905920354898
 20
153.658965754517
 30
0.0
 11
138.655920354898
 21
152.658965754517
 31
0.0
  0
LINE
  5
D3
330
1F
100
AcDbEntity
  8
1
  6
Continuous
 62
     4
100
AcDbLine
 10
138.905920354898
 20
157.658965754517
 30
0.0
 11
138.905920354898
 21
153.658965754517
 31
0.0
  0
LINE
  5
D4
330
1F
100
AcDbEntity
  8
1
  6
Continuous
 62
     4
100
AcDbLine
 10
138.655920354898
 20
158.658965754517
 30
0.0
 11
138.905920354898
 21
157.658965754517
 31
0.0
  0
LINE
  5
D5
330
1F
100
AcDbEntity
  8
1
  6
Continuous
 62
     4
100
AcDbLine
 10
138.155920354898
 20
159.408965754517
 30
0.0
 11
138.655920354898
 21
158.658965754517
 31
0.0
  0
LINE
  5
D6
330
1F
100
AcDbEntity
  8
1
  6
Continuous
 62
     4
100
AcDbLine
 10
137.655920354898
 20
159.908965754517
 30
0.0
 11
138.155920354898
 21
159.408965754517
 31
0.0
  0
LINE
  5
D7
330
1F
100
AcDbEntity
  8
1
  6
Continuous
 62
     4
100
AcDbLine
 10
136.905920354898
 20
160.408965754517
 30
0.0
 11
137.655920354898
 21
159.908965754517
 31
0.0
  0
LINE
  5
D8
330
1F
100
AcDbEntity
  8
1
  6
Continuous
 62
     4
100
AcDbLine
 10
136.155920354898
 20
160.658965754517
 30
0.0
 11
136.905920354898
 21
160.408965754517
 31
0.0
  0
LINE
  5
D9
330
1F
100
AcDbEntity
  8
1
  6
Continuous
 62
     4
100
AcDbLine
 10
134.655920354898
 20
160.658965754517
 30
0.0
 11
136.155920354898
 21
160.658965754517
 31
0.0
  0
LINE
  5
DA
330
1F
100
AcDbEntity
  8
1
  6
Continuous
 62
     4
100
AcDbLine
 10
133.905920354898
 20
160.408965754517
 30
0.0
 11
134.655920354898
 21
160.658965754517
 31
0.0
  0
LINE
  5
DB
330
1F
100
AcDbEntity
  8
1
  6
Continuous
 62
     4
100
AcDbLine
 10
133.155920354898
 20
159.908965754517
 30
0.0
 11
133.905920354898
 21
160.408965754517
 31
0.0
  0
LINE
  5
DC
330
1F
100
AcDbEntity
  8
1
  6
Continuous
 62
     4
100
AcDbLine
 10
132.655920354898
 20
159.408965754517
 30
0.0
 11
133.155920354898
 21
159.908965754517
 31
0.0
  0
LINE
  5
DD
330
1F
100
AcDbEntity
  8
1
  6
Continuous
 62
     4
100
AcDbLine
 10
132.155920354898
 20
158.658965754517
 30
0.0
 11
132.655920354898
 21
159.408965754517
 31
0.0
  0
LINE
  5
DE
330
1F
100
AcDbEntity
  8
1
  6
Continuous
 62
     4
100
AcDbLine
 10
131.905920354898
 20
157.658965754517
 30
0.0
 11
132.155920354898
 21
158.658965754517
 31
0.0
  0
LINE
  5
DF
330
1F
100
AcDbEntity
  8
1
  6
Continuous
 62
     4
100
AcDbLine
 10
131.905920354898
 20
153.658965754517
 30
0.0
 11
131.905920354898
 21
157.658965754517
 31
0.0
  0
LINE
  5
E0
330
1F
100
AcDbEntity
  8
1
  6
Continuous
 62
     4
100
AcDbLine
 10
132.155920354898
 20
152.658965754517
 30
0.0
 11
131.905920354898
 21
153.658965754517
 31
0.0
  0
LINE
  5
E1
330
1F
100
AcDbEntity
  8
1
  6
Continuous
 62
     4
100
AcDbLine
 10
132.655920354898
 20
151.908965754517
 30
0.0
 11
132.155920354898
 21
152.658965754517
 31
0.0
  0
LINE
  5
E2
330
1F
100
AcDbEntity
  8
1
  6
Continuous
 62
     4
100
AcDbLine
 10
133.155920354898
 20
151.408965754517
 30
0.0
 11
132.655920354898
 21
151.908965754517
 31
0.0
  0
LINE
  5
E3
330
1F
100
AcDbEntity
  8
1
  6
Continuous
 62
     4
100
AcDbLine
 10
133.905920354898
 20
150.908965754517
 30
0.0
 11
133.155920354898
 21
151.408965754517
 31
0.0
  0
LINE
  5
E4
330
1F
100
AcDbEntity
  8
1
  6
Continuous
 62
     4
100
AcDbLine
 10
134.655920354898
 20
150.658965754517
 30
0.0
 11
133.905920354898
 21
150.908965754517
 31
0.0
  0
LINE
  5
E5
330
1F
100
AcDbEntity
  8
1
  6
Continuous
 62
     4
100
AcDbLine
 10
136.155920354898
 20
150.658965754517
 30
0.0
 11
134.655920354898
 21
150.658965754517
 31
0.0
  0
LINE
  5
E6
330
1F
100
AcDbEntity
  8
1
  6
Continuous
 62
     4
100
AcDbLine
 10
136.905920354898
 20
150.908965754517
 30
0.0
 11
136.155920354898
 21
150.658965754517
 31
0.0
  0
LINE
  5
E7
330
1F
100
AcDbEntity
  8
1
  6
Continuous
 62
     4
100
AcDbLine
 10
136.905920354898
 20
152.658965754517
 30
0.0
 11
138.905920354898
 21
150.658965754517
 31
0.0
  0
LINE
  5
E8
330
1F
100
AcDbEntity
  8
1
  6
Continuous
 62
     4
100
AcDbLine
 10
123.905920354898
 20
154.158965754517
 30
0.0
 11
128.905920354898
 21
154.158965754517
 31
0.0
  0
LINE
  5
E9
330
1F
100
AcDbEntity
  8
1
  6
Continuous
 62
     4
100
AcDbLine
 10
113.905920354898
 20
153.658965754517
 30
0.0
 11
113.905920354898
 21
160.658965754517
 31
0.0
  0
LINE
  5
EA
330
1F
100
AcDbEntity
  8
1
  6
Continuous
 62
     4
100
AcDbLine
 10
113.905920354898
 20
150.658965754517
 30
0.0
 11
113.905920354898
 21
153.658965754517
 31
0.0
  0
LINE
  5
EB
330
1F
100
AcDbEntity
  8
1
  6
Continuous
 62
     4
100
AcDbLine
 10
115.905920354898
 20
155.658965754517
 30
0.0
 11
120.905920354898
 21
150.658965754517
 31
0.0
  0
LINE
  5
EC
330
1F
100
AcDbEntity
  8
1
  6
Continuous
 62
     4
100
AcDbLine
 10
120.905920354898
 20
160.658965754517
 30
0.0
 11
115.905920354898
 21
155.658965754517
 31
0.0
  0
LINE
  5
ED
330
1F
100
AcDbEntity
  8
1
  6
Continuous
 62
     4
100
AcDbLine
 10
115.905920354898
 20
155.658965754517
 30
0.0
 11
113.905920354898
 21
153.658965754517
 31
0.0
  0
LINE
  5
EE
330
1F
100
AcDbEntity
  8
1
  6
Continuous
 62
     4
100
AcDbLine
 10
107.405920354898
 20
160.658965754517
 30
0.0
 11
107.405920354898
 21
150.658965754517
 31
0.0
  0
LINE
  5
EF
330
1F
100
AcDbEntity
  8
1
  6
Continuous
 62
     4
100
AcDbLine
 10
103.905920354898
 20
160.658965754517
 30
0.0
 11
107.405920354898
 21
160.658965754517
 31
0.0
  0
LINE
  5
F0
330
1F
100
AcDbEntity
  8
1
  6
Continuous
 62
     4
100
AcDbLine
 10
107.405920354898
 20
160.658965754517
 30
0.0
 11
110.905920354898
 21
160.658965754517
 31
0.0
  0
LINE
  5
11B
330
1F
100
AcDbEntity
  8
100
  6
Continuous
 62
     3
100
AcDbLine
 10
-24.0675193506625
 20
175.5
 30
0.0
 11
-26.05
 21
175.5
 31
0.0
  0
LINE
  5
11C
330
1F
100
AcDbEntity
  8
100
  6
Continuous
 62
     3
100
AcDbLine
 10
-27.0
 20
176.45
 30
0.0
 11
-40.0
 21
176.45
 31
0.0
  0
LINE
  5
11D
330
1F
100
AcDbEntity
  8
100
  6
Continuous
 62
     3
100
AcDbLine
 10
-27.0
 20
152.797487703124
 30
0.0
 11
-27.0
 21
143.55
 31
0.0
  0
LINE
  5
11E
330
1F
100
AcDbEntity
  8
100
  6
Continuous
 62
     3
100
AcDbLine
 10
-27.0
 20
176.45
 30
0.0
 11
-27.0
 21
167.202512296876
 31
0.0
  0
LINE
  5
11F
330
1F
100
AcDbEntity
  8
100
  6
Continuous
 62
     3
100
AcDbLine
 10
-24.0675193506625
 20
144.5
 30
0.0
 11
-26.05
 21
144.5
 31
0.0
  0
LINE
  5
120
330
1F
100
AcDbEntity
  8
100
  6
Continuous
 62
     3
100
AcDbLine
 10
-40.0
 20
176.45
 30
0.0
 11
-40.0
 21
143.55
 31
0.0
  0
LINE
  5
121
330
1F
100
AcDbEntity
  8
100
  6
Continuous
 62
     3
100
AcDbLine
 10
-27.0
 20
143.55
 30
0.0
 11
-40.0
 21
143.55
 31
0.0
  0
LINE
  5
122
330
1F
100
AcDbEntity
  8
100
  6
Continuous
 62
     3
100
AcDbLine
 10
27.0
 20
143.55
 30
0.0
 11
40.0
 21
143.55
 31
0.0
  0
LINE
  5
123
330
1F
100
AcDbEntity
  8
100
  6
Continuous
 62
     3
100
AcDbLine
 10
24.0675193506614
 20
144.5
 30
0.0
 11
26.05
 21
144.5
 31
0.0
  0
LINE
  5
124
330
1F
100
AcDbEntity
  8
100
  6
Continuous
 62
     3
100
AcDbLine
 10
24.0675193506614
 20
175.5
 30
0.0
 11
26.05
 21
175.5
 31
0.0
  0
LINE
  5
125
330
1F
100
AcDbEntity
  8
100
  6
Continuous
 62
     3
100
AcDbLine
 10
27.0
 20
152.819311785378
 30
0.0
 11
27.0
 21
143.55
 31
0.0
  0
LINE
  5
126
330
1F
100
AcDbEntity
  8
100
  6
Continuous
 62
     3
100
AcDbLine
 10
27.0
 20
176.45
 30
0.0
 11
27.0
 21
167.180688214622
 31
0.0
  0
LINE
  5
127
330
1F
100
AcDbEntity
  8
100
  6
Continuous
 62
     3
100
AcDbLine
 10
40.0
 20
176.45
 30
0.0
 11
40.0
 21
143.55
 31
0.0
  0
LINE
  5
128
330
1F
100
AcDbEntity
  8
100
  6
Continuous
 62
     3
100
AcDbLine
 10
27.0
 20
176.45
 30
0.0
 11
40.0
 21
176.45
 31
0.0
  0
LINE
  5
129
330
1F
100
AcDbEntity
  8
100
  6
Continuous
 62
     3
100
AcDbLine
 10
-17.0
 20
24.3460079165429
 30
0.0
 11
-17.0
 21
18.5
 31
0.0
  0
LINE
  5
12A
330
1F
100
AcDbEntity
  8
100
  6
Continuous
 62
     3
100
AcDbLine
 10
27.0
 20
16.45
 30
0.0
 11
27.0
 21
-16.45
 31
0.0
  0
LINE
  5
12B
330
1F
100
AcDbEntity
  8
100
  6
Continuous
 62
     3
100
AcDbLine
 10
-19.3067345763078
 20
-15.5
 30
0.0
 11
-26.05
 21
-15.5
 31
0.0
  0
LINE
  5
12C
330
1F
100
AcDbEntity
  8
100
  6
Continuous
 62
     3
100
AcDbLine
 10
-20.0
 20
15.5
 30
0.0
 11
-26.05
 21
15.5
 31
0.0
  0
LINE
  5
12D
330
1F
100
AcDbEntity
  8
100
  6
Continuous
 62
     3
100
AcDbLine
 10
-27.0
 20
16.45
 30
0.0
 11
-27.0
 21
-16.45
 31
0.0
  0
LINE
  5
12E
330
1F
100
AcDbEntity
  8
100
  6
Continuous
 62
     3
100
AcDbLine
 10
-27.0
 20
-16.45
 30
0.0
 11
-40.0
 21
-16.45
 31
0.0
  0
LINE
  5
12F
330
1F
100
AcDbEntity
  8
100
  6
Continuous
 62
     3
100
AcDbLine
 10
-27.0
 20
16.45
 30
0.0
 11
-40.0
 21
16.45
 31
0.0
  0
LINE
  5
130
330
1F
100
AcDbEntity
  8
100
  6
Continuous
 62
     3
100
AcDbLine
 10
27.0
 20
-16.45
 30
0.0
 11
40.0
 21
-16.45
 31
0.0
  0
LINE
  5
131
330
1F
100
AcDbEntity
  8
100
  6
Continuous
 62
     3
100
AcDbLine
 10
19.3067345763078
 20
-15.5
 30
0.0
 11
26.05
 21
-15.5
 31
0.0
  0
LINE
  5
132
330
1F
100
AcDbEntity
  8
100
  6
Continuous
 62
     3
100
AcDbLine
 10
40.0
 20
16.45
 30
0.0
 11
40.0
 21
-16.45
 31
0.0
  0
LINE
  5
133
330
1F
100
AcDbEntity
  8
100
  6
Continuous
 62
     3
100
AcDbLine
 10
27.0
 20
16.45
 30
0.0
 11
40.0
 21
16.45
 31
0.0
  0
LINE
  5
134
330
1F
100
AcDbEntity
  8
100
  6
Continuous
 62
     3
100
AcDbLine
 10
20.0
 20
15.5
 30
0.0
 11
26.05
 21
15.5
 31
0.0
  0
LINE
  5
135
330
1F
100
AcDbEntity
  8
100
  6
Continuous
 62
     3
100
AcDbLine
 10
17.0
 20
24.3460079165429
 30
0.0
 11
17.0
 21
18.5
 31
0.0
  0
LINE
  5
136
330
1F
100
AcDbEntity
  8
100
  6
Continuous
 62
     3
100
AcDbLine
 10
-40.0
 20
16.45
 30
0.0
 11
-40.0
 21
-16.45
 31
0.0
  0
LINE
  5
137
330
1F
100
AcDbEntity
  8
100
  6
Continuous
 62
     3
100
AcDbLine
 10
123.0
 20
24.3460079165429
 30
0.0
 11
123.0
 21
18.8679622641132
 31
0.0
  0
LINE
  5
138
330
1F
100
AcDbEntity
  8
100
  6
Continuous
 62
     3
100
AcDbLine
 10
157.0
 20
18.8679622641132
 30
0.0
 11
157.0
 21
24.3460079165429
 31
0.0
  0
LINE
  5
139
330
1F
100
AcDbEntity
  8
100
  6
Continuous
 62
     3
100
AcDbLine
 10
6.82366970499879
 20
-5.0
 30
0.0
 11
15.0
 21
0.0
 31
0.0
  0
LINE
  5
13A
330
1F
100
AcDbEntity
  8
100
  6
Continuous
 62
     3
100
AcDbLine
 10
2.8967323923014
 20
0.0
 30
0.0
 11
-0.70531123712661
 21
-5.0
 31
0.0
  0
LINE
  5
13B
330
1F
100
AcDbEntity
  8
100
  6
Continuous
 62
     3
100
AcDbLine
 10
-15.0000033142927
 20
-5.0
 30
0.0
 11
-0.70531123712661
 21
-5.0
 31
0.0
  0
LINE
  5
13C
330
1F
100
AcDbEntity
  8
100
  6
Continuous
 62
     3
100
AcDbLine
 10
-11.3979596848647
 20
0.0
 30
0.0
 11
-15.0000033142927
 21
-5.0
 31
0.0
  0
LINE
  5
13D
330
1F
100
AcDbEntity
  8
100
  6
Continuous
 62
     3
100
AcDbLine
 10
15.0
 20
0.0
 30
0.0
 11
-11.3979596848647
 21
0.0
 31
0.0
  0
LINE
  5
13E
330
1F
100
AcDbEntity
  8
100
  6
Continuous
 62
     3
100
AcDbLine
 10
162.300380133876
 20
24.3460079165429
 30
0.0
 11
117.699619866124
 21
24.3460079165429
 31
0.0
  0
LINE
  5
13F
330
1F
100
AcDbEntity
  8
100
  6
Continuous
 62
     3
100
AcDbLine
 10
117.941438047942
 20
37.6460079165429
 30
0.0
 11
117.699619866124
 21
24.3460079165429
 31
0.0
  0
LINE
  5
140
330
1F
100
AcDbEntity
  8
100
  6
Continuous
 62
     3
100
AcDbLine
 10
121.65678136227
 20
53.6460079165429
 30
0.0
 11
121.25678136227
 21
37.6460079165429
 31
0.0
  0
LINE
  5
141
330
1F
100
AcDbEntity
  8
100
  6
Continuous
 62
     3
100
AcDbLine
 10
135.25
 20
54.6460079165429
 30
0.0
 11
135.25
 21
67.0
 31
0.0
  0
LINE
  5
142
330
1F
100
AcDbEntity
  8
100
  6
Continuous
 62
     3
100
AcDbLine
 10
115.681179135453
 20
75.976991029251
 30
0.0
 11
115.681179135453
 21
69.5
 31
0.0
  0
LINE
  5
143
330
1F
100
AcDbEntity
  8
100
  6
Continuous
 62
     3
100
AcDbLine
 10
124.201425641596
 20
75.976991029251
 30
0.0
 11
124.201425641596
 21
69.5
 31
0.0
  0
LINE
  5
144
330
1F
100
AcDbEntity
  8
100
  6
Continuous
 62
     3
100
AcDbLine
 10
133.975275918125
 20
75.976991029251
 30
0.0
 11
133.975275918125
 21
69.5
 31
0.0
  0
LINE
  5
145
330
1F
100
AcDbEntity
  8
100
  6
Continuous
 62
     3
100
AcDbLine
 10
127.5
 20
85.0
 30
0.0
 11
136.5
 21
85.0
 31
0.0
  0
LINE
  5
146
330
1F
100
AcDbEntity
  8
100
  6
Continuous
 62
     3
100
AcDbLine
 10
135.0
 20
85.0
 30
0.0
 11
135.0
 21
77.0
 31
0.0
  0
LINE
  5
147
330
1F
100
AcDbEntity
  8
100
  6
Continuous
 62
     3
100
AcDbLine
 10
136.5
 20
85.0
 30
0.0
 11
136.5
 21
77.0
 31
0.0
  0
LINE
  5
148
330
1F
100
AcDbEntity
  8
100
  6
Continuous
 62
     3
100
AcDbLine
 10
111.0
 20
75.976991029251
 30
0.0
 11
111.0
 21
67.0
 31
0.0
  0
LINE
  5
149
330
1F
100
AcDbEntity
  8
100
  6
Continuous
 62
     3
100
AcDbLine
 10
144.75
 20
67.0
 30
0.0
 11
144.75
 21
54.6460079165429
 31
0.0
  0
LINE
  5
14A
330
1F
100
AcDbEntity
  8
100
  6
Continuous
 62
     3
100
AcDbLine
 10
133.45
 20
54.6460079165429
 30
0.0
 11
146.55
 21
54.6460079165429
 31
0.0
  0
LINE
  5
14B
330
1F
100
AcDbEntity
  8
100
  6
Continuous
 62
     3
100
AcDbLine
 10
145.0
 20
77.0
 30
0.0
 11
135.0
 21
77.0
 31
0.0
  0
LINE
  5
14C
330
1F
100
AcDbEntity
  8
100
  6
Continuous
 62
     3
100
AcDbLine
 10
155.798574358404
 20
75.976991029251
 30
0.0
 11
155.798574358404
 21
69.5
 31
0.0
  0
LINE
  5
14D
330
1F
100
AcDbEntity
  8
100
  6
Continuous
 62
     3
100
AcDbLine
 10
146.024724081875
 20
75.976991029251
 30
0.0
 11
146.024724081875
 21
69.5
 31
0.0
  0
LINE
  5
14E
330
1F
100
AcDbEntity
  8
100
  6
Continuous
 62
     3
100
AcDbLine
 10
164.318820864547
 20
75.976991029251
 30
0.0
 11
164.318820864547
 21
69.5
 31
0.0
  0
LINE
  5
14F
330
1F
100
AcDbEntity
  8
100
  6
Continuous
 62
     3
100
AcDbLine
 10
152.5
 20
85.0
 30
0.0
 11
143.5
 21
85.0
 31
0.0
  0
LINE
  5
150
330
1F
100
AcDbEntity
  8
100
  6
Continuous
 62
     3
100
AcDbLine
 10
143.5
 20
85.0
 30
0.0
 11
143.5
 21
77.0
 31
0.0
  0
LINE
  5
151
330
1F
100
AcDbEntity
  8
100
  6
Continuous
 62
     3
100
AcDbLine
 10
145.0
 20
85.0
 30
0.0
 11
145.0
 21
77.0
 31
0.0
  0
LINE
  5
152
330
1F
100
AcDbEntity
  8
100
  6
Continuous
 62
     3
100
AcDbLine
 10
111.0
 20
67.0
 30
0.0
 11
169.0
 21
67.0
 31
0.0
  0
LINE
  5
153
330
1F
100
AcDbEntity
  8
100
  6
Continuous
 62
     3
100
AcDbLine
 10
169.0
 20
67.0
 30
0.0
 11
169.0
 21
75.976991029251
 31
0.0
  0
LINE
  5
154
330
1F
100
AcDbEntity
  8
100
  6
Continuous
 62
     3
100
AcDbLine
 10
121.65678136227
 20
53.6460079165429
 30
0.0
 11
158.34321863773
 21
53.6460079165429
 31
0.0
  0
LINE
  5
155
330
1F
100
AcDbEntity
  8
100
  6
Continuous
 62
     3
100
AcDbLine
 10
158.34321863773
 20
53.6460079165429
 30
0.0
 11
158.74321863773
 21
37.6460079165429
 31
0.0
  0
LINE
  5
156
330
1F
100
AcDbEntity
  8
100
  6
Continuous
 62
     3
100
AcDbLine
 10
117.941438047942
 20
37.6460079165429
 30
0.0
 11
162.058561952058
 21
37.6460079165429
 31
0.0
  0
LINE
  5
157
330
1F
100
AcDbEntity
  8
100
  6
Continuous
 62
     3
100
AcDbLine
 10
162.058561952058
 20
37.6460079165429
 30
0.0
 11
162.300380133876
 21
24.3460079165429
 31
0.0
  0
LINE
  5
158
330
1F
100
AcDbEntity
  8
1
  6
CENTER
 62
     1
100
AcDbLine
 10
113.579322436858
 20
0.0
 30
0.0
 11
168.315614284478
 21
0.0
 31
0.0
  0
LINE
  5
159
330
1F
100
AcDbEntity
  8
1
  6
CENTER
 62
     1
100
AcDbLine
 10
140.0
 20
-24.6703432602386
 30
0.0
 11
140.0
 21
96.1252325581395
 31
0.0
  0
LINE
  5
15A
330
1F
100
AcDbEntity
  8
100
  6
Continuous
 62
     3
100
AcDbLine
 10
-18.3432186377304
 20
53.6460079165429
 30
0.0
 11
-18.7432186377303
 21
37.6460079165429
 31
0.0
  0
LINE
  5
15B
330
1F
100
AcDbEntity
  8
100
  6
Continuous
 62
     3
100
AcDbLine
 10
-22.0585619520577
 20
37.6460079165429
 30
0.0
 11
-22.3003801338758
 21
24.3460079165429
 31
0.0
  0
LINE
  5
15C
330
1F
100
AcDbEntity
  8
100
  6
Continuous
 62
     3
100
AcDbLine
 10
22.3003801338758
 20
24.3460079165429
 30
0.0
 11
-22.3003801338758
 21
24.3460079165429
 31
0.0
  0
LINE
  5
15D
330
1F
100
AcDbEntity
  8
100
  6
Continuous
 62
     3
100
AcDbLine
 10
22.0585619520577
 20
37.6460079165429
 30
0.0
 11
22.3003801338758
 21
24.3460079165429
 31
0.0
  0
LINE
  5
15E
330
1F
100
AcDbEntity
  8
100
  6
Continuous
 62
     3
100
AcDbLine
 10
-22.0585619520577
 20
37.6460079165429
 30
0.0
 11
22.0585619520577
 21
37.6460079165429
 31
0.0
  0
LINE
  5
15F
330
1F
100
AcDbEntity
  8
100
  6
Continuous
 62
     3
100
AcDbLine
 10
18.3432186377304
 20
53.6460079165429
 30
0.0
 11
18.7432186377303
 21
37.6460079165429
 31
0.0
  0
LINE
  5
160
330
1F
100
AcDbEntity
  8
100
  6
Continuous
 62
     3
100
AcDbLine
 10
-18.3432186377304
 20
53.6460079165429
 30
0.0
 11
18.3432186377304
 21
53.6460079165429
 31
0.0
  0
LINE
  5
161
330
1F
100
AcDbEntity
  8
100
  6
Continuous
 62
     3
100
AcDbLine
 10
-6.55000000000001
 20
54.6460079165429
 30
0.0
 11
6.55000000000001
 21
54.6460079165429
 31
0.0
  0
LINE
  5
162
330
1F
100
AcDbEntity
  8
3
  6
DOTTED
 62
     6
100
AcDbLine
 10
12.5
 20
79.0
 30
0.0
 11
0.0
 21
79.0
 31
0.0
  0
LINE
  5
163
330
1F
100
AcDbEntity
  8
3
  6
DOTTED
 62
     6
100
AcDbLine
 10
-29.0
 20
69.976991029251
 30
0.0
 11
-29.0
 21
61.0
 31
0.0
  0
LINE
  5
164
330
1F
100
AcDbEntity
  8
3
  6
DOTTED
 62
     6
100
AcDbLine
 10
-29.0
 20
61.0
 30
0.0
 11
29.0
 21
61.0
 31
0.0
  0
LINE
  5
165
330
1F
100
AcDbEntity
  8
3
  6
DOTTED
 62
     6
100
AcDbLine
 10
29.0
 20
61.0
 30
0.0
 11
29.0
 21
69.976991029251
 31
0.0
  0
LINE
  5
166
330
1F
100
AcDbEntity
  8
3
  6
DOTTED
 62
     6
100
AcDbLine
 10
-12.5
 20
79.0
 30
0.0
 11
0.0
 21
79.0
 31
0.0
  0
LINE
  5
167
330
1F
100
AcDbEntity
  8
100
  6
Continuous
 62
     3
100
AcDbLine
 10
4.99999999999997
 20
77.0
 30
0.0
 11
-5.0
 21
77.0
 31
0.0
  0
LINE
  5
168
330
1F
100
AcDbEntity
  8
100
  6
Continuous
 62
     3
100
AcDbLine
 10
-24.3188208645475
 20
75.976991029251
 30
0.0
 11
-24.3188208645475
 21
69.5
 31
0.0
  0
LINE
  5
169
330
1F
100
AcDbEntity
  8
100
  6
Continuous
 62
     3
100
AcDbLine
 10
-15.7985743584039
 20
75.976991029251
 30
0.0
 11
-15.7985743584039
 21
69.5
 31
0.0
  0
LINE
  5
16A
330
1F
100
AcDbEntity
  8
100
  6
Continuous
 62
     3
100
AcDbLine
 10
-6.02472408187498
 20
75.976991029251
 30
0.0
 11
-6.02472408187498
 21
69.5
 31
0.0
  0
LINE
  5
16B
330
1F
100
AcDbEntity
  8
100
  6
Continuous
 62
     3
100
AcDbLine
 10
15.7985743584039
 20
75.976991029251
 30
0.0
 11
15.7985743584039
 21
69.5
 31
0.0
  0
LINE
  5
16C
330
1F
100
AcDbEntity
  8
100
  6
Continuous
 62
     3
100
AcDbLine
 10
6.02472408187498
 20
75.976991029251
 30
0.0
 11
6.02472408187498
 21
69.5
 31
0.0
  0
LINE
  5
16D
330
1F
100
AcDbEntity
  8
100
  6
Continuous
 62
     3
100
AcDbLine
 10
24.3188208645475
 20
75.976991029251
 30
0.0
 11
24.3188208645475
 21
69.5
 31
0.0
  0
LINE
  5
16E
330
1F
100
AcDbEntity
  8
100
  6
Continuous
 62
     3
100
AcDbLine
 10
12.5
 20
85.0
 30
0.0
 11
3.49999999999974
 21
85.0
 31
0.0
  0
LINE
  5
16F
330
1F
100
AcDbEntity
  8
100
  6
Continuous
 62
     3
100
AcDbLine
 10
-12.5
 20
85.0
 30
0.0
 11
-3.4999999999998
 21
85.0
 31
0.0
  0
LINE
  5
170
330
1F
100
AcDbEntity
  8
100
  6
Continuous
 62
     3
100
AcDbLine
 10
-5.0
 20
85.0
 30
0.0
 11
-5.0
 21
77.0
 31
0.0
  0
LINE
  5
171
330
1F
100
AcDbEntity
  8
100
  6
Continuous
 62
     3
100
AcDbLine
 10
-3.4999999999998
 20
85.0
 30
0.0
 11
-3.4999999999998
 21
77.0
 31
0.0
  0
LINE
  5
172
330
1F
100
AcDbEntity
  8
100
  6
Continuous
 62
     3
100
AcDbLine
 10
3.49999999999974
 20
85.0
 30
0.0
 11
3.49999999999974
 21
77.0
 31
0.0
  0
LINE
  5
173
330
1F
100
AcDbEntity
  8
100
  6
Continuous
 62
     3
100
AcDbLine
 10
4.99999999999997
 20
85.0
 30
0.0
 11
4.99999999999997
 21
77.0
 31
0.0
  0
LINE
  5
174
330
1F
100
AcDbEntity
  8
100
  6
Continuous
 62
     3
100
AcDbLine
 10
-29.0
 20
67.0
 30
0.0
 11
29.0
 21
67.0
 31
0.0
  0
LINE
  5
175
330
1F
100
AcDbEntity
  8
100
  6
Continuous
 62
     3
100
AcDbLine
 10
29.0
 20
67.0
 30
0.0
 11
29.0
 21
75.976991029251
 31
0.0
  0
LINE
  5
176
330
1F
100
AcDbEntity
  8
100
  6
DOTTED
 62
     3
100
AcDbLine
 10
-29.0
 20
75.976991029251
 30
0.0
 11
-29.0
 21
67.0
 31
0.0
  0
LINE
  5
177
330
1F
100
AcDbEntity
  8
100
  6
Continuous
 62
     3
100
AcDbLine
 10
-3.4999999999998
 20
150.632503002402
 30
0.0
 11
-5.0
 21
131.510792960692
 31
0.0
  0
LINE
  5
178
330
1F
100
AcDbEntity
  8
100
  6
Continuous
 62
     3
100
AcDbLine
 10
-28.4892070393086
 20
155.0
 30
0.0
 11
-9.36749699759761
 21
156.5
 31
0.0
  0
LINE
  5
179
330
1F
100
AcDbEntity
  8
100
  6
Continuous
 62
     3
100
AcDbLine
 10
-9.36749699759758
 20
163.5
 30
0.0
 11
-28.4892070393086
 21
165.0
 31
0.0
  0
LINE
  5
17A
330
1F
100
AcDbEntity
  8
100
  6
Continuous
 62
     3
100
AcDbLine
 10
-5.0
 20
188.489207039308
 30
0.0
 11
-3.4999999999998
 21
169.367496997598
 31
0.0
  0
LINE
  5
17B
330
1F
100
AcDbEntity
  8
100
  6
Continuous
 62
     3
100
AcDbLine
 10
3.49999999999974
 20
169.367496997598
 30
0.0
 11
4.99999999999997
 21
188.489207039308
 31
0.0
  0
LINE
  5
17C
330
1F
100
AcDbEntity
  8
100
  6
Continuous
 62
     3
100
AcDbLine
 10
28.4892070393086
 20
165.0
 30
0.0
 11
9.36749699759758
 21
163.5
 31
0.0
  0
LINE
  5
17D
330
1F
100
AcDbEntity
  8
100
  6
Continuous
 62
     3
100
AcDbLine
 10
9.36749699759761
 20
156.5
 30
0.0
 11
28.4892070393085
 21
155.0
 31
0.0
  0
LINE
  5
17E
330
1F
100
AcDbEntity
  8
100
  6
Continuous
 62
     3
100
AcDbLine
 10
4.99999999999997
 20
131.510792960692
 30
0.0
 11
3.49999999999974
 21
150.632503002402
 31
0.0
  0
LINE
  5
17F
330
1F
100
AcDbEntity
  8
1
  6
CENTER
 62
     1
100
AcDbLine
 10
0.0
 20
194.612720930233
 30
0.0
 11
0.0
 21
124.18988372093
 31
0.0
  0
LINE
  5
180
330
1F
100
AcDbEntity
  8
1
  6
CENTER
 62
     1
100
AcDbLine
 10
-49.3106063144943
 20
160.0
 30
0.0
 11
48.1595615780152
 21
160.0
 31
0.0
  0
LINE
  5
181
330
1F
100
AcDbEntity
  8
1
  6
CENTER
 62
     1
100
AcDbLine
 10
0.0
 20
-24.6703432602386
 30
0.0
 11
0.0
 21
96.1252325581395
 31
0.0
  0
LINE
  5
182
330
1F
100
AcDbEntity
  8
1
  6
CENTER
 62
     1
100
AcDbLine
 10
17.5842217639384
 20
0.0
 30
0.0
 11
48.1595615780152
 21
0.0
 31
0.0
  0
LINE
  5
183
330
1F
100
AcDbEntity
  8
1
  6
CENTER
 62
     1
100
AcDbLine
 10
-49.3106063144943
 20
0.0
 30
0.0
 11
-14.5794956189253
 21
0.0
 31
0.0
  0
LINE
  5
184
330
1F
100
AcDbEntity
  8
100
  6
Continuous
 62
     3
100
AcDbLine
 10
4.75
 20
67.0
 30
0.0
 11
4.75
 21
54.6460079165429
 31
0.0
  0
LINE
  5
185
330
1F
100
AcDbEntity
  8
100
  6
Continuous
 62
     3
100
AcDbLine
 10
-4.75
 20
54.6460079165429
 30
0.0
 11
-4.75
 21
67.0
 31
0.0
  0
LINE
  5
186
330
1F
100
AcDbEntity
  8
1
  6
Continuous
 62
     4
100
AcDbLine
 10
-34.0
 20
-16.4500007629395
 30
0.0
 11
-37.5628084757797
 21
-23.9267239106346
 31
0.0
  0
LINE
  5
187
330
1F
100
AcDbEntity
  8
1
  6
Continuous
 62
     4
100
AcDbLine
 10
-34.0
 20
-16.4500007629395
 30
0.0
 11
-40.8238442226913
 21
-21.1436287080167
 31
0.0
  0
LINE
  5
188
330
1F
100
AcDbEntity
  8
1
  6
Continuous
 62
     4
100
AcDbLine
 10
34.0
 20
-16.4500007629395
 30
0.0
 11
39.9599340809368
 21
-22.2010162396406
 31
0.0
  0
LINE
  5
189
330
1F
100
AcDbEntity
  8
1
  6
Continuous
 62
     4
100
AcDbLine
 10
34.0
 20
-16.4500007629395
 30
0.0
 11
36.2859465806214
 21
-24.4104933037885
 31
0.0
  0
ARC
  5
18A
330
1F
100
AcDbEntity
  8
100
  6
Continuous
 62
     3
100
AcDbCircle
 10
-26.05
 20
176.45
 30
0.0
 40
0.9499999999999993
100
AcDbArc
 50
180.0
 51
270.0
  0
ARC
  5
18B
330
1F
100
AcDbEntity
  8
100
  6
Continuous
 62
     3
100
AcDbCircle
 10
-26.05
 20
143.55
 30
0.0
 40
0.9499999999999886
100
AcDbArc
 50
90.0
 51
180.0
  0
ARC
  5
18C
330
1F
100
AcDbEntity
  8
100
  6
Continuous
 62
     3
100
AcDbCircle
 10
26.05
 20
143.55
 30
0.0
 40
0.9499999999999993
100
AcDbArc
 50
0.0
 51
90.0
  0
ARC
  5
18D
330
1F
100
AcDbEntity
  8
100
  6
Continuous
 62
     3
100
AcDbCircle
 10
26.05
 20
176.45
 30
0.0
 40
0.9499999999999886
100
AcDbArc
 50
270.0
 51
0.0
  0
ARC
  5
18E
330
1F
100
AcDbEntity
  8
100
  6
Continuous
 62
     3
100
AcDbCircle
 10
26.05
 20
-16.45
 30
0.0
 40
0.9499999999999993
100
AcDbArc
 50
0.0
 51
90.0
  0
ARC
  5
18F
330
1F
100
AcDbEntity
  8
100
  6
Continuous
 62
     3
100
AcDbCircle
 10
19.3067345763078
 20
-23.5
 30
0.0
 40
8.0
100
AcDbArc
 50
90.0
 51
110.5504215508671
  0
ARC
  5
190
330
1F
100
AcDbEntity
  8
100
  6
Continuous
 62
     3
100
AcDbCircle
 10
0.0
 20
28.0
 30
0.0
 40
46.99999999999999
100
AcDbArc
 50
249.4495784491328
 51
290.5504215508672
  0
ARC
  5
191
330
1F
100
AcDbEntity
  8
100
  6
Continuous
 62
     3
100
AcDbCircle
 10
-20.0
 20
18.5
 30
0.0
 40
3.0
100
AcDbArc
 50
270.0
 51
0.0
  0
ARC
  5
192
330
1F
100
AcDbEntity
  8
100
  6
Continuous
 62
     3
100
AcDbCircle
 10
-19.3067345763078
 20
-23.5
 30
0.0
 40
8.000000000000004
100
AcDbArc
 50
69.44957844913287
 51
90.0
  0
ARC
  5
193
330
1F
100
AcDbEntity
  8
100
  6
Continuous
 62
     3
100
AcDbCircle
 10
-26.05
 20
-16.45
 30
0.0
 40
0.9499999999999993
100
AcDbArc
 50
90.0
 51
180.0
  0
ARC
  5
194
330
1F
100
AcDbEntity
  8
100
  6
Continuous
 62
     3
100
AcDbCircle
 10
-26.05
 20
16.45
 30
0.0
 40
0.9499999999999993
100
AcDbArc
 50
180.0
 51
270.0
  0
ARC
  5
195
330
1F
100
AcDbEntity
  8
100
  6
Continuous
 62
     3
100
AcDbCircle
 10
26.05
 20
16.45
 30
0.0
 40
0.9499999999999993
100
AcDbArc
 50
270.0
 51
0.0
  0
ARC
  5
196
330
1F
100
AcDbEntity
  8
100
  6
Continuous
 62
     3
100
AcDbCircle
 10
20.0
 20
18.5
 30
0.0
 40
3.0
100
AcDbArc
 50
180.0
 51
270.0
  0
ARC
  5
197
330
1F
100
AcDbEntity
  8
100
  6
Continuous
 62
     3
100
AcDbCircle
 10
78.0
 20
18.8679622641132
 30
0.0
 40
45.00000000000003
100
AcDbArc
 50
347.8985079681763
 51
0.0
  0
ARC
  5
198
330
1F
100
AcDbEntity
  8
100
  6
Continuous
 62
     3
100
AcDbCircle
 10
166.0
 20
0.0
 30
0.0
 40
44.99999999999997
100
AcDbArc
 50
167.8985079681767
 51
180.0
  0
ARC
  5
199
330
1F
100
AcDbEntity
  8
100
  6
Continuous
 62
     3
100
AcDbCircle
 10
202.0
 20
18.8679622641132
 30
0.0
 40
45.0
100
AcDbArc
 50
180.0
 51
192.1014920318234
  0
ARC
  5
19A
330
1F
100
AcDbEntity
  8
100
  6
Continuous
 62
     3
100
AcDbCircle
 10
114.0
 20
0.0
 30
0.0
 40
45.0
100
AcDbArc
 50
0.0
 51
12.10149203182357
  0
ARC
  5
19B
330
1F
100
AcDbEntity
  8
100
  6
Continuous
 62
     3
100
AcDbCircle
 10
140.0
 20
0.0
 30
0.0
 40
19.0
100
AcDbArc
 50
180.0
 51
0.0
  0
ARC
  5
19C
330
1F
100
AcDbEntity
  8
100
  6
Continuous
 62
     3
100
AcDbCircle
 10
132.035786437627
 20
54.3960079165429
 30
0.0
 40
0.75
100
AcDbArc
 50
270.0
 51
340.5287793654599
  0
ARC
  5
19D
330
1F
100
AcDbEntity
  8
100
  6
Continuous
 62
     3
100
AcDbCircle
 10
133.45
 20
53.8960079165429
 30
0.0
 40
0.75
100
AcDbArc
 50
90.0
 51
160.5287793655561
  0
ARC
  5
19E
330
1F
100
AcDbEntity
  8
100
  6
Continuous
 62
     3
100
AcDbCircle
 10
137.700012207031
 20
79.8424911499023
 30
0.0
 40
1.600000023841807
100
AcDbArc
 50
102.6817162059333
 51
138.5909879774081
  0
ARC
  5
19F
330
1F
100
AcDbEntity
  8
100
  6
Continuous
 62
     3
100
AcDbCircle
 10
130.201425641596
 20
75.976991029251
 30
0.0
 40
5.999999999999937
100
AcDbArc
 50
110.5554521953992
 51
180.0
  0
ARC
  5
1A0
330
1F
100
AcDbEntity
  8
100
  6
Continuous
 62
     3
100
AcDbCircle
 10
121.681179135453
 20
75.976991029251
 30
0.0
 40
6.00000000000029
100
AcDbArc
 50
110.5554521954082
 51
180.0
  0
ARC
  5
1A1
330
1F
100
AcDbEntity
  8
100
  6
Continuous
 62
     3
100
AcDbCircle
 10
127.5
 20
82.5
 30
0.0
 40
2.5
100
AcDbArc
 50
90.0
 51
107.2312963682883
  0
ARC
  5
1A2
330
1F
100
AcDbEntity
  8
100
  6
Continuous
 62
     3
100
AcDbCircle
 10
117.0
 20
75.976991029251
 30
0.0
 40
6.0000000000005
100
AcDbArc
 50
110.5554521953973
 51
180.0
  0
ARC
  5
1A3
330
1F
100
AcDbEntity
  8
100
  6
Continuous
 62
     3
100
AcDbCircle
 10
139.471280022544
 20
16.051691078826
 30
0.0
 40
70.00000000000045
100
AcDbArc
 50
100.4628480819312
 51
110.5554521953943
  0
ARC
  5
1A4
330
1F
100
AcDbEntity
  8
100
  6
Continuous
 62
     3
100
AcDbCircle
 10
147.964213562373
 20
54.3960079165429
 30
0.0
 40
0.7499999999994963
100
AcDbArc
 50
199.4712206345043
 51
270.0
  0
ARC
  5
1A5
330
1F
100
AcDbEntity
  8
100
  6
Continuous
 62
     3
100
AcDbCircle
 10
146.55
 20
53.8960079165429
 30
0.0
 40
0.7500000000004073
100
AcDbArc
 50
19.47122063447969
 51
90.0
  0
ARC
  5
1A6
330
1F
100
AcDbEntity
  8
100
  6
Continuous
 62
     3
100
AcDbCircle
 10
142.300003051758
 20
79.8424911499023
 30
0.0
 40
1.600000023841596
100
AcDbArc
 50
41.4097832531193
 51
77.28633858582829
  0
ARC
  5
1A7
330
1F
100
AcDbEntity
  8
100
  6
Continuous
 62
     3
100
AcDbCircle
 10
140.0
 20
69.7000045776367
 30
0.0
 40
11.99999999999994
100
AcDbArc
 50
77.22323425855816
 51
102.7767657414419
  0
ARC
  5
1A8
330
1F
100
AcDbEntity
  8
100
  6
Continuous
 62
     3
100
AcDbCircle
 10
149.798574358404
 20
75.976991029251
 30
0.0
 40
6.0
100
AcDbArc
 50
0.0
 51
69.44454780461108
  0
ARC
  5
1A9
330
1F
100
AcDbEntity
  8
100
  6
Continuous
 62
     3
100
AcDbCircle
 10
158.318820864547
 20
75.976991029251
 30
0.0
 40
6.0
100
AcDbArc
 50
0.0
 51
69.44454780460119
  0
ARC
  5
1AA
330
1F
100
AcDbEntity
  8
100
  6
Continuous
 62
     3
100
AcDbCircle
 10
152.5
 20
82.5
 30
0.0
 40
2.499999999999629
100
AcDbArc
 50
72.76870363170899
 51
90.0
  0
ARC
  5
1AB
330
1F
100
AcDbEntity
  8
100
  6
Continuous
 62
     3
100
AcDbCircle
 10
140.528719977455
 20
16.051691078826
 30
0.0
 40
70.00000000000024
100
AcDbArc
 50
69.44454780460566
 51
79.53715191806795
  0
ARC
  5
1AC
330
1F
100
AcDbEntity
  8
100
  6
Continuous
 62
     3
100
AcDbCircle
 10
163.0
 20
75.976991029251
 30
0.0
 40
6.0
100
AcDbArc
 50
0.0
 51
69.44454780461108
  0
ARC
  5
1AD
330
1F
100
AcDbEntity
  8
100
  6
Continuous
 62
     3
100
AcDbCircle
 10
-7.96421356237309
 20
54.3960079165429
 30
0.0
 40
0.75
100
AcDbArc
 50
270.0
 51
340.5287793655089
  0
ARC
  5
1AE
330
1F
100
AcDbEntity
  8
100
  6
Continuous
 62
     3
100
AcDbCircle
 10
-6.55000000000001
 20
53.8960079165429
 30
0.0
 40
0.75
100
AcDbArc
 50
90.0
 51
160.5287793655094
  0
ARC
  5
1AF
330
1F
100
AcDbEntity
  8
100
  6
Continuous
 62
     3
100
AcDbCircle
 10
7.96421356237309
 20
54.3960079165429
 30
0.0
 40
0.7499999999999928
100
AcDbArc
 50
199.4712206344909
 51
270.0
  0
ARC
  5
1B0
330
1F
100
AcDbEntity
  8
100
  6
Continuous
 62
     3
100
AcDbCircle
 10
6.55000000000001
 20
53.8960079165429
 30
0.0
 40
0.7499999999999937
100
AcDbArc
 50
19.47122063449086
 51
90.0
  0
ARC
  5
1B1
330
1F
100
AcDbEntity
  8
3
  6
DOTTED
 62
     6
100
AcDbCircle
 10
-23.0
 20
69.976991029251
 30
0.0
 40
6.000000000000071
100
AcDbArc
 50
110.5554521953999
 51
180.0
  0
ARC
  5
1B2
330
1F
100
AcDbEntity
  8
3
  6
DOTTED
 62
     6
100
AcDbCircle
 10
23.0
 20
69.976991029251
 30
0.0
 40
6.0
100
AcDbArc
 50
0.0
 51
69.4445478046101
  0
ARC
  5
1B3
330
1F
100
AcDbEntity
  8
3
  6
DOTTED
 62
     6
100
AcDbCircle
 10
0.52871997745496
 20
10.051691078826
 30
0.0
 40
70.0000000000003
100
AcDbArc
 50
69.44454780460553
 51
79.53715191806785
  0
ARC
  5
1B4
330
1F
100
AcDbEntity
  8
3
  6
DOTTED
 62
     6
100
AcDbCircle
 10
-0.52871997745604
 20
10.051691078826
 30
0.0
 40
70.00000000000038
100
AcDbArc
 50
100.4628480819313
 51
110.5554521953945
  0
ARC
  5
1B5
330
1F
100
AcDbEntity
  8
100
  6
Continuous
 62
     3
100
AcDbCircle
 10
2.30000329017639
 20
79.8424911499023
 30
0.0
 40
1.600000023841913
100
AcDbArc
 50
41.40978325310929
 51
77.28670503530327
  0
ARC
  5
1B6
330
1F
100
AcDbEntity
  8
100
  6
Continuous
 62
     3
100
AcDbCircle
 10
-2.29999423027039
 20
79.8424911499023
 30
0.0
 40
1.600000023841853
100
AcDbArc
 50
102.6817828412941
 51
138.5908524464269
  0
ARC
  5
1B7
330
1F
100
AcDbEntity
  8
100
  6
Continuous
 62
     3
100
AcDbCircle
 10
0.00000702368516
 20
69.7000045776367
 30
0.0
 40
12.00000000000004
100
AcDbArc
 50
77.22326585360625
 51
102.7767573701221
  0
ARC
  5
1B8
330
1F
100
AcDbEntity
  8
100
  6
Continuous
 62
     3
100
AcDbCircle
 10
9.79857435840393
 20
75.976991029251
 30
0.0
 40
5.99999999999997
100
AcDbArc
 50
0.0
 51
69.44454780460912
  0
ARC
  5
1B9
330
1F
100
AcDbEntity
  8
100
  6
Continuous
 62
     3
100
AcDbCircle
 10
-9.79857435840393
 20
75.976991029251
 30
0.0
 40
5.999999999999967
100
AcDbArc
 50
110.5554521953999
 51
180.0
  0
ARC
  5
1BA
330
1F
100
AcDbEntity
  8
100
  6
Continuous
 62
     3
100
AcDbCircle
 10
-18.3188208645475
 20
75.976991029251
 30
0.0
 40
5.999999999999978
100
AcDbArc
 50
110.5554521954002
 51
180.0
  0
ARC
  5
1BB
330
1F
100
AcDbEntity
  8
100
  6
Continuous
 62
     3
100
AcDbCircle
 10
18.3188208645475
 20
75.976991029251
 30
0.0
 40
6.0
100
AcDbArc
 50
0.0
 51
69.4445478046101
  0
ARC
  5
1BC
330
1F
100
AcDbEntity
  8
100
  6
Continuous
 62
     3
100
AcDbCircle
 10
-12.5
 20
82.5
 30
0.0
 40
2.5
100
AcDbArc
 50
90.0
 51
107.2312963682905
  0
ARC
  5
1BD
330
1F
100
AcDbEntity
  8
100
  6
Continuous
 62
     3
100
AcDbCircle
 10
12.5
 20
82.5
 30
0.0
 40
2.499999999999658
100
AcDbArc
 50
72.76870363170686
 51
90.0
  0
ARC
  5
1BE
330
1F
100
AcDbEntity
  8
100
  6
Continuous
 62
     3
100
AcDbCircle
 10
0.52871997745496
 20
16.051691078826
 30
0.0
 40
70.0000000000003
100
AcDbArc
 50
69.44454780460553
 51
79.53715191806785
  0
ARC
  5
1BF
330
1F
100
AcDbEntity
  8
100
  6
Continuous
 62
     3
100
AcDbCircle
 10
23.0
 20
75.976991029251
 30
0.0
 40
6.0
100
AcDbArc
 50
0.0
 51
69.4445478046101
  0
ARC
  5
1C0
330
1F
100
AcDbEntity
  8
100
  6
Continuous
 62
     3
100
AcDbCircle
 10
-23.0
 20
75.976991029251
 30
0.0
 40
6.000000000000513
100
AcDbArc
 50
110.5554521954003
 51
180.0
  0
ARC
  5
1C1
330
1F
100
AcDbEntity
  8
100
  6
Continuous
 62
     3
100
AcDbCircle
 10
-0.52871997745604
 20
16.051691078826
 30
0.0
 40
70.00000000000045
100
AcDbArc
 50
100.4628480819312
 51
110.5554521953945
  0
ARC
  5
1C2
330
1F
100
AcDbEntity
  8
100
  6
Continuous
 62
     3
100
AcDbCircle
 10
0.0
 20
160.0
 30
0.0
 40
10.00000000000001
100
AcDbArc
 50
200.4873151147226
 51
249.5126848852792
  0
ARC
  5
1C3
330
1F
100
AcDbEntity
  8
100
  6
Continuous
 62
     3
100
AcDbCircle
 10
0.0
 20
160.0
 30
0.0
 40
10.00000000000032
100
AcDbArc
 50
110.4873151147208
 51
159.5126848852773
  0
ARC
  5
1C4
330
1F
100
AcDbEntity
  8
100
  6
Continuous
 62
     3
100
AcDbCircle
 10
0.0
 20
160.0
 30
0.0
 40
9.999999999999984
100
AcDbArc
 50
20.4873151147227
 51
69.51268488527955
  0
ARC
  5
1C5
330
1F
100
AcDbEntity
  8
100
  6
Continuous
 62
     3
100
AcDbCircle
 10
0.0
 20
160.0
 30
0.0
 40
10.0000000000003
100
AcDbArc
 50
290.4873151147204
 51
339.5126848852773
  0
ARC
  5
1C6
330
1F
100
AcDbEntity
  8
100
  6
Continuous
 62
     3
100
AcDbCircle
 10
0.0
 20
160.0
 30
0.0
 40
28.99999999999999
100
AcDbArc
 50
261.9264004075581
 51
270.0
  0
ARC
  5
1C7
330
1F
100
AcDbEntity
  8
100
  6
Continuous
 62
     3
100
AcDbCircle
 10
-3.370680955198
 20
136.23787657009
 30
0.0
 40
5.000000000000089
100
AcDbArc
 50
224.0081977511124
 51
261.9264004075619
  0
ARC
  5
1C8
330
1F
100
AcDbEntity
  8
100
  6
Continuous
 62
     3
100
AcDbCircle
 10
-14.159286997509
 20
125.816457297082
 30
0.0
 40
10.00000000000032
100
AcDbArc
 50
44.00819775111164
 51
90.99180224888187
  0
ARC
  5
1C9
330
1F
100
AcDbEntity
  8
100
  6
Continuous
 62
     3
100
AcDbCircle
 10
-14.418927252045
 20
140.814210026682
 30
0.0
 40
4.999999999999513
100
AcDbArc
 50
233.0735995924397
 51
270.9918022488993
  0
ARC
  5
1CA
330
1F
100
AcDbEntity
  8
100
  6
Continuous
 62
     3
100
AcDbCircle
 10
0.0
 20
160.0
 30
0.0
 40
29.0000000000002
100
AcDbArc
 50
216.9264004075588
 51
233.073599592441
  0
ARC
  5
1CB
330
1F
100
AcDbEntity
  8
100
  6
Continuous
 62
     3
100
AcDbCircle
 10
-19.185789973318
 20
145.581072747956
 30
0.0
 40
5.000000000000034
100
AcDbArc
 50
179.0081977511123
 51
216.9264004075684
  0
ARC
  5
1CC
330
1F
100
AcDbEntity
  8
100
  6
Continuous
 62
     3
100
AcDbCircle
 10
-34.183542702918
 20
145.840713002492
 30
0.0
 40
9.999999999999957
100
AcDbArc
 50
359.0081977511123
 51
45.99180224888762
  0
ARC
  5
1CD
330
1F
100
AcDbEntity
  8
100
  6
Continuous
 62
     3
100
AcDbCircle
 10
-23.76212342991
 20
156.629319044802
 30
0.0
 40
4.999999999999724
100
AcDbArc
 50
188.0735995924364
 51
225.9918022488812
  0
ARC
  5
1CE
330
1F
100
AcDbEntity
  8
100
  6
Continuous
 62
     3
100
AcDbCircle
 10
0.0
 20
160.0
 30
0.0
 40
28.99999999999998
100
AcDbArc
 50
171.9264004075584
 51
188.0735995924416
  0
ARC
  5
1CF
330
1F
100
AcDbEntity
  8
100
  6
Continuous
 62
     3
100
AcDbCircle
 10
-23.76212342991
 20
163.370680955198
 30
0.0
 40
4.999999999999721
100
AcDbArc
 50
134.008197751118
 51
171.9264004075636
  0
ARC
  5
1D0
330
1F
100
AcDbEntity
  8
100
  6
Continuous
 62
     3
100
AcDbCircle
 10
-34.183542702918
 20
174.159286997508
 30
0.0
 40
9.999999999999952
100
AcDbArc
 50
314.0081977511128
 51
0.9918022488877
  0
ARC
  5
1D1
330
1F
100
AcDbEntity
  8
100
  6
Continuous
 62
     3
100
AcDbCircle
 10
-19.185789973318
 20
174.418927252044
 30
0.0
 40
5.00000000000006
100
AcDbArc
 50
143.0735995924316
 51
180.9918022488877
  0
ARC
  5
1D2
330
1F
100
AcDbEntity
  8
100
  6
Continuous
 62
     3
100
AcDbCircle
 10
0.0
 20
160.0
 30
0.0
 40
29.00000000000014
100
AcDbArc
 50
126.9264004075587
 51
143.0735995924412
  0
ARC
  5
1D3
330
1F
100
AcDbEntity
  8
100
  6
Continuous
 62
     3
100
AcDbCircle
 10
-14.418927252045
 20
179.185789973318
 30
0.0
 40
4.999999999999323
100
AcDbArc
 50
89.00819775111222
 51
126.9264004075585
  0
ARC
  5
1D4
330
1F
100
AcDbEntity
  8
100
  6
Continuous
 62
     3
100
AcDbCircle
 10
-14.159286997509
 20
194.183542702918
 30
0.0
 40
10.00000000000066
100
AcDbArc
 50
269.0081977511124
 51
315.9918022488903
  0
ARC
  5
1D5
330
1F
100
AcDbEntity
  8
100
  6
Continuous
 62
     3
100
AcDbCircle
 10
-3.370680955198
 20
183.76212342991
 30
0.0
 40
4.999999999999726
100
AcDbArc
 50
98.07359959243665
 51
135.9918022488838
  0
ARC
  5
1D6
330
1F
100
AcDbEntity
  8
100
  6
Continuous
 62
     3
100
AcDbCircle
 10
0.0
 20
160.0
 30
0.0
 40
28.99999999999999
100
AcDbArc
 50
81.92640040755825
 51
98.07359959244161
  0
ARC
  5
1D7
330
1F
100
AcDbEntity
  8
100
  6
Continuous
 62
     3
100
AcDbCircle
 10
3.37068095519697
 20
183.76212342991
 30
0.0
 40
5.000000000000347
100
AcDbArc
 50
44.00819775110957
 51
81.92640040755076
  0
ARC
  5
1D8
330
1F
100
AcDbEntity
  8
100
  6
Continuous
 62
     3
100
AcDbCircle
 10
14.159286997508
 20
194.183542702918
 30
0.0
 40
10.00000000000008
100
AcDbArc
 50
224.0081977511129
 51
270.9918022488876
  0
ARC
  5
1D9
330
1F
100
AcDbEntity
  8
100
  6
Continuous
 62
     3
100
AcDbCircle
 10
14.418927252044
 20
179.185789973318
 30
0.0
 40
4.999999999999394
100
AcDbArc
 50
53.07359959244152
 51
90.99180224888778
  0
ARC
  5
1DA
330
1F
100
AcDbEntity
  8
100
  6
Continuous
 62
     3
100
AcDbCircle
 10
0.0
 20
160.0
 30
0.0
 40
28.99999999999936
100
AcDbArc
 50
36.92640040755762
 51
53.0735995924429
  0
ARC
  5
1DB
330
1F
100
AcDbEntity
  8
100
  6
Continuous
 62
     3
100
AcDbCircle
 10
19.185789973317
 20
174.418927252044
 30
0.0
 40
5.00000000000003
100
AcDbArc
 50
359.0081977511123
 51
36.92640040755451
  0
ARC
  5
1DC
330
1F
100
AcDbEntity
  8
100
  6
Continuous
 62
     3
100
AcDbCircle
 10
34.183542702917
 20
174.159286997508
 30
0.0
 40
9.999999999999964
100
AcDbArc
 50
179.0081977511123
 51
225.9918022488905
  0
ARC
  5
1DD
330
1F
100
AcDbEntity
  8
100
  6
Continuous
 62
     3
100
AcDbCircle
 10
23.76212342991
 20
163.370680955198
 30
0.0
 40
4.999999999999326
100
AcDbArc
 50
8.0735995924371
 51
45.99180224888367
  0
ARC
  5
1DE
330
1F
100
AcDbEntity
  8
100
  6
Continuous
 62
     3
100
AcDbCircle
 10
0.0
 20
160.0
 30
0.0
 40
28.99999999999958
100
AcDbArc
 50
351.9264004075583
 51
8.07359959244168
  0
ARC
  5
1DF
330
1F
100
AcDbEntity
  8
100
  6
Continuous
 62
     3
100
AcDbCircle
 10
23.76212342991
 20
156.629319044802
 30
0.0
 40
4.999999999999306
100
AcDbArc
 50
314.0081977511131
 51
351.9264004075629
  0
ARC
  5
1E0
330
1F
100
AcDbEntity
  8
100
  6
Continuous
 62
     3
100
AcDbCircle
 10
34.183542702917
 20
145.840713002492
 30
0.0
 40
9.999999999999677
100
AcDbArc
 50
134.0081977511112
 51
180.9918022488878
  0
ARC
  5
1E1
330
1F
100
AcDbEntity
  8
100
  6
Continuous
 62
     3
100
AcDbCircle
 10
19.185789973317
 20
145.581072747956
 30
0.0
 40
5.000000000000382
100
AcDbArc
 50
323.0735995924343
 51
0.99180224888759
  0
ARC
  5
1E2
330
1F
100
AcDbEntity
  8
100
  6
Continuous
 62
     3
100
AcDbCircle
 10
0.0
 20
160.0
 30
0.0
 40
28.99999999999954
100
AcDbArc
 50
306.9264004075571
 51
323.0735995924405
  0
ARC
  5
1E3
330
1F
100
AcDbEntity
  8
100
  6
Continuous
 62
     3
100
AcDbCircle
 10
14.418927252044
 20
140.814210026682
 30
0.0
 40
4.999999999999323
100
AcDbArc
 50
269.0081977511123
 51
306.9264004075584
  0
ARC
  5
1E4
330
1F
100
AcDbEntity
  8
100
  6
Continuous
 62
     3
100
AcDbCircle
 10
14.159286997508
 20
125.816457297082
 30
0.0
 40
10.00000000000066
100
AcDbArc
 50
89.0081977511124
 51
135.9918022488821
  0
ARC
  5
1E5
330
1F
100
AcDbEntity
  8
100
  6
Continuous
 62
     3
100
AcDbCircle
 10
3.37068095519697
 20
136.23787657009
 30
0.0
 40
4.999999999999872
100
AcDbArc
 50
278.0735995924485
 51
315.9918022489003
  0
ARC
  5
1E6
330
1F
100
AcDbEntity
  8
100
  6
Continuous
 62
     3
100
AcDbCircle
 10
0.0
 20
160.0
 30
0.0
 40
29.0
100
AcDbArc
 50
270.0
 51
278.0735995924416
  0
ARC
  5
1E7
330
1F
100
AcDbEntity
  8
100
  6
Continuous
 62
     3
100
AcDbCircle
 10
0.0
 20
160.0
 30
0.0
 40
11.50000000000011
100
AcDbArc
 50
161.6450253534816
 51
198.3549746465184
  0
ARC
  5
1E8
330
1F
100
AcDbEntity
  8
100
  6
Continuous
 62
     3
100
AcDbCircle
 10
0.0
 20
160.0
 30
0.0
 40
11.5
100
AcDbArc
 50
71.6450253534817
 51
108.3549746465185
  0
ARC
  5
1E9
330
1F
100
AcDbEntity
  8
100
  6
Continuous
 62
     3
100
AcDbCircle
 10
0.0
 20
160.0
 30
0.0
 40
11.50000000000011
100
AcDbArc
 50
341.6450253534816
 51
18.35497464651843
  0
ARC
  5
1EA
330
1F
100
AcDbEntity
  8
100
  6
Continuous
 62
     3
100
AcDbCircle
 10
0.0
 20
160.0
 30
0.0
 40
11.50000000000002
100
AcDbArc
 50
251.6450253534814
 51
288.3549746465183
  0
ARC
  5
1EB
330
1F
100
AcDbEntity
  8
100
  6
Continuous
 62
     3
100
AcDbCircle
 10
0.0
 20
160.0
 30
0.0
 40
25.0000000000001
100
AcDbArc
 50
79.18386269830265
 51
100.8161373016975
  0
ARC
  5
1EC
330
1F
100
AcDbEntity
  8
100
  6
Continuous
 62
     3
100
AcDbCircle
 10
0.0
 20
160.0
 30
0.0
 40
25.0
100
AcDbArc
 50
349.1838626983026
 51
10.81613730169745
  0
ARC
  5
1ED
330
1F
100
AcDbEntity
  8
100
  6
Continuous
 62
     3
100
AcDbCircle
 10
0.0
 20
160.0
 30
0.0
 40
25.00000000000011
100
AcDbArc
 50
259.1838626983025
 51
280.8161373016974
  0
ARC
  5
1EE
330
1F
100
AcDbEntity
  8
100
  6
Continuous
 62
     3
100
AcDbCircle
 10
0.0
 20
160.0
 30
0.0
 40
25.0
100
AcDbArc
 50
169.1838626983026
 51
190.8161373016974
  0
ARC
  5
1EF
330
1F
100
AcDbEntity
  8
100
  6
DOTTED
 62
     6
100
AcDbCircle
 10
12.5
 20
76.5
 30
0.0
 40
2.499999999999658
100
AcDbArc
 50
72.76870363170686
 51
90.0
  0
ARC
  5
1F0
330
1F
100
AcDbEntity
  8
100
  6
DOTTED
 62
     6
100
AcDbCircle
 10
-12.5
 20
76.5
 30
0.0
 40
2.5
100
AcDbArc
 50
90.0
 51
107.2312963682933
  0
CIRCLE
  5
1F1
330
1F
100
AcDbEntity
  8
100
  6
Continuous
 62
     3
100
AcDbCircle
 10
140.0
 20
0.0
 30
0.0
 40
12.25
  0
CIRCLE
  5
1F2
330
1F
100
AcDbEntity
  8
2
  6
Continuous
 62
     3
100
AcDbCircle
 10
140.0
 20
0.0
 30
0.0
 40
15.5
  0
CIRCLE
  5
1F3
330
1F
100
AcDbEntity
  8
100
  6
Continuous
 62
     3
100
AcDbCircle
 10
140.0
 20
0.0
 30
0.0
 40
16.44999999999999
  0
CIRCLE
  5
1F4
330
1F
100
AcDbEntity
  8
100
  6
Continuous
 62
     3
100
AcDbCircle
 10
0.0
 20
160.0
 30
0.0
 40
3.89998687279912
  0
LWPOLYLINE
  5
1F5
330
1F
100
AcDbEntity
  8
2
  6
Continuous
 62
     3
100
AcDbPolyline
 90
        3
 70
     0
 43
0.0
 10
-40.0
 20
175.5
 10
-27.0
 20
175.5
 10
-26.6417690096267
 20
175.706824758724
  0
LWPOLYLINE
  5
1F6
330
1F
100
AcDbEntity
  8
2
  6
Continuous
 62
     3
100
AcDbPolyline
 90
        3
 70
     0
 43
0.0
 10
-40.0
 20
144.5
 10
-27.0
 20
144.5
 10
-26.6417690096267
 20
144.293175241276
  0
LWPOLYLINE
  5
1F7
330
1F
100
AcDbEntity
  8
2
  6
Continuous
 62
     3
100
AcDbPolyline
 90
        3
 70
     0
 43
0.0
 10
40.0
 20
144.5
 10
27.0
 20
144.5
 10
26.6417690096267
 20
144.293175241276
  0
LWPOLYLINE
  5
1F8
330
1F
100
AcDbEntity
  8
2
  6
Continuous
 62
     3
100
AcDbPolyline
 90
        3
 70
     0
 43
0.0
 10
40.0
 20
175.5
 10
27.0
 20
175.5
 10
26.6417690096267
 20
175.706824758724
  0
LWPOLYLINE
  5
1F9
330
1F
100
AcDbEntity
  8
2
  6
Continuous
 62
     3
100
AcDbPolyline
 90
        3
 70
     0
 43
0.0
 10
40.0
 20
-15.5
 10
27.0
 20
-15.5
 10
26.6417690096267
 20
-15.7068247587241
  0
LWPOLYLINE
  5
1FA
330
1F
100
AcDbEntity
  8
2
  6
Continuous
 62
     3
100
AcDbPolyline
 90
        3
 70
     0
 43
0.0
 10
40.0
 20
15.5
 10
27.0
 20
15.5
 10
26.6417690096267
 20
15.7068247587241
  0
LWPOLYLINE
  5
1FB
330
1F
100
AcDbEntity
  8
2
  6
Continuous
 62
     3
100
AcDbPolyline
 90
        3
 70
     0
 43
0.0
 10
-40.0
 20
-15.5
 10
-27.0
 20
-15.5
 10
-26.6417690096267
 20
-15.7068247587241
  0
LWPOLYLINE
  5
1FC
330
1F
100
AcDbEntity
  8
2
  6
Continuous
 62
     3
100
AcDbPolyline
 90
        3
 70
     0
 43
0.0
 10
-40.0
 20
15.5
 10
-27.0
 20
15.5
 10
-26.6417690096267
 20
15.7068247587241
  0
LWPOLYLINE
  5
1FD
330
1F
100
AcDbEntity
  8
100
  6
Continuous
 62
     3
100
AcDbPolyline
 90
        8
 70
     0
 43
0.0
 10
-4.73498344421387
 20
8.85483741760254
 10
-3.48498344421387
 20
10.3548374176025
 10
-1.98498344421387
 20
10.3548374176025
 10
-0.73498344421387
 20
8.85483741760254
 10
-0.73498344421387
 20
6.85483741760254
 10
-4.73498344421387
 20
3.35483717918396
 10
-4.73498344421387
 20
2.35483717918396
 10
-0.73498344421387
 20
2.35483717918396
  0
LWPOLYLINE
  5
1FE
330
1F
100
AcDbEntity
  8
100
  6
Continuous
 62
     3
100
AcDbPolyline
 90
       20
 70
     1
 43
0.0
 10
1.01501655578613
 20
3.85483717918396
 10
1.01501655578613
 20
3.85483717918396
 10
1.17380836656051
 20
3.27239423940147
 10
1.53473637300496
 20
2.78715820699142
 10
2.0470813534118
 20
2.46628309071204
 10
2.64001655578613
 20
2.35483717918396
 10
3.23295175816046
 20
2.46628309071204
 10
3.7452967385673
 20
2.78715820699142
 10
4.10622474501175
 20
3.27239423940147
 10
4.26501655578613
 20
3.85483717918396
 10
4.26501655578613
 20
8.85483741760254
 10
4.10622474501175
 20
9.43728035738503
 10
3.7452967385673
 20
9.92251638979508
 10
3.23295175816046
 20
10.2433915060745
 10
2.64001655578613
 20
10.3548374176025
 10
2.0470813534118
 20
10.2433915060745
 10
1.53473637300496
 20
9.92251638979508
 10
1.17380836656051
 20
9.43728035738503
 10
1.01501655578613
 20
8.85483741760254
 10
1.01501655578613
 20
3.85483717918396
  0
LEADER
  5
1FF
330
1F
100
AcDbEntity
  8
1
  6
Continuous
 62
     4
100
AcDbLeader
  3
Standard
 71
     0
 76
     3
 10
-34.0
 20
-16.4500007629395
 30
0.0
 10
-48.1452061307545
 20
-33.0243611356764
 30
0.0
 10
-65.7556289998057
 20
-33.0243611356764
 30
0.0
  0
LEADER
  5
200
330
1F
100
AcDbEntity
  8
1
  6
Continuous
 62
     4
100
AcDbLeader
  3
Standard
 71
     0
 76
     3
 10
34.0
 20
-16.4500007629395
 30
0.0
 10
43.9675540794139
 20
-33.0243611356764
 30
0.0
 10
60.3427699774962
 20
-33.0243611356764
 30
0.0
  0
DIMENSION
  5
236
330
1F
100
AcDbEntity
  8
1
100
AcDbDimension
  2
*D1
 10
-40.0
 20
-51.70713077579521
 30
0.0
 11
0.0
 21
-45.7071307757952
 31
0.0
 70
    32
  1
80
 71
     5
 42
-1.0
 53
0.00013888888889
  3
ME10_DIM_10
100
AcDbAlignedDimension
 13
40.0
 23
-16.45
 33
0.0
 14
-40.0
 24
-16.45
 34
0.0
100
AcDbRotatedDimension
  0
DIMENSION
  5
243
330
1F
100
AcDbEntity
  8
1
100
AcDbDimension
  2
*D3
 10
62.17919437797461
 20
0.0
 30
0.0
 11
56.1791943779746
 21
45.3605319214909
 31
0.0
 70
    32
  1
85
 71
     5
 42
-1.0
 53
90.0
  3
ME10_DIM_11
100
AcDbAlignedDimension
 13
12.5
 23
85.0
 33
0.0
 14
48.1595615780152
 24
0.0
 34
0.0
 50
90.0
100
AcDbRotatedDimension
  0
ENDSEC
  0
SECTION
  2
OBJECTS
  0
DICTIONARY
  5
C
330
0
100
AcDbDictionary
281
     1
  3
ACAD_GROUP
350
D
  3
ACAD_LAYOUT
350
1A
  3
ACAD_MATERIAL
350
3B
  3
ACAD_MLEADERSTYLE
350
246
  3
ACAD_MLINESTYLE
350
17
  3
ACAD_PLOTSETTINGS
350
19
  3
ACAD_PLOTSTYLENAME
350
E
  3
ACAD_SCALELIST
350
20A
  3
ACAD_VISUALSTYLE
350
2A
  3
AcDbVariableDictionary
350
244
  0
DICTIONARY
  5
D
102
{ACAD_REACTORS
330
C
102
}
330
C
100
AcDbDictionary
281
     1
  0
DICTIONARY
  5
1A
102
{ACAD_REACTORS
330
C
102
}
330
C
100
AcDbDictionary
281
     1
  3
Layout1
350
1E
  3
Layout2
350
26
  3
Model
350
22
  0
DICTIONARY
  5
3B
102
{ACAD_REACTORS
330
C
102
}
330
C
100
AcDbDictionary
281
     1
  3
ByBlock
350
3D
  3
ByLayer
350
3C
  3
Global
350
3E
  0
DICTIONARY
  5
246
102
{ACAD_REACTORS
330
C
102
}
330
C
100
AcDbDictionary
281
     1
  0
DICTIONARY
  5
17
102
{ACAD_REACTORS
330
C
102
}
330
C
100
AcDbDictionary
281
     1
  3
Standard
350
18
  0
DICTIONARY
  5
19
102
{ACAD_REACTORS
330
C
102
}
330
C
100
AcDbDictionary
281
     1
  0
ACDBDICTIONARYWDFLT
  5
E
102
{ACAD_REACTORS
330
C
102
}
330
C
100
AcDbDictionary
281
     1
  3
Normal
350
F
100
AcDbDictionaryWithDefault
340
F
  0
DICTIONARY
  5
20A
102
{ACAD_REACTORS
330
C
102
}
330
C
100
AcDbDictionary
281
     1
  3
A0
350
20B
  3
A1
350
20C
  3
A2
350
20D
  3
A3
350
20E
  3
A4
350
20F
  3
A5
350
210
  3
A6
350
211
  3
A7
350
212
  3
A8
350
213
  3
A9
350
214
  3
B0
350
215
  3
B1
350
216
  3
B2
350
217
  3
B3
350
218
  3
B4
350
219
  3
B5
350
21A
  3
B6
350
21B
  3
B7
350
21C
  3
B8
350
21D
  3
B9
350
21E
  3
C0
350
21F
  3
C1
350
220
  3
C2
350
221
  3
C3
350
222
  3
C4
350
223
  3
C5
350
224
  3
C6
350
225
  3
C7
350
226
  3
C8
350
227
  3
C9
350
228
  3
D0
350
229
  3
D1
350
22A
  3
D2
350
22B
  0
DICTIONARY
  5
2A
102
{ACAD_REACTORS
330
C
102
}
330
C
100
AcDbDictionary
281
     1
  3
2dWireframe
350
2F
  3
3D Hidden
350
31
  3
3dWireframe
350
30
  3
Basic
350
32
  3
Brighten
350
36
  3
ColorChange
350
3A
  3
Conceptual
350
34
  3
Dim
350
35
  3
Facepattern
350
39
  3
Flat
350
2B
  3
FlatWithEdges
350
2C
  3
Gouraud
350
2D
  3
GouraudWithEdges
350
2E
  3
Linepattern
350
38
  3
Realistic
350
33
  3
Thicken
350
37
  0
DICTIONARY
  5
244
102
{ACAD_REACTORS
330
C
102
}
330
C
100
AcDbDictionary
281
     1
  3
CANNOSCALE
350
247
  3
DIMASSOC
350
248
  3
HIDETEXT
350
249
  0
LAYOUT
  5
1E
102
{ACAD_REACTORS
330
1A
102
}
330
1A
100
AcDbPlotSettings
  1

  2
none_device
  4

  6

 40
0.0
 41
0.0
 42
0.0
 43
0.0
 44
0.0
 45
0.0
 46
0.0
 47
0.0
 48
0.0
 49
0.0
140
0.0
141
0.0
142
1.0
143
1.0
 70
   688
 72
     0
 73
     0
 74
     5
  7

 75
    16
147
1.0
148
0.0
149
0.0
100
AcDbLayout
  1
Layout1
 70
     1
 71
     1
 10
0.0
 20
0.0
 11
12.0
 21
9.0
 12
0.0
 22
0.0
 32
0.0
 14
1.00000000000000E+20
 24
1.00000000000000E+20
 34
1.00000000000000E+20
 15
-1.00000000000000E+20
 25
-1.00000000000000E+20
 35
-1.00000000000000E+20
146
0.0
 13
0.0
 23
0.0
 33
0.0
 16
1.0
 26
0.0
 36
0.0
 17
0.0
 27
1.0
 37
0.0
 76
     0
330
1B
  0
LAYOUT
  5
26
102
{ACAD_REACTORS
330
1A
102
}
330
1A
100
AcDbPlotSettings
  1

  2
none_device
  4

  6

 40
0.0
 41
0.0
 42
0.0
 43
0.0
 44
0.0
 45
0.0
 46
0.0
 47
0.0
 48
0.0
 49
0.0
140
0.0
141
0.0
142
1.0
143
1.0
 70
   688
 72
     0
 73
     0
 74
     5
  7

 75
    16
147
1.0
148
0.0
149
0.0
100
AcDbLayout
  1
Layout2
 70
     1
 71
     2
 10
0.0
 20
0.0
 11
0.0
 21
0.0
 12
0.0
 22
0.0
 32
0.0
 14
0.0
 24
0.0
 34
0.0
 15
0.0
 25
0.0
 35
0.0
146
0.0
 13
0.0
 23
0.0
 33
0.0
 16
1.0
 26
0.0
 36
0.0
 17
0.0
 27
1.0
 37
0.0
 76
     0
330
23
  0
LAYOUT
  5
22
102
{ACAD_REACTORS
330
1A
102
}
330
1A
100
AcDbPlotSettings
  1

  2
none_device
  4

  6

 40
0.0
 41
0.0
 42
0.0
 43
0.0
 44
0.0
 45
0.0
 46
0.0
 47
0.0
 48
0.0
 49
0.0
140
0.0
141
0.0
142
1.0
143
1.0
 70
  1712
 72
     0
 73
     0
 74
     0
  7

 75
     0
147
1.0
148
0.0
149
0.0
100
AcDbLayout
  1
Model
 70
     1
 71
     0
 10
0.0
 20
0.0
 11
12.0
 21
9.0
 12
0.0
 22
0.0
 32
0.0
 14
-65.7556289998057
 24
-53.85072431524419
 34
0.0
 15
169.0
 25
194.612720930233
 35
0.0
146
0.0
 13
0.0
 23
0.0
 33
0.0
 16
1.0
 26
0.0
 36
0.0
 17
0.0
 27
1.0
 37
0.0
 76
     0
330
1F
331
29
  0
MATERIAL
  5
3D
102
{ACAD_REACTORS
330
3B
102
}
102
{ACAD_XDICTIONARY
360
26C
102
}
330
3B
100
AcDbMaterial
  1
ByBlock
  0
MATERIAL
  5
3C
102
{ACAD_REACTORS
330
3B
102
}
102
{ACAD_XDICTIONARY
360
26A
102
}
330
3B
100
AcDbMaterial
  1
ByLayer
  0
MATERIAL
  5
3E
102
{ACAD_REACTORS
330
3B
102
}
102
{ACAD_XDICTIONARY
360
26E
102
}
330
3B
100
AcDbMaterial
  1
Global
  0
MLINESTYLE
  5
18
102
{ACAD_REACTORS
330
17
102
}
330
17
100
AcDbMlineStyle
  2
Standard
 70
     0
  3

 62
   256
 51
90.0
 52
90.0
 71
     2
 49
0.5
 62
   256
  6
BYLAYER
 49
-0.5
 62
   256
  6
BYLAYER
  0
ACDBPLACEHOLDER
  5
F
102
{ACAD_REACTORS
330
E
102
}
330
E
  0
SCALE
  5
20B
102
{ACAD_REACTORS
330
20A
102
}
330
20A
100
AcDbScale
 70
     0
300
1:1
140
1.0
141
1.0
290
     1
  0
SCALE
  5
20C
102
{ACAD_REACTORS
330
20A
102
}
330
20A
100
AcDbScale
 70
     0
300
1:2
140
1.0
141
2.0
290
     0
  0
SCALE
  5
20D
102
{ACAD_REACTORS
330
20A
102
}
330
20A
100
AcDbScale
 70
     0
300
1:4
140
1.0
141
4.0
290
     0
  0
SCALE
  5
20E
102
{ACAD_REACTORS
330
20A
102
}
330
20A
100
AcDbScale
 70
     0
300
1:5
140
1.0
141
5.0
290
     0
  0
SCALE
  5
20F
102
{ACAD_REACTORS
330
20A
102
}
330
20A
100
AcDbScale
 70
     0
300
1:8
140
1.0
141
8.0
290
     0
  0
SCALE
  5
210
102
{ACAD_REACTORS
330
20A
102
}
330
20A
100
AcDbScale
 70
     0
300
1:10
140
1.0
141
10.0
290
     0
  0
SCALE
  5
211
102
{ACAD_REACTORS
330
20A
102
}
330
20A
100
AcDbScale
 70
     0
300
1:16
140
1.0
141
16.0
290
     0
  0
SCALE
  5
212
102
{ACAD_REACTORS
330
20A
102
}
330
20A
100
AcDbScale
 70
     0
300
1:20
140
1.0
141
20.0
290
     0
  0
SCALE
  5
213
102
{ACAD_REACTORS
330
20A
102
}
330
20A
100
AcDbScale
 70
     0
300
1:30
140
1.0
141
30.0
290
     0
  0
SCALE
  5
214
102
{ACAD_REACTORS
330
20A
102
}
330
20A
100
AcDbScale
 70
     0
300
1:40
140
1.0
141
40.0
290
     0
  0
SCALE
  5
215
102
{ACAD_REACTORS
330
20A
102
}
330
20A
100
AcDbScale
 70
     0
300
1:50
140
1.0
141
50.0
290
     0
  0
SCALE
  5
216
102
{ACAD_REACTORS
330
20A
102
}
330
20A
100
AcDbScale
 70
     0
300
1:100
140
1.0
141
100.0
290
     0
  0
SCALE
  5
217
102
{ACAD_REACTORS
330
20A
102
}
330
20A
100
AcDbScale
 70
     0
300
2:1
140
2.0
141
1.0
290
     0
  0
SCALE
  5
218
102
{ACAD_REACTORS
330
20A
102
}
330
20A
100
AcDbScale
 70
     0
300
4:1
140
4.0
141
1.0
290
     0
  0
SCALE
  5
219
102
{ACAD_REACTORS
330
20A
102
}
330
20A
100
AcDbScale
 70
     0
300
8:1
140
8.0
141
1.0
290
     0
  0
SCALE
  5
21A
102
{ACAD_REACTORS
330
20A
102
}
330
20A
100
AcDbScale
 70
     0
300
10:1
140
10.0
141
1.0
290
     0
  0
SCALE
  5
21B
102
{ACAD_REACTORS
330
20A
102
}
330
20A
100
AcDbScale
 70
     0
300
100:1
140
100.0
141
1.0
290
     0
  0
SCALE
  5
21C
102
{ACAD_REACTORS
330
20A
102
}
330
20A
100
AcDbScale
 70
     0
300
1/128" = 1'-0"
140
0.0078125
141
12.0
290
     0
  0
SCALE
  5
21D
102
{ACAD_REACTORS
330
20A
102
}
330
20A
100
AcDbScale
 70
     0
300
1/64" = 1'-0"
140
0.015625
141
12.0
290
     0
  0
SCALE
  5
21E
102
{ACAD_REACTORS
330
20A
102
}
330
20A
100
AcDbScale
 70
     0
300
1/32" = 1'-0"
140
0.03125
141
12.0
290
     0
  0
SCALE
  5
21F
102
{ACAD_REACTORS
330
20A
102
}
330
20A
100
AcDbScale
 70
     0
300
1/16" = 1'-0"
140
0.0625
141
12.0
290
     0
  0
SCALE
  5
220
102
{ACAD_REACTORS
330
20A
102
}
330
20A
100
AcDbScale
 70
     0
300
3/32" = 1'-0"
140
0.09375
141
12.0
290
     0
  0
SCALE
  5
221
102
{ACAD_REACTORS
330
20A
102
}
330
20A
100
AcDbScale
 70
     0
300
1/8" = 1'-0"
140
0.125
141
12.0
290
     0
  0
SCALE
  5
222
102
{ACAD_REACTORS
330
20A
102
}
330
20A
100
AcDbScale
 70
     0
300
3/16" = 1'-0"
140
0.1875
141
12.0
290
     0
  0
SCALE
  5
223
102
{ACAD_REACTORS
330
20A
102
}
330
20A
100
AcDbScale
 70
     0
300
1/4" = 1'-0"
140
0.25
141
12.0
290
     0
  0
SCALE
  5
224
102
{ACAD_REACTORS
330
20A
102
}
330
20A
100
AcDbScale
 70
     0
300
3/8" = 1'-0"
140
0.375
141
12.0
290
     0
  0
SCALE
  5
225
102
{ACAD_REACTORS
330
20A
102
}
330
20A
100
AcDbScale
 70
     0
300
1/2" = 1'-0"
140
0.5
141
12.0
290
     0
  0
SCALE
  5
226
102
{ACAD_REACTORS
330
20A
102
}
330
20A
100
AcDbScale
 70
     0
300
3/4" = 1'-0"
140
0.75
141
12.0
290
     0
  0
SCALE
  5
227
102
{ACAD_REACTORS
330
20A
102
}
330
20A
100
AcDbScale
 70
     0
300
1" = 1'-0"
140
1.0
141
12.0
290
     0
  0
SCALE
  5
228
102
{ACAD_REACTORS
330
20A
102
}
330
20A
100
AcDbScale
 70
     0
300
1-1/2" = 1'-0"
140
1.5
141
12.0
290
     0
  0
SCALE
  5
229
102
{ACAD_REACTORS
330
20A
102
}
330
20A
100
AcDbScale
 70
     0
300
3" = 1'-0"
140
3.0
141
12.0
290
     0
  0
SCALE
  5
22A
102
{ACAD_REACTORS
330
20A
102
}
330
20A
100
AcDbScale
 70
     0
300
6" = 1'-0"
140
6.0
141
12.0
290
     0
  0
SCALE
  5
22B
102
{ACAD_REACTORS
330
20A
102
}
330
20A
100
AcDbScale
 70
     0
300
1'-0" = 1'-0"
140
12.0
141
12.0
290
     0
  0
VISUALSTYLE
  5
2F
102
{ACAD_REACTORS
330
2A
102
}
102
{ACAD_XDICTIONARY
360
252
102
}
330
2A
100
AcDbVisualStyle
  2
2dWireframe
 70
     4
 71
     0
 72
     2
 73
     0
 90
        0
 40
-0.6
 41
-30.0
 62
     5
 63
     7
 74
     1
 91
        4
 64
     7
 65
   257
 75
     1
175
     1
 42
1.0
 92
        0
 66
   257
 43
1.0
 76
     1
 77
     6
 78
     2
 67
     7
 79
     5
170
     0
171
     0
290
     0
174
     0
 93
        1
 44
0.0
173
     0
291
     0
 45
0.0
1001
ACAD
1000
AcDbSavedByObjectVersion
1070
     0
  0
VISUALSTYLE
  5
31
102
{ACAD_REACTORS
330
2A
102
}
102
{ACAD_XDICTIONARY
360
256
102
}
330
2A
100
AcDbVisualStyle
  2
3D Hidden
 70
     6
 71
     1
 72
     2
 73
     2
 90
        0
 40
-0.6
 41
-30.0
 62
     5
 63
     7
 74
     2
 91
        2
 64
     7
 65
   257
 75
     2
175
     1
 42
40.0
 92
        0
 66
   257
 43
1.0
 76
     1
 77
     6
 78
     2
 67
     7
 79
     3
170
     0
171
     0
290
     0
174
     0
 93
        1
 44
0.0
173
     0
291
     0
 45
0.0
1001
ACAD
1000
AcDbSavedByObjectVersion
1070
     0
  0
VISUALSTYLE
  5
30
102
{ACAD_REACTORS
330
2A
102
}
102
{ACAD_XDICTIONARY
360
254
102
}
330
2A
100
AcDbVisualStyle
  2
3dWireframe
 70
     5
 71
     0
 72
     2
 73
     0
 90
        0
 40
-0.6
 41
-30.0
 62
     5
 63
     7
 74
     1
 91
        4
 64
     7
 65
   257
 75
     1
175
     1
 42
1.0
 92
        0
 66
   257
 43
1.0
 76
     1
 77
     6
 78
     2
 67
     7
 79
     5
170
     0
171
     0
290
     0
174
     0
 93
        1
 44
0.0
173
     0
291
     0
 45
0.0
1001
ACAD
1000
AcDbSavedByObjectVersion
1070
     0
  0
VISUALSTYLE
  5
32
102
{ACAD_REACTORS
330
2A
102
}
102
{ACAD_XDICTIONARY
360
258
102
}
330
2A
100
AcDbVisualStyle
  2
Basic
 70
     7
 71
     1
 72
     0
 73
     1
 90
        0
 40
-0.6
 41
-30.0
 62
     5
 63
     7
 74
     0
 91
        4
 64
     7
 65
   257
 75
     1
175
     1
 42
1.0
 92
        8
 66
     7
 43
1.0
 76
     1
 77
     6
 78
     2
 67
     7
 79
     5
170
     0
171
     0
290
     0
174
     0
 93
        1
 44
0.0
173
     0
291
     1
 45
0.0
1001
ACAD
1000
AcDbSavedByObjectVersion
1070
     0
  0
VISUALSTYLE
  5
36
102
{ACAD_REACTORS
330
2A
102
}
102
{ACAD_XDICTIONARY
360
260
102
}
330
2A
100
AcDbVisualStyle
  2
Brighten
 70
    12
 71
     2
 72
     2
 73
     0
 90
        0
 40
-0.6
 41
-30.0
 62
     5
 63
     7
 74
     1
 91
        4
 64
     7
 65
   257
 75
     1
175
     1
 42
1.0
 92
        8
 66
     7
 43
1.0
 76
     1
 77
     6
 78
     2
 67
     7
 79
     5
170
     0
171
     0
290
     0
174
     0
 93
        1
 44
50.0
173
     0
291
     1
 45
0.0
1001
ACAD
1000
AcDbSavedByObjectVersion
1070
     0
  0
VISUALSTYLE
  5
3A
102
{ACAD_REACTORS
330
2A
102
}
102
{ACAD_XDICTIONARY
360
268
102
}
330
2A
100
AcDbVisualStyle
  2
ColorChange
 70
    16
 71
     2
 72
     2
 73
     3
 90
        0
 40
-0.6
 41
-30.0
 62
     5
 63
     8
 74
     1
 91
        4
 64
     7
 65
   257
 75
     1
175
     1
 42
1.0
 92
        8
 66
     8
 43
1.0
 76
     1
 77
     6
 78
     2
 67
     7
 79
     5
170
     0
171
     0
290
     0
174
     0
 93
        1
 44
0.0
173
     0
291
     1
 45
0.0
1001
ACAD
1000
AcDbSavedByObjectVersion
1070
     0
  0
VISUALSTYLE
  5
34
102
{ACAD_REACTORS
330
2A
102
}
102
{ACAD_XDICTIONARY
360
25C
102
}
330
2A
100
AcDbVisualStyle
  2
Conceptual
 70
     9
 71
     3
 72
     2
 73
     0
 90
        0
 40
-0.6
 41
-30.0
 62
     5
 63
     7
 74
     2
 91
        2
 64
     7
 65
   257
 75
     1
175
     1
 42
40.0
 92
        8
 66
     7
 43
1.0
 76
     1
 77
     6
 78
     2
 67
     7
 79
     3
170
     0
171
     0
290
     0
174
     0
 93
        1
 44
0.0
173
     0
291
     0
 45
0.0
1001
ACAD
1000
AcDbSavedByObjectVersion
1070
     0
  0
VISUALSTYLE
  5
35
102
{ACAD_REACTORS
330
2A
102
}
102
{ACAD_XDICTIONARY
360
25E
102
}
330
2A
100
AcDbVisualStyle
  2
Dim
 70
    11
 71
     2
 72
     2
 73
     0
 90
        0
 40
-0.6
 41
-30.0
 62
     5
 63
     7
 74
     1
 91
        4
 64
     7
 65
   257
 75
     1
175
     1
 42
1.0
 92
        8
 66
     7
 43
1.0
 76
     1
 77
     6
 78
     2
 67
     7
 79
     5
170
     0
171
     0
290
     0
174
     0
 93
        1
 44
-50.0
173
     0
291
     1
 45
0.0
1001
ACAD
1000
AcDbSavedByObjectVersion
1070
     0
  0
VISUALSTYLE
  5
39
102
{ACAD_REACTORS
330
2A
102
}
102
{ACAD_XDICTIONARY
360
266
102
}
330
2A
100
AcDbVisualStyle
  2
Facepattern
 70
    15
 71
     2
 72
     2
 73
     0
 90
        0
 40
-0.6
 41
-30.0
 62
     5
 63
     7
 74
     1
 91
        4
 64
     7
 65
   257
 75
     1
175
     1
 42
1.0
 92
        8
 66
     7
 43
1.0
 76
     1
 77
     6
 78
     2
 67
     7
 79
     5
170
     0
171
     0
290
     0
174
     0
 93
        1
 44
0.0
173
     0
291
     1
 45
0.0
1001
ACAD
1000
AcDbSavedByObjectVersion
1070
     0
  0
VISUALSTYLE
  5
2B
102
{ACAD_REACTORS
330
2A
102
}
102
{ACAD_XDICTIONARY
360
24A
102
}
330
2A
100
AcDbVisualStyle
  2
Flat
 70
     0
 71
     2
 72
     1
 73
     1
 90
        2
 40
-0.6
 41
30.0
 62
     5
 63
     7
 74
     0
 91
        4
 64
     7
 65
   257
 75
     1
175
     1
 42
1.0
 92
        8
 66
     7
 43
1.0
 76
     1
 77
     6
 78
     2
 67
     7
 79
     5
170
     0
171
     0
290
     0
174
     0
 93
       13
 44
0.0
173
     0
291
     1
 45
0.0
1001
ACAD
1000
AcDbSavedByObjectVersion
1070
     0
  0
VISUALSTYLE
  5
2C
102
{ACAD_REACTORS
330
2A
102
}
102
{ACAD_XDICTIONARY
360
24C
102
}
330
2A
100
AcDbVisualStyle
  2
FlatWithEdges
 70
     1
 71
     2
 72
     1
 73
     1
 90
        2
 40
-0.6
 41
30.0
 62
     5
 63
     7
 74
     1
 91
        4
 64
     7
 65
   257
 75
     1
175
     1
 42
1.0
 92
        0
 66
   257
 43
1.0
 76
     1
 77
     6
 78
     2
 67
     7
 79
     5
170
     0
171
     0
290
     0
174
     0
 93
       13
 44
0.0
173
     0
291
     1
 45
0.0
1001
ACAD
1000
AcDbSavedByObjectVersion
1070
     0
  0
VISUALSTYLE
  5
2D
102
{ACAD_REACTORS
330
2A
102
}
102
{ACAD_XDICTIONARY
360
24E
102
}
330
2A
100
AcDbVisualStyle
  2
Gouraud
 70
     2
 71
     2
 72
     2
 73
     1
 90
        2
 40
-0.6
 41
30.0
 62
     5
 63
     7
 74
     0
 91
        4
 64
     7
 65
   257
 75
     1
175
     1
 42
1.0
 92
        0
 66
     7
 43
1.0
 76
     1
 77
     6
 78
     2
 67
     7
 79
     5
170
     0
171
     0
290
     0
174
     0
 93
       13
 44
0.0
173
     0
291
     1
 45
0.0
1001
ACAD
1000
AcDbSavedByObjectVersion
1070
     0
  0
VISUALSTYLE
  5
2E
102
{ACAD_REACTORS
330
2A
102
}
102
{ACAD_XDICTIONARY
360
250
102
}
330
2A
100
AcDbVisualStyle
  2
GouraudWithEdges
 70
     3
 71
     2
 72
     2
 73
     1
 90
        2
 40
-0.6
 41
30.0
 62
     5
 63
     7
 74
     1
 91
        4
 64
     7
 65
   257
 75
     1
175
     1
 42
1.0
 92
        0
 66
   257
 43
1.0
 76
     1
 77
     6
 78
     2
 67
     7
 79
     5
170
     0
171
     0
290
     0
174
     0
 93
       13
 44
0.0
173
     0
291
     1
 45
0.0
1001
ACAD
1000
AcDbSavedByObjectVersion
1070
     0
  0
VISUALSTYLE
  5
38
102
{ACAD_REACTORS
330
2A
102
}
102
{ACAD_XDICTIONARY
360
264
102
}
330
2A
100
AcDbVisualStyle
  2
Linepattern
 70
    14
 71
     2
 72
     2
 73
     0
 90
        0
 40
-0.6
 41
-30.0
 62
     5
 63
     7
 74
     1
 91
        4
 64
     7
 65
   257
 75
     7
175
     7
 42
1.0
 92
        8
 66
     7
 43
1.0
 76
     1
 77
     6
 78
     2
 67
     7
 79
     5
170
     0
171
     0
290
     0
174
     0
 93
        1
 44
0.0
173
     0
291
     1
 45
0.0
1001
ACAD
1000
AcDbSavedByObjectVersion
1070
     0
  0
VISUALSTYLE
  5
33
102
{ACAD_REACTORS
330
2A
102
}
102
{ACAD_XDICTIONARY
360
25A
102
}
330
2A
100
AcDbVisualStyle
  2
Realistic
 70
     8
 71
     2
 72
     2
 73
     0
 90
        0
 40
-0.6
 41
-30.0
 62
     5
 63
     7
 74
     1
 91
        0
 64
     7
 65
   257
 75
     1
175
     1
 42
1.0
 92
        8
 66
     8
 43
1.0
 76
     1
 77
     6
 78
     2
 67
     7
 79
     5
170
     0
171
     0
290
     0
174
     0
 93
       13
 44
0.0
173
     0
291
     0
 45
0.0
1001
ACAD
1000
AcDbSavedByObjectVersion
1070
     0
  0
VISUALSTYLE
  5
37
102
{ACAD_REACTORS
330
2A
102
}
102
{ACAD_XDICTIONARY
360
262
102
}
330
2A
100
AcDbVisualStyle
  2
Thicken
 70
    13
 71
     2
 72
     2
 73
     0
 90
        0
 40
-0.6
 41
-30.0
 62
     5
 63
     7
 74
     1
 91
        4
 64
     7
 65
   257
 75
     1
175
     1
 42
1.0
 92
       12
 66
     7
 43
1.0
 76
     1
 77
     6
 78
     2
 67
     7
 79
     5
170
     0
171
     0
290
     0
174
     0
 93
        1
 44
0.0
173
     0
291
     1
 45
0.0
1001
ACAD
1000
AcDbSavedByObjectVersion
1070
     0
  0
DICTIONARYVAR
  5
247
102
{ACAD_REACTORS
330
244
102
}
330
244
100
DictionaryVariables
280
     0
  1
1:1
  0
DICTIONARYVAR
  5
248
102
{ACAD_REACTORS
330
244
102
}
330
244
100
DictionaryVariables
280
     0
  1
2
  0
DICTIONARYVAR
  5
249
102
{ACAD_REACTORS
330
244
102
}
330
244
100
DictionaryVariables
280
     0
  1
1
  0
DICTIONARY
  5
26C
330
3D
100
AcDbDictionary
280
     1
281
     1
  3
ACAD_XREC_ROUNDTRIP
360
26D
  0
DICTIONARY
  5
26A
330
3C
100
AcDbDictionary
280
     1
281
     1
  3
ACAD_XREC_ROUNDTRIP
360
26B
  0
DICTIONARY
  5
26E
330
3E
100
AcDbDictionary
280
     1
281
     1
  3
ACAD_XREC_ROUNDTRIP
360
26F
  0
DICTIONARY
  5
252
330
2F
100
AcDbDictionary
280
     1
281
     1
  3
ACAD_XREC_ROUNDTRIP
360
253
  0
DICTIONARY
  5
256
330
31
100
AcDbDictionary
280
     1
281
     1
  3
ACAD_XREC_ROUNDTRIP
360
257
  0
DICTIONARY
  5
254
330
30
100
AcDbDictionary
280
     1
281
     1
  3
ACAD_XREC_ROUNDTRIP
360
255
  0
DICTIONARY
  5
258
330
32
100
AcDbDictionary
280
     1
281
     1
  3
ACAD_XREC_ROUNDTRIP
360
259
  0
DICTIONARY
  5
260
330
36
100
AcDbDictionary
280
     1
281
     1
  3
ACAD_XREC_ROUNDTRIP
360
261
  0
DICTIONARY
  5
268
330
3A
100
AcDbDictionary
280
     1
281
     1
  3
ACAD_XREC_ROUNDTRIP
360
269
  0
DICTIONARY
  5
25C
330
34
100
AcDbDictionary
280
     1
281
     1
  3
ACAD_XREC_ROUNDTRIP
360
25D
  0
DICTIONARY
  5
25E
330
35
100
AcDbDictionary
280
     1
281
     1
  3
ACAD_XREC_ROUNDTRIP
360
25F
  0
DICTIONARY
  5
266
330
39
100
AcDbDictionary
280
     1
281
     1
  3
ACAD_XREC_ROUNDTRIP
360
267
  0
DICTIONARY
  5
24A
330
2B
100
AcDbDictionary
280
     1
281
     1
  3
ACAD_XREC_ROUNDTRIP
360
24B
  0
DICTIONARY
  5
24C
330
2C
100
AcDbDictionary
280
     1
281
     1
  3
ACAD_XREC_ROUNDTRIP
360
24D
  0
DICTIONARY
  5
24E
330
2D
100
AcDbDictionary
280
     1
281
     1
  3
ACAD_XREC_ROUNDTRIP
360
24F
  0
DICTIONARY
  5
250
330
2E
100
AcDbDictionary
280
     1
281
     1
  3
ACAD_XREC_ROUNDTRIP
360
251
  0
DICTIONARY
  5
264
330
38
100
AcDbDictionary
280
     1
281
     1
  3
ACAD_XREC_ROUNDTRIP
360
265
  0
DICTIONARY
  5
25A
330
33
100
AcDbDictionary
280
     1
281
     1
  3
ACAD_XREC_ROUNDTRIP
360
25B
  0
DICTIONARY
  5
262
330
37
100
AcDbDictionary
280
     1
281
     1
  3
ACAD_XREC_ROUNDTRIP
360
263
  0
XRECORD
  5
26D
102
{ACAD_REACTORS
330
26C
102
}
330
26C
100
AcDbXrecord
280
     1
102
MATERIAL
148
0.0
149
0.0
149
0.0
 93
        0
 94
      127
282
     0
 72
     1
 77
     1
171
     1
175
     1
179
     1
273
     0
  0
XRECORD
  5
26B
102
{ACAD_REACTORS
330
26A
102
}
330
26A
100
AcDbXrecord
280
     1
102
MATERIAL
148
0.0
149
0.0
149
0.0
 93
        0
 94
      127
282
     0
 72
     1
 77
     1
171
     1
175
     1
179
     1
273
     0
  0
XRECORD
  5
26F
102
{ACAD_REACTORS
330
26E
102
}
330
26E
100
AcDbXrecord
280
     1
102
MATERIAL
148
0.0
149
0.0
149
0.0
 93
        0
 94
      127
282
     0
 72
     1
 77
     1
171
     1
175
     1
179
     1
273
     0
  0
XRECORD
  5
253
102
{ACAD_REACTORS
330
252
102
}
330
252
100
AcDbXrecord
280
     1
102
RTVSPropertyOp0
 70
     1
102
RTVSPropertyOp1
 70
     1
102
RTVSPropertyOp2
 70
     1
102
RTVSPropertyOp3
 70
     1
102
RTVSPropertyOp4
 70
     1
102
RTVSPropertyOp5
 70
     1
102
RTVSPropertyOp6
 70
     1
102
RTVSPropertyOp7
 70
     1
102
RTVSPropertyOp8
 70
     1
102
RTVSPropertyOp9
 70
     1
102
RTVSPropertyOp10
 70
     1
102
RTVSPropertyOp11
 70
     1
102
RTVSPropertyOp12
 70
     1
102
RTVSPropertyOp13
 70
     1
102
RTVSPropertyOp14
 70
     1
102
RTVSPropertyOp15
 70
     1
102
RTVSPropertyOp16
 70
     1
102
RTVSPropertyOp17
 70
     1
102
RTVSPropertyOp18
 70
     1
102
RTVSPropertyOp19
 70
     1
102
RTVSPropertyOp20
 70
     1
102
RTVSPropertyOp21
 70
     1
102
RTVSPropertyOp22
 70
     1
102
RTVSPropertyOp23
 70
     1
102
RTVSPropertyOp24
 70
     1
102
RTVSPropertyOp25
 70
     1
102
RTVSPropertyOp26
 70
     1
102
RTVSPropertyOp27
 70
     1
  0
XRECORD
  5
257
102
{ACAD_REACTORS
330
256
102
}
330
256
100
AcDbXrecord
280
     1
102
RTVSPropertyOp0
 70
     1
102
RTVSPropertyOp1
 70
     1
102
RTVSPropertyOp2
 70
     1
102
RTVSPropertyOp3
 70
     1
102
RTVSPropertyOp4
 70
     1
102
RTVSPropertyOp5
 70
     1
102
RTVSPropertyOp6
 70
     1
102
RTVSPropertyOp7
 70
     1
102
RTVSPropertyOp8
 70
     1
102
RTVSPropertyOp9
 70
     1
102
RTVSPropertyOp10
 70
     1
102
RTVSPropertyOp11
 70
     1
102
RTVSPropertyOp12
 70
     1
102
RTVSPropertyOp13
 70
     1
102
RTVSPropertyOp14
 70
     1
102
RTVSPropertyOp15
 70
     1
102
RTVSPropertyOp16
 70
     1
102
RTVSPropertyOp17
 70
     1
102
RTVSPropertyOp18
 70
     1
102
RTVSPropertyOp19
 70
     1
102
RTVSPropertyOp20
 70
     1
102
RTVSPropertyOp21
 70
     1
102
RTVSPropertyOp22
 70
     1
102
RTVSPropertyOp23
 70
     1
102
RTVSPropertyOp24
 70
     1
102
RTVSPropertyOp25
 70
     1
102
RTVSPropertyOp26
 70
     1
102
RTVSPropertyOp27
 70
     1
  0
XRECORD
  5
255
102
{ACAD_REACTORS
330
254
102
}
330
254
100
AcDbXrecord
280
     1
102
RTVSPropertyOp0
 70
     1
102
RTVSPropertyOp1
 70
     1
102
RTVSPropertyOp2
 70
     1
102
RTVSPropertyOp3
 70
     1
102
RTVSPropertyOp4
 70
     1
102
RTVSPropertyOp5
 70
     1
102
RTVSPropertyOp6
 70
     1
102
RTVSPropertyOp7
 70
     1
102
RTVSPropertyOp8
 70
     1
102
RTVSPropertyOp9
 70
     1
102
RTVSPropertyOp10
 70
     1
102
RTVSPropertyOp11
 70
     1
102
RTVSPropertyOp12
 70
     1
102
RTVSPropertyOp13
 70
     1
102
RTVSPropertyOp14
 70
     1
102
RTVSPropertyOp15
 70
     1
102
RTVSPropertyOp16
 70
     1
102
RTVSPropertyOp17
 70
     1
102
RTVSPropertyOp18
 70
     1
102
RTVSPropertyOp19
 70
     1
102
RTVSPropertyOp20
 70
     1
102
RTVSPropertyOp21
 70
     1
102
RTVSPropertyOp22
 70
     1
102
RTVSPropertyOp23
 70
     1
102
RTVSPropertyOp24
 70
     1
102
RTVSPropertyOp25
 70
     1
102
RTVSPropertyOp26
 70
     1
102
RTVSPropertyOp27
 70
     1
  0
XRECORD
  5
259
102
{ACAD_REACTORS
330
258
102
}
330
258
100
AcDbXrecord
280
     1
102
RTVSPropertyOp0
 70
     1
102
RTVSPropertyOp1
 70
     1
102
RTVSPropertyOp2
 70
     1
102
RTVSPropertyOp3
 70
     1
102
RTVSPropertyOp4
 70
     1
102
RTVSPropertyOp5
 70
     1
102
RTVSPropertyOp6
 70
     1
102
RTVSPropertyOp7
 70
     1
102
RTVSPropertyOp8
 70
     1
102
RTVSPropertyOp9
 70
     1
102
RTVSPropertyOp10
 70
     1
102
RTVSPropertyOp11
 70
     1
102
RTVSPropertyOp12
 70
     1
102
RTVSPropertyOp13
 70
     1
102
RTVSPropertyOp14
 70
     1
102
RTVSPropertyOp15
 70
     1
102
RTVSPropertyOp16
 70
     1
102
RTVSPropertyOp17
 70
     1
102
RTVSPropertyOp18
 70
     1
102
RTVSPropertyOp19
 70
     1
102
RTVSPropertyOp20
 70
     1
102
RTVSPropertyOp21
 70
     1
102
RTVSPropertyOp22
 70
     1
102
RTVSPropertyOp23
 70
     1
102
RTVSPropertyOp24
 70
     1
102
RTVSPropertyOp25
 70
     1
102
RTVSPropertyOp26
 70
     1
102
RTVSPropertyOp27
 70
     1
  0
XRECORD
  5
261
102
{ACAD_REACTORS
330
260
102
}
330
260
100
AcDbXrecord
280
     1
102
RTVSPropertyOp0
 70
     1
102
RTVSPropertyOp1
 70
     1
102
RTVSPropertyOp2
 70
     1
102
RTVSPropertyOp3
 70
     1
102
RTVSPropertyOp4
 70
     1
102
RTVSPropertyOp5
 70
     1
102
RTVSPropertyOp6
 70
     1
102
RTVSPropertyOp7
 70
     1
102
RTVSPropertyOp8
 70
     1
102
RTVSPropertyOp9
 70
     1
102
RTVSPropertyOp10
 70
     1
102
RTVSPropertyOp11
 70
     1
102
RTVSPropertyOp12
 70
     1
102
RTVSPropertyOp13
 70
     1
102
RTVSPropertyOp14
 70
     1
102
RTVSPropertyOp15
 70
     1
102
RTVSPropertyOp16
 70
     1
102
RTVSPropertyOp17
 70
     1
102
RTVSPropertyOp18
 70
     1
102
RTVSPropertyOp19
 70
     1
102
RTVSPropertyOp20
 70
     1
102
RTVSPropertyOp21
 70
     1
102
RTVSPropertyOp22
 70
     1
102
RTVSPropertyOp23
 70
     1
102
RTVSPropertyOp24
 70
     1
102
RTVSPropertyOp25
 70
     1
102
RTVSPropertyOp26
 70
     1
102
RTVSPropertyOp27
 70
     1
  0
XRECORD
  5
269
102
{ACAD_REACTORS
330
268
102
}
330
268
100
AcDbXrecord
280
     1
102
RTVSPropertyOp0
 70
     1
102
RTVSPropertyOp1
 70
     1
102
RTVSPropertyOp2
 70
     1
102
RTVSPropertyOp3
 70
     1
102
RTVSPropertyOp4
 70
     1
102
RTVSPropertyOp5
 70
     1
102
RTVSPropertyOp6
 70
     1
102
RTVSPropertyOp7
 70
     1
102
RTVSPropertyOp8
 70
     1
102
RTVSPropertyOp9
 70
     1
102
RTVSPropertyOp10
 70
     1
102
RTVSPropertyOp11
 70
     1
102
RTVSPropertyOp12
 70
     1
102
RTVSPropertyOp13
 70
     1
102
RTVSPropertyOp14
 70
     1
102
RTVSPropertyOp15
 70
     1
102
RTVSPropertyOp16
 70
     1
102
RTVSPropertyOp17
 70
     1
102
RTVSPropertyOp18
 70
     1
102
RTVSPropertyOp19
 70
     1
102
RTVSPropertyOp20
 70
     1
102
RTVSPropertyOp21
 70
     1
102
RTVSPropertyOp22
 70
     1
102
RTVSPropertyOp23
 70
     1
102
RTVSPropertyOp24
 70
     1
102
RTVSPropertyOp25
 70
     1
102
RTVSPropertyOp26
 70
     1
102
RTVSPropertyOp27
 70
     1
  0
XRECORD
  5
25D
102
{ACAD_REACTORS
330
25C
102
}
330
25C
100
AcDbXrecord
280
     1
102
RTVSPropertyOp0
 70
     1
102
RTVSPropertyOp1
 70
     1
102
RTVSPropertyOp2
 70
     1
102
RTVSPropertyOp3
 70
     1
102
RTVSPropertyOp4
 70
     1
102
RTVSPropertyOp5
 70
     1
102
RTVSPropertyOp6
 70
     1
102
RTVSPropertyOp7
 70
     1
102
RTVSPropertyOp8
 70
     1
102
RTVSPropertyOp9
 70
     1
102
RTVSPropertyOp10
 70
     1
102
RTVSPropertyOp11
 70
     1
102
RTVSPropertyOp12
 70
     1
102
RTVSPropertyOp13
 70
     1
102
RTVSPropertyOp14
 70
     1
102
RTVSPropertyOp15
 70
     1
102
RTVSPropertyOp16
 70
     1
102
RTVSPropertyOp17
 70
     1
102
RTVSPropertyOp18
 70
     1
102
RTVSPropertyOp19
 70
     1
102
RTVSPropertyOp20
 70
     1
102
RTVSPropertyOp21
 70
     1
102
RTVSPropertyOp22
 70
     1
102
RTVSPropertyOp23
 70
     1
102
RTVSPropertyOp24
 70
     1
102
RTVSPropertyOp25
 70
     1
102
RTVSPropertyOp26
 70
     1
102
RTVSPropertyOp27
 70
     1
  0
XRECORD
  5
25F
102
{ACAD_REACTORS
330
25E
102
}
330
25E
100
AcDbXrecord
280
     1
102
RTVSPropertyOp0
 70
     1
102
RTVSPropertyOp1
 70
     1
102
RTVSPropertyOp2
 70
     1
102
RTVSPropertyOp3
 70
     1
102
RTVSPropertyOp4
 70
     1
102
RTVSPropertyOp5
 70
     1
102
RTVSPropertyOp6
 70
     1
102
RTVSPropertyOp7
 70
     1
102
RTVSPropertyOp8
 70
     1
102
RTVSPropertyOp9
 70
     1
102
RTVSPropertyOp10
 70
     1
102
RTVSPropertyOp11
 70
     1
102
RTVSPropertyOp12
 70
     1
102
RTVSPropertyOp13
 70
     1
102
RTVSPropertyOp14
 70
     1
102
RTVSPropertyOp15
 70
     1
102
RTVSPropertyOp16
 70
     1
102
RTVSPropertyOp17
 70
     1
102
RTVSPropertyOp18
 70
     1
102
RTVSPropertyOp19
 70
     1
102
RTVSPropertyOp20
 70
     1
102
RTVSPropertyOp21
 70
     1
102
RTVSPropertyOp22
 70
     1
102
RTVSPropertyOp23
 70
     1
102
RTVSPropertyOp24
 70
     1
102
RTVSPropertyOp25
 70
     1
102
RTVSPropertyOp26
 70
     1
102
RTVSPropertyOp27
 70
     1
  0
XRECORD
  5
267
102
{ACAD_REACTORS
330
266
102
}
330
266
100
AcDbXrecord
280
     1
102
RTVSPropertyOp0
 70
     1
102
RTVSPropertyOp1
 70
     1
102
RTVSPropertyOp2
 70
     1
102
RTVSPropertyOp3
 70
     1
102
RTVSPropertyOp4
 70
     1
102
RTVSPropertyOp5
 70
     1
102
RTVSPropertyOp6
 70
     1
102
RTVSPropertyOp7
 70
     1
102
RTVSPropertyOp8
 70
     1
102
RTVSPropertyOp9
 70
     1
102
RTVSPropertyOp10
 70
     1
102
RTVSPropertyOp11
 70
     1
102
RTVSPropertyOp12
 70
     1
102
RTVSPropertyOp13
 70
     1
102
RTVSPropertyOp14
 70
     1
102
RTVSPropertyOp15
 70
     1
102
RTVSPropertyOp16
 70
     1
102
RTVSPropertyOp17
 70
     1
102
RTVSPropertyOp18
 70
     1
102
RTVSPropertyOp19
 70
     1
102
RTVSPropertyOp20
 70
     1
102
RTVSPropertyOp21
 70
     1
102
RTVSPropertyOp22
 70
     1
102
RTVSPropertyOp23
 70
     1
102
RTVSPropertyOp24
 70
     1
102
RTVSPropertyOp25
 70
     1
102
RTVSPropertyOp26
 70
     1
102
RTVSPropertyOp27
 70
     1
  0
XRECORD
  5
24B
102
{ACAD_REACTORS
330
24A
102
}
330
24A
100
AcDbXrecord
280
     1
102
RTVSPropertyOp0
 70
     1
102
RTVSPropertyOp1
 70
     1
102
RTVSPropertyOp2
 70
     1
102
RTVSPropertyOp3
 70
     1
102
RTVSPropertyOp4
 70
     1
102
RTVSPropertyOp5
 70
     1
102
RTVSPropertyOp6
 70
     1
102
RTVSPropertyOp7
 70
     1
102
RTVSPropertyOp8
 70
     1
102
RTVSPropertyOp9
 70
     1
102
RTVSPropertyOp10
 70
     1
102
RTVSPropertyOp11
 70
     1
102
RTVSPropertyOp12
 70
     1
102
RTVSPropertyOp13
 70
     1
102
RTVSPropertyOp14
 70
     1
102
RTVSPropertyOp15
 70
     1
102
RTVSPropertyOp16
 70
     1
102
RTVSPropertyOp17
 70
     1
102
RTVSPropertyOp18
 70
     1
102
RTVSPropertyOp19
 70
     1
102
RTVSPropertyOp20
 70
     1
102
RTVSPropertyOp21
 70
     1
102
RTVSPropertyOp22
 70
     1
102
RTVSPropertyOp23
 70
     1
102
RTVSPropertyOp24
 70
     1
102
RTVSPropertyOp25
 70
     1
102
RTVSPropertyOp26
 70
     1
102
RTVSPropertyOp27
 70
     1
  0
XRECORD
  5
24D
102
{ACAD_REACTORS
330
24C
102
}
330
24C
100
AcDbXrecord
280
     1
102
RTVSPropertyOp0
 70
     1
102
RTVSPropertyOp1
 70
     1
102
RTVSPropertyOp2
 70
     1
102
RTVSPropertyOp3
 70
     1
102
RTVSPropertyOp4
 70
     1
102
RTVSPropertyOp5
 70
     1
102
RTVSPropertyOp6
 70
     1
102
RTVSPropertyOp7
 70
     1
102
RTVSPropertyOp8
 70
     1
102
RTVSPropertyOp9
 70
     1
102
RTVSPropertyOp10
 70
     1
102
RTVSPropertyOp11
 70
     1
102
RTVSPropertyOp12
 70
     1
102
RTVSPropertyOp13
 70
     1
102
RTVSPropertyOp14
 70
     1
102
RTVSPropertyOp15
 70
     1
102
RTVSPropertyOp16
 70
     1
102
RTVSPropertyOp17
 70
     1
102
RTVSPropertyOp18
 70
     1
102
RTVSPropertyOp19
 70
     1
102
RTVSPropertyOp20
 70
     1
102
RTVSPropertyOp21
 70
     1
102
RTVSPropertyOp22
 70
     1
102
RTVSPropertyOp23
 70
     1
102
RTVSPropertyOp24
 70
     1
102
RTVSPropertyOp25
 70
     1
102
RTVSPropertyOp26
 70
     1
102
RTVSPropertyOp27
 70
     1
  0
XRECORD
  5
24F
102
{ACAD_REACTORS
330
24E
102
}
330
24E
100
AcDbXrecord
280
     1
102
RTVSPropertyOp0
 70
     1
102
RTVSPropertyOp1
 70
     1
102
RTVSPropertyOp2
 70
     1
102
RTVSPropertyOp3
 70
     1
102
RTVSPropertyOp4
 70
     1
102
RTVSPropertyOp5
 70
     1
102
RTVSPropertyOp6
 70
     1
102
RTVSPropertyOp7
 70
     1
102
RTVSPropertyOp8
 70
     1
102
RTVSPropertyOp9
 70
     1
102
RTVSPropertyOp10
 70
     1
102
RTVSPropertyOp11
 70
     1
102
RTVSPropertyOp12
 70
     1
102
RTVSPropertyOp13
 70
     1
102
RTVSPropertyOp14
 70
     1
102
RTVSPropertyOp15
 70
     1
102
RTVSPropertyOp16
 70
     1
102
RTVSPropertyOp17
 70
     1
102
RTVSPropertyOp18
 70
     1
102
RTVSPropertyOp19
 70
     1
102
RTVSPropertyOp20
 70
     1
102
RTVSPropertyOp21
 70
     1
102
RTVSPropertyOp22
 70
     1
102
RTVSPropertyOp23
 70
     1
102
RTVSPropertyOp24
 70
     1
102
RTVSPropertyOp25
 70
     1
102
RTVSPropertyOp26
 70
     1
102
RTVSPropertyOp27
 70
     1
  0
XRECORD
  5
251
102
{ACAD_REACTORS
330
250
102
}
330
250
100
AcDbXrecord
280
     1
102
RTVSPropertyOp0
 70
     1
102
RTVSPropertyOp1
 70
     1
102
RTVSPropertyOp2
 70
     1
102
RTVSPropertyOp3
 70
     1
102
RTVSPropertyOp4
 70
     1
102
RTVSPropertyOp5
 70
     1
102
RTVSPropertyOp6
 70
     1
102
RTVSPropertyOp7
 70
     1
102
RTVSPropertyOp8
 70
     1
102
RTVSPropertyOp9
 70
     1
102
RTVSPropertyOp10
 70
     1
102
RTVSPropertyOp11
 70
     1
102
RTVSPropertyOp12
 70
     1
102
RTVSPropertyOp13
 70
     1
102
RTVSPropertyOp14
 70
     1
102
RTVSPropertyOp15
 70
     1
102
RTVSPropertyOp16
 70
     1
102
RTVSPropertyOp17
 70
     1
102
RTVSPropertyOp18
 70
     1
102
RTVSPropertyOp19
 70
     1
102
RTVSPropertyOp20
 70
     1
102
RTVSPropertyOp21
 70
     1
102
RTVSPropertyOp22
 70
     1
102
RTVSPropertyOp23
 70
     1
102
RTVSPropertyOp24
 70
     1
102
RTVSPropertyOp25
 70
     1
102
RTVSPropertyOp26
 70
     1
102
RTVSPropertyOp27
 70
     1
  0
XRECORD
  5
265
102
{ACAD_REACTORS
330
264
102
}
330
264
100
AcDbXrecord
280
     1
102
RTVSPropertyOp0
 70
     1
102
RTVSPropertyOp1
 70
     1
102
RTVSPropertyOp2
 70
     1
102
RTVSPropertyOp3
 70
     1
102
RTVSPropertyOp4
 70
     1
102
RTVSPropertyOp5
 70
     1
102
RTVSPropertyOp6
 70
     1
102
RTVSPropertyOp7
 70
     1
102
RTVSPropertyOp8
 70
     1
102
RTVSPropertyOp9
 70
     1
102
RTVSPropertyOp10
 70
     1
102
RTVSPropertyOp11
 70
     1
102
RTVSPropertyOp12
 70
     1
102
RTVSPropertyOp13
 70
     1
102
RTVSPropertyOp14
 70
     1
102
RTVSPropertyOp15
 70
     1
102
RTVSPropertyOp16
 70
     1
102
RTVSPropertyOp17
 70
     1
102
RTVSPropertyOp18
 70
     1
102
RTVSPropertyOp19
 70
     1
102
RTVSPropertyOp20
 70
     1
102
RTVSPropertyOp21
 70
     1
102
RTVSPropertyOp22
 70
     1
102
RTVSPropertyOp23
 70
     1
102
RTVSPropertyOp24
 70
     1
102
RTVSPropertyOp25
 70
     1
102
RTVSPropertyOp26
 70
     1
102
RTVSPropertyOp27
 70
     1
  0
XRECORD
  5
25B
102
{ACAD_REACTORS
330
25A
102
}
330
25A
100
AcDbXrecord
280
     1
102
RTVSPropertyOp0
 70
     1
102
RTVSPropertyOp1
 70
     1
102
RTVSPropertyOp2
 70
     1
102
RTVSPropertyOp3
 70
     1
102
RTVSPropertyOp4
 70
     1
102
RTVSPropertyOp5
 70
     1
102
RTVSPropertyOp6
 70
     1
102
RTVSPropertyOp7
 70
     1
102
RTVSPropertyOp8
 70
     1
102
RTVSPropertyOp9
 70
     1
102
RTVSPropertyOp10
 70
     1
102
RTVSPropertyOp11
 70
     1
102
RTVSPropertyOp12
 70
     1
102
RTVSPropertyOp13
 70
     1
102
RTVSPropertyOp14
 70
     1
102
RTVSPropertyOp15
 70
     1
102
RTVSPropertyOp16
 70
     1
102
RTVSPropertyOp17
 70
     1
102
RTVSPropertyOp18
 70
     1
102
RTVSPropertyOp19
 70
     1
102
RTVSPropertyOp20
 70
     1
102
RTVSPropertyOp21
 70
     1
102
RTVSPropertyOp22
 70
     1
102
RTVSPropertyOp23
 70
     1
102
RTVSPropertyOp24
 70
     1
102
RTVSPropertyOp25
 70
     1
102
RTVSPropertyOp26
 70
     1
102
RTVSPropertyOp27
 70
     1
  0
XRECORD
  5
263
102
{ACAD_REACTORS
330
262
102
}
330
262
100
AcDbXrecord
280
     1
102
RTVSPropertyOp0
 70
     1
102
RTVSPropertyOp1
 70
     1
102
RTVSPropertyOp2
 70
     1
102
RTVSPropertyOp3
 70
     1
102
RTVSPropertyOp4
 70
     1
102
RTVSPropertyOp5
 70
     1
102
RTVSPropertyOp6
 70
     1
102
RTVSPropertyOp7
 70
     1
102
RTVSPropertyOp8
 70
     1
102
RTVSPropertyOp9
 70
     1
102
RTVSPropertyOp10
 70
     1
102
RTVSPropertyOp11
 70
     1
102
RTVSPropertyOp12
 70
     1
102
RTVSPropertyOp13
 70
     1
102
RTVSPropertyOp14
 70
     1
102
RTVSPropertyOp15
 70
     1
102
RTVSPropertyOp16
 70
     1
102
RTVSPropertyOp17
 70
     1
102
RTVSPropertyOp18
 70
     1
102
RTVSPropertyOp19
 70
     1
102
RTVSPropertyOp20
 70
     1
102
RTVSPropertyOp21
 70
     1
102
RTVSPropertyOp22
 70
     1
102
RTVSPropertyOp23
 70
     1
102
RTVSPropertyOp24
 70
     1
102
RTVSPropertyOp25
 70
     1
102
RTVSPropertyOp26
 70
     1
102
RTVSPropertyOp27
 70
     1
  0
ENDSEC
  0
EOF
