  0
SECTION
  2
HEADER
  9
$ACADVER
  1
AC1015
  9
$ACADMAINTVER
 70
     6
  9
$DWGCODEPAGE
  3
ANSI_932
  9
$INSBASE
 10
0.0
 20
0.0
 30
0.0
  9
$EXTMIN
 10
188.499644534538
 20
-7.10186854659066
 30
0.0
  9
$EXTMAX
 10
571.703474663406
 20
346.1198548855941
 30
0.0
  9
$LIMMIN
 10
0.0
 20
0.0
  9
$LIMMAX
 10
12.0
 20
9.0
  9
$ORTHOMODE
 70
     0
  9
$REGENMODE
 70
     1
  9
$FILLMODE
 70
     1
  9
$QTEXTMODE
 70
     0
  9
$MIRRTEXT
 70
     1
  9
$LTSCALE
 40
1.0
  9
$ATTMODE
 70
     1
  9
$TEXTSIZE
 40
0.2
  9
$TRACEWID
 40
0.05
  9
$TEXTSTYLE
  7
Standard
  9
$CLAYER
  8
0
  9
$CELTYPE
  6
ByLayer
  9
$CECOLOR
 62
   256
  9
$CELTSCALE
 40
1.0
  9
$DISPSILH
 70
     0
  9
$DIMSCALE
 40
1.0
  9
$DIMASZ
 40
0.18
  9
$DIMEXO
 40
0.0625
  9
$DIMDLI
 40
0.38
  9
$DIMRND
 40
0.0
  9
$DIMDLE
 40
0.0
  9
$DIMEXE
 40
0.18
  9
$DIMTP
 40
0.0
  9
$DIMTM
 40
0.0
  9
$DIMTXT
 40
0.18
  9
$DIMCEN
 40
0.09
  9
$DIMTSZ
 40
0.0
  9
$DIMTOL
 70
     0
  9
$DIMLIM
 70
     0
  9
$DIMTIH
 70
     1
  9
$DIMTOH
 70
     1
  9
$DIMSE1
 70
     0
  9
$DIMSE2
 70
     0
  9
$DIMTAD
 70
     0
  9
$DIMZIN
 70
     0
  9
$DIMBLK
  1

  9
$DIMASO
 70
     1
  9
$DIMSHO
 70
     1
  9
$DIMPOST
  1

  9
$DIMAPOST
  1

  9
$DIMALT
 70
     0
  9
$DIMALTD
 70
     2
  9
$DIMALTF
 40
25.4
  9
$DIMLFAC
 40
1.0
  9
$DIMTOFL
 70
     0
  9
$DIMTVP
 40
0.0
  9
$DIMTIX
 70
     0
  9
$DIMSOXD
 70
     0
  9
$DIMSAH
 70
     0
  9
$DIMBLK1
  1

  9
$DIMBLK2
  1

  9
$DIMSTYLE
  2
Standard
  9
$DIMCLRD
 70
     0
  9
$DIMCLRE
 70
     0
  9
$DIMCLRT
 70
     0
  9
$DIMTFAC
 40
1.0
  9
$DIMGAP
 40
0.09
  9
$DIMJUST
 70
     0
  9
$DIMSD1
 70
     0
  9
$DIMSD2
 70
     0
  9
$DIMTOLJ
 70
     1
  9
$DIMTZIN
 70
     0
  9
$DIMALTZ
 70
     0
  9
$DIMALTTZ
 70
     0
  9
$DIMUPT
 70
     0
  9
$DIMDEC
 70
     4
  9
$DIMTDEC
 70
     4
  9
$DIMALTU
 70
     2
  9
$DIMALTTD
 70
     2
  9
$DIMTXSTY
  7
Standard
  9
$DIMAUNIT
 70
     0
  9
$DIMADEC
 70
     0
  9
$DIMALTRND
 40
0.0
  9
$DIMAZIN
 70
     0
  9
$DIMDSEP
 70
    46
  9
$DIMATFIT
 70
     3
  9
$DIMFRAC
 70
     0
  9
$DIMLDRBLK
  1

  9
$DIMLUNIT
 70
     2
  9
$DIMLWD
 70
    -2
  9
$DIMLWE
 70
    -2
  9
$DIMTMOVE
 70
     0
  9
$LUNITS
 70
     2
  9
$LUPREC
 70
     4
  9
$SKETCHINC
 40
0.1
  9
$FILLETRAD
 40
0.5
  9
$AUNITS
 70
     0
  9
$AUPREC
 70
     0
  9
$MENU
  1
.
  9
$ELEVATION
 40
0.0
  9
$PELEVATION
 40
0.0
  9
$THICKNESS
 40
0.0
  9
$LIMCHECK
 70
     0
  9
$CHAMFERA
 40
0.5
  9
$CHAMFERB
 40
0.5
  9
$CHAMFERC
 40
1.0
  9
$CHAMFERD
 40
0.0
  9
$SKPOLY
 70
     0
  9
$TDCREATE
 40
2457624.405292882
  9
$TDUCREATE
 40
2457624.030292882
  9
$TDUPDATE
 40
2457624.405292893
  9
$TDUUPDATE
 40
2457624.030292893
  9
$TDINDWG
 40
0.0000000116
  9
$TDUSRTIMER
 40
0.0000000116
  9
$USRTIMER
 70
     1
  9
$ANGBASE
 50
0.0
  9
$ANGDIR
 70
     0
  9
$PDMODE
 70
     0
  9
$PDSIZE
 40
0.0
  9
$PLINEWID
 40
0.0
  9
$SPLFRAME
 70
     0
  9
$SPLINETYPE
 70
     6
  9
$SPLINESEGS
 70
     8
  9
$HANDSEED
  5
32E
  9
$SURFTAB1
 70
     6
  9
$SURFTAB2
 70
     6
  9
$SURFTYPE
 70
     6
  9
$SURFU
 70
     6
  9
$SURFV
 70
     6
  9
$UCSBASE
  2

  9
$UCSNAME
  2

  9
$UCSORG
 10
0.0
 20
0.0
 30
0.0
  9
$UCSXDIR
 10
1.0
 20
0.0
 30
0.0
  9
$UCSYDIR
 10
0.0
 20
1.0
 30
0.0
  9
$UCSORTHOREF
  2

  9
$UCSORTHOVIEW
 70
     0
  9
$UCSORGTOP
 10
0.0
 20
0.0
 30
0.0
  9
$UCSORGBOTTOM
 10
0.0
 20
0.0
 30
0.0
  9
$UCSORGLEFT
 10
0.0
 20
0.0
 30
0.0
  9
$UCSORGRIGHT
 10
0.0
 20
0.0
 30
0.0
  9
$UCSORGFRONT
 10
0.0
 20
0.0
 30
0.0
  9
$UCSORGBACK
 10
0.0
 20
0.0
 30
0.0
  9
$PUCSBASE
  2

  9
$PUCSNAME
  2

  9
$PUCSORG
 10
0.0
 20
0.0
 30
0.0
  9
$PUCSXDIR
 10
1.0
 20
0.0
 30
0.0
  9
$PUCSYDIR
 10
0.0
 20
1.0
 30
0.0
  9
$PUCSORTHOREF
  2

  9
$PUCSORTHOVIEW
 70
     0
  9
$PUCSORGTOP
 10
0.0
 20
0.0
 30
0.0
  9
$PUCSORGBOTTOM
 10
0.0
 20
0.0
 30
0.0
  9
$PUCSORGLEFT
 10
0.0
 20
0.0
 30
0.0
  9
$PUCSORGRIGHT
 10
0.0
 20
0.0
 30
0.0
  9
$PUCSORGFRONT
 10
0.0
 20
0.0
 30
0.0
  9
$PUCSORGBACK
 10
0.0
 20
0.0
 30
0.0
  9
$USERI1
 70
     0
  9
$USERI2
 70
     0
  9
$USERI3
 70
     0
  9
$USERI4
 70
     0
  9
$USERI5
 70
     0
  9
$USERR1
 40
18.0
  9
$USERR2
 40
0.0
  9
$USERR3
 40
0.0
  9
$USERR4
 40
0.0
  9
$USERR5
 40
0.0
  9
$WORLDVIEW
 70
     1
  9
$SHADEDGE
 70
     3
  9
$SHADEDIF
 70
    70
  9
$TILEMODE
 70
     1
  9
$MAXACTVP
 70
    64
  9
$PINSBASE
 10
0.0
 20
0.0
 30
0.0
  9
$PLIMCHECK
 70
     0
  9
$PEXTMIN
 10
1.00000000000000E+20
 20
1.00000000000000E+20
 30
1.00000000000000E+20
  9
$PEXTMAX
 10
-1.00000000000000E+20
 20
-1.00000000000000E+20
 30
-1.00000000000000E+20
  9
$PLIMMIN
 10
0.0
 20
0.0
  9
$PLIMMAX
 10
12.0
 20
9.0
  9
$UNITMODE
 70
     0
  9
$VISRETAIN
 70
     1
  9
$PLINEGEN
 70
     0
  9
$PSLTSCALE
 70
     1
  9
$TREEDEPTH
 70
  3020
  9
$CMLSTYLE
  2
Standard
  9
$CMLJUST
 70
     0
  9
$CMLSCALE
 40
1.0
  9
$PROXYGRAPHICS
 70
     1
  9
$MEASUREMENT
 70
     1
  9
$CELWEIGHT
370
    -1
  9
$ENDCAPS
280
     0
  9
$JOINSTYLE
280
     0
  9
$LWDISPLAY
290
     0
  9
$INSUNITS
 70
     1
  9
$HYPERLINKBASE
  1

  9
$STYLESHEET
  1

  9
$XEDIT
290
     1
  9
$CEPSNTYPE
380
     0
  9
$PSTYLEMODE
290
     1
  9
$FINGERPRINTGUID
  2
{48E54F1F-FEE3-4421-BA4A-6AECDE3BDA7A}
  9
$VERSIONGUID
  2
{FAEB1C32-E019-11D5-929B-00C0DF256EC4}
  9
$EXTNAMES
290
     1
  9
$PSVPSCALE
 40
0.0
  9
$OLESTARTUP
290
     0
  0
ENDSEC
  0
SECTION
  2
CLASSES
  0
CLASS
  1
ACDBDICTIONARYWDFLT
  2
AcDbDictionaryWithDefault
  3
ObjectDBX Classes
 90
        0
280
     0
281
     0
  0
CLASS
  1
VISUALSTYLE
  2
AcDbVisualStyle
  3
ObjectDBX Classes
 90
     4095
280
     0
281
     0
  0
CLASS
  1
MATERIAL
  2
AcDbMaterial
  3
ObjectDBX Classes
 90
     1153
280
     0
281
     0
  0
CLASS
  1

  2
exOdDbCircle
  3

 90
        0
280
     0
281
     1
  0
CLASS
  1

  2
exOdDbPolyline
  3

 90
        0
280
     0
281
     1
  0
CLASS
  1
SCALE
  2
AcDbScale
  3
ObjectDBX Classes
 90
     1153
280
     0
281
     0
  0
CLASS
  1
DICTIONARYVAR
  2
AcDbDictionaryVar
  3
ObjectDBX Classes
 90
        0
280
     0
281
     0
  0
CLASS
  1
ACDBPLACEHOLDER
  2
AcDbPlaceHolder
  3
ObjectDBX Classes
 90
        0
280
     0
281
     0
  0
CLASS
  1
LAYOUT
  2
AcDbLayout
  3
ObjectDBX Classes
 90
        0
280
     0
281
     0
  0
ENDSEC
  0
SECTION
  2
TABLES
  0
TABLE
  2
VPORT
  5
8
330
0
100
AcDbSymbolTable
 70
     1
  0
VPORT
  5
29
330
8
100
AcDbSymbolTableRecord
100
AcDbViewportTableRecord
  2
*Active
 70
     0
 10
0.0
 20
0.0
 11
1.0
 21
1.0
 12
380.101559598972
 22
169.5089931695017
 13
0.0
 23
0.0
 14
0.5
 24
0.5
 15
0.5
 25
0.5
 16
0.0
 26
0.0
 36
1.0
 17
0.0
 27
0.0
 37
0.0
 40
388.5438957754033
 41
1.60267857142857
 42
50.0
 43
0.0
 44
0.0
 50
0.0
 51
0.0
 71
     0
 72
   100
 73
     1
 74
     3
 75
     0
 76
     0
 77
     0
 78
     0
281
     0
 65
     1
110
0.0
120
0.0
130
0.0
111
1.0
121
0.0
131
0.0
112
0.0
122
1.0
132
0.0
 79
     0
146
0.0
  0
ENDTAB
  0
TABLE
  2
LTYPE
  5
5
330
0
100
AcDbSymbolTable
 70
     9
  0
LTYPE
  5
14
330
5
100
AcDbSymbolTableRecord
100
AcDbLinetypeTableRecord
  2
ByBlock
 70
     0
  3

 72
    65
 73
     0
 40
0.0
  0
LTYPE
  5
15
330
5
100
AcDbSymbolTableRecord
100
AcDbLinetypeTableRecord
  2
ByLayer
 70
     0
  3

 72
    65
 73
     0
 40
0.0
  0
LTYPE
  5
16
330
5
100
AcDbSymbolTableRecord
100
AcDbLinetypeTableRecord
  2
Continuous
 70
     0
  3
Solid line
 72
    65
 73
     0
 40
0.0
  0
LTYPE
  5
3F
330
5
100
AcDbSymbolTableRecord
100
AcDbLinetypeTableRecord
  2
DASHED
 70
     0
  3
Dashed
 72
    65
 73
     2
 40
15.0
 49
7.0
 74
     0
 49
-8.0
 74
     0
  0
LTYPE
  5
40
330
5
100
AcDbSymbolTableRecord
100
AcDbLinetypeTableRecord
  2
DOTTED
 70
     0
  3
Dotted
 72
    65
 73
     2
 40
1.0
 49
0.0
 74
     0
 49
-1.0
 74
     0
  0
LTYPE
  5
41
330
5
100
AcDbSymbolTableRecord
100
AcDbLinetypeTableRecord
  2
DOT_CENTER
 70
     0
  3
Dot_Center
 72
    65
 73
     4
 40
14.0
 49
12.0
 74
     0
 49
-1.0
 74
     0
 49
0.0
 74
     0
 49
-1.0
 74
     0
  0
LTYPE
  5
42
330
5
100
AcDbSymbolTableRecord
100
AcDbLinetypeTableRecord
  2
LONG_DASHED
 70
     0
  3
Long_Dashed
 72
    65
 73
     2
 40
15.0
 49
10.0
 74
     0
 49
-5.0
 74
     0
  0
LTYPE
  5
43
330
5
100
AcDbSymbolTableRecord
100
AcDbLinetypeTableRecord
  2
DASH_CENTER
 70
     0
  3
Dash_Center
 72
    65
 73
     4
 40
14.0
 49
11.0
 74
     0
 49
-1.0
 74
     0
 49
1.0
 74
     0
 49
-1.0
 74
     0
  0
LTYPE
  5
44
330
5
100
AcDbSymbolTableRecord
100
AcDbLinetypeTableRecord
  2
PHANTOM
 70
     0
  3
Phantom
 72
    65
 73
     6
 40
13.0
 49
10.0
 74
     0
 49
-1.0
 74
     0
 49
0.0
 74
     0
 49
-1.0
 74
     0
 49
0.0
 74
     0
 49
-1.0
 74
     0
  0
LTYPE
  5
45
330
5
100
AcDbSymbolTableRecord
100
AcDbLinetypeTableRecord
  2
CENTER_DASH_DASH
 70
     0
  3
Center_Dash_Dash
 72
    65
 73
     6
 40
14.0
 49
9.0
 74
     0
 49
-1.0
 74
     0
 49
1.0
 74
     0
 49
-1.0
 74
     0
 49
1.0
 74
     0
 49
-1.0
 74
     0
  0
LTYPE
  5
46
330
5
100
AcDbSymbolTableRecord
100
AcDbLinetypeTableRecord
  2
CENTER
 70
     0
  3
CENTER
 72
    65
 73
     4
 40
6.0
 49
3.0
 74
     0
 49
-1.0
 74
     0
 49
1.0
 74
     0
 49
-1.0
 74
     0
  0
ENDTAB
  0
TABLE
  2
LAYER
  5
2
330
0
100
AcDbSymbolTable
 70
     5
  0
LAYER
  5
10
330
2
100
AcDbSymbolTableRecord
100
AcDbLayerTableRecord
  2
0
 70
     0
 62
     7
  6
Continuous
370
    -3
390
F
  0
LAYER
  5
47
330
2
100
AcDbSymbolTableRecord
100
AcDbLayerTableRecord
  2
1
 70
     0
 62
     7
  6
Continuous
370
    -3
390
F
  0
LAYER
  5
48
330
2
100
AcDbSymbolTableRecord
100
AcDbLayerTableRecord
  2
100
 70
     0
 62
     7
  6
Continuous
370
    -3
390
F
  0
LAYER
  5
49
330
2
100
AcDbSymbolTableRecord
100
AcDbLayerTableRecord
  2
2
 70
     0
 62
     7
  6
Continuous
370
    -3
390
F
  0
LAYER
  5
4A
330
2
100
AcDbSymbolTableRecord
100
AcDbLayerTableRecord
  2
5
 70
     0
 62
     7
  6
Continuous
370
    -3
390
F
  0
ENDTAB
  0
TABLE
  2
STYLE
  5
3
330
0
100
AcDbSymbolTable
 70
     2
  0
STYLE
  5
11
330
3
100
AcDbSymbolTableRecord
100
AcDbTextStyleTableRecord
  2
Standard
 70
     0
 40
0.0
 41
1.0
 50
0.0
 71
     0
 42
0.2
  3
txt
  4

  0
STYLE
  5
2C7
330
3
100
AcDbSymbolTableRecord
100
AcDbTextStyleTableRecord
  2
CONVERTER_11
 70
     0
 40
0.0
 41
0.9
 50
0.0
 71
     0
 42
0.2
  3
txt.shx
  4

  0
ENDTAB
  0
TABLE
  2
VIEW
  5
6
330
0
100
AcDbSymbolTable
 70
     0
  0
ENDTAB
  0
TABLE
  2
UCS
  5
7
330
0
100
AcDbSymbolTable
 70
     0
  0
ENDTAB
  0
TABLE
  2
APPID
  5
9
330
0
100
AcDbSymbolTable
 70
     1
  0
APPID
  5
12
330
9
100
AcDbSymbolTableRecord
100
AcDbRegAppTableRecord
  2
ACAD
 70
     0
  0
ENDTAB
  0
TABLE
  2
DIMSTYLE
  5
A
330
0
100
AcDbSymbolTable
 70
     3
100
AcDbDimStyleTable
  0
DIMSTYLE
105
27
330
A
100
AcDbSymbolTableRecord
100
AcDbDimStyleTableRecord
  2
Standard
 70
     0
340
11
  0
DIMSTYLE
105
2F3
102
{ACAD_REACTORS
330
2F4
102
}
330
A
100
AcDbSymbolTableRecord
100
AcDbDimStyleTableRecord
  2
ME10_DIM_10
 70
     0
 41
8.0
 42
1.0
 44
1.0
 73
     0
 74
     0
 77
     1
 78
    12
140
10.0
147
1.0
172
     1
173
     1
174
     1
175
     1
176
     2
177
     2
178
     2
271
     3
340
2C7
343
2ED
344
2ED
  0
DIMSTYLE
105
300
102
{ACAD_REACTORS
330
301
102
}
330
A
100
AcDbSymbolTableRecord
100
AcDbDimStyleTableRecord
  2
ME10_DIM_11
 70
     0
 41
8.0
 42
1.0
 44
1.0
 73
     0
 74
     0
 77
     1
 78
    12
140
10.0
147
1.0
172
     1
173
     1
174
     1
175
     1
176
     2
177
     2
178
     2
271
     3
340
2C7
343
2ED
344
2ED
  0
ENDTAB
  0
TABLE
  2
BLOCK_RECORD
  5
1
330
0
100
AcDbSymbolTable
 70
     4
  0
BLOCK_RECORD
  5
1F
330
1
100
AcDbSymbolTableRecord
100
AcDbBlockTableRecord
  2
*Model_Space
340
22
  0
BLOCK_RECORD
  5
1B
330
1
100
AcDbSymbolTableRecord
100
AcDbBlockTableRecord
  2
*Paper_Space
340
1E
  0
BLOCK_RECORD
  5
23
330
1
100
AcDbSymbolTableRecord
100
AcDbBlockTableRecord
  2
*Paper_Space0
340
26
  0
BLOCK_RECORD
  5
2BF
330
1
100
AcDbSymbolTableRecord
100
AcDbBlockTableRecord
  2
*D1
340
0
  0
BLOCK_RECORD
  5
2ED
330
1
100
AcDbSymbolTableRecord
100
AcDbBlockTableRecord
  2
_OPEN30
340
0
  0
BLOCK_RECORD
  5
2F5
330
1
100
AcDbSymbolTableRecord
100
AcDbBlockTableRecord
  2
*D3
340
0
  0
ENDTAB
  0
ENDSEC
  0
SECTION
  2
BLOCKS
  0
BLOCK
  5
20
330
1F
100
AcDbEntity
  8
0
100
AcDbBlockBegin
  2
*Model_Space
 70
     0
 10
0.0
 20
0.0
 30
0.0
  3
*Model_Space
  1

  0
ENDBLK
  5
21
330
1F
100
AcDbEntity
  8
0
100
AcDbBlockEnd
  0
BLOCK
  5
1C
330
1B
100
AcDbEntity
 67
     1
  8
0
100
AcDbBlockBegin
  2
*Paper_Space
 70
     0
 10
0.0
 20
0.0
 30
0.0
  3
*Paper_Space
  1

  0
ENDBLK
  5
1D
330
1B
100
AcDbEntity
 67
     1
  8
0
100
AcDbBlockEnd
  0
BLOCK
  5
24
330
23
100
AcDbEntity
  8
0
100
AcDbBlockBegin
  2
*Paper_Space0
 70
     0
 10
0.0
 20
0.0
 30
0.0
  3
*Paper_Space0
  1

  0
ENDBLK
  5
25
330
23
100
AcDbEntity
  8
0
100
AcDbBlockEnd
  0
BLOCK
  5
2EB
330
2BF
100
AcDbEntity
  8
0
100
AcDbBlockBegin
  2
*D1
 70
     1
 10
0.0
 20
0.0
 30
0.0
  3
*D1
  1

  0
LINE
  5
2C0
330
2BF
100
AcDbEntity
  8
1
  6
Continuous
 62
     2
100
AcDbLine
 10
395.2385750624639
 20
-4.95827500714168
 30
0.0
 11
245.2385750624639
 21
-4.95827500714168
 31
0.0
  0
LINE
  5
2C1
330
2BF
100
AcDbEntity
  8
1
  6
Continuous
 62
     2
100
AcDbLine
 10
395.2385750624639
 20
41.60000000000002
 30
0.0
 11
395.2385750624639
 21
-5.95827500714168
 31
0.0
  0
LINE
  5
2C2
330
2BF
100
AcDbEntity
  8
1
  6
Continuous
 62
     2
100
AcDbLine
 10
245.2385750624639
 20
41.60000000000002
 30
0.0
 11
245.2385750624639
 21
-5.95827500714168
 31
0.0
  0
LINE
  5
2C3
330
2BF
100
AcDbEntity
  8
1
 62
     2
100
AcDbLine
 10
245.2385750624639
 20
-4.95827500714168
 30
0.0
 11
253.2385750624639
 21
-2.8146814676927
 31
0.0
  0
LINE
  5
2C4
330
2BF
100
AcDbEntity
  8
1
 62
     2
100
AcDbLine
 10
245.2385750624639
 20
-4.95827500714168
 30
0.0
 11
253.2385750624639
 21
-7.10186854659066
 31
0.0
  0
LINE
  5
2C5
330
2BF
100
AcDbEntity
  8
1
 62
     2
100
AcDbLine
 10
395.2385750624639
 20
-4.95827500714168
 30
0.0
 11
387.2385750624639
 21
-7.10186854659066
 31
0.0
  0
LINE
  5
2C6
330
2BF
100
AcDbEntity
  8
1
 62
     2
100
AcDbLine
 10
395.2385750624639
 20
-4.95827500714168
 30
0.0
 11
387.2385750624639
 21
-2.8146814676927
 31
0.0
  0
MTEXT
  5
2EA
330
2BF
100
AcDbEntity
  8
1
 62
     2
100
AcDbMText
 10
310.2385726383956
 20
-3.95830184156424
 30
0.0
 40
10.0
 41
0.0
 71
     7
 72
     1
  1
150
  7
CONVERTER_11
 11
0.9999999999882478
 21
4.848136811095759E-6
 31
0.0
 73
     1
 44
0.60024009603842
  0
ENDBLK
  5
2EC
330
2BF
100
AcDbEntity
  8
0
100
AcDbBlockEnd
  0
BLOCK
  5
2EE
330
2ED
100
AcDbEntity
  8
0
100
AcDbBlockBegin
  2
_OPEN30
 70
     0
 10
0.0
 20
0.0
 30
0.0
  3
_OPEN30
  1

  0
LINE
  5
2F0
330
2ED
100
AcDbEntity
  8
0
  6
ByBlock
 62
     0
370
    -2
100
AcDbLine
 10
-1.0
 20
0.267949
 30
0.0
 11
0.0
 21
0.0
 31
0.0
  0
LINE
  5
2F1
330
2ED
100
AcDbEntity
  8
0
  6
ByBlock
 62
     0
370
    -2
100
AcDbLine
 10
0.0
 20
0.0
 30
0.0
 11
-1.0
 21
-0.267949
 31
0.0
  0
LINE
  5
2F2
330
2ED
100
AcDbEntity
  8
0
  6
ByBlock
 62
     0
370
    -2
100
AcDbLine
 10
0.0
 20
0.0
 30
0.0
 11
-1.0
 21
0.0
 31
0.0
  0
ENDBLK
  5
2EF
330
2ED
100
AcDbEntity
  8
0
100
AcDbBlockEnd
  0
BLOCK
  5
2FE
330
2F5
100
AcDbEntity
  8
0
100
AcDbBlockBegin
  2
*D3
 70
     1
 10
0.0
 20
0.0
 30
0.0
  3
*D3
  1

  0
LINE
  5
2F6
330
2F5
100
AcDbEntity
  8
1
  6
Continuous
 62
     2
100
AcDbLine
 10
428.866220550855
 20
227.000000000001
 30
0.0
 11
428.866220550855
 21
80.0
 31
0.0
  0
LINE
  5
2F7
330
2F5
100
AcDbEntity
  8
1
  6
Continuous
 62
     2
100
AcDbLine
 10
360.896961137843
 20
227.000000000001
 30
0.0
 11
429.866220550855
 21
227.000000000001
 31
0.0
  0
LINE
  5
2F8
330
2F5
100
AcDbEntity
  8
1
  6
Continuous
 62
     2
100
AcDbLine
 10
400.738575062464
 20
80.0
 30
0.0
 11
429.866220550855
 21
80.0
 31
0.0
  0
LINE
  5
2F9
330
2F5
100
AcDbEntity
  8
1
 62
     2
100
AcDbLine
 10
428.866220550855
 20
80.0
 30
0.0
 11
426.722627011406
 21
88.0
 31
0.0
  0
LINE
  5
2FA
330
2F5
100
AcDbEntity
  8
1
 62
     2
100
AcDbLine
 10
428.866220550855
 20
80.0
 30
0.0
 11
431.009814090304
 21
88.0
 31
0.0
  0
LINE
  5
2FB
330
2F5
100
AcDbEntity
  8
1
 62
     2
100
AcDbLine
 10
428.866220550855
 20
227.000000000001
 30
0.0
 11
431.009814090304
 21
219.000000000001
 31
0.0
  0
LINE
  5
2FC
330
2F5
100
AcDbEntity
  8
1
 62
     2
100
AcDbLine
 10
428.866220550855
 20
227.000000000001
 30
0.0
 11
426.722627011406
 21
219.000000000001
 31
0.0
  0
MTEXT
  5
2FD
330
2F5
100
AcDbEntity
  8
1
 62
     2
100
AcDbMText
 10
427.866220550855
 20
149.430000000001
 30
0.0
 40
10.0
 41
0.0
 71
     7
 72
     1
  1
147
  7
CONVERTER_11
 11
0.0
 21
1.0
 31
0.0
 73
     1
 44
0.60024009603842
  0
ENDBLK
  5
2FF
330
2F5
100
AcDbEntity
  8
0
100
AcDbBlockEnd
  0
ENDSEC
  0
SECTION
  2
ENTITIES
  0
POINT
  5
4B
330
1F
100
AcDbEntity
  8
1
 62
     7
100
AcDbPoint
 10
395.238575062464
 20
42.6
 30
0.0
  0
POINT
  5
4C
330
1F
100
AcDbEntity
  8
1
 62
     7
100
AcDbPoint
 10
245.238575062464
 20
42.6
 30
0.0
  0
POINT
  5
4D
330
1F
100
AcDbEntity
  8
1
 62
     7
100
AcDbPoint
 10
359.896961137843
 20
227.000000000001
 30
0.0
  0
POINT
  5
4E
330
1F
100
AcDbEntity
  8
1
 62
     7
100
AcDbPoint
 10
399.738575062464
 20
80.0
 30
0.0
  0
POINT
  5
4F
330
1F
100
AcDbEntity
  8
1
 62
     7
100
AcDbPoint
 10
395.238575062464
 20
42.6
 30
0.0
  0
POINT
  5
50
330
1F
100
AcDbEntity
  8
1
 62
     7
100
AcDbPoint
 10
245.238575062464
 20
42.6
 30
0.0
  0
POINT
  5
51
330
1F
100
AcDbEntity
  8
1
 62
     7
100
AcDbPoint
 10
359.896961137843
 20
227.000000000001
 30
0.0
  0
POINT
  5
52
330
1F
100
AcDbEntity
  8
1
 62
     7
100
AcDbPoint
 10
399.738575062464
 20
80.0
 30
0.0
  0
LINE
  5
53
330
1F
100
AcDbEntity
  8
1
  6
Continuous
 62
     4
100
AcDbLine
 10
343.129056007134
 20
18.9194664900974
 30
0.0
 11
342.336956007134
 21
17.6694664900974
 31
0.0
  0
LINE
  5
54
330
1F
100
AcDbEntity
  8
1
  6
Continuous
 62
     4
100
AcDbLine
 10
342.336956007134
 20
20.1694664900974
 30
0.0
 11
343.129056007134
 21
18.9194664900974
 31
0.0
  0
LINE
  5
55
330
1F
100
AcDbEntity
  8
1
  6
Continuous
 62
     4
100
AcDbLine
 10
337.188306007134
 20
18.9194664900974
 30
0.0
 11
343.129056007134
 21
18.9194664900974
 31
0.0
  0
LINE
  5
56
330
1F
100
AcDbEntity
  8
1
  6
Continuous
 62
     4
100
AcDbLine
 10
330.653481007134
 20
21.7944664900974
 30
0.0
 11
335.208056007134
 21
21.7944664900974
 31
0.0
  0
LINE
  5
57
330
1F
100
AcDbEntity
  8
1
  6
Continuous
 62
     4
100
AcDbLine
 10
330.653481007134
 20
21.7944664900974
 30
0.0
 11
331.742618507134
 21
23.6694664900974
 31
0.0
  0
LINE
  5
58
330
1F
100
AcDbEntity
  8
1
  6
Continuous
 62
     4
100
AcDbLine
 10
333.227806007134
 20
17.0444664900974
 30
0.0
 11
331.544593507134
 21
17.0444664900974
 31
0.0
  0
LINE
  5
59
330
1F
100
AcDbEntity
  8
1
  6
Continuous
 62
     4
100
AcDbLine
 10
333.227806007134
 20
19.5444664900974
 30
0.0
 11
333.227806007134
 21
17.0444664900974
 31
0.0
  0
LINE
  5
5A
330
1F
100
AcDbEntity
  8
1
  6
Continuous
 62
     4
100
AcDbLine
 10
331.544593507134
 20
19.5444664900974
 30
0.0
 11
333.227806007134
 21
19.5444664900974
 31
0.0
  0
LINE
  5
5B
330
1F
100
AcDbEntity
  8
1
  6
Continuous
 62
     4
100
AcDbLine
 10
331.544593507134
 20
17.0444664900974
 30
0.0
 11
331.544593507134
 21
19.5444664900974
 31
0.0
  0
LINE
  5
5C
330
1F
100
AcDbEntity
  8
1
  6
Continuous
 62
     4
100
AcDbLine
 10
335.208056007134
 20
14.2944664900974
 30
0.0
 11
334.118918507134
 21
14.2944664900974
 31
0.0
  0
LINE
  5
5D
330
1F
100
AcDbEntity
  8
1
  6
Continuous
 62
     4
100
AcDbLine
 10
335.208056007134
 20
21.7944664900974
 30
0.0
 11
335.208056007134
 21
14.2944664900974
 31
0.0
  0
LINE
  5
5E
330
1F
100
AcDbEntity
  8
1
  6
Continuous
 62
     4
100
AcDbLine
 10
329.564343507134
 20
21.7944664900974
 30
0.0
 11
330.653481007134
 21
21.7944664900974
 31
0.0
  0
LINE
  5
5F
330
1F
100
AcDbEntity
  8
1
  6
Continuous
 62
     4
100
AcDbLine
 10
329.564343507134
 20
14.2944664900974
 30
0.0
 11
329.564343507134
 21
21.7944664900974
 31
0.0
  0
LINE
  5
60
330
1F
100
AcDbEntity
  8
1
  6
Continuous
 62
     4
100
AcDbLine
 10
325.306806007134
 20
13.9194664900974
 30
0.0
 11
324.514706007134
 21
14.5444664900974
 31
0.0
  0
LINE
  5
61
330
1F
100
AcDbEntity
  8
1
  6
Continuous
 62
     4
100
AcDbLine
 10
325.801868507134
 20
14.9194664900974
 30
0.0
 11
325.306806007134
 21
13.9194664900974
 31
0.0
  0
LINE
  5
62
330
1F
100
AcDbEntity
  8
1
  6
Continuous
 62
     4
100
AcDbLine
 10
326.197918507134
 20
16.4194664900974
 30
0.0
 11
325.801868507134
 21
14.9194664900974
 31
0.0
  0
LINE
  5
63
330
1F
100
AcDbEntity
  8
1
  6
Continuous
 62
     4
100
AcDbLine
 10
326.692981007134
 20
18.6694664900974
 30
0.0
 11
326.197918507134
 21
16.4194664900974
 31
0.0
  0
LINE
  5
64
330
1F
100
AcDbEntity
  8
1
  6
Continuous
 62
     4
100
AcDbLine
 10
326.692981007134
 20
19.5444664900974
 30
0.0
 11
326.692981007134
 21
18.6694664900974
 31
0.0
  0
LINE
  5
65
330
1F
100
AcDbEntity
  8
1
  6
Continuous
 62
     4
100
AcDbLine
 10
323.821618507134
 20
19.5444664900974
 30
0.0
 11
326.692981007134
 21
19.5444664900974
 31
0.0
  0
LINE
  5
66
330
1F
100
AcDbEntity
  8
1
  6
Continuous
 62
     4
100
AcDbLine
 10
321.148281007134
 20
22.0444664900974
 30
0.0
 11
327.782118507134
 21
22.0444664900974
 31
0.0
  0
LINE
  5
67
330
1F
100
AcDbEntity
  8
1
  6
Continuous
 62
     4
100
AcDbLine
 10
324.019643507134
 20
21.1694664900974
 30
0.0
 11
324.217668507134
 21
23.6694664900974
 31
0.0
  0
LINE
  5
68
330
1F
100
AcDbEntity
  8
1
  6
Continuous
 62
     4
100
AcDbLine
 10
323.623593507134
 20
18.6694664900974
 30
0.0
 11
324.019643507134
 21
21.1694664900974
 31
0.0
  0
LINE
  5
69
330
1F
100
AcDbEntity
  8
1
  6
Continuous
 62
     4
100
AcDbLine
 10
323.128531007134
 20
17.0444664900974
 30
0.0
 11
323.623593507134
 21
18.6694664900974
 31
0.0
  0
LINE
  5
6A
330
1F
100
AcDbEntity
  8
1
  6
Continuous
 62
     4
100
AcDbLine
 10
322.534456007134
 20
15.5444664900974
 30
0.0
 11
323.128531007134
 21
17.0444664900974
 31
0.0
  0
LINE
  5
6B
330
1F
100
AcDbEntity
  8
1
  6
Continuous
 62
     4
100
AcDbLine
 10
321.643343507134
 20
14.2944664900974
 30
0.0
 11
322.534456007134
 21
15.5444664900974
 31
0.0
  0
LINE
  5
6C
330
1F
100
AcDbEntity
  8
1
  6
Continuous
 62
     4
100
AcDbLine
 10
318.970006007134
 20
17.0444664900974
 30
0.0
 11
320.059143507134
 21
15.5444664900974
 31
0.0
  0
LINE
  5
6D
330
1F
100
AcDbEntity
  8
1
  6
Continuous
 62
     4
100
AcDbLine
 10
318.078893507134
 20
18.9194664900974
 30
0.0
 11
318.970006007134
 21
17.0444664900974
 31
0.0
  0
LINE
  5
6E
330
1F
100
AcDbEntity
  8
1
  6
Continuous
 62
     4
100
AcDbLine
 10
317.385806007134
 20
21.1694664900974
 30
0.0
 11
318.078893507134
 21
18.9194664900974
 31
0.0
  0
LINE
  5
6F
330
1F
100
AcDbEntity
  8
1
  6
Continuous
 62
     4
100
AcDbLine
 10
319.366056007134
 20
21.4194664900974
 30
0.0
 11
317.880868507134
 21
19.9194664900974
 31
0.0
  0
LINE
  5
70
330
1F
100
AcDbEntity
  8
1
  6
Continuous
 62
     4
100
AcDbLine
 10
316.791731007134
 20
13.9194664900974
 30
0.0
 11
316.098643507134
 21
14.2944664900974
 31
0.0
  0
LINE
  5
71
330
1F
100
AcDbEntity
  8
1
  6
Continuous
 62
     4
100
AcDbLine
 10
316.791731007134
 20
23.6694664900974
 30
0.0
 11
316.791731007134
 21
13.9194664900974
 31
0.0
  0
LINE
  5
72
330
1F
100
AcDbEntity
  8
1
  6
Continuous
 62
     4
100
AcDbLine
 10
315.702593507134
 20
20.5444664900974
 30
0.0
 11
313.425306007134
 21
20.5444664900974
 31
0.0
  0
LINE
  5
73
330
1F
100
AcDbEntity
  8
1
  6
Continuous
 62
     4
100
AcDbLine
 10
315.207531007134
 20
18.6694664900974
 30
0.0
 11
315.702593507134
 21
20.5444664900974
 31
0.0
  0
LINE
  5
74
330
1F
100
AcDbEntity
  8
1
  6
Continuous
 62
     4
100
AcDbLine
 10
314.316418507134
 20
16.7944664900974
 30
0.0
 11
315.207531007134
 21
18.6694664900974
 31
0.0
  0
LINE
  5
75
330
1F
100
AcDbEntity
  8
1
  6
Continuous
 62
     4
100
AcDbLine
 10
313.425306007134
 20
15.5444664900974
 30
0.0
 11
314.316418507134
 21
16.7944664900974
 31
0.0
  0
LINE
  5
76
330
1F
100
AcDbEntity
  8
1
  6
Continuous
 62
     4
100
AcDbLine
 10
309.068756007134
 20
22.4194664900974
 30
0.0
 11
311.742093507134
 21
22.4194664900974
 31
0.0
  0
LINE
  5
77
330
1F
100
AcDbEntity
  8
1
  6
Continuous
 62
     4
100
AcDbLine
 10
312.138143507134
 20
14.9194664900974
 30
0.0
 11
312.138143507134
 21
15.5444664900974
 31
0.0
  0
LINE
  5
78
330
1F
100
AcDbEntity
  8
1
  6
Continuous
 62
     4
100
AcDbLine
 10
311.742093507134
 20
14.2944664900974
 30
0.0
 11
312.138143507134
 21
14.9194664900974
 31
0.0
  0
LINE
  5
79
330
1F
100
AcDbEntity
  8
1
  6
Continuous
 62
     4
100
AcDbLine
 10
310.850981007134
 20
14.2944664900974
 30
0.0
 11
311.742093507134
 21
14.2944664900974
 31
0.0
  0
LINE
  5
7A
330
1F
100
AcDbEntity
  8
1
  6
Continuous
 62
     4
100
AcDbLine
 10
310.355918507134
 20
15.1694664900974
 30
0.0
 11
310.850981007134
 21
14.2944664900974
 31
0.0
  0
LINE
  5
7B
330
1F
100
AcDbEntity
  8
1
  6
Continuous
 62
     4
100
AcDbLine
 10
310.355918507134
 20
18.2944664900974
 30
0.0
 11
310.355918507134
 21
15.1694664900974
 31
0.0
  0
LINE
  5
7C
330
1F
100
AcDbEntity
  8
1
  6
Continuous
 62
     4
100
AcDbLine
 10
309.068756007134
 20
14.2944664900974
 30
0.0
 11
309.068756007134
 21
18.2944664900974
 31
0.0
  0
LINE
  5
7D
330
1F
100
AcDbEntity
  8
1
  6
Continuous
 62
     4
100
AcDbLine
 10
307.088506007134
 20
14.5444664900974
 30
0.0
 11
306.395418507134
 21
13.9194664900974
 31
0.0
  0
LINE
  5
7E
330
1F
100
AcDbEntity
  8
1
  6
Continuous
 62
     4
100
AcDbLine
 10
307.484556007134
 20
15.1694664900974
 30
0.0
 11
307.088506007134
 21
14.5444664900974
 31
0.0
  0
LINE
  5
7F
330
1F
100
AcDbEntity
  8
1
  6
Continuous
 62
     4
100
AcDbLine
 10
307.781593507134
 20
16.1694664900974
 30
0.0
 11
307.484556007134
 21
15.1694664900974
 31
0.0
  0
LINE
  5
80
330
1F
100
AcDbEntity
  8
1
  6
Continuous
 62
     4
100
AcDbLine
 10
307.979618507134
 20
18.2944664900974
 30
0.0
 11
307.781593507134
 21
16.1694664900974
 31
0.0
  0
LINE
  5
81
330
1F
100
AcDbEntity
  8
1
  6
Continuous
 62
     4
100
AcDbLine
 10
310.157893507134
 20
21.4194664900974
 30
0.0
 11
311.049006007134
 21
19.2944664900974
 31
0.0
  0
LINE
  5
82
330
1F
100
AcDbEntity
  8
1
  6
Continuous
 62
     4
100
AcDbLine
 10
307.286531007134
 20
19.9194664900974
 30
0.0
 11
310.652956007134
 21
20.1694664900974
 31
0.0
  0
LINE
  5
83
330
1F
100
AcDbEntity
  8
1
  6
Continuous
 62
     4
100
AcDbLine
 10
309.068756007134
 20
22.4194664900974
 30
0.0
 11
308.177643507134
 21
19.9194664900974
 31
0.0
  0
LINE
  5
84
330
1F
100
AcDbEntity
  8
1
  6
Continuous
 62
     4
100
AcDbLine
 10
309.266781007134
 20
23.9194664900974
 30
0.0
 11
309.266781007134
 21
22.4194664900974
 31
0.0
  0
LINE
  5
85
330
1F
100
AcDbEntity
  8
1
  6
Continuous
 62
     4
100
AcDbLine
 10
306.890481007134
 20
22.4194664900974
 30
0.0
 11
309.068756007134
 21
22.4194664900974
 31
0.0
  0
LINE
  5
86
330
1F
100
AcDbEntity
  8
1
  6
Continuous
 62
     4
100
AcDbLine
 10
305.306281007134
 20
14.2944664900974
 30
0.0
 11
306.197393507134
 21
18.2944664900974
 31
0.0
  0
LINE
  5
87
330
1F
100
AcDbEntity
  8
1
  6
Continuous
 62
     4
100
AcDbLine
 10
305.108256007134
 20
20.7944664900974
 30
0.0
 11
305.801343507134
 21
19.9194664900974
 31
0.0
  0
LINE
  5
88
330
1F
100
AcDbEntity
  8
1
  6
Continuous
 62
     4
100
AcDbLine
 10
305.801343507134
 20
23.6694664900974
 30
0.0
 11
306.197393507134
 21
22.6694664900974
 31
0.0
  0
LINE
  5
89
330
1F
100
AcDbEntity
  8
1
  6
Continuous
 62
     4
100
AcDbLine
 10
231.591960485492
 20
17.7025921306821
 30
0.0
 11
237.591960485492
 21
17.7025921306821
 31
0.0
  0
LINE
  5
8A
330
1F
100
AcDbEntity
  8
1
  6
Continuous
 62
     4
100
AcDbLine
 10
237.091960485492
 20
24.2025921306821
 30
0.0
 11
231.591960485492
 21
17.7025921306821
 31
0.0
  0
LINE
  5
8B
330
1F
100
AcDbEntity
  8
1
  6
Continuous
 62
     4
100
AcDbLine
 10
237.591960485492
 20
25.2025921306821
 30
0.0
 11
237.091960485492
 21
24.2025921306821
 31
0.0
  0
LINE
  5
8C
330
1F
100
AcDbEntity
  8
1
  6
Continuous
 62
     4
100
AcDbLine
 10
237.591960485492
 20
26.2025921306821
 30
0.0
 11
237.591960485492
 21
25.2025921306821
 31
0.0
  0
LINE
  5
8D
330
1F
100
AcDbEntity
  8
1
  6
Continuous
 62
     4
100
AcDbLine
 10
237.091960485492
 20
26.9525921306821
 30
0.0
 11
237.591960485492
 21
26.2025921306821
 31
0.0
  0
LINE
  5
8E
330
1F
100
AcDbEntity
  8
1
  6
Continuous
 62
     4
100
AcDbLine
 10
236.341960485492
 20
27.4525921306821
 30
0.0
 11
237.091960485492
 21
26.9525921306821
 31
0.0
  0
LINE
  5
8F
330
1F
100
AcDbEntity
  8
1
  6
Continuous
 62
     4
100
AcDbLine
 10
235.341960485492
 20
27.7025921306821
 30
0.0
 11
236.341960485492
 21
27.4525921306821
 31
0.0
  0
LINE
  5
90
330
1F
100
AcDbEntity
  8
1
  6
Continuous
 62
     4
100
AcDbLine
 10
233.841960485492
 20
27.7025921306821
 30
0.0
 11
235.341960485492
 21
27.7025921306821
 31
0.0
  0
LINE
  5
91
330
1F
100
AcDbEntity
  8
1
  6
Continuous
 62
     4
100
AcDbLine
 10
232.841960485492
 20
27.4525921306821
 30
0.0
 11
233.841960485492
 21
27.7025921306821
 31
0.0
  0
LINE
  5
92
330
1F
100
AcDbEntity
  8
1
  6
Continuous
 62
     4
100
AcDbLine
 10
232.091960485492
 20
26.9525921306821
 30
0.0
 11
232.841960485492
 21
27.4525921306821
 31
0.0
  0
LINE
  5
93
330
1F
100
AcDbEntity
  8
1
  6
Continuous
 62
     4
100
AcDbLine
 10
231.591960485492
 20
26.2025921306821
 30
0.0
 11
232.091960485492
 21
26.9525921306821
 31
0.0
  0
LINE
  5
94
330
1F
100
AcDbEntity
  8
1
  6
Continuous
 62
     4
100
AcDbLine
 10
224.591960485492
 20
17.7025921306821
 30
0.0
 11
228.591960485492
 21
27.7025921306821
 31
0.0
  0
LINE
  5
95
330
1F
100
AcDbEntity
  8
1
  6
Continuous
 62
     4
100
AcDbLine
 10
221.591960485492
 20
27.7025921306821
 30
0.0
 11
221.591960485492
 21
17.7025921306821
 31
0.0
  0
LINE
  5
96
330
1F
100
AcDbEntity
  8
1
  6
Continuous
 62
     4
100
AcDbLine
 10
218.591960485492
 20
24.7025921306821
 30
0.0
 11
221.591960485492
 21
27.7025921306821
 31
0.0
  0
LINE
  5
97
330
1F
100
AcDbEntity
  8
1
  6
Continuous
 62
     4
100
AcDbLine
 10
201.591960485492
 20
17.7025921306821
 30
0.0
 11
207.591960485492
 21
17.7025921306821
 31
0.0
  0
LINE
  5
98
330
1F
100
AcDbEntity
  8
1
  6
Continuous
 62
     4
100
AcDbLine
 10
207.091960485492
 20
24.2025921306821
 30
0.0
 11
201.591960485492
 21
17.7025921306821
 31
0.0
  0
LINE
  5
99
330
1F
100
AcDbEntity
  8
1
  6
Continuous
 62
     4
100
AcDbLine
 10
207.591960485492
 20
25.2025921306821
 30
0.0
 11
207.091960485492
 21
24.2025921306821
 31
0.0
  0
LINE
  5
9A
330
1F
100
AcDbEntity
  8
1
  6
Continuous
 62
     4
100
AcDbLine
 10
207.591960485492
 20
26.2025921306821
 30
0.0
 11
207.591960485492
 21
25.2025921306821
 31
0.0
  0
LINE
  5
9B
330
1F
100
AcDbEntity
  8
1
  6
Continuous
 62
     4
100
AcDbLine
 10
207.091960485492
 20
26.9525921306821
 30
0.0
 11
207.591960485492
 21
26.2025921306821
 31
0.0
  0
LINE
  5
9C
330
1F
100
AcDbEntity
  8
1
  6
Continuous
 62
     4
100
AcDbLine
 10
206.341960485492
 20
27.4525921306821
 30
0.0
 11
207.091960485492
 21
26.9525921306821
 31
0.0
  0
LINE
  5
9D
330
1F
100
AcDbEntity
  8
1
  6
Continuous
 62
     4
100
AcDbLine
 10
205.341960485492
 20
27.7025921306821
 30
0.0
 11
206.341960485492
 21
27.4525921306821
 31
0.0
  0
LINE
  5
9E
330
1F
100
AcDbEntity
  8
1
  6
Continuous
 62
     4
100
AcDbLine
 10
203.841960485492
 20
27.7025921306821
 30
0.0
 11
205.341960485492
 21
27.7025921306821
 31
0.0
  0
LINE
  5
9F
330
1F
100
AcDbEntity
  8
1
  6
Continuous
 62
     4
100
AcDbLine
 10
202.841960485492
 20
27.4525921306821
 30
0.0
 11
203.841960485492
 21
27.7025921306821
 31
0.0
  0
LINE
  5
A0
330
1F
100
AcDbEntity
  8
1
  6
Continuous
 62
     4
100
AcDbLine
 10
202.091960485492
 20
26.9525921306821
 30
0.0
 11
202.841960485492
 21
27.4525921306821
 31
0.0
  0
LINE
  5
A1
330
1F
100
AcDbEntity
  8
1
  6
Continuous
 62
     4
100
AcDbLine
 10
201.591960485492
 20
26.2025921306821
 30
0.0
 11
202.091960485492
 21
26.9525921306821
 31
0.0
  0
LINE
  5
A2
330
1F
100
AcDbEntity
  8
1
  6
Continuous
 62
     4
100
AcDbLine
 10
198.591960485492
 20
23.2025921306821
 30
0.0
 11
196.091960485492
 21
23.2025921306821
 31
0.0
  0
LINE
  5
A3
330
1F
100
AcDbEntity
  8
1
  6
Continuous
 62
     4
100
AcDbLine
 10
198.591960485492
 20
17.7025921306821
 30
0.0
 11
198.591960485492
 21
23.2025921306821
 31
0.0
  0
LINE
  5
A4
330
1F
100
AcDbEntity
  8
1
  6
Continuous
 62
     4
100
AcDbLine
 10
194.341960485492
 20
17.7025921306821
 30
0.0
 11
198.591960485492
 21
17.7025921306821
 31
0.0
  0
LINE
  5
A5
330
1F
100
AcDbEntity
  8
1
  6
Continuous
 62
     4
100
AcDbLine
 10
193.591960485492
 20
17.9525921306821
 30
0.0
 11
194.341960485492
 21
17.7025921306821
 31
0.0
  0
LINE
  5
A6
330
1F
100
AcDbEntity
  8
1
  6
Continuous
 62
     4
100
AcDbLine
 10
192.591960485492
 20
18.4525921306821
 30
0.0
 11
193.591960485492
 21
17.9525921306821
 31
0.0
  0
LINE
  5
A7
330
1F
100
AcDbEntity
  8
1
  6
Continuous
 62
     4
100
AcDbLine
 10
192.091960485492
 20
18.9525921306821
 30
0.0
 11
192.591960485492
 21
18.4525921306821
 31
0.0
  0
LINE
  5
A8
330
1F
100
AcDbEntity
  8
1
  6
Continuous
 62
     4
100
AcDbLine
 10
191.841960485492
 20
19.7025921306821
 30
0.0
 11
192.091960485492
 21
18.9525921306821
 31
0.0
  0
LINE
  5
A9
330
1F
100
AcDbEntity
  8
1
  6
Continuous
 62
     4
100
AcDbLine
 10
191.591960485492
 20
20.7025921306821
 30
0.0
 11
191.841960485492
 21
19.7025921306821
 31
0.0
  0
LINE
  5
AA
330
1F
100
AcDbEntity
  8
1
  6
Continuous
 62
     4
100
AcDbLine
 10
191.591960485492
 20
24.7025921306821
 30
0.0
 11
191.591960485492
 21
20.7025921306821
 31
0.0
  0
LINE
  5
AB
330
1F
100
AcDbEntity
  8
1
  6
Continuous
 62
     4
100
AcDbLine
 10
191.841960485492
 20
25.7025921306821
 30
0.0
 11
191.591960485492
 21
24.7025921306821
 31
0.0
  0
LINE
  5
AC
330
1F
100
AcDbEntity
  8
1
  6
Continuous
 62
     4
100
AcDbLine
 10
192.091960485492
 20
26.4525921306821
 30
0.0
 11
191.841960485492
 21
25.7025921306821
 31
0.0
  0
LINE
  5
AD
330
1F
100
AcDbEntity
  8
1
  6
Continuous
 62
     4
100
AcDbLine
 10
192.591960485492
 20
26.9525921306821
 30
0.0
 11
192.091960485492
 21
26.4525921306821
 31
0.0
  0
LINE
  5
AE
330
1F
100
AcDbEntity
  8
1
  6
Continuous
 62
     4
100
AcDbLine
 10
193.341960485492
 20
27.4525921306821
 30
0.0
 11
192.591960485492
 21
26.9525921306821
 31
0.0
  0
LINE
  5
AF
330
1F
100
AcDbEntity
  8
1
  6
Continuous
 62
     4
100
AcDbLine
 10
194.341960485492
 20
27.7025921306821
 30
0.0
 11
193.341960485492
 21
27.4525921306821
 31
0.0
  0
LINE
  5
B0
330
1F
100
AcDbEntity
  8
1
  6
Continuous
 62
     4
100
AcDbLine
 10
198.591960485492
 20
27.7025921306821
 30
0.0
 11
194.341960485492
 21
27.7025921306821
 31
0.0
  0
LINE
  5
B1
330
1F
100
AcDbEntity
  8
1
  6
Continuous
 62
     4
100
AcDbLine
 10
439.416656857073
 20
18.2908120024234
 30
0.0
 11
445.416656857073
 21
18.2908120024234
 31
0.0
  0
LINE
  5
B2
330
1F
100
AcDbEntity
  8
1
  6
Continuous
 62
     4
100
AcDbLine
 10
444.916656857073
 20
24.7908120024234
 30
0.0
 11
439.416656857073
 21
18.2908120024234
 31
0.0
  0
LINE
  5
B3
330
1F
100
AcDbEntity
  8
1
  6
Continuous
 62
     4
100
AcDbLine
 10
445.416656857073
 20
25.7908120024234
 30
0.0
 11
444.916656857073
 21
24.7908120024234
 31
0.0
  0
LINE
  5
B4
330
1F
100
AcDbEntity
  8
1
  6
Continuous
 62
     4
100
AcDbLine
 10
445.416656857073
 20
26.7908120024234
 30
0.0
 11
445.416656857073
 21
25.7908120024234
 31
0.0
  0
LINE
  5
B5
330
1F
100
AcDbEntity
  8
1
  6
Continuous
 62
     4
100
AcDbLine
 10
444.916656857073
 20
27.5408120024234
 30
0.0
 11
445.416656857073
 21
26.7908120024234
 31
0.0
  0
LINE
  5
B6
330
1F
100
AcDbEntity
  8
1
  6
Continuous
 62
     4
100
AcDbLine
 10
444.166656857073
 20
28.0408120024234
 30
0.0
 11
444.916656857073
 21
27.5408120024234
 31
0.0
  0
LINE
  5
B7
330
1F
100
AcDbEntity
  8
1
  6
Continuous
 62
     4
100
AcDbLine
 10
443.166656857073
 20
28.2908120024234
 30
0.0
 11
444.166656857073
 21
28.0408120024234
 31
0.0
  0
LINE
  5
B8
330
1F
100
AcDbEntity
  8
1
  6
Continuous
 62
     4
100
AcDbLine
 10
441.666656857073
 20
28.2908120024234
 30
0.0
 11
443.166656857073
 21
28.2908120024234
 31
0.0
  0
LINE
  5
B9
330
1F
100
AcDbEntity
  8
1
  6
Continuous
 62
     4
100
AcDbLine
 10
440.666656857073
 20
28.0408120024234
 30
0.0
 11
441.666656857073
 21
28.2908120024234
 31
0.0
  0
LINE
  5
BA
330
1F
100
AcDbEntity
  8
1
  6
Continuous
 62
     4
100
AcDbLine
 10
439.916656857073
 20
27.5408120024234
 30
0.0
 11
440.666656857073
 21
28.0408120024234
 31
0.0
  0
LINE
  5
BB
330
1F
100
AcDbEntity
  8
1
  6
Continuous
 62
     4
100
AcDbLine
 10
439.416656857073
 20
26.7908120024234
 30
0.0
 11
439.916656857073
 21
27.5408120024234
 31
0.0
  0
LINE
  5
BC
330
1F
100
AcDbEntity
  8
1
  6
Continuous
 62
     4
100
AcDbLine
 10
432.416656857073
 20
18.2908120024234
 30
0.0
 11
436.416656857073
 21
28.2908120024234
 31
0.0
  0
LINE
  5
BD
330
1F
100
AcDbEntity
  8
1
  6
Continuous
 62
     4
100
AcDbLine
 10
429.416656857073
 20
28.2908120024234
 30
0.0
 11
429.416656857073
 21
18.2908120024234
 31
0.0
  0
LINE
  5
BE
330
1F
100
AcDbEntity
  8
1
  6
Continuous
 62
     4
100
AcDbLine
 10
426.416656857073
 20
25.2908120024234
 30
0.0
 11
429.416656857073
 21
28.2908120024234
 31
0.0
  0
LINE
  5
BF
330
1F
100
AcDbEntity
  8
1
  6
Continuous
 62
     4
100
AcDbLine
 10
409.416656857073
 20
18.2908120024234
 30
0.0
 11
415.416656857073
 21
18.2908120024234
 31
0.0
  0
LINE
  5
C0
330
1F
100
AcDbEntity
  8
1
  6
Continuous
 62
     4
100
AcDbLine
 10
414.916656857073
 20
24.7908120024234
 30
0.0
 11
409.416656857073
 21
18.2908120024234
 31
0.0
  0
LINE
  5
C1
330
1F
100
AcDbEntity
  8
1
  6
Continuous
 62
     4
100
AcDbLine
 10
415.416656857073
 20
25.7908120024234
 30
0.0
 11
414.916656857073
 21
24.7908120024234
 31
0.0
  0
LINE
  5
C2
330
1F
100
AcDbEntity
  8
1
  6
Continuous
 62
     4
100
AcDbLine
 10
415.416656857073
 20
26.7908120024234
 30
0.0
 11
415.416656857073
 21
25.7908120024234
 31
0.0
  0
LINE
  5
C3
330
1F
100
AcDbEntity
  8
1
  6
Continuous
 62
     4
100
AcDbLine
 10
414.916656857073
 20
27.5408120024234
 30
0.0
 11
415.416656857073
 21
26.7908120024234
 31
0.0
  0
LINE
  5
C4
330
1F
100
AcDbEntity
  8
1
  6
Continuous
 62
     4
100
AcDbLine
 10
414.166656857073
 20
28.0408120024234
 30
0.0
 11
414.916656857073
 21
27.5408120024234
 31
0.0
  0
LINE
  5
C5
330
1F
100
AcDbEntity
  8
1
  6
Continuous
 62
     4
100
AcDbLine
 10
413.166656857073
 20
28.2908120024234
 30
0.0
 11
414.166656857073
 21
28.0408120024234
 31
0.0
  0
LINE
  5
C6
330
1F
100
AcDbEntity
  8
1
  6
Continuous
 62
     4
100
AcDbLine
 10
411.666656857073
 20
28.2908120024234
 30
0.0
 11
413.166656857073
 21
28.2908120024234
 31
0.0
  0
LINE
  5
C7
330
1F
100
AcDbEntity
  8
1
  6
Continuous
 62
     4
100
AcDbLine
 10
410.666656857073
 20
28.0408120024234
 30
0.0
 11
411.666656857073
 21
28.2908120024234
 31
0.0
  0
LINE
  5
C8
330
1F
100
AcDbEntity
  8
1
  6
Continuous
 62
     4
100
AcDbLine
 10
409.916656857073
 20
27.5408120024234
 30
0.0
 11
410.666656857073
 21
28.0408120024234
 31
0.0
  0
LINE
  5
C9
330
1F
100
AcDbEntity
  8
1
  6
Continuous
 62
     4
100
AcDbLine
 10
409.416656857073
 20
26.7908120024234
 30
0.0
 11
409.916656857073
 21
27.5408120024234
 31
0.0
  0
LINE
  5
CA
330
1F
100
AcDbEntity
  8
1
  6
Continuous
 62
     4
100
AcDbLine
 10
406.416656857073
 20
23.7908120024234
 30
0.0
 11
403.916656857073
 21
23.7908120024234
 31
0.0
  0
LINE
  5
CB
330
1F
100
AcDbEntity
  8
1
  6
Continuous
 62
     4
100
AcDbLine
 10
406.416656857073
 20
18.2908120024234
 30
0.0
 11
406.416656857073
 21
23.7908120024234
 31
0.0
  0
LINE
  5
CC
330
1F
100
AcDbEntity
  8
1
  6
Continuous
 62
     4
100
AcDbLine
 10
402.166656857073
 20
18.2908120024234
 30
0.0
 11
406.416656857073
 21
18.2908120024234
 31
0.0
  0
LINE
  5
CD
330
1F
100
AcDbEntity
  8
1
  6
Continuous
 62
     4
100
AcDbLine
 10
401.416656857073
 20
18.5408120024234
 30
0.0
 11
402.166656857073
 21
18.2908120024234
 31
0.0
  0
LINE
  5
CE
330
1F
100
AcDbEntity
  8
1
  6
Continuous
 62
     4
100
AcDbLine
 10
400.416656857073
 20
19.0408120024234
 30
0.0
 11
401.416656857073
 21
18.5408120024234
 31
0.0
  0
LINE
  5
CF
330
1F
100
AcDbEntity
  8
1
  6
Continuous
 62
     4
100
AcDbLine
 10
399.916656857073
 20
19.5408120024234
 30
0.0
 11
400.416656857073
 21
19.0408120024234
 31
0.0
  0
LINE
  5
D0
330
1F
100
AcDbEntity
  8
1
  6
Continuous
 62
     4
100
AcDbLine
 10
399.666656857073
 20
20.2908120024234
 30
0.0
 11
399.916656857073
 21
19.5408120024234
 31
0.0
  0
LINE
  5
D1
330
1F
100
AcDbEntity
  8
1
  6
Continuous
 62
     4
100
AcDbLine
 10
399.416656857073
 20
21.2908120024234
 30
0.0
 11
399.666656857073
 21
20.2908120024234
 31
0.0
  0
LINE
  5
D2
330
1F
100
AcDbEntity
  8
1
  6
Continuous
 62
     4
100
AcDbLine
 10
399.416656857073
 20
25.2908120024234
 30
0.0
 11
399.416656857073
 21
21.2908120024234
 31
0.0
  0
LINE
  5
D3
330
1F
100
AcDbEntity
  8
1
  6
Continuous
 62
     4
100
AcDbLine
 10
399.666656857073
 20
26.2908120024234
 30
0.0
 11
399.416656857073
 21
25.2908120024234
 31
0.0
  0
LINE
  5
D4
330
1F
100
AcDbEntity
  8
1
  6
Continuous
 62
     4
100
AcDbLine
 10
399.916656857073
 20
27.0408120024234
 30
0.0
 11
399.666656857073
 21
26.2908120024234
 31
0.0
  0
LINE
  5
D5
330
1F
100
AcDbEntity
  8
1
  6
Continuous
 62
     4
100
AcDbLine
 10
400.416656857073
 20
27.5408120024234
 30
0.0
 11
399.916656857073
 21
27.0408120024234
 31
0.0
  0
LINE
  5
D6
330
1F
100
AcDbEntity
  8
1
  6
Continuous
 62
     4
100
AcDbLine
 10
401.166656857073
 20
28.0408120024234
 30
0.0
 11
400.416656857073
 21
27.5408120024234
 31
0.0
  0
LINE
  5
D7
330
1F
100
AcDbEntity
  8
1
  6
Continuous
 62
     4
100
AcDbLine
 10
402.166656857073
 20
28.2908120024234
 30
0.0
 11
401.166656857073
 21
28.0408120024234
 31
0.0
  0
LINE
  5
D8
330
1F
100
AcDbEntity
  8
1
  6
Continuous
 62
     4
100
AcDbLine
 10
406.416656857073
 20
28.2908120024234
 30
0.0
 11
402.166656857073
 21
28.2908120024234
 31
0.0
  0
LINE
  5
D9
330
1F
100
AcDbEntity
  8
1
  6
Continuous
 62
     4
100
AcDbLine
 10
550.884206810204
 20
302.992447217082
 30
0.0
 11
550.884206810204
 21
300.492447217082
 31
0.0
  0
LINE
  5
DA
330
1F
100
AcDbEntity
  8
1
  6
Continuous
 62
     4
100
AcDbLine
 10
550.634206810204
 20
304.492447217082
 30
0.0
 11
550.884206810204
 21
302.992447217082
 31
0.0
  0
LINE
  5
DB
330
1F
100
AcDbEntity
  8
1
  6
Continuous
 62
     4
100
AcDbLine
 10
550.134206810204
 20
305.492447217082
 30
0.0
 11
550.634206810204
 21
304.492447217082
 31
0.0
  0
LINE
  5
DC
330
1F
100
AcDbEntity
  8
1
  6
Continuous
 62
     4
100
AcDbLine
 10
549.634206810204
 20
305.992447217082
 30
0.0
 11
550.134206810204
 21
305.492447217082
 31
0.0
  0
LINE
  5
DD
330
1F
100
AcDbEntity
  8
1
  6
Continuous
 62
     4
100
AcDbLine
 10
548.884206810204
 20
306.492447217082
 30
0.0
 11
549.634206810204
 21
305.992447217082
 31
0.0
  0
LINE
  5
DE
330
1F
100
AcDbEntity
  8
1
  6
Continuous
 62
     4
100
AcDbLine
 10
548.134206810204
 20
306.742447217082
 30
0.0
 11
548.884206810204
 21
306.492447217082
 31
0.0
  0
LINE
  5
DF
330
1F
100
AcDbEntity
  8
1
  6
Continuous
 62
     4
100
AcDbLine
 10
547.634206810204
 20
306.742447217082
 30
0.0
 11
548.134206810204
 21
306.742447217082
 31
0.0
  0
LINE
  5
E0
330
1F
100
AcDbEntity
  8
1
  6
Continuous
 62
     4
100
AcDbLine
 10
546.884206810204
 20
306.492447217082
 30
0.0
 11
547.634206810204
 21
306.742447217082
 31
0.0
  0
LINE
  5
E1
330
1F
100
AcDbEntity
  8
1
  6
Continuous
 62
     4
100
AcDbLine
 10
546.134206810204
 20
305.992447217082
 30
0.0
 11
546.884206810204
 21
306.492447217082
 31
0.0
  0
LINE
  5
E2
330
1F
100
AcDbEntity
  8
1
  6
Continuous
 62
     4
100
AcDbLine
 10
545.634206810204
 20
305.492447217082
 30
0.0
 11
546.134206810204
 21
305.992447217082
 31
0.0
  0
LINE
  5
E3
330
1F
100
AcDbEntity
  8
1
  6
Continuous
 62
     4
100
AcDbLine
 10
545.134206810204
 20
304.492447217082
 30
0.0
 11
545.634206810204
 21
305.492447217082
 31
0.0
  0
LINE
  5
E4
330
1F
100
AcDbEntity
  8
1
  6
Continuous
 62
     4
100
AcDbLine
 10
544.884206810204
 20
302.992447217082
 30
0.0
 11
545.134206810204
 21
304.492447217082
 31
0.0
  0
LINE
  5
E5
330
1F
100
AcDbEntity
  8
1
  6
Continuous
 62
     4
100
AcDbLine
 10
544.884206810204
 20
300.492447217082
 30
0.0
 11
544.884206810204
 21
302.992447217082
 31
0.0
  0
LINE
  5
E6
330
1F
100
AcDbEntity
  8
1
  6
Continuous
 62
     4
100
AcDbLine
 10
545.134206810204
 20
298.992447217082
 30
0.0
 11
544.884206810204
 21
300.492447217082
 31
0.0
  0
LINE
  5
E7
330
1F
100
AcDbEntity
  8
1
  6
Continuous
 62
     4
100
AcDbLine
 10
545.634206810204
 20
297.992447217082
 30
0.0
 11
545.134206810204
 21
298.992447217082
 31
0.0
  0
LINE
  5
E8
330
1F
100
AcDbEntity
  8
1
  6
Continuous
 62
     4
100
AcDbLine
 10
546.134206810204
 20
297.492447217082
 30
0.0
 11
545.634206810204
 21
297.992447217082
 31
0.0
  0
LINE
  5
E9
330
1F
100
AcDbEntity
  8
1
  6
Continuous
 62
     4
100
AcDbLine
 10
546.884206810204
 20
296.992447217082
 30
0.0
 11
546.134206810204
 21
297.492447217082
 31
0.0
  0
LINE
  5
EA
330
1F
100
AcDbEntity
  8
1
  6
Continuous
 62
     4
100
AcDbLine
 10
547.634206810204
 20
296.742447217082
 30
0.0
 11
546.884206810204
 21
296.992447217082
 31
0.0
  0
LINE
  5
EB
330
1F
100
AcDbEntity
  8
1
  6
Continuous
 62
     4
100
AcDbLine
 10
548.134206810204
 20
296.742447217082
 30
0.0
 11
547.634206810204
 21
296.742447217082
 31
0.0
  0
LINE
  5
EC
330
1F
100
AcDbEntity
  8
1
  6
Continuous
 62
     4
100
AcDbLine
 10
548.884206810204
 20
296.992447217082
 30
0.0
 11
548.134206810204
 21
296.742447217082
 31
0.0
  0
LINE
  5
ED
330
1F
100
AcDbEntity
  8
1
  6
Continuous
 62
     4
100
AcDbLine
 10
549.634206810204
 20
297.492447217082
 30
0.0
 11
548.884206810204
 21
296.992447217082
 31
0.0
  0
LINE
  5
EE
330
1F
100
AcDbEntity
  8
1
  6
Continuous
 62
     4
100
AcDbLine
 10
550.134206810204
 20
297.992447217082
 30
0.0
 11
549.634206810204
 21
297.492447217082
 31
0.0
  0
LINE
  5
EF
330
1F
100
AcDbEntity
  8
1
  6
Continuous
 62
     4
100
AcDbLine
 10
550.634206810204
 20
298.992447217082
 30
0.0
 11
550.134206810204
 21
297.992447217082
 31
0.0
  0
LINE
  5
F0
330
1F
100
AcDbEntity
  8
1
  6
Continuous
 62
     4
100
AcDbLine
 10
550.884206810204
 20
300.492447217082
 30
0.0
 11
550.634206810204
 21
298.992447217082
 31
0.0
  0
LINE
  5
F1
330
1F
100
AcDbEntity
  8
1
  6
Continuous
 62
     4
100
AcDbLine
 10
539.634206810204
 20
296.742447217082
 30
0.0
 11
535.884206810204
 21
296.742447217082
 31
0.0
  0
LINE
  5
F2
330
1F
100
AcDbEntity
  8
1
  6
Continuous
 62
     4
100
AcDbLine
 10
540.384206810204
 20
296.992447217082
 30
0.0
 11
539.634206810204
 21
296.742447217082
 31
0.0
  0
LINE
  5
F3
330
1F
100
AcDbEntity
  8
1
  6
Continuous
 62
     4
100
AcDbLine
 10
541.134206810204
 20
297.492447217082
 30
0.0
 11
540.384206810204
 21
296.992447217082
 31
0.0
  0
LINE
  5
F4
330
1F
100
AcDbEntity
  8
1
  6
Continuous
 62
     4
100
AcDbLine
 10
541.634206810204
 20
298.242447217082
 30
0.0
 11
541.134206810204
 21
297.492447217082
 31
0.0
  0
LINE
  5
F5
330
1F
100
AcDbEntity
  8
1
  6
Continuous
 62
     4
100
AcDbLine
 10
541.884206810204
 20
299.242447217082
 30
0.0
 11
541.634206810204
 21
298.242447217082
 31
0.0
  0
LINE
  5
F6
330
1F
100
AcDbEntity
  8
1
  6
Continuous
 62
     4
100
AcDbLine
 10
541.884206810204
 20
300.742447217082
 30
0.0
 11
541.884206810204
 21
299.242447217082
 31
0.0
  0
LINE
  5
F7
330
1F
100
AcDbEntity
  8
1
  6
Continuous
 62
     4
100
AcDbLine
 10
541.634206810204
 20
301.742447217082
 30
0.0
 11
541.884206810204
 21
300.742447217082
 31
0.0
  0
LINE
  5
F8
330
1F
100
AcDbEntity
  8
1
  6
Continuous
 62
     4
100
AcDbLine
 10
540.884206810204
 20
302.492447217082
 30
0.0
 11
541.634206810204
 21
301.742447217082
 31
0.0
  0
LINE
  5
F9
330
1F
100
AcDbEntity
  8
1
  6
Continuous
 62
     4
100
AcDbLine
 10
539.634206810204
 20
302.742447217082
 30
0.0
 11
540.884206810204
 21
302.492447217082
 31
0.0
  0
LINE
  5
FA
330
1F
100
AcDbEntity
  8
1
  6
Continuous
 62
     4
100
AcDbLine
 10
535.884206810204
 20
302.742447217082
 30
0.0
 11
539.634206810204
 21
302.742447217082
 31
0.0
  0
LINE
  5
FB
330
1F
100
AcDbEntity
  8
1
  6
Continuous
 62
     4
100
AcDbLine
 10
535.884206810204
 20
306.742447217082
 30
0.0
 11
535.884206810204
 21
302.742447217082
 31
0.0
  0
LINE
  5
FC
330
1F
100
AcDbEntity
  8
1
  6
Continuous
 62
     4
100
AcDbLine
 10
541.384206810204
 20
306.742447217082
 30
0.0
 11
535.884206810204
 21
306.742447217082
 31
0.0
  0
LINE
  5
FD
330
1F
100
AcDbEntity
  8
1
  6
Continuous
 62
     4
100
AcDbLine
 10
527.884206810204
 20
300.242447217082
 30
0.0
 11
532.884206810204
 21
300.242447217082
 31
0.0
  0
LINE
  5
FE
330
1F
100
AcDbEntity
  8
1
  6
Continuous
 62
     4
100
AcDbLine
 10
521.634206810204
 20
306.742447217082
 30
0.0
 11
524.884206810204
 21
306.742447217082
 31
0.0
  0
LINE
  5
FF
330
1F
100
AcDbEntity
  8
1
  6
Continuous
 62
     4
100
AcDbLine
 10
520.634206810204
 20
306.492447217082
 30
0.0
 11
521.634206810204
 21
306.742447217082
 31
0.0
  0
LINE
  5
100
330
1F
100
AcDbEntity
  8
1
  6
Continuous
 62
     4
100
AcDbLine
 10
519.884206810204
 20
305.992447217082
 30
0.0
 11
520.634206810204
 21
306.492447217082
 31
0.0
  0
LINE
  5
101
330
1F
100
AcDbEntity
  8
1
  6
Continuous
 62
     4
100
AcDbLine
 10
519.384206810204
 20
305.492447217082
 30
0.0
 11
519.884206810204
 21
305.992447217082
 31
0.0
  0
LINE
  5
102
330
1F
100
AcDbEntity
  8
1
  6
Continuous
 62
     4
100
AcDbLine
 10
519.134206810204
 20
304.742447217082
 30
0.0
 11
519.384206810204
 21
305.492447217082
 31
0.0
  0
LINE
  5
103
330
1F
100
AcDbEntity
  8
1
  6
Continuous
 62
     4
100
AcDbLine
 10
518.884206810204
 20
303.742447217082
 30
0.0
 11
519.134206810204
 21
304.742447217082
 31
0.0
  0
LINE
  5
104
330
1F
100
AcDbEntity
  8
1
  6
Continuous
 62
     4
100
AcDbLine
 10
518.884206810204
 20
299.742447217082
 30
0.0
 11
518.884206810204
 21
303.742447217082
 31
0.0
  0
LINE
  5
105
330
1F
100
AcDbEntity
  8
1
  6
Continuous
 62
     4
100
AcDbLine
 10
519.134206810204
 20
298.742447217082
 30
0.0
 11
518.884206810204
 21
299.742447217082
 31
0.0
  0
LINE
  5
106
330
1F
100
AcDbEntity
  8
1
  6
Continuous
 62
     4
100
AcDbLine
 10
519.384206810204
 20
297.992447217082
 30
0.0
 11
519.134206810204
 21
298.742447217082
 31
0.0
  0
LINE
  5
107
330
1F
100
AcDbEntity
  8
1
  6
Continuous
 62
     4
100
AcDbLine
 10
519.884206810204
 20
297.492447217082
 30
0.0
 11
519.384206810204
 21
297.992447217082
 31
0.0
  0
LINE
  5
108
330
1F
100
AcDbEntity
  8
1
  6
Continuous
 62
     4
100
AcDbLine
 10
520.634206810204
 20
296.992447217082
 30
0.0
 11
519.884206810204
 21
297.492447217082
 31
0.0
  0
LINE
  5
109
330
1F
100
AcDbEntity
  8
1
  6
Continuous
 62
     4
100
AcDbLine
 10
521.634206810204
 20
296.742447217082
 30
0.0
 11
520.634206810204
 21
296.992447217082
 31
0.0
  0
LINE
  5
10A
330
1F
100
AcDbEntity
  8
1
  6
Continuous
 62
     4
100
AcDbLine
 10
524.884206810204
 20
296.742447217082
 30
0.0
 11
521.634206810204
 21
296.742447217082
 31
0.0
  0
LINE
  5
10B
330
1F
100
AcDbEntity
  8
1
  6
Continuous
 62
     4
100
AcDbLine
 10
510.884206810204
 20
300.242447217082
 30
0.0
 11
515.884206810204
 21
300.242447217082
 31
0.0
  0
LINE
  5
10C
330
1F
100
AcDbEntity
  8
1
  6
Continuous
 62
     4
100
AcDbLine
 10
500.884206810204
 20
299.742447217082
 30
0.0
 11
500.884206810204
 21
306.742447217082
 31
0.0
  0
LINE
  5
10D
330
1F
100
AcDbEntity
  8
1
  6
Continuous
 62
     4
100
AcDbLine
 10
500.884206810204
 20
296.742447217082
 30
0.0
 11
500.884206810204
 21
299.742447217082
 31
0.0
  0
LINE
  5
10E
330
1F
100
AcDbEntity
  8
1
  6
Continuous
 62
     4
100
AcDbLine
 10
502.884206810204
 20
301.742447217082
 30
0.0
 11
507.884206810204
 21
296.742447217082
 31
0.0
  0
LINE
  5
10F
330
1F
100
AcDbEntity
  8
1
  6
Continuous
 62
     4
100
AcDbLine
 10
507.884206810204
 20
306.742447217082
 30
0.0
 11
502.884206810204
 21
301.742447217082
 31
0.0
  0
LINE
  5
110
330
1F
100
AcDbEntity
  8
1
  6
Continuous
 62
     4
100
AcDbLine
 10
502.884206810204
 20
301.742447217082
 30
0.0
 11
500.884206810204
 21
299.742447217082
 31
0.0
  0
LINE
  5
111
330
1F
100
AcDbEntity
  8
1
  6
Continuous
 62
     4
100
AcDbLine
 10
494.384206810204
 20
306.742447217082
 30
0.0
 11
494.384206810204
 21
296.742447217082
 31
0.0
  0
LINE
  5
112
330
1F
100
AcDbEntity
  8
1
  6
Continuous
 62
     4
100
AcDbLine
 10
490.884206810204
 20
306.742447217082
 30
0.0
 11
494.384206810204
 21
306.742447217082
 31
0.0
  0
LINE
  5
113
330
1F
100
AcDbEntity
  8
1
  6
Continuous
 62
     4
100
AcDbLine
 10
494.384206810204
 20
306.742447217082
 30
0.0
 11
497.884206810204
 21
306.742447217082
 31
0.0
  0
LINE
  5
114
330
1F
100
AcDbEntity
  8
1
  6
Continuous
 62
     3
100
AcDbLine
 10
326.3551094992118
 20
81.725456237793
 30
0.0
 11
326.3551094992118
 21
79.225456237793
 31
0.0
  0
LINE
  5
115
330
1F
100
AcDbEntity
  8
1
  6
Continuous
 62
     3
100
AcDbLine
 10
326.1540861073989
 20
83.225456237793
 30
0.0
 11
326.3551094992118
 21
81.725456237793
 31
0.0
  0
LINE
  5
116
330
1F
100
AcDbEntity
  8
1
  6
Continuous
 62
     3
100
AcDbLine
 10
325.7520393237732
 20
84.225456237793
 30
0.0
 11
326.1540861073989
 21
83.225456237793
 31
0.0
  0
LINE
  5
117
330
1F
100
AcDbEntity
  8
1
  6
Continuous
 62
     3
100
AcDbLine
 10
325.3499925401475
 20
84.725456237793
 30
0.0
 11
325.7520393237732
 21
84.225456237793
 31
0.0
  0
LINE
  5
118
330
1F
100
AcDbEntity
  8
1
  6
Continuous
 62
     3
100
AcDbLine
 10
324.7469223647089
 20
85.225456237793
 30
0.0
 11
325.3499925401475
 21
84.725456237793
 31
0.0
  0
LINE
  5
119
330
1F
100
AcDbEntity
  8
1
  6
Continuous
 62
     3
100
AcDbLine
 10
324.1438521892703
 20
85.475456237793
 30
0.0
 11
324.7469223647089
 21
85.225456237793
 31
0.0
  0
LINE
  5
11A
330
1F
100
AcDbEntity
  8
1
  6
Continuous
 62
     3
100
AcDbLine
 10
323.7418054056445
 20
85.475456237793
 30
0.0
 11
324.1438521892703
 21
85.475456237793
 31
0.0
  0
LINE
  5
11B
330
1F
100
AcDbEntity
  8
1
  6
Continuous
 62
     3
100
AcDbLine
 10
323.138735230206
 20
85.225456237793
 30
0.0
 11
323.7418054056445
 21
85.475456237793
 31
0.0
  0
LINE
  5
11C
330
1F
100
AcDbEntity
  8
1
  6
Continuous
 62
     3
100
AcDbLine
 10
322.5356650547673
 20
84.725456237793
 30
0.0
 11
323.138735230206
 21
85.225456237793
 31
0.0
  0
LINE
  5
11D
330
1F
100
AcDbEntity
  8
1
  6
Continuous
 62
     3
100
AcDbLine
 10
322.1336182711416
 20
84.225456237793
 30
0.0
 11
322.5356650547673
 21
84.725456237793
 31
0.0
  0
LINE
  5
11E
330
1F
100
AcDbEntity
  8
1
  6
Continuous
 62
     3
100
AcDbLine
 10
321.7315714875159
 20
83.225456237793
 30
0.0
 11
322.1336182711416
 21
84.225456237793
 31
0.0
  0
LINE
  5
11F
330
1F
100
AcDbEntity
  8
1
  6
Continuous
 62
     3
100
AcDbLine
 10
321.530548095703
 20
81.725456237793
 30
0.0
 11
321.7315714875159
 21
83.225456237793
 31
0.0
  0
LINE
  5
120
330
1F
100
AcDbEntity
  8
1
  6
Continuous
 62
     3
100
AcDbLine
 10
321.530548095703
 20
79.225456237793
 30
0.0
 11
321.530548095703
 21
81.725456237793
 31
0.0
  0
LINE
  5
121
330
1F
100
AcDbEntity
  8
1
  6
Continuous
 62
     3
100
AcDbLine
 10
321.7315714875159
 20
77.725456237793
 30
0.0
 11
321.530548095703
 21
79.225456237793
 31
0.0
  0
LINE
  5
122
330
1F
100
AcDbEntity
  8
1
  6
Continuous
 62
     3
100
AcDbLine
 10
322.1336182711416
 20
76.725456237793
 30
0.0
 11
321.7315714875159
 21
77.725456237793
 31
0.0
  0
LINE
  5
123
330
1F
100
AcDbEntity
  8
1
  6
Continuous
 62
     3
100
AcDbLine
 10
322.5356650547673
 20
76.225456237793
 30
0.0
 11
322.1336182711416
 21
76.725456237793
 31
0.0
  0
LINE
  5
124
330
1F
100
AcDbEntity
  8
1
  6
Continuous
 62
     3
100
AcDbLine
 10
323.138735230206
 20
75.725456237793
 30
0.0
 11
322.5356650547673
 21
76.225456237793
 31
0.0
  0
LINE
  5
125
330
1F
100
AcDbEntity
  8
1
  6
Continuous
 62
     3
100
AcDbLine
 10
323.7418054056445
 20
75.475456237793
 30
0.0
 11
323.138735230206
 21
75.725456237793
 31
0.0
  0
LINE
  5
126
330
1F
100
AcDbEntity
  8
1
  6
Continuous
 62
     3
100
AcDbLine
 10
324.1438521892703
 20
75.475456237793
 30
0.0
 11
323.7418054056445
 21
75.475456237793
 31
0.0
  0
LINE
  5
127
330
1F
100
AcDbEntity
  8
1
  6
Continuous
 62
     3
100
AcDbLine
 10
324.7469223647089
 20
75.725456237793
 30
0.0
 11
324.1438521892703
 21
75.475456237793
 31
0.0
  0
LINE
  5
128
330
1F
100
AcDbEntity
  8
1
  6
Continuous
 62
     3
100
AcDbLine
 10
325.3499925401475
 20
76.225456237793
 30
0.0
 11
324.7469223647089
 21
75.725456237793
 31
0.0
  0
LINE
  5
129
330
1F
100
AcDbEntity
  8
1
  6
Continuous
 62
     3
100
AcDbLine
 10
325.7520393237732
 20
76.725456237793
 30
0.0
 11
325.3499925401475
 21
76.225456237793
 31
0.0
  0
LINE
  5
12A
330
1F
100
AcDbEntity
  8
1
  6
Continuous
 62
     3
100
AcDbLine
 10
326.1540861073989
 20
77.725456237793
 30
0.0
 11
325.7520393237732
 21
76.725456237793
 31
0.0
  0
LINE
  5
12B
330
1F
100
AcDbEntity
  8
1
  6
Continuous
 62
     3
100
AcDbLine
 10
326.3551094992118
 20
79.225456237793
 30
0.0
 11
326.1540861073989
 21
77.725456237793
 31
0.0
  0
LINE
  5
12C
330
1F
100
AcDbEntity
  8
1
  6
Continuous
 62
     3
100
AcDbLine
 10
317.670898972896
 20
75.475456237793
 30
0.0
 11
314.655548095703
 21
75.475456237793
 31
0.0
  0
LINE
  5
12D
330
1F
100
AcDbEntity
  8
1
  6
Continuous
 62
     3
100
AcDbLine
 10
318.2739691483346
 20
75.725456237793
 30
0.0
 11
317.670898972896
 21
75.475456237793
 31
0.0
  0
LINE
  5
12E
330
1F
100
AcDbEntity
  8
1
  6
Continuous
 62
     3
100
AcDbLine
 10
318.8770393237732
 20
76.225456237793
 30
0.0
 11
318.2739691483346
 21
75.725456237793
 31
0.0
  0
LINE
  5
12F
330
1F
100
AcDbEntity
  8
1
  6
Continuous
 62
     3
100
AcDbLine
 10
319.2790861073989
 20
76.975456237793
 30
0.0
 11
318.8770393237732
 21
76.225456237793
 31
0.0
  0
LINE
  5
130
330
1F
100
AcDbEntity
  8
1
  6
Continuous
 62
     3
100
AcDbLine
 10
319.4801094992118
 20
77.975456237793
 30
0.0
 11
319.2790861073989
 21
76.975456237793
 31
0.0
  0
LINE
  5
131
330
1F
100
AcDbEntity
  8
1
  6
Continuous
 62
     3
100
AcDbLine
 10
319.4801094992118
 20
79.475456237793
 30
0.0
 11
319.4801094992118
 21
77.975456237793
 31
0.0
  0
LINE
  5
132
330
1F
100
AcDbEntity
  8
1
  6
Continuous
 62
     3
100
AcDbLine
 10
319.2790861073989
 20
80.475456237793
 30
0.0
 11
319.4801094992118
 21
79.475456237793
 31
0.0
  0
LINE
  5
133
330
1F
100
AcDbEntity
  8
1
  6
Continuous
 62
     3
100
AcDbLine
 10
318.6760159319604
 20
81.225456237793
 30
0.0
 11
319.2790861073989
 21
80.475456237793
 31
0.0
  0
LINE
  5
134
330
1F
100
AcDbEntity
  8
1
  6
Continuous
 62
     3
100
AcDbLine
 10
317.670898972896
 20
81.475456237793
 30
0.0
 11
318.6760159319604
 21
81.225456237793
 31
0.0
  0
LINE
  5
135
330
1F
100
AcDbEntity
  8
1
  6
Continuous
 62
     3
100
AcDbLine
 10
314.655548095703
 20
81.475456237793
 30
0.0
 11
317.670898972896
 21
81.475456237793
 31
0.0
  0
LINE
  5
136
330
1F
100
AcDbEntity
  8
1
  6
Continuous
 62
     3
100
AcDbLine
 10
314.655548095703
 20
85.475456237793
 30
0.0
 11
314.655548095703
 21
81.475456237793
 31
0.0
  0
LINE
  5
137
330
1F
100
AcDbEntity
  8
1
  6
Continuous
 62
     3
100
AcDbLine
 10
319.0780627155861
 20
85.475456237793
 30
0.0
 11
314.655548095703
 21
85.475456237793
 31
0.0
  0
LINE
  5
143
330
1F
100
AcDbEntity
  8
100
  6
Continuous
 62
     3
100
AcDbLine
 10
317.046037516855
 20
287.728308171713
 30
0.0
 11
312.953418732575
 21
281.209679986885
 31
0.0
  0
LINE
  5
144
330
1F
100
AcDbEntity
  8
100
  6
Continuous
 62
     3
100
AcDbLine
 10
327.52373035449
 20
281.209679986886
 30
0.0
 11
323.43111157021
 21
287.728308171713
 31
0.0
  0
LINE
  5
145
330
1F
100
AcDbEntity
  8
100
  6
Continuous
 62
     3
100
AcDbLine
 10
331.105751084165
 20
292.159263361028
 30
0.0
 11
334.704739297911
 21
285.355637433422
 31
0.0
  0
LINE
  5
146
330
1F
100
AcDbEntity
  8
100
  6
Continuous
 62
     3
100
AcDbLine
 10
341.989895108869
 20
297.973897439057
 30
0.0
 11
334.298288110842
 21
297.688899696279
 31
0.0
  0
LINE
  5
147
330
1F
100
AcDbEntity
  8
100
  6
Continuous
 62
     3
100
AcDbLine
 10
331.105751084165
 20
312.08044641016
 30
0.0
 11
334.704739297911
 21
318.884072337766
 31
0.0
  0
LINE
  5
148
330
1F
100
AcDbEntity
  8
100
  6
Continuous
 62
     3
100
AcDbLine
 10
341.989895108869
 20
306.265812332131
 30
0.0
 11
334.298288110842
 21
306.550810074909
 31
0.0
  0
LINE
  5
149
330
1F
100
AcDbEntity
  8
100
  6
Continuous
 62
     3
100
AcDbLine
 10
309.3713980029
 20
292.159263361028
 30
0.0
 11
305.772409789154
 21
285.355637433422
 31
0.0
  0
LINE
  5
14A
330
1F
100
AcDbEntity
  8
100
  6
Continuous
 62
     3
100
AcDbLine
 10
298.487253978196
 20
297.973897439057
 30
0.0
 11
306.178860976222
 21
297.688899696279
 31
0.0
  0
LINE
  5
14B
330
1F
100
AcDbEntity
  8
100
  6
Continuous
 62
     3
100
AcDbLine
 10
306.178860976222
 20
306.550810074909
 30
0.0
 11
298.487253978196
 21
306.265812332131
 31
0.0
  0
LINE
  5
14C
330
1F
100
AcDbEntity
  8
100
  6
Continuous
 62
     3
100
AcDbLine
 10
305.772409789154
 20
318.884072337766
 30
0.0
 11
309.3713980029
 21
312.08044641016
 31
0.0
  0
LINE
  5
14D
330
1F
100
AcDbEntity
  8
100
  6
Continuous
 62
     3
100
AcDbLine
 10
323.43111157021
 20
316.511401599475
 30
0.0
 11
327.52373035449
 21
323.030029784303
 31
0.0
  0
LINE
  5
14E
330
1F
100
AcDbEntity
  8
100
  6
Continuous
 62
     3
100
AcDbLine
 10
312.953418732574
 20
323.030029784303
 30
0.0
 11
317.046037516855
 21
316.511401599475
 31
0.0
  0
LINE
  5
14F
330
1F
100
AcDbEntity
  8
100
  6
Continuous
 62
     3
100
AcDbLine
 10
267.238575062464
 20
264.719854885594
 30
0.0
 11
267.238575062464
 21
339.519854885594
 31
0.0
  0
LINE
  5
150
330
1F
100
AcDbEntity
  8
100
  6
Continuous
 62
     3
100
AcDbLine
 10
373.238575062464
 20
264.719854885594
 30
0.0
 11
373.238575062464
 21
339.519854885594
 31
0.0
  0
LINE
  5
151
330
1F
100
AcDbEntity
  8
100
  6
Continuous
 62
     3
100
AcDbLine
 10
245.238575062464
 20
339.519854885594
 30
0.0
 11
267.238575062464
 21
339.519854885594
 31
0.0
  0
LINE
  5
152
330
1F
100
AcDbEntity
  8
1
  6
Continuous
 62
     3
100
AcDbLine
 10
245.238575062464
 20
338.232854885594
 30
0.0
 11
267.612832976215
 21
338.232854885594
 31
0.0
  0
LINE
  5
153
330
1F
100
AcDbEntity
  8
100
  6
Continuous
 62
     3
100
AcDbLine
 10
269.638575062464
 20
337.119854885594
 30
0.0
 11
278.561243094114
 21
337.119854885594
 31
0.0
  0
LINE
  5
154
330
1F
100
AcDbEntity
  8
100
  6
Continuous
 62
     3
100
AcDbLine
 10
361.915907030813
 20
337.119854885594
 30
0.0
 11
370.838575062464
 21
337.119854885594
 31
0.0
  0
LINE
  5
155
330
1F
100
AcDbEntity
  8
100
  6
Continuous
 62
     3
100
AcDbLine
 10
373.238575062464
 20
339.519854885594
 30
0.0
 11
395.238575062464
 21
339.519854885594
 31
0.0
  0
LINE
  5
156
330
1F
100
AcDbEntity
  8
1
  6
Continuous
 62
     3
100
AcDbLine
 10
372.864317148713
 20
338.232854885594
 30
0.0
 11
395.238575062464
 21
338.232854885594
 31
0.0
  0
LINE
  5
157
330
1F
100
AcDbEntity
  8
100
  6
Continuous
 62
     3
100
AcDbLine
 10
395.238575062464
 20
264.719854885594
 30
0.0
 11
395.238575062464
 21
339.519854885594
 31
0.0
  0
LINE
  5
158
330
1F
100
AcDbEntity
  8
100
  6
Continuous
 62
     3
100
AcDbLine
 10
245.238575062464
 20
339.519854885594
 30
0.0
 11
245.238575062464
 21
264.719854885594
 31
0.0
  0
LINE
  5
159
330
1F
100
AcDbEntity
  8
100
  6
Continuous
 62
     3
100
AcDbLine
 10
245.238575062464
 20
264.719854885594
 30
0.0
 11
267.238575062464
 21
264.719854885594
 31
0.0
  0
LINE
  5
15A
330
1F
100
AcDbEntity
  8
1
  6
Continuous
 62
     3
100
AcDbLine
 10
245.238575062464
 20
266.006854885594
 30
0.0
 11
267.612832976215
 21
266.006854885594
 31
0.0
  0
LINE
  5
15B
330
1F
100
AcDbEntity
  8
100
  6
Continuous
 62
     3
100
AcDbLine
 10
269.638575062464
 20
267.119854885594
 30
0.0
 11
278.561243094114
 21
267.119854885594
 31
0.0
  0
LINE
  5
15C
330
1F
100
AcDbEntity
  8
100
  6
Continuous
 62
     3
100
AcDbLine
 10
361.915907030813
 20
267.119854885594
 30
0.0
 11
370.838575062464
 21
267.119854885594
 31
0.0
  0
LINE
  5
15D
330
1F
100
AcDbEntity
  8
100
  6
Continuous
 62
     3
100
AcDbLine
 10
373.238575062464
 20
264.719854885594
 30
0.0
 11
395.238575062464
 21
264.719854885594
 31
0.0
  0
LINE
  5
15E
330
1F
100
AcDbEntity
  8
1
  6
Continuous
 62
     3
100
AcDbLine
 10
372.864317148713
 20
266.006854885594
 30
0.0
 11
395.238575062464
 21
266.006854885594
 31
0.0
  0
LINE
  5
15F
330
1F
100
AcDbEntity
  8
100
  6
Continuous
 62
     3
100
AcDbLine
 10
539.380882034255
 20
112.95803989155
 30
0.0
 11
559.702431691903
 21
112.95803989155
 31
0.0
  0
LINE
  5
160
330
1F
100
AcDbEntity
  8
100
  6
Continuous
 62
     3
100
AcDbLine
 10
483.702431691903
 20
112.95803989155
 30
0.0
 11
504.023981349551
 21
112.95803989155
 31
0.0
  0
LINE
  5
161
330
1F
100
AcDbEntity
  8
100
  6
Continuous
 62
     3
100
AcDbLine
 10
556.202431691903
 20
108.995689334796
 30
0.0
 11
556.202431691903
 21
109.205263141817
 31
0.0
  0
LINE
  5
162
330
1F
100
AcDbEntity
  8
100
  6
Continuous
 62
     3
100
AcDbLine
 10
557.702431691903
 20
111.803339353171
 30
0.0
 11
559.702431691903
 21
112.95803989155
 31
0.0
  0
LINE
  5
163
330
1F
100
AcDbEntity
  8
100
  6
Continuous
 62
     3
100
AcDbLine
 10
559.702431691903
 20
119.5
 30
0.0
 11
559.702431691903
 21
113.061134572072
 31
0.0
  0
LINE
  5
164
330
1F
100
AcDbEntity
  8
100
  6
Continuous
 62
     3
100
AcDbLine
 10
552.452431691903
 20
124.0
 30
0.0
 11
552.452431691903
 21
127.0
 31
0.0
  0
LINE
  5
165
330
1F
100
AcDbEntity
  8
100
  6
Continuous
 62
     3
100
AcDbLine
 10
555.202431691903
 20
124.0
 30
0.0
 11
559.702431691903
 21
119.5
 31
0.0
  0
LINE
  5
166
330
1F
100
AcDbEntity
  8
100
  6
Continuous
 62
     3
100
AcDbLine
 10
490.952431691903
 20
127.0
 30
0.0
 11
490.952431691903
 21
124.0
 31
0.0
  0
LINE
  5
167
330
1F
100
AcDbEntity
  8
100
  6
Continuous
 62
     3
100
AcDbLine
 10
555.202431691903
 20
124.0
 30
0.0
 11
488.202431691903
 21
124.0
 31
0.0
  0
LINE
  5
168
330
1F
100
AcDbEntity
  8
100
  6
Continuous
 62
     3
100
AcDbLine
 10
483.702431691903
 20
119.5
 30
0.0
 11
488.202431691903
 21
124.0
 31
0.0
  0
LINE
  5
169
330
1F
100
AcDbEntity
  8
100
  6
Continuous
 62
     3
100
AcDbLine
 10
483.702431691903
 20
119.5
 30
0.0
 11
559.702431691903
 21
119.5
 31
0.0
  0
LINE
  5
16A
330
1F
100
AcDbEntity
  8
100
  6
Continuous
 62
     3
100
AcDbLine
 10
485.702431691903
 20
111.803339353171
 30
0.0
 11
483.702431691903
 21
112.95803989155
 31
0.0
  0
LINE
  5
16B
330
1F
100
AcDbEntity
  8
100
  6
Continuous
 62
     3
100
AcDbLine
 10
483.702431691903
 20
119.5
 30
0.0
 11
483.702431691903
 21
113.061134572072
 31
0.0
  0
LINE
  5
16C
330
1F
100
AcDbEntity
  8
100
  6
Continuous
 62
     3
100
AcDbLine
 10
487.202431691903
 20
108.995689334796
 30
0.0
 11
487.202431691903
 21
109.205263141817
 31
0.0
  0
LINE
  5
16D
330
1F
100
AcDbEntity
  8
100
  6
Continuous
 62
     3
100
AcDbLine
 10
490.952431691903
 20
127.0
 30
0.0
 11
490.952431691903
 21
124.0
 31
0.0
  0
LINE
  5
16E
330
1F
100
AcDbEntity
  8
100
  6
Continuous
 62
     3
100
AcDbLine
 10
490.202431691903
 20
133.0
 30
0.0
 11
489.202431691903
 21
132.0
 31
0.0
  0
LINE
  5
16F
330
1F
100
AcDbEntity
  8
100
  6
Continuous
 62
     3
100
AcDbLine
 10
489.202431691903
 20
132.0
 30
0.0
 11
489.202431691903
 21
127.0
 31
0.0
  0
LINE
  5
170
330
1F
100
AcDbEntity
  8
100
  6
Continuous
 62
     3
100
AcDbLine
 10
553.202431691903
 20
133.0
 30
0.0
 11
490.202431691903
 21
133.0
 31
0.0
  0
LINE
  5
171
330
1F
100
AcDbEntity
  8
100
  6
Continuous
 62
     3
100
AcDbLine
 10
554.202431691903
 20
127.0
 30
0.0
 11
489.202431691903
 21
127.0
 31
0.0
  0
LINE
  5
172
330
1F
100
AcDbEntity
  8
100
  6
Continuous
 62
     3
100
AcDbLine
 10
552.452431691903
 20
124.0
 30
0.0
 11
552.452431691903
 21
127.0
 31
0.0
  0
LINE
  5
173
330
1F
100
AcDbEntity
  8
100
  6
Continuous
 62
     3
100
AcDbLine
 10
553.202431691903
 20
133.0
 30
0.0
 11
554.202431691903
 21
132.0
 31
0.0
  0
LINE
  5
174
330
1F
100
AcDbEntity
  8
100
  6
Continuous
 62
     3
100
AcDbLine
 10
554.202431691903
 20
132.0
 30
0.0
 11
554.202431691903
 21
127.0
 31
0.0
  0
LINE
  5
175
330
1F
100
AcDbEntity
  8
100
  6
Continuous
 62
     3
100
AcDbLine
 10
267.238575062464
 20
42.6
 30
0.0
 11
267.238575062464
 21
117.4
 31
0.0
  0
LINE
  5
176
330
1F
100
AcDbEntity
  8
100
  6
Continuous
 62
     3
100
AcDbLine
 10
373.238575062464
 20
42.6
 30
0.0
 11
373.238575062464
 21
117.4
 31
0.0
  0
LINE
  5
177
330
1F
100
AcDbEntity
  8
1
  6
CENTER
 62
     1
100
AcDbLine
 10
297.738575581395
 20
263.148711715294
 30
0.0
 11
342.738575581395
 21
341.090998055894
 31
0.0
  0
LINE
  5
178
330
1F
100
AcDbEntity
  8
1
  6
CENTER
 62
     1
100
AcDbLine
 10
404.229281174635
 20
302.119854885594
 30
0.0
 11
236.954641670041
 21
302.119854885594
 31
0.0
  0
LINE
  5
179
330
1F
100
AcDbEntity
  8
1
  6
CENTER
 62
     1
100
AcDbLine
 10
342.738574543532
 20
263.148711715294
 30
0.0
 11
297.738574543532
 21
341.090998055894
 31
0.0
  0
LINE
  5
17A
330
1F
100
AcDbEntity
  8
100
  6
Continuous
 62
     3
100
AcDbLine
 10
513.852431691903
 20
150.5
 30
0.0
 11
513.852431691903
 21
151.998302206587
 31
0.0
  0
LINE
  5
17B
330
1F
100
AcDbEntity
  8
100
  6
Continuous
 62
     3
100
AcDbLine
 10
529.552431691903
 20
150.5
 30
0.0
 11
529.552431691903
 21
151.998302206587
 31
0.0
  0
LINE
  5
17C
330
1F
100
AcDbEntity
  8
100
  6
Continuous
 62
     3
100
AcDbLine
 10
528.457623905808
 20
213.0
 30
0.0
 11
532.106036521625
 21
213.937119463883
 31
0.0
  0
LINE
  5
17D
330
1F
100
AcDbEntity
  8
100
  6
Continuous
 62
     3
100
AcDbLine
 10
514.449677238026
 20
213.0
 30
0.0
 11
528.457623905808
 21
213.0
 31
0.0
  0
LINE
  5
17E
330
1F
100
AcDbEntity
  8
100
  6
Continuous
 62
     3
100
AcDbLine
 10
515.702431691903
 20
227.0
 30
0.0
 11
527.702431691903
 21
227.0
 31
0.0
  0
LINE
  5
17F
330
1F
100
AcDbEntity
  8
100
  6
Continuous
 62
     3
100
AcDbLine
 10
488.776672109638
 20
213.211145618
 30
0.0
 11
489.932089637637
 21
213.788854382
 31
0.0
  0
LINE
  5
180
330
1F
100
AcDbEntity
  8
100
  6
Continuous
 62
     3
100
AcDbLine
 10
486.695994798258
 20
213.0
 30
0.0
 11
487.882244918638
 21
213.0
 31
0.0
  0
LINE
  5
181
330
1F
100
AcDbEntity
  8
100
  6
Continuous
 62
     3
100
AcDbLine
 10
496.912862433525
 20
227.0
 30
0.0
 11
486.695994798258
 21
227.000000000001
 31
0.0
  0
LINE
  5
182
330
1F
100
AcDbEntity
  8
100
  6
Continuous
 62
     3
100
AcDbLine
 10
508.302431691904
 20
214.0
 30
0.0
 11
509.541654918931
 21
207.803883864862
 31
0.0
  0
LINE
  5
183
330
1F
100
AcDbEntity
  8
100
  6
Continuous
 62
     3
100
AcDbLine
 10
514.449677238026
 20
213.0
 30
0.0
 11
510.801264622209
 21
213.937119463883
 31
0.0
  0
LINE
  5
184
330
1F
100
AcDbEntity
  8
100
  6
Continuous
 62
     3
100
AcDbLine
 10
533.863208464876
 20
207.80388386486
 30
0.0
 11
535.102431691903
 21
214.0
 31
0.0
  0
LINE
  5
185
330
1F
100
AcDbEntity
  8
100
  6
Continuous
 62
     3
100
AcDbLine
 10
554.628191274169
 20
213.211145618001
 30
0.0
 11
553.47277374617
 21
213.788854382
 31
0.0
  0
LINE
  5
186
330
1F
100
AcDbEntity
  8
100
  6
Continuous
 62
     3
100
AcDbLine
 10
556.708868585549
 20
213.0
 30
0.0
 11
555.522618465169
 21
213.0
 31
0.0
  0
LINE
  5
187
330
1F
100
AcDbEntity
  8
100
  6
Continuous
 62
     3
100
AcDbLine
 10
546.492000950282
 20
227.0
 30
0.0
 11
556.708868585548
 21
227.000000000001
 31
0.0
  0
LINE
  5
188
330
1F
100
AcDbEntity
  8
100
  6
Continuous
 62
     3
100
AcDbLine
 10
532.350844307719
 20
214.0
 30
0.0
 11
552.57834655517
 21
214.0
 31
0.0
  0
LINE
  5
189
330
1F
100
AcDbEntity
  8
100
  6
Continuous
 62
     3
100
AcDbLine
 10
490.826516828637
 20
214.0
 30
0.0
 11
510.556456836114
 21
214.0
 31
0.0
  0
LINE
  5
18A
330
1F
100
AcDbEntity
  8
100
  6
Continuous
 62
     3
100
AcDbLine
 10
510.522235594622
 20
206.999999999998
 30
0.0
 11
532.882627789185
 21
206.999999999999
 31
0.0
  0
LINE
  5
18B
330
1F
100
AcDbEntity
  8
100
  6
Continuous
 62
     3
100
AcDbLine
 10
528.702431691903
 20
226.0
 30
0.0
 11
544.759950142713
 21
226.000000000001
 31
0.0
  0
LINE
  5
18C
330
1F
100
AcDbEntity
  8
100
  6
Continuous
 62
     3
100
AcDbLine
 10
498.644913241094
 20
226.0
 30
0.0
 11
514.702431691903
 21
226.0
 31
0.0
  0
LINE
  5
18D
330
1F
100
AcDbEntity
  8
100
  6
Continuous
 62
     3
100
AcDbLine
 10
515.202431691903
 20
206.999999999999
 30
0.0
 11
515.202431691903
 21
181.8556
 31
0.0
  0
LINE
  5
18E
330
1F
100
AcDbEntity
  8
100
  6
Continuous
 62
     3
100
AcDbLine
 10
528.202431691903
 20
206.999999999999
 30
0.0
 11
528.202431691903
 21
181.8556
 31
0.0
  0
LINE
  5
18F
330
1F
100
AcDbEntity
  8
100
  6
Continuous
 62
     3
100
AcDbLine
 10
510.522235594622
 20
206.999999999998
 30
0.0
 11
532.882627789185
 21
206.999999999999
 31
0.0
  0
LINE
  5
190
330
1F
100
AcDbEntity
  8
100
  6
Continuous
 62
     3
100
AcDbLine
 10
533.202431691903
 20
181.8556
 30
0.0
 11
510.202431691903
 21
181.8556
 31
0.0
  0
LINE
  5
191
330
1F
100
AcDbEntity
  8
100
  6
Continuous
 62
     3
100
AcDbLine
 10
510.202431691903
 20
175.5
 30
0.0
 11
533.202431691903
 21
175.5
 31
0.0
  0
LINE
  5
192
330
1F
100
AcDbEntity
  8
100
  6
Continuous
 62
     3
100
AcDbLine
 10
510.702431691903
 20
178.3556
 30
0.0
 11
532.702431691903
 21
178.3556
 31
0.0
  0
LINE
  5
193
330
1F
100
AcDbEntity
  8
100
  6
Continuous
 62
     3
100
AcDbLine
 10
512.452431691903
 20
178.3556
 30
0.0
 11
512.452431691903
 21
175.5
 31
0.0
  0
LINE
  5
194
330
1F
100
AcDbEntity
  8
100
  6
Continuous
 62
     3
100
AcDbLine
 10
530.952431691903
 20
178.3556
 30
0.0
 11
530.952431691903
 21
175.5
 31
0.0
  0
LINE
  5
195
330
1F
100
AcDbEntity
  8
100
  6
Continuous
 62
     3
100
AcDbLine
 10
510.202431691903
 20
181.8556
 30
0.0
 11
509.702431691903
 21
181.3556
 31
0.0
  0
LINE
  5
196
330
1F
100
AcDbEntity
  8
100
  6
Continuous
 62
     3
100
AcDbLine
 10
510.702431691903
 20
178.3556
 30
0.0
 11
509.702431691903
 21
179.3556
 31
0.0
  0
LINE
  5
197
330
1F
100
AcDbEntity
  8
100
  6
Continuous
 62
     3
100
AcDbLine
 10
509.702431691903
 20
181.3556
 30
0.0
 11
509.702431691903
 21
179.3556
 31
0.0
  0
LINE
  5
198
330
1F
100
AcDbEntity
  8
100
  6
Continuous
 62
     3
100
AcDbLine
 10
533.202431691903
 20
181.8556
 30
0.0
 11
533.702431691903
 21
181.3556
 31
0.0
  0
LINE
  5
199
330
1F
100
AcDbEntity
  8
100
  6
Continuous
 62
     3
100
AcDbLine
 10
532.702431691903
 20
178.3556
 30
0.0
 11
533.702431691903
 21
179.3556
 31
0.0
  0
LINE
  5
19A
330
1F
100
AcDbEntity
  8
100
  6
Continuous
 62
     3
100
AcDbLine
 10
533.702431691903
 20
181.3556
 30
0.0
 11
533.702431691903
 21
179.3556
 31
0.0
  0
LINE
  5
19B
330
1F
100
AcDbEntity
  8
100
  6
Continuous
 62
     3
100
AcDbLine
 10
533.202431691903
 20
175.5
 30
0.0
 11
534.202431691903
 21
174.5
 31
0.0
  0
LINE
  5
19C
330
1F
100
AcDbEntity
  8
100
  6
Continuous
 62
     3
100
AcDbLine
 10
509.202431691903
 20
174.5
 30
0.0
 11
510.202431691903
 21
175.5
 31
0.0
  0
LINE
  5
19D
330
1F
100
AcDbEntity
  8
100
  6
Continuous
 62
     3
100
AcDbLine
 10
534.202431691903
 20
174.5
 30
0.0
 11
534.202431691903
 21
133.0
 31
0.0
  0
LINE
  5
19E
330
1F
100
AcDbEntity
  8
100
  6
Continuous
 62
     3
100
AcDbLine
 10
509.202431691903
 20
174.5
 30
0.0
 11
509.202431691903
 21
133.0
 31
0.0
  0
LINE
  5
19F
330
1F
100
AcDbEntity
  8
100
  6
Continuous
 62
     3
100
AcDbLine
 10
509.202431691903
 20
150.5
 30
0.0
 11
534.202431691903
 21
150.5
 31
0.0
  0
LINE
  5
1A0
330
1F
100
AcDbEntity
  8
1
  6
CENTER
 62
     1
100
AcDbLine
 10
521.702431691903
 20
31.2760800799661
 30
0.0
 11
521.702431691903
 21
235.594997853826
 31
0.0
  0
LINE
  5
1A1
330
1F
100
AcDbEntity
  8
1
  6
CENTER
 62
     1
100
AcDbLine
 10
474.358448974925
 20
80.0
 30
0.0
 11
571.703474663406
 21
80.0
 31
0.0
  0
LINE
  5
1A2
330
1F
100
AcDbEntity
  8
2
  6
DOTTED
 62
     6
100
AcDbLine
 10
306.272651838393
 20
200.389986552188
 30
0.0
 11
303.345354660552
 21
202.0
 31
0.0
  0
LINE
  5
1A3
330
1F
100
AcDbEntity
  8
2
  6
DOTTED
 62
     6
100
AcDbLine
 10
308.077798289492
 20
196.803883864862
 30
0.0
 11
307.768637616149
 21
198.349687231572
 31
0.0
  0
LINE
  5
1A4
330
1F
100
AcDbEntity
  8
2
  6
DOTTED
 62
     6
100
AcDbLine
 10
309.058378965182
 20
196.0
 30
0.0
 11
331.418771159745
 21
196.0
 31
0.0
  0
LINE
  5
1A5
330
1F
100
AcDbEntity
  8
2
  6
DOTTED
 62
     6
100
AcDbLine
 10
332.399351835436
 20
196.803883864862
 30
0.0
 11
332.708512508778
 21
198.349687231572
 31
0.0
  0
LINE
  5
1A6
330
1F
100
AcDbEntity
  8
2
  6
DOTTED
 62
     6
100
AcDbLine
 10
334.204498286534
 20
200.389986552188
 30
0.0
 11
337.131795464375
 21
202.0
 31
0.0
  0
LINE
  5
1A7
330
1F
100
AcDbEntity
  8
2
  6
DOTTED
 62
     6
100
AcDbLine
 10
344.238575062464
 20
215.0
 30
0.0
 11
347.948042695007
 21
215.0
 31
0.0
  0
LINE
  5
1A8
330
1F
100
AcDbEntity
  8
2
  6
DOTTED
 62
     6
100
AcDbLine
 10
310.238575062464
 20
215.0
 30
0.0
 11
330.238575062464
 21
215.0
 31
0.0
  0
LINE
  5
1A9
330
1F
100
AcDbEntity
  8
2
  6
DOTTED
 62
     6
100
AcDbLine
 10
292.529107429921
 20
215.0
 30
0.0
 11
296.238575062464
 21
215.0
 31
0.0
  0
LINE
  5
1AA
330
1F
100
AcDbEntity
  8
2
  6
DOTTED
 62
     6
100
AcDbLine
 10
331.238575062464
 20
216.0
 30
0.0
 11
343.238575062464
 21
216.0
 31
0.0
  0
LINE
  5
1AB
330
1F
100
AcDbEntity
  8
2
  6
DOTTED
 62
     6
100
AcDbLine
 10
309.238575062464
 20
216.0
 30
0.0
 11
297.238575062464
 21
216.0
 31
0.0
  0
LINE
  5
1AC
330
1F
100
AcDbEntity
  8
2
  6
DOTTED
 62
     6
100
AcDbLine
 10
290.797056622352
 20
216.0
 30
0.0
 11
280.580188987085
 21
216.000000000001
 31
0.0
  0
LINE
  5
1AD
330
1F
100
AcDbEntity
  8
2
  6
DOTTED
 62
     6
100
AcDbLine
 10
282.660866298464
 20
202.211145618
 30
0.0
 11
283.816283826464
 21
202.788854382
 31
0.0
  0
LINE
  5
1AE
330
1F
100
AcDbEntity
  8
2
  6
DOTTED
 62
     6
100
AcDbLine
 10
280.580188987085
 20
202.0
 30
0.0
 11
281.766439107464
 21
202.0
 31
0.0
  0
LINE
  5
1AF
330
1F
100
AcDbEntity
  8
2
  6
DOTTED
 62
     6
100
AcDbLine
 10
295.660866298464
 20
202.788854382
 30
0.0
 11
296.816283826464
 21
202.211145618
 31
0.0
  0
LINE
  5
1B0
330
1F
100
AcDbEntity
  8
2
  6
DOTTED
 62
     6
100
AcDbLine
 10
345.710711017463
 20
203.0
 30
0.0
 11
355.766439107464
 21
203.0
 31
0.0
  0
LINE
  5
1B1
330
1F
100
AcDbEntity
  8
2
  6
DOTTED
 62
     6
100
AcDbLine
 10
284.710711017464
 20
203.0
 30
0.0
 11
295.238575062464
 21
203.0
 31
0.0
  0
LINE
  5
1B2
330
1F
100
AcDbEntity
  8
2
  6
DOTTED
 62
     6
100
AcDbLine
 10
337.131795464375
 20
202.0
 30
0.0
 11
342.766439107464
 21
202.0
 31
0.0
  0
LINE
  5
1B3
330
1F
100
AcDbEntity
  8
2
  6
DOTTED
 62
     6
100
AcDbLine
 10
297.710711017464
 20
202.0
 30
0.0
 11
303.345354660552
 21
202.0
 31
0.0
  0
LINE
  5
1B4
330
1F
100
AcDbEntity
  8
2
  6
DOTTED
 62
     6
100
AcDbLine
 10
344.816283826464
 20
202.788854382
 30
0.0
 11
343.660866298464
 21
202.211145618
 31
0.0
  0
LINE
  5
1B5
330
1F
100
AcDbEntity
  8
2
  6
DOTTED
 62
     6
100
AcDbLine
 10
357.816283826463
 20
202.211145618
 30
0.0
 11
356.660866298464
 21
202.788854382
 31
0.0
  0
LINE
  5
1B6
330
1F
100
AcDbEntity
  8
2
  6
DOTTED
 62
     6
100
AcDbLine
 10
359.896961137843
 20
202.0
 30
0.0
 11
358.710711017463
 21
202.0
 31
0.0
  0
LINE
  5
1B7
330
1F
100
AcDbEntity
  8
2
  6
DOTTED
 62
     6
100
AcDbLine
 10
349.680093502576
 20
216.0
 30
0.0
 11
359.896961137843
 21
216.000000000001
 31
0.0
  0
LINE
  5
1B8
330
1F
100
AcDbEntity
  8
100
  6
Continuous
 62
     3
100
AcDbLine
 10
296.238575062464
 20
226.0
 30
0.0
 11
282.738575062464
 21
226.0
 31
0.0
  0
LINE
  5
1B9
330
1F
100
AcDbEntity
  8
100
  6
Continuous
 62
     3
100
AcDbLine
 10
309.238575062464
 20
227.0
 30
0.0
 11
297.238575062464
 21
227.0
 31
0.0
  0
LINE
  5
1BA
330
1F
100
AcDbEntity
  8
100
  6
Continuous
 62
     3
100
AcDbLine
 10
290.797056622352
 20
227.0
 30
0.0
 11
280.580188987085
 21
227.000000000001
 31
0.0
  0
LINE
  5
1BB
330
1F
100
AcDbEntity
  8
100
  6
Continuous
 62
     3
100
AcDbLine
 10
308.077798289492
 20
207.803883864862
 30
0.0
 11
307.768637616149
 21
209.349687231572
 31
0.0
  0
LINE
  5
1BC
330
1F
100
AcDbEntity
  8
5
  6
Continuous
 62
     3
100
AcDbLine
 10
320.1817456174
 20
210.717672785336
 30
0.0
 11
308.403324207972
 21
210.717672785336
 31
0.0
  0
LINE
  5
1BD
330
1F
100
AcDbEntity
  8
100
  6
Continuous
 62
     3
100
AcDbLine
 10
306.272651838393
 20
211.389986552188
 30
0.0
 11
303.345354660552
 21
213.0
 31
0.0
  0
LINE
  5
1BE
330
1F
100
AcDbEntity
  8
100
  6
Continuous
 62
     3
100
AcDbLine
 10
297.710711017464
 20
213.0
 30
0.0
 11
303.092600206675
 21
213.0
 31
0.0
  0
LINE
  5
1BF
330
1F
100
AcDbEntity
  8
100
  6
Continuous
 62
     3
100
AcDbLine
 10
282.660866298464
 20
213.211145618
 30
0.0
 11
283.816283826464
 21
213.788854382
 31
0.0
  0
LINE
  5
1C0
330
1F
100
AcDbEntity
  8
100
  6
Continuous
 62
     3
100
AcDbLine
 10
280.580188987085
 20
213.0
 30
0.0
 11
281.766439107464
 21
213.0
 31
0.0
  0
LINE
  5
1C1
330
1F
100
AcDbEntity
  8
100
  6
Continuous
 62
     3
100
AcDbLine
 10
307.491329516342
 20
214.0
 30
0.0
 11
320.238575062464
 21
214.0
 31
0.0
  0
LINE
  5
1C2
330
1F
100
AcDbEntity
  8
100
  6
Continuous
 62
     3
100
AcDbLine
 10
303.590162446647
 20
213.062880536117
 30
0.0
 11
306.993767276369
 21
213.937119463883
 31
0.0
  0
LINE
  5
1C3
330
1F
100
AcDbEntity
  8
100
  6
Continuous
 62
     3
100
AcDbLine
 10
295.660866298464
 20
213.788854382
 30
0.0
 11
296.816283826464
 21
213.211145618
 31
0.0
  0
LINE
  5
1C4
330
1F
100
AcDbEntity
  8
100
  6
Continuous
 62
     3
100
AcDbLine
 10
284.710711017464
 20
214.0
 30
0.0
 11
294.766439107464
 21
214.0
 31
0.0
  0
LINE
  5
1C5
330
1F
100
AcDbEntity
  8
100
  6
Continuous
 62
     3
100
AcDbLine
 10
309.058378965182
 20
207.0
 30
0.0
 11
331.418771159745
 21
207.0
 31
0.0
  0
LINE
  5
1C6
330
1F
100
AcDbEntity
  8
100
  6
Continuous
 62
     3
100
AcDbLine
 10
332.399351835436
 20
207.803883864862
 30
0.0
 11
332.708512508778
 21
209.349687231572
 31
0.0
  0
LINE
  5
1C7
330
1F
100
AcDbEntity
  8
5
  6
Continuous
 62
     3
100
AcDbLine
 10
320.295404507528
 20
210.717672785336
 30
0.0
 11
332.073825916956
 21
210.717672785336
 31
0.0
  0
LINE
  5
1C8
330
1F
100
AcDbEntity
  8
100
  6
Continuous
 62
     3
100
AcDbLine
 10
334.204498286534
 20
211.389986552188
 30
0.0
 11
337.131795464375
 21
213.0
 31
0.0
  0
LINE
  5
1C9
330
1F
100
AcDbEntity
  8
100
  6
Continuous
 62
     3
100
AcDbLine
 10
342.766439107464
 20
213.0
 30
0.0
 11
337.384549918253
 21
213.0
 31
0.0
  0
LINE
  5
1CA
330
1F
100
AcDbEntity
  8
100
  6
Continuous
 62
     3
100
AcDbLine
 10
357.816283826463
 20
213.211145618
 30
0.0
 11
356.660866298464
 21
213.788854382
 31
0.0
  0
LINE
  5
1CB
330
1F
100
AcDbEntity
  8
100
  6
Continuous
 62
     3
100
AcDbLine
 10
359.896961137843
 20
213.0
 30
0.0
 11
358.710711017463
 21
213.0
 31
0.0
  0
LINE
  5
1CC
330
1F
100
AcDbEntity
  8
100
  6
Continuous
 62
     3
100
AcDbLine
 10
344.238575062464
 20
226.0
 30
0.0
 11
357.738575062464
 21
226.0
 31
0.0
  0
LINE
  5
1CD
330
1F
100
AcDbEntity
  8
100
  6
Continuous
 62
     3
100
AcDbLine
 10
331.238575062464
 20
227.0
 30
0.0
 11
343.238575062464
 21
227.0
 31
0.0
  0
LINE
  5
1CE
330
1F
100
AcDbEntity
  8
100
  6
Continuous
 62
     3
100
AcDbLine
 10
332.985820608586
 20
214.0
 30
0.0
 11
320.238575062464
 21
214.0
 31
0.0
  0
LINE
  5
1CF
330
1F
100
AcDbEntity
  8
100
  6
Continuous
 62
     3
100
AcDbLine
 10
336.88698767828
 20
213.062880536117
 30
0.0
 11
333.483382848559
 21
213.937119463883
 31
0.0
  0
LINE
  5
1D0
330
1F
100
AcDbEntity
  8
100
  6
Continuous
 62
     3
100
AcDbLine
 10
344.816283826463
 20
213.788854382
 30
0.0
 11
343.660866298464
 21
213.211145618
 31
0.0
  0
LINE
  5
1D1
330
1F
100
AcDbEntity
  8
100
  6
Continuous
 62
     3
100
AcDbLine
 10
355.766439107464
 20
214.0
 30
0.0
 11
345.710711017463
 21
214.0
 31
0.0
  0
LINE
  5
1D2
330
1F
100
AcDbEntity
  8
100
  6
Continuous
 62
     3
100
AcDbLine
 10
349.680093502576
 20
227.0
 30
0.0
 11
359.896961137843
 21
227.000000000001
 31
0.0
  0
LINE
  5
1D3
330
1F
100
AcDbEntity
  8
100
  6
Continuous
 62
     3
100
AcDbLine
 10
307.238575062464
 20
226.0
 30
0.0
 11
337.738575062464
 21
226.0
 31
0.0
  0
LINE
  5
1D4
330
1F
100
AcDbEntity
  8
100
  6
Continuous
 62
     3
100
AcDbLine
 10
292.52910742992
 20
226.0
 30
0.0
 11
303.238575062464
 21
226.0
 31
0.0
  0
LINE
  5
1D5
330
1F
100
AcDbEntity
  8
100
  6
Continuous
 62
     3
100
AcDbLine
 10
313.738575062464
 20
207.0
 30
0.0
 11
313.738575062464
 21
180.8556
 31
0.0
  0
LINE
  5
1D6
330
1F
100
AcDbEntity
  8
100
  6
Continuous
 62
     3
100
AcDbLine
 10
326.738575062464
 20
207.0
 30
0.0
 11
326.738575062464
 21
180.8556
 31
0.0
  0
LINE
  5
1D7
330
1F
100
AcDbEntity
  8
100
  6
Continuous
 62
     3
100
AcDbLine
 10
282.238575062464
 20
119.5
 30
0.0
 11
358.238575062464
 21
119.5
 31
0.0
  0
LINE
  5
1D8
330
1F
100
AcDbEntity
  8
100
  6
Continuous
 62
     3
100
AcDbLine
 10
352.738575062464
 20
127.0
 30
0.0
 11
287.738575062464
 21
127.0
 31
0.0
  0
LINE
  5
1D9
330
1F
100
AcDbEntity
  8
100
  6
Continuous
 62
     3
100
AcDbLine
 10
331.738575062464
 20
180.8556
 30
0.0
 11
308.738575062464
 21
180.8556
 31
0.0
  0
LINE
  5
1DA
330
1F
100
AcDbEntity
  8
100
  6
Continuous
 62
     3
100
AcDbLine
 10
308.738575062464
 20
180.8556
 30
0.0
 11
308.238575062464
 21
180.3556
 31
0.0
  0
LINE
  5
1DB
330
1F
100
AcDbEntity
  8
100
  6
Continuous
 62
     3
100
AcDbLine
 10
309.238575062464
 20
177.3556
 30
0.0
 11
308.238575062464
 21
178.3556
 31
0.0
  0
LINE
  5
1DC
330
1F
100
AcDbEntity
  8
100
  6
Continuous
 62
     3
100
AcDbLine
 10
309.238575062464
 20
177.3556
 30
0.0
 11
331.238575062464
 21
177.3556
 31
0.0
  0
LINE
  5
1DD
330
1F
100
AcDbEntity
  8
100
  6
Continuous
 62
     3
100
AcDbLine
 10
310.988575062464
 20
177.3556
 30
0.0
 11
310.988575062464
 21
174.5
 31
0.0
  0
LINE
  5
1DE
330
1F
100
AcDbEntity
  8
100
  6
Continuous
 62
     3
100
AcDbLine
 10
308.238575062464
 20
180.3556
 30
0.0
 11
308.238575062464
 21
178.3556
 31
0.0
  0
LINE
  5
1DF
330
1F
100
AcDbEntity
  8
100
  6
Continuous
 62
     3
100
AcDbLine
 10
331.738575062464
 20
180.8556
 30
0.0
 11
332.238575062464
 21
180.3556
 31
0.0
  0
LINE
  5
1E0
330
1F
100
AcDbEntity
  8
100
  6
Continuous
 62
     3
100
AcDbLine
 10
331.238575062464
 20
177.3556
 30
0.0
 11
332.238575062464
 21
178.3556
 31
0.0
  0
LINE
  5
1E1
330
1F
100
AcDbEntity
  8
100
  6
Continuous
 62
     3
100
AcDbLine
 10
329.488575062464
 20
177.3556
 30
0.0
 11
329.488575062464
 21
174.5
 31
0.0
  0
LINE
  5
1E2
330
1F
100
AcDbEntity
  8
100
  6
Continuous
 62
     3
100
AcDbLine
 10
332.238575062464
 20
180.3556
 30
0.0
 11
332.238575062464
 21
178.3556
 31
0.0
  0
LINE
  5
1E3
330
1F
100
AcDbEntity
  8
100
  6
Continuous
 62
     3
100
AcDbLine
 10
282.238575062464
 20
119.5
 30
0.0
 11
282.238575062464
 21
117.0
 31
0.0
  0
LINE
  5
1E4
330
1F
100
AcDbEntity
  8
100
  6
Continuous
 62
     3
100
AcDbLine
 10
280.238575062464
 20
115.0
 30
0.0
 11
269.638575062464
 21
115.0
 31
0.0
  0
LINE
  5
1E5
330
1F
100
AcDbEntity
  8
100
  6
Continuous
 62
     3
100
AcDbLine
 10
370.838575062464
 20
115.0
 30
0.0
 11
360.238575062464
 21
115.0
 31
0.0
  0
LINE
  5
1E6
330
1F
100
AcDbEntity
  8
100
  6
Continuous
 62
     3
100
AcDbLine
 10
358.238575062464
 20
119.5
 30
0.0
 11
358.238575062464
 21
117.0
 31
0.0
  0
LINE
  5
1E7
330
1F
100
AcDbEntity
  8
100
  6
Continuous
 62
     3
100
AcDbLine
 10
353.738575062464
 20
124.0
 30
0.0
 11
286.738575062464
 21
124.0
 31
0.0
  0
LINE
  5
1E8
330
1F
100
AcDbEntity
  8
100
  6
Continuous
 62
     3
100
AcDbLine
 10
353.738575062464
 20
124.0
 30
0.0
 11
358.238575062464
 21
119.5
 31
0.0
  0
LINE
  5
1E9
330
1F
100
AcDbEntity
  8
100
  6
Continuous
 62
     3
100
AcDbLine
 10
282.238575062464
 20
119.5
 30
0.0
 11
286.738575062464
 21
124.0
 31
0.0
  0
LINE
  5
1EA
330
1F
100
AcDbEntity
  8
100
  6
Continuous
 62
     3
100
AcDbLine
 10
350.988575062464
 20
124.0
 30
0.0
 11
350.988575062464
 21
127.0
 31
0.0
  0
LINE
  5
1EB
330
1F
100
AcDbEntity
  8
100
  6
Continuous
 62
     3
100
AcDbLine
 10
395.238575062464
 20
117.4
 30
0.0
 11
373.238575062464
 21
117.4
 31
0.0
  0
LINE
  5
1EC
330
1F
100
AcDbEntity
  8
100
  6
Continuous
 62
     3
100
AcDbLine
 10
395.238575062464
 20
42.6
 30
0.0
 11
395.238575062464
 21
117.4
 31
0.0
  0
LINE
  5
1ED
330
1F
100
AcDbEntity
  8
100
  6
Continuous
 62
     3
100
AcDbLine
 10
373.238575062464
 20
42.6
 30
0.0
 11
395.238575062464
 21
42.6
 31
0.0
  0
LINE
  5
1EE
330
1F
100
AcDbEntity
  8
100
  6
Continuous
 62
     3
100
AcDbLine
 10
361.915907030813
 20
45.0
 30
0.0
 11
370.838575062464
 21
45.0
 31
0.0
  0
LINE
  5
1EF
330
1F
100
AcDbEntity
  8
100
  6
Continuous
 62
     3
100
AcDbLine
 10
269.638575062464
 20
45.0
 30
0.0
 11
278.561243094114
 21
45.0
 31
0.0
  0
LINE
  5
1F0
330
1F
100
AcDbEntity
  8
100
  6
Continuous
 62
     3
100
AcDbLine
 10
245.238575062464
 20
42.6
 30
0.0
 11
267.238575062464
 21
42.6
 31
0.0
  0
LINE
  5
1F1
330
1F
100
AcDbEntity
  8
100
  6
Continuous
 62
     3
100
AcDbLine
 10
245.238575062464
 20
117.4
 30
0.0
 11
245.238575062464
 21
42.6
 31
0.0
  0
LINE
  5
1F2
330
1F
100
AcDbEntity
  8
100
  6
Continuous
 62
     3
100
AcDbLine
 10
267.238575062464
 20
117.4
 30
0.0
 11
245.238575062464
 21
117.4
 31
0.0
  0
LINE
  5
1F3
330
1F
100
AcDbEntity
  8
100
  6
Continuous
 62
     3
100
AcDbLine
 10
289.488575062464
 20
127.0
 30
0.0
 11
289.488575062464
 21
124.0
 31
0.0
  0
LINE
  5
1F4
330
1F
100
AcDbEntity
  8
1
  6
CENTER
 62
     1
100
AcDbLine
 10
240.738575062464
 20
80.0
 30
0.0
 11
399.738575062464
 21
80.0
 31
0.0
  0
LINE
  5
1F5
330
1F
100
AcDbEntity
  8
1
  6
Continuous
 62
     3
100
AcDbLine
 10
245.238575062464
 20
43.887
 30
0.0
 11
267.612832976215
 21
43.887
 31
0.0
  0
LINE
  5
1F6
330
1F
100
AcDbEntity
  8
1
  6
Continuous
 62
     3
100
AcDbLine
 10
245.238575062464
 20
116.113
 30
0.0
 11
267.612832976215
 21
116.113
 31
0.0
  0
LINE
  5
1F7
330
1F
100
AcDbEntity
  8
1
  6
Continuous
 62
     3
100
AcDbLine
 10
372.864317148713
 20
43.887
 30
0.0
 11
395.238575062464
 21
43.887
 31
0.0
  0
LINE
  5
1F8
330
1F
100
AcDbEntity
  8
1
  6
Continuous
 62
     3
100
AcDbLine
 10
372.864317148713
 20
116.113
 30
0.0
 11
395.238575062464
 21
116.113
 31
0.0
  0
LINE
  5
1F9
330
1F
100
AcDbEntity
  8
1
  6
CENTER
 62
     1
100
AcDbLine
 10
320.238575062464
 20
33.0
 30
0.0
 11
320.238575062464
 21
238.80022887932
 31
0.0
  0
LINE
  5
1FA
330
1F
100
AcDbEntity
  8
100
  6
Continuous
 62
     3
100
AcDbLine
 10
343.915135252848
 20
151.998302206587
 30
0.0
 11
343.843787528725
 21
150.5
 31
0.0
  0
LINE
  5
1FB
330
1F
100
AcDbEntity
  8
100
  6
Continuous
 62
     3
100
AcDbLine
 10
336.086001570266
 20
152.623293799135
 30
0.0
 11
335.984892341736
 21
150.5
 31
0.0
  0
LINE
  5
1FC
330
1F
100
AcDbEntity
  8
100
  6
Continuous
 62
     3
100
AcDbLine
 10
351.738575062464
 20
133.0
 30
0.0
 11
352.738575062464
 21
132.0
 31
0.0
  0
LINE
  5
1FD
330
1F
100
AcDbEntity
  8
100
  6
Continuous
 62
     3
100
AcDbLine
 10
352.738575062464
 20
132.0
 30
0.0
 11
352.738575062464
 21
127.0
 31
0.0
  0
LINE
  5
1FE
330
1F
100
AcDbEntity
  8
100
  6
Continuous
 62
     3
100
AcDbLine
 10
345.238575062464
 20
150.5
 30
0.0
 11
345.238575062464
 21
134.5
 31
0.0
  0
LINE
  5
1FF
330
1F
100
AcDbEntity
  8
100
  6
Continuous
 62
     3
100
AcDbLine
 10
332.738575062464
 20
173.5
 30
0.0
 11
332.738575062464
 21
150.5
 31
0.0
  0
LINE
  5
200
330
1F
100
AcDbEntity
  8
100
  6
Continuous
 62
     3
100
AcDbLine
 10
296.562014872079
 20
151.998302206587
 30
0.0
 11
296.633362596202
 21
150.5
 31
0.0
  0
LINE
  5
201
330
1F
100
AcDbEntity
  8
100
  6
Continuous
 62
     3
100
AcDbLine
 10
304.391148554662
 20
152.623293799135
 30
0.0
 11
304.492257783192
 21
150.5
 31
0.0
  0
LINE
  5
202
330
1F
100
AcDbEntity
  8
100
  6
Continuous
 62
     3
100
AcDbLine
 10
331.738575062464
 20
174.5
 30
0.0
 11
332.738575062464
 21
173.5
 31
0.0
  0
LINE
  5
203
330
1F
100
AcDbEntity
  8
100
  6
Continuous
 62
     3
100
AcDbLine
 10
307.738575062464
 20
173.5
 30
0.0
 11
308.738575062464
 21
174.5
 31
0.0
  0
LINE
  5
204
330
1F
100
AcDbEntity
  8
100
  6
Continuous
 62
     3
100
AcDbLine
 10
288.738575062464
 20
133.0
 30
0.0
 11
287.738575062464
 21
132.0
 31
0.0
  0
LINE
  5
205
330
1F
100
AcDbEntity
  8
100
  6
Continuous
 62
     3
100
AcDbLine
 10
287.738575062464
 20
132.0
 30
0.0
 11
287.738575062464
 21
127.0
 31
0.0
  0
LINE
  5
206
330
1F
100
AcDbEntity
  8
100
  6
Continuous
 62
     3
100
AcDbLine
 10
295.238575062464
 20
150.5
 30
0.0
 11
295.238575062464
 21
134.5
 31
0.0
  0
LINE
  5
207
330
1F
100
AcDbEntity
  8
100
  6
Continuous
 62
     3
100
AcDbLine
 10
307.738575062464
 20
150.5
 30
0.0
 11
295.238575062464
 21
150.5
 31
0.0
  0
LINE
  5
208
330
1F
100
AcDbEntity
  8
100
  6
Continuous
 62
     3
100
AcDbLine
 10
345.238575062464
 20
150.5
 30
0.0
 11
332.738575062464
 21
150.5
 31
0.0
  0
LINE
  5
209
330
1F
100
AcDbEntity
  8
100
  6
Continuous
 62
     3
100
AcDbLine
 10
351.738575062464
 20
133.0
 30
0.0
 11
288.738575062464
 21
133.0
 31
0.0
  0
LINE
  5
20A
330
1F
100
AcDbEntity
  8
100
  6
Continuous
 62
     3
100
AcDbLine
 10
307.738575062464
 20
173.5
 30
0.0
 11
307.738575062464
 21
150.5
 31
0.0
  0
LINE
  5
20B
330
1F
100
AcDbEntity
  8
100
  6
Continuous
 62
     3
100
AcDbLine
 10
308.738575062464
 20
174.5
 30
0.0
 11
331.738575062464
 21
174.5
 31
0.0
  0
LINE
  5
20C
330
1F
100
AcDbEntity
  8
1
  6
Continuous
 62
     4
100
AcDbLine
 10
384.224883366428
 20
42.6
 30
0.0
 11
389.571680506309
 21
36.2749107826582
 31
0.0
  0
LINE
  5
20D
330
1F
100
AcDbEntity
  8
1
  6
Continuous
 62
     4
100
AcDbLine
 10
384.224883366428
 20
42.6
 30
0.0
 11
385.692800909776
 21
34.4489134866387
 31
0.0
  0
LINE
  5
20E
330
1F
100
AcDbEntity
  8
1
  6
Continuous
 62
     4
100
AcDbLine
 10
257.483558900193
 20
42.6
 30
0.0
 11
255.339965360744
 21
34.6
 31
0.0
  0
LINE
  5
20F
330
1F
100
AcDbEntity
  8
1
  6
Continuous
 62
     4
100
AcDbLine
 10
257.483558900193
 20
42.6
 30
0.0
 11
251.627152439642
 21
36.743593539449
 31
0.0
  0
ARC
  5
210
330
1F
100
AcDbEntity
  8
100
  6
Continuous
 62
     3
100
AcDbCircle
 10
320.238574543532
 20
302.119854885594
 30
0.0
 40
25.99999999999855
100
AcDbArc
 50
258.0956555031666
 51
281.9043444968333
  0
ARC
  5
211
330
1F
100
AcDbEntity
  8
100
  6
Continuous
 62
     3
100
AcDbCircle
 10
319.586790564698
 20
286.133136096395
 30
0.0
 40
3.000000000000168
100
AcDbArc
 50
87.66532453214089
 51
147.8779855696649
  0
ARC
  5
212
330
1F
100
AcDbEntity
  8
100
  6
Continuous
 62
     3
100
AcDbCircle
 10
320.238574543532
 20
302.119854885594
 30
0.0
 40
12.99999999999963
100
AcDbArc
 50
267.6653245321322
 51
272.3346754678674
  0
ARC
  5
213
330
1F
100
AcDbEntity
  8
100
  6
Continuous
 62
     3
100
AcDbCircle
 10
320.890358522367
 20
286.133136096395
 30
0.0
 40
2.999999999999653
100
AcDbArc
 50
32.12201443033511
 51
92.33467546787945
  0
ARC
  5
214
330
1F
100
AcDbEntity
  8
100
  6
Continuous
 62
     3
100
AcDbCircle
 10
320.238574543532
 20
302.119854885594
 30
0.0
 40
25.99999999999918
100
AcDbArc
 50
318.0956555031687
 51
341.9043444968308
  0
ARC
  5
215
330
1F
100
AcDbEntity
  8
100
  6
Continuous
 62
     3
100
AcDbCircle
 10
333.75758714872
 20
293.562034007544
 30
0.0
 40
3.00000000000065
100
AcDbArc
 50
147.6653245321265
 51
207.8779855696637
  0
ARC
  5
216
330
1F
100
AcDbEntity
  8
100
  6
Continuous
 62
     3
100
AcDbCircle
 10
320.238574543532
 20
302.119854885594
 30
0.0
 40
12.99999999999997
100
AcDbArc
 50
327.6653245321351
 51
332.3346754678674
  0
ARC
  5
217
330
1F
100
AcDbEntity
  8
100
  6
Continuous
 62
     3
100
AcDbCircle
 10
334.409371127554
 20
294.690956974445
 30
0.0
 40
2.999999999999903
100
AcDbArc
 50
92.1220144303447
 51
152.3346754678748
  0
ARC
  5
218
330
1F
100
AcDbEntity
  8
100
  6
Continuous
 62
     3
100
AcDbCircle
 10
320.238574543532
 20
302.119854885594
 30
0.0
 40
25.99999999999995
100
AcDbArc
 50
18.09565550316847
 51
41.90434449683299
  0
ARC
  5
219
330
1F
100
AcDbEntity
  8
100
  6
Continuous
 62
     3
100
AcDbCircle
 10
333.75758714872
 20
310.677675763644
 30
0.0
 40
3.000000000000264
100
AcDbArc
 50
152.1220144303363
 51
212.3346754678579
  0
ARC
  5
21A
330
1F
100
AcDbEntity
  8
100
  6
Continuous
 62
     3
100
AcDbCircle
 10
320.238574543532
 20
302.119854885594
 30
0.0
 40
13.0000000000004
100
AcDbArc
 50
27.66532453213254
 51
32.33467546786852
  0
ARC
  5
21B
330
1F
100
AcDbEntity
  8
100
  6
Continuous
 62
     3
100
AcDbCircle
 10
334.409371127554
 20
309.548752796743
 30
0.0
 40
2.999999999999654
100
AcDbArc
 50
207.6653245321243
 51
267.8779855696553
  0
ARC
  5
21C
330
1F
100
AcDbEntity
  8
100
  6
Continuous
 62
     3
100
AcDbCircle
 10
320.238574543532
 20
302.119854885594
 30
0.0
 40
26.00000000000002
100
AcDbArc
 50
198.0956555031685
 51
221.9043444968329
  0
ARC
  5
21D
330
1F
100
AcDbEntity
  8
100
  6
Continuous
 62
     3
100
AcDbCircle
 10
306.719561938345
 20
293.562034007544
 30
0.0
 40
3.000000000000214
100
AcDbArc
 50
332.1220144303358
 51
32.33467546787349
  0
ARC
  5
21E
330
1F
100
AcDbEntity
  8
100
  6
Continuous
 62
     3
100
AcDbCircle
 10
320.238574543532
 20
302.119854885594
 30
0.0
 40
12.99999999999955
100
AcDbArc
 50
207.6653245321345
 51
212.3346754678672
  0
ARC
  5
21F
330
1F
100
AcDbEntity
  8
100
  6
Continuous
 62
     3
100
AcDbCircle
 10
306.067777959511
 20
294.690956974445
 30
0.0
 40
2.999999999999731
100
AcDbArc
 50
27.66532453212475
 51
87.87798556967374
  0
ARC
  5
220
330
1F
100
AcDbEntity
  8
100
  6
Continuous
 62
     3
100
AcDbCircle
 10
320.238574543532
 20
302.119854885594
 30
0.0
 40
25.99999999999991
100
AcDbArc
 50
138.0956555031671
 51
161.9043444968316
  0
ARC
  5
221
330
1F
100
AcDbEntity
  8
100
  6
Continuous
 62
     3
100
AcDbCircle
 10
306.067777959511
 20
309.548752796743
 30
0.0
 40
2.99999999999981
100
AcDbArc
 50
272.1220144303263
 51
332.3346754678762
  0
ARC
  5
222
330
1F
100
AcDbEntity
  8
100
  6
Continuous
 62
     3
100
AcDbCircle
 10
320.238574543532
 20
302.119854885594
 30
0.0
 40
12.99999999999967
100
AcDbArc
 50
147.6653245321292
 51
152.3346754678655
  0
ARC
  5
223
330
1F
100
AcDbEntity
  8
100
  6
Continuous
 62
     3
100
AcDbCircle
 10
306.719561938345
 20
310.677675763644
 30
0.0
 40
3.000000000000133
100
AcDbArc
 50
327.6653245321421
 51
27.87798556966422
  0
ARC
  5
224
330
1F
100
AcDbEntity
  8
100
  6
Continuous
 62
     3
100
AcDbCircle
 10
320.890358522367
 20
318.106573674794
 30
0.0
 40
3.000000000001175
100
AcDbArc
 50
267.6653245321221
 51
327.8779855696493
  0
ARC
  5
225
330
1F
100
AcDbEntity
  8
100
  6
Continuous
 62
     3
100
AcDbCircle
 10
320.238574543532
 20
302.119854885594
 30
0.0
 40
12.99999999999963
100
AcDbArc
 50
87.6653245321324
 51
92.33467546786767
  0
ARC
  5
226
330
1F
100
AcDbEntity
  8
100
  6
Continuous
 62
     3
100
AcDbCircle
 10
319.586790564698
 20
318.106573674794
 30
0.0
 40
3.000000000000167
100
AcDbArc
 50
212.1220144303507
 51
272.3346754678592
  0
ARC
  5
227
330
1F
100
AcDbEntity
  8
100
  6
Continuous
 62
     3
100
AcDbCircle
 10
320.238574543532
 20
302.119854885594
 30
0.0
 40
25.99999999999954
100
AcDbArc
 50
78.09565550316717
 51
101.904344496833
  0
ARC
  5
228
330
1F
100
AcDbEntity
  8
100
  6
Continuous
 62
     3
100
AcDbCircle
 10
320.238574543532
 20
302.119854885594
 30
0.0
 40
38.00000000000014
100
AcDbArc
 50
313.4904003790617
 51
346.50959962094
  0
ARC
  5
229
330
1F
100
AcDbEntity
  8
100
  6
Continuous
 62
     3
100
AcDbCircle
 10
320.238574543532
 20
302.119854885594
 30
0.0
 40
38.00000000000012
100
AcDbArc
 50
253.4904003790613
 51
286.5095996209402
  0
ARC
  5
22A
330
1F
100
AcDbEntity
  8
100
  6
Continuous
 62
     3
100
AcDbCircle
 10
320.238574543532
 20
302.119854885594
 30
0.0
 40
38.00000000000018
100
AcDbArc
 50
193.49040037906
 51
226.5095996209404
  0
ARC
  5
22B
330
1F
100
AcDbEntity
  8
100
  6
Continuous
 62
     3
100
AcDbCircle
 10
320.238574543532
 20
302.119854885594
 30
0.0
 40
38.00000000000018
100
AcDbArc
 50
133.4904003790596
 51
166.50959962094
  0
ARC
  5
22C
330
1F
100
AcDbEntity
  8
100
  6
Continuous
 62
     3
100
AcDbCircle
 10
320.238574543532
 20
302.119854885594
 30
0.0
 40
38.0000000000004
100
AcDbArc
 50
73.49040037905986
 51
106.5095996209387
  0
ARC
  5
22D
330
1F
100
AcDbEntity
  8
100
  6
Continuous
 62
     3
100
AcDbCircle
 10
320.238574543532
 20
302.119854885594
 30
0.0
 40
38.00000000000013
100
AcDbArc
 50
13.49040037906001
 51
46.50959962093943
  0
ARC
  5
22E
330
1F
100
AcDbEntity
  8
100
  6
Continuous
 62
     3
100
AcDbCircle
 10
278.561243094114
 20
353.119854885594
 30
0.0
 40
16.0
100
AcDbArc
 50
270.0
 51
294.3712194888061
  0
ARC
  5
22F
330
1F
100
AcDbEntity
  8
100
  6
Continuous
 62
     3
100
AcDbCircle
 10
269.638575062464
 20
339.519854885594
 30
0.0
 40
2.399999999999977
100
AcDbArc
 50
180.0
 51
270.0
  0
ARC
  5
230
330
1F
100
AcDbEntity
  8
100
  6
Continuous
 62
     3
100
AcDbCircle
 10
320.238575062464
 20
261.119854885594
 30
0.0
 40
85.0000000000005
100
AcDbArc
 50
65.62878534086911
 51
114.3712137500161
  0
ARC
  5
231
330
1F
100
AcDbEntity
  8
100
  6
Continuous
 62
     3
100
AcDbCircle
 10
361.915907030813
 20
353.119854885594
 30
0.0
 40
15.99999999999932
100
AcDbArc
 50
245.6287853408695
 51
270.0
  0
ARC
  5
232
330
1F
100
AcDbEntity
  8
100
  6
Continuous
 62
     3
100
AcDbCircle
 10
370.838575062464
 20
339.519854885594
 30
0.0
 40
2.399999999999977
100
AcDbArc
 50
270.0
 51
0.0
  0
ARC
  5
233
330
1F
100
AcDbEntity
  8
100
  6
Continuous
 62
     3
100
AcDbCircle
 10
278.561243094114
 20
251.119854885594
 30
0.0
 40
16.00000000000019
100
AcDbArc
 50
65.62878051119391
 51
90.0
  0
ARC
  5
234
330
1F
100
AcDbEntity
  8
100
  6
Continuous
 62
     3
100
AcDbCircle
 10
269.638575062464
 20
264.719854885594
 30
0.0
 40
2.400000000000034
100
AcDbArc
 50
90.0
 51
180.0
  0
ARC
  5
235
330
1F
100
AcDbEntity
  8
100
  6
Continuous
 62
     3
100
AcDbCircle
 10
320.238575062464
 20
343.119854885594
 30
0.0
 40
85.00000000000013
100
AcDbArc
 50
245.6287862499839
 51
294.3712146591311
  0
ARC
  5
236
330
1F
100
AcDbEntity
  8
100
  6
Continuous
 62
     3
100
AcDbCircle
 10
361.915907030813
 20
251.119854885594
 30
0.0
 40
16.0
100
AcDbArc
 50
90.0
 51
114.3712146591291
  0
ARC
  5
237
330
1F
100
AcDbEntity
  8
100
  6
Continuous
 62
     3
100
AcDbCircle
 10
370.838575062464
 20
264.719854885594
 30
0.0
 40
2.400000000000034
100
AcDbArc
 50
0.0
 51
90.0
  0
ARC
  5
238
330
1F
100
AcDbEntity
  8
100
  6
Continuous
 62
     3
100
AcDbCircle
 10
561.202431691903
 20
108.995689334796
 30
0.0
 40
5.0
100
AcDbArc
 50
180.0
 51
216.2812041023948
  0
ARC
  5
239
330
1F
100
AcDbEntity
  8
100
  6
Continuous
 62
     3
100
AcDbCircle
 10
521.702431691903
 20
80.0
 30
0.0
 40
44.00000000000006
100
AcDbArc
 50
143.7187958976039
 51
36.28120410239625
  0
ARC
  5
23A
330
1F
100
AcDbEntity
  8
100
  6
Continuous
 62
     3
100
AcDbCircle
 10
559.202431691903
 20
109.205263141817
 30
0.0
 40
3.000000000000591
100
AcDbArc
 50
119.9999999999935
 51
180.0
  0
ARC
  5
23B
330
1F
100
AcDbEntity
  8
100
  6
Continuous
 62
     3
100
AcDbCircle
 10
484.202431691903
 20
109.205263141817
 30
0.0
 40
3.0
100
AcDbArc
 50
0.0
 51
60.00000000000652
  0
ARC
  5
23C
330
1F
100
AcDbEntity
  8
100
  6
Continuous
 62
     3
100
AcDbCircle
 10
482.202431691903
 20
108.995689334796
 30
0.0
 40
5.000000000000004
100
AcDbArc
 50
323.7187958976049
 51
0.0
  0
ARC
  5
23D
330
1F
100
AcDbEntity
  8
100
  6
Continuous
 62
     3
100
AcDbCircle
 10
315.494171780417
 20
279.614507911567
 30
0.0
 40
2.999999999998787
100
AcDbArc
 50
147.8779855696545
 51
258.0956555031611
  0
ARC
  5
23E
330
1F
100
AcDbEntity
  8
100
  6
Continuous
 62
     3
100
AcDbCircle
 10
324.982977306647
 20
279.614507911567
 30
0.0
 40
2.999999999998532
100
AcDbArc
 50
281.9043444968389
 51
32.12201443035074
  0
ARC
  5
23F
330
1F
100
AcDbEntity
  8
100
  6
Continuous
 62
     3
100
AcDbCircle
 10
337.356575362465
 20
286.758408079938
 30
0.0
 40
2.999999999999386
100
AcDbArc
 50
207.8779855696738
 51
318.0956555031785
  0
ARC
  5
240
330
1F
100
AcDbEntity
  8
100
  6
Continuous
 62
     3
100
AcDbCircle
 10
342.10097812558
 20
294.975954717223
 30
0.0
 40
2.999999999999126
100
AcDbArc
 50
341.9043444968207
 51
92.12201443032626
  0
ARC
  5
241
330
1F
100
AcDbEntity
  8
100
  6
Continuous
 62
     3
100
AcDbCircle
 10
342.10097812558
 20
309.263755053965
 30
0.0
 40
2.99999999999981
100
AcDbArc
 50
267.8779855696737
 51
18.09565550317356
  0
ARC
  5
242
330
1F
100
AcDbEntity
  8
100
  6
Continuous
 62
     3
100
AcDbCircle
 10
337.356575362465
 20
317.48130169125
 30
0.0
 40
3.000000000000131
100
AcDbArc
 50
41.90434449683604
 51
152.1220144303272
  0
ARC
  5
243
330
1F
100
AcDbEntity
  8
100
  6
Continuous
 62
     3
100
AcDbCircle
 10
303.120573724599
 20
286.758408079938
 30
0.0
 40
3.000000000000131
100
AcDbArc
 50
221.904344496836
 51
332.1220144303348
  0
ARC
  5
244
330
1F
100
AcDbEntity
  8
100
  6
Continuous
 62
     3
100
AcDbCircle
 10
298.376170961484
 20
294.975954717223
 30
0.0
 40
2.999999999999905
100
AcDbArc
 50
87.87798556965421
 51
198.0956555031736
  0
ARC
  5
245
330
1F
100
AcDbEntity
  8
100
  6
Continuous
 62
     3
100
AcDbCircle
 10
298.376170961484
 20
309.263755053965
 30
0.0
 40
3.000000000000044
100
AcDbArc
 50
161.9043444968264
 51
272.1220144303458
  0
ARC
  5
246
330
1F
100
AcDbEntity
  8
100
  6
Continuous
 62
     3
100
AcDbCircle
 10
303.120573724599
 20
317.48130169125
 30
0.0
 40
3.000000000000214
100
AcDbArc
 50
27.87798556966422
 51
138.095655503164
  0
ARC
  5
247
330
1F
100
AcDbEntity
  8
100
  6
Continuous
 62
     3
100
AcDbCircle
 10
324.982977306647
 20
324.625201859621
 30
0.0
 40
2.999999999999623
100
AcDbArc
 50
327.8779855696658
 51
78.09565550316532
  0
ARC
  5
248
330
1F
100
AcDbEntity
  8
100
  6
Continuous
 62
     3
100
AcDbCircle
 10
315.494171780417
 20
324.625201859621
 30
0.0
 40
2.999999999999589
100
AcDbArc
 50
101.9043444968347
 51
212.1220144303342
  0
ARC
  5
249
330
1F
100
AcDbEntity
  8
100
  6
Continuous
 62
     3
100
AcDbCircle
 10
302.988574543532
 20
272.241978455031
 30
0.0
 40
7.999999999999574
100
AcDbArc
 50
239.9999999999982
 51
287.3023355693624
  0
ARC
  5
24A
330
1F
100
AcDbEntity
  8
100
  6
Continuous
 62
     3
100
AcDbCircle
 10
320.238574543532
 20
216.866555206084
 30
0.0
 40
50.00000000000016
100
AcDbArc
 50
72.69766443063914
 51
107.3023355693599
  0
ARC
  5
24B
330
1F
100
AcDbEntity
  8
100
  6
Continuous
 62
     3
100
AcDbCircle
 10
337.488574543532
 20
272.241978455031
 30
0.0
 40
8.000000000000021
100
AcDbArc
 50
252.6976644306438
 51
299.9999999999981
  0
ARC
  5
24C
330
1F
100
AcDbEntity
  8
100
  6
Continuous
 62
     3
100
AcDbCircle
 10
337.488574543532
 20
272.241978455031
 30
0.0
 40
8.00000000000046
100
AcDbArc
 50
299.9999999999981
 51
347.302335569362
  0
ARC
  5
24D
330
1F
100
AcDbEntity
  8
100
  6
Continuous
 62
     3
100
AcDbCircle
 10
354.738574543532
 20
302.119854885594
 30
0.0
 40
8.0
100
AcDbArc
 50
0.0
 51
47.30233556936088
  0
ARC
  5
24E
330
1F
100
AcDbEntity
  8
100
  6
Continuous
 62
     3
100
AcDbCircle
 10
354.738574543532
 20
302.119854885594
 30
0.0
 40
8.000000000000316
100
AcDbArc
 50
312.6976644306388
 51
0.0
  0
ARC
  5
24F
330
1F
100
AcDbEntity
  8
100
  6
Continuous
 62
     3
100
AcDbCircle
 10
394.070097822436
 20
259.493205045839
 30
0.0
 40
50.00000000000016
100
AcDbArc
 50
132.6976644306403
 51
167.3023355693599
  0
ARC
  5
250
330
1F
100
AcDbEntity
  8
100
  6
Continuous
 62
     3
100
AcDbCircle
 10
337.488574543532
 20
331.997731316157
 30
0.0
 40
8.000000000000512
100
AcDbArc
 50
12.69766443063798
 51
60.00000000000171
  0
ARC
  5
251
330
1F
100
AcDbEntity
  8
100
  6
Continuous
 62
     3
100
AcDbCircle
 10
394.070097822436
 20
344.746504725349
 30
0.0
 40
50.00000000000014
100
AcDbArc
 50
192.69766443064
 51
227.3023355693596
  0
ARC
  5
252
330
1F
100
AcDbEntity
  8
100
  6
Continuous
 62
     3
100
AcDbCircle
 10
285.738574543532
 20
302.119854885594
 30
0.0
 40
8.0
100
AcDbArc
 50
180.0
 51
227.3023355693608
  0
ARC
  5
253
330
1F
100
AcDbEntity
  8
100
  6
Continuous
 62
     3
100
AcDbCircle
 10
246.407051264629
 20
259.493205045839
 30
0.0
 40
50.00000000000016
100
AcDbArc
 50
12.69766443064005
 51
47.30233556936051
  0
ARC
  5
254
330
1F
100
AcDbEntity
  8
100
  6
Continuous
 62
     3
100
AcDbCircle
 10
302.988574543532
 20
272.241978455031
 30
0.0
 40
7.999999999999569
100
AcDbArc
 50
192.6976644306395
 51
239.9999999999982
  0
ARC
  5
255
330
1F
100
AcDbEntity
  8
100
  6
Continuous
 62
     3
100
AcDbCircle
 10
285.738574543532
 20
302.119854885594
 30
0.0
 40
8.000000000000313
100
AcDbArc
 50
132.6976644306394
 51
180.0
  0
ARC
  5
256
330
1F
100
AcDbEntity
  8
100
  6
Continuous
 62
     3
100
AcDbCircle
 10
302.988574543532
 20
331.997731316157
 30
0.0
 40
8.00000000000041
100
AcDbArc
 50
119.9999999999983
 51
167.3023355693621
  0
ARC
  5
257
330
1F
100
AcDbEntity
  8
100
  6
Continuous
 62
     3
100
AcDbCircle
 10
246.407051264629
 20
344.746504725349
 30
0.0
 40
49.99999999999946
100
AcDbArc
 50
312.6976644306395
 51
347.3023355693597
  0
ARC
  5
258
330
1F
100
AcDbEntity
  8
100
  6
Continuous
 62
     3
100
AcDbCircle
 10
320.238574543532
 20
387.373154565104
 30
0.0
 40
51.49999999999988
100
AcDbArc
 50
252.6976644306403
 51
287.3023355693607
  0
ARC
  5
259
330
1F
100
AcDbEntity
  8
100
  6
Continuous
 62
     3
100
AcDbCircle
 10
320.238574543532
 20
387.373154565104
 30
0.0
 40
49.99999999999995
100
AcDbArc
 50
252.6976644306402
 51
287.3023355693609
  0
ARC
  5
25A
330
1F
100
AcDbEntity
  8
100
  6
Continuous
 62
     3
100
AcDbCircle
 10
302.988574543532
 20
331.997731316157
 30
0.0
 40
8.000000000000238
100
AcDbArc
 50
72.69766443063746
 51
119.9999999999983
  0
ARC
  5
25B
330
1F
100
AcDbEntity
  8
100
  6
Continuous
 62
     3
100
AcDbCircle
 10
337.488574543532
 20
331.997731316157
 30
0.0
 40
8.00000000000041
100
AcDbArc
 50
60.00000000000171
 51
107.3023355693563
  0
ARC
  5
25C
330
1F
100
AcDbEntity
  8
100
  6
Continuous
 62
     3
100
AcDbCircle
 10
521.702431691903
 20
110.08984155716
 30
0.0
 40
42.63732606536873
100
AcDbArc
 50
79.39069482873387
 51
100.6093051712661
  0
ARC
  5
25D
330
1F
100
AcDbEntity
  8
100
  6
Continuous
 62
     3
100
AcDbCircle
 10
527.702431691903
 20
226.0
 30
0.0
 40
1.0
100
AcDbArc
 50
0.0
 51
90.0
  0
ARC
  5
25E
330
1F
100
AcDbEntity
  8
100
  6
Continuous
 62
     3
100
AcDbCircle
 10
515.702431691903
 20
226.0
 30
0.0
 40
1.0
100
AcDbArc
 50
90.0
 51
180.0
  0
ARC
  5
25F
330
1F
100
AcDbEntity
  8
100
  6
Continuous
 62
     3
100
AcDbCircle
 10
490.826516828637
 20
212.0
 30
0.0
 40
2.0
100
AcDbArc
 50
90.0
 51
116.5650511770787
  0
ARC
  5
260
330
1F
100
AcDbEntity
  8
100
  6
Continuous
 62
     3
100
AcDbCircle
 10
487.882244918638
 20
215.0
 30
0.0
 40
2.0
100
AcDbArc
 50
270.0
 51
296.5650511770787
  0
ARC
  5
261
330
1F
100
AcDbEntity
  8
100
  6
Continuous
 62
     3
100
AcDbCircle
 10
486.695994798258
 20
215.0
 30
0.0
 40
2.000000000000276
100
AcDbArc
 50
199.7732748502729
 51
270.0
  0
ARC
  5
262
330
1F
100
AcDbEntity
  8
100
  6
Continuous
 62
     3
100
AcDbCircle
 10
500.604380873637
 20
220.0
 30
0.0
 40
16.77982419455029
100
AcDbArc
 50
160.2267251497076
 51
199.7732748502893
  0
ARC
  5
263
330
1F
100
AcDbEntity
  8
100
  6
Continuous
 62
     3
100
AcDbCircle
 10
486.695994798258
 20
225.000000000001
 30
0.0
 40
2.0
100
AcDbArc
 50
90.0
 51
160.2267251497271
  0
ARC
  5
264
330
1F
100
AcDbEntity
  8
100
  6
Continuous
 62
     3
100
AcDbCircle
 10
496.912862433525
 20
225.0
 30
0.0
 40
2.000000000000115
100
AcDbArc
 50
29.9999999999981
 51
90.0
  0
ARC
  5
265
330
1F
100
AcDbEntity
  8
100
  6
Continuous
 62
     3
100
AcDbCircle
 10
510.522235594622
 20
208.0
 30
0.0
 40
1.00000000000003
100
AcDbArc
 50
191.309932474009
 51
270.0
  0
ARC
  5
266
330
1F
100
AcDbEntity
  8
100
  6
Continuous
 62
     3
100
AcDbCircle
 10
556.708868585548
 20
225.000000000001
 30
0.0
 40
2.000000000001185
100
AcDbArc
 50
19.77327485026358
 51
90.0
  0
ARC
  5
267
330
1F
100
AcDbEntity
  8
100
  6
Continuous
 62
     3
100
AcDbCircle
 10
552.57834655517
 20
212.0
 30
0.0
 40
2.000000000000187
100
AcDbArc
 50
63.43494882292274
 51
90.0
  0
ARC
  5
268
330
1F
100
AcDbEntity
  8
100
  6
Continuous
 62
     3
100
AcDbCircle
 10
555.522618465169
 20
215.0
 30
0.0
 40
1.999999999999272
100
AcDbArc
 50
243.4349488229096
 51
270.0
  0
ARC
  5
269
330
1F
100
AcDbEntity
  8
100
  6
Continuous
 62
     3
100
AcDbCircle
 10
556.708868585549
 20
215.0
 30
0.0
 40
2.0
100
AcDbArc
 50
270.0
 51
340.2267251497265
  0
ARC
  5
26A
330
1F
100
AcDbEntity
  8
100
  6
Continuous
 62
     3
100
AcDbCircle
 10
542.800482510169
 20
220.0
 30
0.0
 40
16.77982419455087
100
AcDbArc
 50
340.2267251497119
 51
19.77327485029134
  0
ARC
  5
26B
330
1F
100
AcDbEntity
  8
100
  6
Continuous
 62
     3
100
AcDbCircle
 10
546.492000950282
 20
225.0
 30
0.0
 40
2.0
100
AcDbArc
 50
90.0
 51
149.9999999999764
  0
ARC
  5
26C
330
1F
100
AcDbEntity
  8
100
  6
Continuous
 62
     3
100
AcDbCircle
 10
532.882627789185
 20
207.999999999999
 30
0.0
 40
1.0
100
AcDbArc
 50
270.0
 51
348.6900675259357
  0
ARC
  5
26D
330
1F
100
AcDbEntity
  8
2
  6
DOTTED
 62
     6
100
AcDbCircle
 10
304.826895589077
 20
197.761338826158
 30
0.0
 40
2.999999999999141
100
AcDbArc
 50
11.30993247401266
 51
61.18920625703529
  0
ARC
  5
26E
330
1F
100
AcDbEntity
  8
2
  6
DOTTED
 62
     6
100
AcDbCircle
 10
309.058378965183
 20
197.0
 30
0.0
 40
1.00000000000003
100
AcDbArc
 50
191.309932474009
 51
269.9999999999414
  0
ARC
  5
26F
330
1F
100
AcDbEntity
  8
2
  6
DOTTED
 62
     6
100
AcDbCircle
 10
331.418771159745
 20
197.0
 30
0.0
 40
1.0
100
AcDbArc
 50
270.0
 51
348.690067525991
  0
ARC
  5
270
330
1F
100
AcDbEntity
  8
2
  6
DOTTED
 62
     6
100
AcDbCircle
 10
335.650254535851
 20
197.761338826158
 30
0.0
 40
3.000000000000299
100
AcDbArc
 50
118.8107937429819
 51
168.690067525991
  0
ARC
  5
271
330
1F
100
AcDbEntity
  8
2
  6
DOTTED
 62
     6
100
AcDbCircle
 10
349.680093502576
 20
214.0
 30
0.0
 40
2.0
100
AcDbArc
 50
90.0
 51
150.0000000000019
  0
ARC
  5
272
330
1F
100
AcDbEntity
  8
2
  6
DOTTED
 62
     6
100
AcDbCircle
 10
331.238575062464
 20
215.0
 30
0.0
 40
1.0
100
AcDbArc
 50
90.0
 51
180.0
  0
ARC
  5
273
330
1F
100
AcDbEntity
  8
2
  6
DOTTED
 62
     6
100
AcDbCircle
 10
343.238575062464
 20
215.0
 30
0.0
 40
1.0
100
AcDbArc
 50
0.0
 51
90.0
  0
ARC
  5
274
330
1F
100
AcDbEntity
  8
2
  6
DOTTED
 62
     6
100
AcDbCircle
 10
309.238575062464
 20
215.0
 30
0.0
 40
1.0
100
AcDbArc
 50
0.0
 51
90.0
  0
ARC
  5
275
330
1F
100
AcDbEntity
  8
2
  6
DOTTED
 62
     6
100
AcDbCircle
 10
297.238575062464
 20
215.0
 30
0.0
 40
1.0
100
AcDbArc
 50
90.0
 51
180.0
  0
ARC
  5
276
330
1F
100
AcDbEntity
  8
2
  6
DOTTED
 62
     6
100
AcDbCircle
 10
280.580188987085
 20
214.000000000001
 30
0.0
 40
2.0
100
AcDbArc
 50
90.0
 51
160.2267251497271
  0
ARC
  5
277
330
1F
100
AcDbEntity
  8
2
  6
DOTTED
 62
     6
100
AcDbCircle
 10
290.797056622352
 20
214.0
 30
0.0
 40
2.000000000000115
100
AcDbArc
 50
29.9999999999981
 51
90.0
  0
ARC
  5
278
330
1F
100
AcDbEntity
  8
2
  6
DOTTED
 62
     6
100
AcDbCircle
 10
294.488575062464
 20
209.0
 30
0.0
 40
16.77982419455029
100
AcDbArc
 50
160.2267251497076
 51
199.7732748502893
  0
ARC
  5
279
330
1F
100
AcDbEntity
  8
2
  6
DOTTED
 62
     6
100
AcDbCircle
 10
284.710711017464
 20
201.0
 30
0.0
 40
2.0
100
AcDbArc
 50
90.0
 51
116.5650511770787
  0
ARC
  5
27A
330
1F
100
AcDbEntity
  8
2
  6
DOTTED
 62
     6
100
AcDbCircle
 10
281.766439107464
 20
204.0
 30
0.0
 40
2.0
100
AcDbArc
 50
270.0
 51
296.5650511770772
  0
ARC
  5
27B
330
1F
100
AcDbEntity
  8
2
  6
DOTTED
 62
     6
100
AcDbCircle
 10
280.580188987085
 20
204.0
 30
0.0
 40
2.000000000000276
100
AcDbArc
 50
199.7732748502729
 51
270.0
  0
ARC
  5
27C
330
1F
100
AcDbEntity
  8
2
  6
DOTTED
 62
     6
100
AcDbCircle
 10
297.710711017464
 20
204.0
 30
0.0
 40
2.000000000000213
100
AcDbArc
 50
243.4349488229213
 51
270.0
  0
ARC
  5
27D
330
1F
100
AcDbEntity
  8
2
  6
DOTTED
 62
     6
100
AcDbCircle
 10
294.766439107464
 20
201.0
 30
0.0
 40
2.000000000000187
100
AcDbArc
 50
63.43494882292274
 51
90.0
  0
ARC
  5
27E
330
1F
100
AcDbEntity
  8
2
  6
DOTTED
 62
     6
100
AcDbCircle
 10
345.710711017463
 20
201.0
 30
0.0
 40
2.0
100
AcDbArc
 50
90.0
 51
116.5650511770525
  0
ARC
  5
27F
330
1F
100
AcDbEntity
  8
2
  6
DOTTED
 62
     6
100
AcDbCircle
 10
342.766439107464
 20
204.0
 30
0.0
 40
2.0
100
AcDbArc
 50
270.0
 51
296.5650511770772
  0
ARC
  5
280
330
1F
100
AcDbEntity
  8
2
  6
DOTTED
 62
     6
100
AcDbCircle
 10
355.766439107464
 20
201.0
 30
0.0
 40
2.000000000000187
100
AcDbArc
 50
63.43494882292274
 51
90.0
  0
ARC
  5
281
330
1F
100
AcDbEntity
  8
2
  6
DOTTED
 62
     6
100
AcDbCircle
 10
358.710711017463
 20
204.0
 30
0.0
 40
2.000000000000187
100
AcDbArc
 50
243.4349488229228
 51
270.0
  0
ARC
  5
282
330
1F
100
AcDbEntity
  8
2
  6
DOTTED
 62
     6
100
AcDbCircle
 10
359.896961137843
 20
204.0
 30
0.0
 40
2.0
100
AcDbArc
 50
270.0
 51
340.226725149727
  0
ARC
  5
283
330
1F
100
AcDbEntity
  8
2
  6
DOTTED
 62
     6
100
AcDbCircle
 10
359.896961137843
 20
214.000000000001
 30
0.0
 40
2.000000000000276
100
AcDbArc
 50
19.77327485027294
 51
90.0
  0
ARC
  5
284
330
1F
100
AcDbEntity
  8
2
  6
DOTTED
 62
     6
100
AcDbCircle
 10
345.988575062464
 20
209.0
 30
0.0
 40
16.77982419454996
100
AcDbArc
 50
340.2267251497108
 51
19.77327485029246
  0
ARC
  5
285
330
1F
100
AcDbEntity
  8
100
  6
Continuous
 62
     3
100
AcDbCircle
 10
309.238575062464
 20
226.0
 30
0.0
 40
1.0
100
AcDbArc
 50
0.0
 51
90.0
  0
ARC
  5
286
330
1F
100
AcDbEntity
  8
100
  6
Continuous
 62
     3
100
AcDbCircle
 10
280.580188987085
 20
225.000000000001
 30
0.0
 40
2.0
100
AcDbArc
 50
90.0
 51
160.2267251497271
  0
ARC
  5
287
330
1F
100
AcDbEntity
  8
100
  6
Continuous
 62
     3
100
AcDbCircle
 10
297.238575062464
 20
226.0
 30
0.0
 40
1.0
100
AcDbArc
 50
90.0
 51
180.0
  0
ARC
  5
288
330
1F
100
AcDbEntity
  8
100
  6
Continuous
 62
     3
100
AcDbCircle
 10
290.797056622352
 20
225.0
 30
0.0
 40
1.999999999999229
100
AcDbArc
 50
30.00000000001276
 51
90.0
  0
ARC
  5
289
330
1F
100
AcDbEntity
  8
100
  6
Continuous
 62
     3
100
AcDbCircle
 10
309.058378965183
 20
208.0
 30
0.0
 40
1.00000000000003
100
AcDbArc
 50
191.309932474009
 51
269.9999999999414
  0
ARC
  5
28A
330
1F
100
AcDbEntity
  8
100
  6
Continuous
 62
     3
100
AcDbCircle
 10
304.826895589077
 20
208.761338826158
 30
0.0
 40
2.999999999999141
100
AcDbArc
 50
11.30993247401266
 51
61.18920625703529
  0
ARC
  5
28B
330
1F
100
AcDbEntity
  8
100
  6
Continuous
 62
     3
100
AcDbCircle
 10
303.092600206675
 20
215.0
 30
0.0
 40
2.0
100
AcDbArc
 50
270.0
 51
284.4053968714639
  0
ARC
  5
28C
330
1F
100
AcDbEntity
  8
100
  6
Continuous
 62
     3
100
AcDbCircle
 10
297.710711017464
 20
215.0
 30
0.0
 40
2.000000000000213
100
AcDbArc
 50
243.4349488229213
 51
270.0
  0
ARC
  5
28D
330
1F
100
AcDbEntity
  8
100
  6
Continuous
 62
     3
100
AcDbCircle
 10
284.710711017464
 20
212.0
 30
0.0
 40
2.0
100
AcDbArc
 50
90.0
 51
116.5650511770787
  0
ARC
  5
28E
330
1F
100
AcDbEntity
  8
100
  6
Continuous
 62
     3
100
AcDbCircle
 10
281.766439107464
 20
215.0
 30
0.0
 40
2.0
100
AcDbArc
 50
270.0
 51
296.5650511770772
  0
ARC
  5
28F
330
1F
100
AcDbEntity
  8
100
  6
Continuous
 62
     3
100
AcDbCircle
 10
280.580188987085
 20
215.0
 30
0.0
 40
2.000000000000276
100
AcDbArc
 50
199.7732748502729
 51
270.0
  0
ARC
  5
290
330
1F
100
AcDbEntity
  8
100
  6
Continuous
 62
     3
100
AcDbCircle
 10
294.488575062464
 20
220.0
 30
0.0
 40
16.77982419455029
100
AcDbArc
 50
160.2267251497076
 51
199.7732748502893
  0
ARC
  5
291
330
1F
100
AcDbEntity
  8
100
  6
Continuous
 62
     3
100
AcDbCircle
 10
307.491329516342
 20
212.0
 30
0.0
 40
2.0
100
AcDbArc
 50
90.0
 51
104.4053968714908
  0
ARC
  5
292
330
1F
100
AcDbEntity
  8
100
  6
Continuous
 62
     3
100
AcDbCircle
 10
294.766439107464
 20
212.0
 30
0.0
 40
2.000000000000187
100
AcDbArc
 50
63.43494882292274
 51
90.0
  0
ARC
  5
293
330
1F
100
AcDbEntity
  8
5
  6
Continuous
 62
     3
100
AcDbCircle
 10
311.738575062464
 20
220.0
 30
0.0
 40
16.77982419455029
100
AcDbArc
 50
161.2972207919406
 51
198.5230634625841
  0
ARC
  5
294
330
1F
100
AcDbEntity
  8
100
  6
Continuous
 62
     3
100
AcDbCircle
 10
331.418771159745
 20
208.0
 30
0.0
 40
1.0
100
AcDbArc
 50
270.0
 51
348.690067525991
  0
ARC
  5
295
330
1F
100
AcDbEntity
  8
100
  6
Continuous
 62
     3
100
AcDbCircle
 10
331.238575062464
 20
226.0
 30
0.0
 40
1.0
100
AcDbArc
 50
90.0
 51
180.0
  0
ARC
  5
296
330
1F
100
AcDbEntity
  8
100
  6
Continuous
 62
     3
100
AcDbCircle
 10
335.650254535851
 20
208.761338826158
 30
0.0
 40
3.000000000000299
100
AcDbArc
 50
118.8107937429819
 51
168.690067525991
  0
ARC
  5
297
330
1F
100
AcDbEntity
  8
100
  6
Continuous
 62
     3
100
AcDbCircle
 10
337.384549918253
 20
215.0
 30
0.0
 40
2.00000000000033
100
AcDbArc
 50
255.5946031285077
 51
270.0
  0
ARC
  5
298
330
1F
100
AcDbEntity
  8
100
  6
Continuous
 62
     3
100
AcDbCircle
 10
342.766439107464
 20
215.0
 30
0.0
 40
2.0
100
AcDbArc
 50
270.0
 51
296.5650511770772
  0
ARC
  5
299
330
1F
100
AcDbEntity
  8
100
  6
Continuous
 62
     3
100
AcDbCircle
 10
359.896961137843
 20
225.000000000001
 30
0.0
 40
2.000000000000276
100
AcDbArc
 50
19.77327485027294
 51
90.0
  0
ARC
  5
29A
330
1F
100
AcDbEntity
  8
100
  6
Continuous
 62
     3
100
AcDbCircle
 10
355.766439107464
 20
212.0
 30
0.0
 40
2.000000000000187
100
AcDbArc
 50
63.43494882292274
 51
90.0
  0
ARC
  5
29B
330
1F
100
AcDbEntity
  8
100
  6
Continuous
 62
     3
100
AcDbCircle
 10
358.710711017463
 20
215.0
 30
0.0
 40
2.000000000000187
100
AcDbArc
 50
243.4349488229228
 51
270.0
  0
ARC
  5
29C
330
1F
100
AcDbEntity
  8
100
  6
Continuous
 62
     3
100
AcDbCircle
 10
359.896961137843
 20
215.0
 30
0.0
 40
2.0
100
AcDbArc
 50
270.0
 51
340.226725149727
  0
ARC
  5
29D
330
1F
100
AcDbEntity
  8
100
  6
Continuous
 62
     3
100
AcDbCircle
 10
345.988575062464
 20
220.0
 30
0.0
 40
16.77982419454996
100
AcDbArc
 50
340.2267251497108
 51
19.77327485029246
  0
ARC
  5
29E
330
1F
100
AcDbEntity
  8
100
  6
Continuous
 62
     3
100
AcDbCircle
 10
343.238575062464
 20
226.0
 30
0.0
 40
1.0
100
AcDbArc
 50
0.0
 51
90.0
  0
ARC
  5
29F
330
1F
100
AcDbEntity
  8
100
  6
Continuous
 62
     3
100
AcDbCircle
 10
332.985820608586
 20
212.0
 30
0.0
 40
2.00000000000033
100
AcDbArc
 50
75.59460312850761
 51
90.0
  0
ARC
  5
2A0
330
1F
100
AcDbEntity
  8
100
  6
Continuous
 62
     3
100
AcDbCircle
 10
345.710711017463
 20
212.0
 30
0.0
 40
2.0
100
AcDbArc
 50
90.0
 51
116.5650511770773
  0
ARC
  5
2A1
330
1F
100
AcDbEntity
  8
100
  6
Continuous
 62
     3
100
AcDbCircle
 10
349.680093502576
 20
225.0
 30
0.0
 40
2.0
100
AcDbArc
 50
90.0
 51
150.0000000000019
  0
ARC
  5
2A2
330
1F
100
AcDbEntity
  8
5
  6
Continuous
 62
     3
100
AcDbCircle
 10
328.738575062464
 20
220.0
 30
0.0
 40
16.77982419454955
100
AcDbArc
 50
341.4769365374149
 51
18.70277920806048
  0
ARC
  5
2A3
330
1F
100
AcDbEntity
  8
100
  6
Continuous
 62
     3
100
AcDbCircle
 10
280.238575062464
 20
117.0
 30
0.0
 40
2.0
100
AcDbArc
 50
270.0
 51
0.0
  0
ARC
  5
2A4
330
1F
100
AcDbEntity
  8
100
  6
Continuous
 62
     3
100
AcDbCircle
 10
360.238575062464
 20
117.0
 30
0.0
 40
2.0
100
AcDbArc
 50
180.0
 51
270.0
  0
ARC
  5
2A5
330
1F
100
AcDbEntity
  8
100
  6
Continuous
 62
     3
100
AcDbCircle
 10
370.838575062464
 20
117.4
 30
0.0
 40
2.400000000000006
100
AcDbArc
 50
270.0
 51
0.0
  0
ARC
  5
2A6
330
1F
100
AcDbEntity
  8
100
  6
Continuous
 62
     3
100
AcDbCircle
 10
370.838575062464
 20
42.6
 30
0.0
 40
2.400000000000034
100
AcDbArc
 50
0.0
 51
90.0
  0
ARC
  5
2A7
330
1F
100
AcDbEntity
  8
100
  6
Continuous
 62
     3
100
AcDbCircle
 10
361.915907030813
 20
29.0
 30
0.0
 40
16.0
100
AcDbArc
 50
90.0
 51
114.3712146591298
  0
ARC
  5
2A8
330
1F
100
AcDbEntity
  8
100
  6
Continuous
 62
     3
100
AcDbCircle
 10
320.238575062464
 20
121.0
 30
0.0
 40
85.00000000000006
100
AcDbArc
 50
245.6287862499838
 51
294.371214659131
  0
ARC
  5
2A9
330
1F
100
AcDbEntity
  8
100
  6
Continuous
 62
     3
100
AcDbCircle
 10
278.561243094114
 20
29.0
 30
0.0
 40
16.00000000000027
100
AcDbArc
 50
65.62878051119404
 51
90.0
  0
ARC
  5
2AA
330
1F
100
AcDbEntity
  8
100
  6
Continuous
 62
     3
100
AcDbCircle
 10
269.638575062464
 20
42.6
 30
0.0
 40
2.399999999999999
100
AcDbArc
 50
90.0
 51
180.0
  0
ARC
  5
2AB
330
1F
100
AcDbEntity
  8
100
  6
Continuous
 62
     3
100
AcDbCircle
 10
269.638575062464
 20
117.4
 30
0.0
 40
2.399999999999977
100
AcDbArc
 50
180.0
 51
270.0
  0
ARC
  5
2AC
330
1F
100
AcDbEntity
  8
100
  6
Continuous
 62
     3
100
AcDbCircle
 10
338.325754545039
 20
131.33076913408
 30
0.0
 40
21.40999999999998
100
AcDbArc
 50
74.86679320271125
 51
96.00483974399658
  0
ARC
  5
2AD
330
1F
100
AcDbEntity
  8
100
  6
Continuous
 62
     3
100
AcDbCircle
 10
346.738575062464
 20
134.5
 30
0.0
 40
1.5
100
AcDbArc
 50
180.0
 51
270.0
  0
ARC
  5
2AE
330
1F
100
AcDbEntity
  8
100
  6
Continuous
 62
     3
100
AcDbCircle
 10
293.738575062464
 20
134.5
 30
0.0
 40
1.5
100
AcDbArc
 50
270.0
 51
0.0
  0
ARC
  5
2AF
330
1F
100
AcDbEntity
  8
100
  6
Continuous
 62
     3
100
AcDbCircle
 10
302.151395579889
 20
131.33076913408
 30
0.0
 40
21.40999999999956
100
AcDbArc
 50
83.99516025600359
 51
105.1332067972914
  0
CIRCLE
  5
2B0
330
1F
100
AcDbEntity
  8
1
  6
Continuous
 62
     3
100
AcDbCircle
 10
521.702431691903
 20
80.0
 30
0.0
 40
36.11299999999994
  0
CIRCLE
  5
2B1
330
1F
100
AcDbEntity
  8
100
  6
Continuous
 62
     3
100
AcDbCircle
 10
521.702431691903
 20
80.0
 30
0.0
 40
37.39999999999998
  0
CIRCLE
  5
2B2
330
1F
100
AcDbEntity
  8
100
  6
Continuous
 62
     3
100
AcDbCircle
 10
521.702431691903
 20
80.0
 30
0.0
 40
25.0
  0
CIRCLE
  5
2B3
330
1F
100
AcDbEntity
  8
100
  6
Continuous
 62
     3
100
AcDbCircle
 10
354.738574543532
 20
302.119854885594
 30
0.0
 40
6.5
  0
CIRCLE
  5
2B4
330
1F
100
AcDbEntity
  8
100
  6
Continuous
 62
     3
100
AcDbCircle
 10
337.488574543532
 20
272.241978455031
 30
0.0
 40
6.5
  0
CIRCLE
  5
2B5
330
1F
100
AcDbEntity
  8
100
  6
Continuous
 62
     3
100
AcDbCircle
 10
302.988574543532
 20
272.241978455031
 30
0.0
 40
6.5
  0
CIRCLE
  5
2B6
330
1F
100
AcDbEntity
  8
100
  6
Continuous
 62
     3
100
AcDbCircle
 10
285.738574543532
 20
302.119854885594
 30
0.0
 40
6.5
  0
CIRCLE
  5
2B7
330
1F
100
AcDbEntity
  8
100
  6
Continuous
 62
     3
100
AcDbCircle
 10
302.988574543532
 20
331.997731316157
 30
0.0
 40
6.5
  0
CIRCLE
  5
2B8
330
1F
100
AcDbEntity
  8
100
  6
Continuous
 62
     3
100
AcDbCircle
 10
320.238574543532
 20
302.119854885594
 30
0.0
 40
12.0
  0
CIRCLE
  5
2B9
330
1F
100
AcDbEntity
  8
100
  6
Continuous
 62
     3
100
AcDbCircle
 10
320.238574543532
 20
302.119854885594
 30
0.0
 40
28.0
  0
CIRCLE
  5
2BA
330
1F
100
AcDbEntity
  8
100
  6
Continuous
 62
     3
100
AcDbCircle
 10
337.488574543532
 20
331.997731316157
 30
0.0
 40
6.5
  0
LWPOLYLINE
  5
2BB
330
1F
100
AcDbEntity
  8
100
  6
Continuous
 62
     3
100
AcDbPolyline
 90
        6
 70
     1
 43
0.0
 10
298.739071888636
 20
75.0
 10
298.739071888636
 20
75.0
 10
300.558923059967
 20
80.0
 10
312.675836169755
 20
80.0
 10
310.855984998424
 20
75.0
 10
298.739071888636
 20
75.0
  0
LWPOLYLINE
  5
2BC
330
1F
100
AcDbEntity
  8
100
  6
Continuous
 62
     3
100
AcDbPolyline
 90
        7
 70
     1
 43
0.0
 10
328.238575062464
 20
80.0
 10
328.238575062464
 20
80.0
 10
328.238575062464
 20
78.8
 10
335.756781993702
 20
78.8
 10
334.738575062464
 20
75.0
 10
339.738575062464
 20
80.0
 10
328.238575062464
 20
80.0
  0
LEADER
  5
2BD
330
1F
100
AcDbEntity
  8
1
  6
Continuous
 62
     4
100
AcDbLeader
  3
Standard
 71
     0
 76
     3
 10
384.224883366428
 20
42.6
 30
0.0
 10
397.463024274173
 20
14.4788440842637
 30
0.0
 10
448.868596435303
 20
14.4788440842637
 30
0.0
  0
LEADER
  5
2BE
330
1F
100
AcDbEntity
  8
1
  6
Continuous
 62
     4
100
AcDbLeader
  3
Standard
 71
     0
 76
     3
 10
257.483558900193
 20
42.6
 30
0.0
 10
241.044959204126
 20
14.1275101211255
 30
0.0
 10
188.499644534538
 20
14.1275101211255
 30
0.0
  0
DIMENSION
  5
2F4
330
1F
100
AcDbEntity
  8
1
100
AcDbDimension
  2
*D1
 10
245.2385750624639
 20
-4.95827500714168
 30
0.0
 11
321.308560518021
 21
1.04172499285832
 31
0.0
 70
    32
  1
150
 71
     5
 42
-1.0
 53
0.00013888888889
  3
ME10_DIM_10
100
AcDbAlignedDimension
 13
395.238575062464
 23
42.6
 33
0.0
 14
245.238575062464
 24
42.6
 34
0.0
100
AcDbRotatedDimension
  0
DIMENSION
  5
301
330
1F
100
AcDbEntity
  8
1
100
AcDbDimension
  2
*D3
 10
428.866220550855
 20
80.0
 30
0.0
 11
422.866220550855
 21
160.500000000001
 31
0.0
 70
    32
  1
147
 71
     5
 42
-1.0
 53
90.0
  3
ME10_DIM_11
100
AcDbAlignedDimension
 13
359.896961137843
 23
227.000000000001
 33
0.0
 14
399.738575062464
 24
80.0
 34
0.0
 50
90.0
100
AcDbRotatedDimension
  0
ENDSEC
  0
SECTION
  2
OBJECTS
  0
DICTIONARY
  5
C
330
0
100
AcDbDictionary
281
     1
  3
ACAD_GROUP
350
D
  3
ACAD_LAYOUT
350
1A
  3
ACAD_MATERIAL
350
3B
  3
ACAD_MLEADERSTYLE
350
304
  3
ACAD_MLINESTYLE
350
17
  3
ACAD_PLOTSETTINGS
350
19
  3
ACAD_PLOTSTYLENAME
350
E
  3
ACAD_SCALELIST
350
2C8
  3
ACAD_VISUALSTYLE
350
2A
  3
AcDbVariableDictionary
350
302
  0
DICTIONARY
  5
D
102
{ACAD_REACTORS
330
C
102
}
330
C
100
AcDbDictionary
281
     1
  0
DICTIONARY
  5
1A
102
{ACAD_REACTORS
330
C
102
}
330
C
100
AcDbDictionary
281
     1
  3
Layout1
350
1E
  3
Layout2
350
26
  3
Model
350
22
  0
DICTIONARY
  5
3B
102
{ACAD_REACTORS
330
C
102
}
330
C
100
AcDbDictionary
281
     1
  3
ByBlock
350
3D
  3
ByLayer
350
3C
  3
Global
350
3E
  0
DICTIONARY
  5
304
102
{ACAD_REACTORS
330
C
102
}
330
C
100
AcDbDictionary
281
     1
  0
DICTIONARY
  5
17
102
{ACAD_REACTORS
330
C
102
}
330
C
100
AcDbDictionary
281
     1
  3
Standard
350
18
  0
DICTIONARY
  5
19
102
{ACAD_REACTORS
330
C
102
}
330
C
100
AcDbDictionary
281
     1
  0
ACDBDICTIONARYWDFLT
  5
E
102
{ACAD_REACTORS
330
C
102
}
330
C
100
AcDbDictionary
281
     1
  3
Normal
350
F
100
AcDbDictionaryWithDefault
340
F
  0
DICTIONARY
  5
2C8
102
{ACAD_REACTORS
330
C
102
}
330
C
100
AcDbDictionary
281
     1
  3
A0
350
2C9
  3
A1
350
2CA
  3
A2
350
2CB
  3
A3
350
2CC
  3
A4
350
2CD
  3
A5
350
2CE
  3
A6
350
2CF
  3
A7
350
2D0
  3
A8
350
2D1
  3
A9
350
2D2
  3
B0
350
2D3
  3
B1
350
2D4
  3
B2
350
2D5
  3
B3
350
2D6
  3
B4
350
2D7
  3
B5
350
2D8
  3
B6
350
2D9
  3
B7
350
2DA
  3
B8
350
2DB
  3
B9
350
2DC
  3
C0
350
2DD
  3
C1
350
2DE
  3
C2
350
2DF
  3
C3
350
2E0
  3
C4
350
2E1
  3
C5
350
2E2
  3
C6
350
2E3
  3
C7
350
2E4
  3
C8
350
2E5
  3
C9
350
2E6
  3
D0
350
2E7
  3
D1
350
2E8
  3
D2
350
2E9
  0
DICTIONARY
  5
2A
102
{ACAD_REACTORS
330
C
102
}
330
C
100
AcDbDictionary
281
     1
  3
2dWireframe
350
2F
  3
3D Hidden
350
31
  3
3dWireframe
350
30
  3
Basic
350
32
  3
Brighten
350
36
  3
ColorChange
350
3A
  3
Conceptual
350
34
  3
Dim
350
35
  3
Facepattern
350
39
  3
Flat
350
2B
  3
FlatWithEdges
350
2C
  3
Gouraud
350
2D
  3
GouraudWithEdges
350
2E
  3
Linepattern
350
38
  3
Realistic
350
33
  3
Thicken
350
37
  0
DICTIONARY
  5
302
102
{ACAD_REACTORS
330
C
102
}
330
C
100
AcDbDictionary
281
     1
  3
CANNOSCALE
350
305
  3
DIMASSOC
350
306
  3
HIDETEXT
350
307
  0
LAYOUT
  5
1E
102
{ACAD_REACTORS
330
1A
102
}
330
1A
100
AcDbPlotSettings
  1

  2
none_device
  4

  6

 40
0.0
 41
0.0
 42
0.0
 43
0.0
 44
0.0
 45
0.0
 46
0.0
 47
0.0
 48
0.0
 49
0.0
140
0.0
141
0.0
142
1.0
143
1.0
 70
   688
 72
     0
 73
     0
 74
     5
  7

 75
    16
147
1.0
148
0.0
149
0.0
100
AcDbLayout
  1
Layout1
 70
     1
 71
     1
 10
0.0
 20
0.0
 11
12.0
 21
9.0
 12
0.0
 22
0.0
 32
0.0
 14
1.00000000000000E+20
 24
1.00000000000000E+20
 34
1.00000000000000E+20
 15
-1.00000000000000E+20
 25
-1.00000000000000E+20
 35
-1.00000000000000E+20
146
0.0
 13
0.0
 23
0.0
 33
0.0
 16
1.0
 26
0.0
 36
0.0
 17
0.0
 27
1.0
 37
0.0
 76
     0
330
1B
  0
LAYOUT
  5
26
102
{ACAD_REACTORS
330
1A
102
}
330
1A
100
AcDbPlotSettings
  1

  2
none_device
  4

  6

 40
0.0
 41
0.0
 42
0.0
 43
0.0
 44
0.0
 45
0.0
 46
0.0
 47
0.0
 48
0.0
 49
0.0
140
0.0
141
0.0
142
1.0
143
1.0
 70
   688
 72
     0
 73
     0
 74
     5
  7

 75
    16
147
1.0
148
0.0
149
0.0
100
AcDbLayout
  1
Layout2
 70
     1
 71
     2
 10
0.0
 20
0.0
 11
0.0
 21
0.0
 12
0.0
 22
0.0
 32
0.0
 14
0.0
 24
0.0
 34
0.0
 15
0.0
 25
0.0
 35
0.0
146
0.0
 13
0.0
 23
0.0
 33
0.0
 16
1.0
 26
0.0
 36
0.0
 17
0.0
 27
1.0
 37
0.0
 76
     0
330
23
  0
LAYOUT
  5
22
102
{ACAD_REACTORS
330
1A
102
}
330
1A
100
AcDbPlotSettings
  1

  2
none_device
  4

  6

 40
0.0
 41
0.0
 42
0.0
 43
0.0
 44
0.0
 45
0.0
 46
0.0
 47
0.0
 48
0.0
 49
0.0
140
0.0
141
0.0
142
1.0
143
1.0
 70
  1712
 72
     0
 73
     0
 74
     0
  7

 75
     0
147
1.0
148
0.0
149
0.0
100
AcDbLayout
  1
Model
 70
     1
 71
     0
 10
0.0
 20
0.0
 11
12.0
 21
9.0
 12
0.0
 22
0.0
 32
0.0
 14
188.499644534538
 24
-7.10186854659066
 34
0.0
 15
571.703474663406
 25
346.1198548855941
 35
0.0
146
0.0
 13
0.0
 23
0.0
 33
0.0
 16
1.0
 26
0.0
 36
0.0
 17
0.0
 27
1.0
 37
0.0
 76
     0
330
1F
331
29
  0
MATERIAL
  5
3D
102
{ACAD_REACTORS
330
3B
102
}
102
{ACAD_XDICTIONARY
360
32A
102
}
330
3B
100
AcDbMaterial
  1
ByBlock
  0
MATERIAL
  5
3C
102
{ACAD_REACTORS
330
3B
102
}
102
{ACAD_XDICTIONARY
360
328
102
}
330
3B
100
AcDbMaterial
  1
ByLayer
  0
MATERIAL
  5
3E
102
{ACAD_REACTORS
330
3B
102
}
102
{ACAD_XDICTIONARY
360
32C
102
}
330
3B
100
AcDbMaterial
  1
Global
  0
MLINESTYLE
  5
18
102
{ACAD_REACTORS
330
17
102
}
330
17
100
AcDbMlineStyle
  2
Standard
 70
     0
  3

 62
   256
 51
90.0
 52
90.0
 71
     2
 49
0.5
 62
   256
  6
BYLAYER
 49
-0.5
 62
   256
  6
BYLAYER
  0
ACDBPLACEHOLDER
  5
F
102
{ACAD_REACTORS
330
E
102
}
330
E
  0
SCALE
  5
2C9
102
{ACAD_REACTORS
330
2C8
102
}
330
2C8
100
AcDbScale
 70
     0
300
1:1
140
1.0
141
1.0
290
     1
  0
SCALE
  5
2CA
102
{ACAD_REACTORS
330
2C8
102
}
330
2C8
100
AcDbScale
 70
     0
300
1:2
140
1.0
141
2.0
290
     0
  0
SCALE
  5
2CB
102
{ACAD_REACTORS
330
2C8
102
}
330
2C8
100
AcDbScale
 70
     0
300
1:4
140
1.0
141
4.0
290
     0
  0
SCALE
  5
2CC
102
{ACAD_REACTORS
330
2C8
102
}
330
2C8
100
AcDbScale
 70
     0
300
1:5
140
1.0
141
5.0
290
     0
  0
SCALE
  5
2CD
102
{ACAD_REACTORS
330
2C8
102
}
330
2C8
100
AcDbScale
 70
     0
300
1:8
140
1.0
141
8.0
290
     0
  0
SCALE
  5
2CE
102
{ACAD_REACTORS
330
2C8
102
}
330
2C8
100
AcDbScale
 70
     0
300
1:10
140
1.0
141
10.0
290
     0
  0
SCALE
  5
2CF
102
{ACAD_REACTORS
330
2C8
102
}
330
2C8
100
AcDbScale
 70
     0
300
1:16
140
1.0
141
16.0
290
     0
  0
SCALE
  5
2D0
102
{ACAD_REACTORS
330
2C8
102
}
330
2C8
100
AcDbScale
 70
     0
300
1:20
140
1.0
141
20.0
290
     0
  0
SCALE
  5
2D1
102
{ACAD_REACTORS
330
2C8
102
}
330
2C8
100
AcDbScale
 70
     0
300
1:30
140
1.0
141
30.0
290
     0
  0
SCALE
  5
2D2
102
{ACAD_REACTORS
330
2C8
102
}
330
2C8
100
AcDbScale
 70
     0
300
1:40
140
1.0
141
40.0
290
     0
  0
SCALE
  5
2D3
102
{ACAD_REACTORS
330
2C8
102
}
330
2C8
100
AcDbScale
 70
     0
300
1:50
140
1.0
141
50.0
290
     0
  0
SCALE
  5
2D4
102
{ACAD_REACTORS
330
2C8
102
}
330
2C8
100
AcDbScale
 70
     0
300
1:100
140
1.0
141
100.0
290
     0
  0
SCALE
  5
2D5
102
{ACAD_REACTORS
330
2C8
102
}
330
2C8
100
AcDbScale
 70
     0
300
2:1
140
2.0
141
1.0
290
     0
  0
SCALE
  5
2D6
102
{ACAD_REACTORS
330
2C8
102
}
330
2C8
100
AcDbScale
 70
     0
300
4:1
140
4.0
141
1.0
290
     0
  0
SCALE
  5
2D7
102
{ACAD_REACTORS
330
2C8
102
}
330
2C8
100
AcDbScale
 70
     0
300
8:1
140
8.0
141
1.0
290
     0
  0
SCALE
  5
2D8
102
{ACAD_REACTORS
330
2C8
102
}
330
2C8
100
AcDbScale
 70
     0
300
10:1
140
10.0
141
1.0
290
     0
  0
SCALE
  5
2D9
102
{ACAD_REACTORS
330
2C8
102
}
330
2C8
100
AcDbScale
 70
     0
300
100:1
140
100.0
141
1.0
290
     0
  0
SCALE
  5
2DA
102
{ACAD_REACTORS
330
2C8
102
}
330
2C8
100
AcDbScale
 70
     0
300
1/128" = 1'-0"
140
0.0078125
141
12.0
290
     0
  0
SCALE
  5
2DB
102
{ACAD_REACTORS
330
2C8
102
}
330
2C8
100
AcDbScale
 70
     0
300
1/64" = 1'-0"
140
0.015625
141
12.0
290
     0
  0
SCALE
  5
2DC
102
{ACAD_REACTORS
330
2C8
102
}
330
2C8
100
AcDbScale
 70
     0
300
1/32" = 1'-0"
140
0.03125
141
12.0
290
     0
  0
SCALE
  5
2DD
102
{ACAD_REACTORS
330
2C8
102
}
330
2C8
100
AcDbScale
 70
     0
300
1/16" = 1'-0"
140
0.0625
141
12.0
290
     0
  0
SCALE
  5
2DE
102
{ACAD_REACTORS
330
2C8
102
}
330
2C8
100
AcDbScale
 70
     0
300
3/32" = 1'-0"
140
0.09375
141
12.0
290
     0
  0
SCALE
  5
2DF
102
{ACAD_REACTORS
330
2C8
102
}
330
2C8
100
AcDbScale
 70
     0
300
1/8" = 1'-0"
140
0.125
141
12.0
290
     0
  0
SCALE
  5
2E0
102
{ACAD_REACTORS
330
2C8
102
}
330
2C8
100
AcDbScale
 70
     0
300
3/16" = 1'-0"
140
0.1875
141
12.0
290
     0
  0
SCALE
  5
2E1
102
{ACAD_REACTORS
330
2C8
102
}
330
2C8
100
AcDbScale
 70
     0
300
1/4" = 1'-0"
140
0.25
141
12.0
290
     0
  0
SCALE
  5
2E2
102
{ACAD_REACTORS
330
2C8
102
}
330
2C8
100
AcDbScale
 70
     0
300
3/8" = 1'-0"
140
0.375
141
12.0
290
     0
  0
SCALE
  5
2E3
102
{ACAD_REACTORS
330
2C8
102
}
330
2C8
100
AcDbScale
 70
     0
300
1/2" = 1'-0"
140
0.5
141
12.0
290
     0
  0
SCALE
  5
2E4
102
{ACAD_REACTORS
330
2C8
102
}
330
2C8
100
AcDbScale
 70
     0
300
3/4" = 1'-0"
140
0.75
141
12.0
290
     0
  0
SCALE
  5
2E5
102
{ACAD_REACTORS
330
2C8
102
}
330
2C8
100
AcDbScale
 70
     0
300
1" = 1'-0"
140
1.0
141
12.0
290
     0
  0
SCALE
  5
2E6
102
{ACAD_REACTORS
330
2C8
102
}
330
2C8
100
AcDbScale
 70
     0
300
1-1/2" = 1'-0"
140
1.5
141
12.0
290
     0
  0
SCALE
  5
2E7
102
{ACAD_REACTORS
330
2C8
102
}
330
2C8
100
AcDbScale
 70
     0
300
3" = 1'-0"
140
3.0
141
12.0
290
     0
  0
SCALE
  5
2E8
102
{ACAD_REACTORS
330
2C8
102
}
330
2C8
100
AcDbScale
 70
     0
300
6" = 1'-0"
140
6.0
141
12.0
290
     0
  0
SCALE
  5
2E9
102
{ACAD_REACTORS
330
2C8
102
}
330
2C8
100
AcDbScale
 70
     0
300
1'-0" = 1'-0"
140
12.0
141
12.0
290
     0
  0
VISUALSTYLE
  5
2F
102
{ACAD_REACTORS
330
2A
102
}
102
{ACAD_XDICTIONARY
360
310
102
}
330
2A
100
AcDbVisualStyle
  2
2dWireframe
 70
     4
 71
     0
 72
     2
 73
     0
 90
        0
 40
-0.6
 41
-30.0
 62
     5
 63
     7
 74
     1
 91
        4
 64
     7
 65
   257
 75
     1
175
     1
 42
1.0
 92
        0
 66
   257
 43
1.0
 76
     1
 77
     6
 78
     2
 67
     7
 79
     5
170
     0
171
     0
290
     0
174
     0
 93
        1
 44
0.0
173
     0
291
     0
 45
0.0
1001
ACAD
1000
AcDbSavedByObjectVersion
1070
     0
  0
VISUALSTYLE
  5
31
102
{ACAD_REACTORS
330
2A
102
}
102
{ACAD_XDICTIONARY
360
314
102
}
330
2A
100
AcDbVisualStyle
  2
3D Hidden
 70
     6
 71
     1
 72
     2
 73
     2
 90
        0
 40
-0.6
 41
-30.0
 62
     5
 63
     7
 74
     2
 91
        2
 64
     7
 65
   257
 75
     2
175
     1
 42
40.0
 92
        0
 66
   257
 43
1.0
 76
     1
 77
     6
 78
     2
 67
     7
 79
     3
170
     0
171
     0
290
     0
174
     0
 93
        1
 44
0.0
173
     0
291
     0
 45
0.0
1001
ACAD
1000
AcDbSavedByObjectVersion
1070
     0
  0
VISUALSTYLE
  5
30
102
{ACAD_REACTORS
330
2A
102
}
102
{ACAD_XDICTIONARY
360
312
102
}
330
2A
100
AcDbVisualStyle
  2
3dWireframe
 70
     5
 71
     0
 72
     2
 73
     0
 90
        0
 40
-0.6
 41
-30.0
 62
     5
 63
     7
 74
     1
 91
        4
 64
     7
 65
   257
 75
     1
175
     1
 42
1.0
 92
        0
 66
   257
 43
1.0
 76
     1
 77
     6
 78
     2
 67
     7
 79
     5
170
     0
171
     0
290
     0
174
     0
 93
        1
 44
0.0
173
     0
291
     0
 45
0.0
1001
ACAD
1000
AcDbSavedByObjectVersion
1070
     0
  0
VISUALSTYLE
  5
32
102
{ACAD_REACTORS
330
2A
102
}
102
{ACAD_XDICTIONARY
360
316
102
}
330
2A
100
AcDbVisualStyle
  2
Basic
 70
     7
 71
     1
 72
     0
 73
     1
 90
        0
 40
-0.6
 41
-30.0
 62
     5
 63
     7
 74
     0
 91
        4
 64
     7
 65
   257
 75
     1
175
     1
 42
1.0
 92
        8
 66
     7
 43
1.0
 76
     1
 77
     6
 78
     2
 67
     7
 79
     5
170
     0
171
     0
290
     0
174
     0
 93
        1
 44
0.0
173
     0
291
     1
 45
0.0
1001
ACAD
1000
AcDbSavedByObjectVersion
1070
     0
  0
VISUALSTYLE
  5
36
102
{ACAD_REACTORS
330
2A
102
}
102
{ACAD_XDICTIONARY
360
31E
102
}
330
2A
100
AcDbVisualStyle
  2
Brighten
 70
    12
 71
     2
 72
     2
 73
     0
 90
        0
 40
-0.6
 41
-30.0
 62
     5
 63
     7
 74
     1
 91
        4
 64
     7
 65
   257
 75
     1
175
     1
 42
1.0
 92
        8
 66
     7
 43
1.0
 76
     1
 77
     6
 78
     2
 67
     7
 79
     5
170
     0
171
     0
290
     0
174
     0
 93
        1
 44
50.0
173
     0
291
     1
 45
0.0
1001
ACAD
1000
AcDbSavedByObjectVersion
1070
     0
  0
VISUALSTYLE
  5
3A
102
{ACAD_REACTORS
330
2A
102
}
102
{ACAD_XDICTIONARY
360
326
102
}
330
2A
100
AcDbVisualStyle
  2
ColorChange
 70
    16
 71
     2
 72
     2
 73
     3
 90
        0
 40
-0.6
 41
-30.0
 62
     5
 63
     8
 74
     1
 91
        4
 64
     7
 65
   257
 75
     1
175
     1
 42
1.0
 92
        8
 66
     8
 43
1.0
 76
     1
 77
     6
 78
     2
 67
     7
 79
     5
170
     0
171
     0
290
     0
174
     0
 93
        1
 44
0.0
173
     0
291
     1
 45
0.0
1001
ACAD
1000
AcDbSavedByObjectVersion
1070
     0
  0
VISUALSTYLE
  5
34
102
{ACAD_REACTORS
330
2A
102
}
102
{ACAD_XDICTIONARY
360
31A
102
}
330
2A
100
AcDbVisualStyle
  2
Conceptual
 70
     9
 71
     3
 72
     2
 73
     0
 90
        0
 40
-0.6
 41
-30.0
 62
     5
 63
     7
 74
     2
 91
        2
 64
     7
 65
   257
 75
     1
175
     1
 42
40.0
 92
        8
 66
     7
 43
1.0
 76
     1
 77
     6
 78
     2
 67
     7
 79
     3
170
     0
171
     0
290
     0
174
     0
 93
        1
 44
0.0
173
     0
291
     0
 45
0.0
1001
ACAD
1000
AcDbSavedByObjectVersion
1070
     0
  0
VISUALSTYLE
  5
35
102
{ACAD_REACTORS
330
2A
102
}
102
{ACAD_XDICTIONARY
360
31C
102
}
330
2A
100
AcDbVisualStyle
  2
Dim
 70
    11
 71
     2
 72
     2
 73
     0
 90
        0
 40
-0.6
 41
-30.0
 62
     5
 63
     7
 74
     1
 91
        4
 64
     7
 65
   257
 75
     1
175
     1
 42
1.0
 92
        8
 66
     7
 43
1.0
 76
     1
 77
     6
 78
     2
 67
     7
 79
     5
170
     0
171
     0
290
     0
174
     0
 93
        1
 44
-50.0
173
     0
291
     1
 45
0.0
1001
ACAD
1000
AcDbSavedByObjectVersion
1070
     0
  0
VISUALSTYLE
  5
39
102
{ACAD_REACTORS
330
2A
102
}
102
{ACAD_XDICTIONARY
360
324
102
}
330
2A
100
AcDbVisualStyle
  2
Facepattern
 70
    15
 71
     2
 72
     2
 73
     0
 90
        0
 40
-0.6
 41
-30.0
 62
     5
 63
     7
 74
     1
 91
        4
 64
     7
 65
   257
 75
     1
175
     1
 42
1.0
 92
        8
 66
     7
 43
1.0
 76
     1
 77
     6
 78
     2
 67
     7
 79
     5
170
     0
171
     0
290
     0
174
     0
 93
        1
 44
0.0
173
     0
291
     1
 45
0.0
1001
ACAD
1000
AcDbSavedByObjectVersion
1070
     0
  0
VISUALSTYLE
  5
2B
102
{ACAD_REACTORS
330
2A
102
}
102
{ACAD_XDICTIONARY
360
308
102
}
330
2A
100
AcDbVisualStyle
  2
Flat
 70
     0
 71
     2
 72
     1
 73
     1
 90
        2
 40
-0.6
 41
30.0
 62
     5
 63
     7
 74
     0
 91
        4
 64
     7
 65
   257
 75
     1
175
     1
 42
1.0
 92
        8
 66
     7
 43
1.0
 76
     1
 77
     6
 78
     2
 67
     7
 79
     5
170
     0
171
     0
290
     0
174
     0
 93
       13
 44
0.0
173
     0
291
     1
 45
0.0
1001
ACAD
1000
AcDbSavedByObjectVersion
1070
     0
  0
VISUALSTYLE
  5
2C
102
{ACAD_REACTORS
330
2A
102
}
102
{ACAD_XDICTIONARY
360
30A
102
}
330
2A
100
AcDbVisualStyle
  2
FlatWithEdges
 70
     1
 71
     2
 72
     1
 73
     1
 90
        2
 40
-0.6
 41
30.0
 62
     5
 63
     7
 74
     1
 91
        4
 64
     7
 65
   257
 75
     1
175
     1
 42
1.0
 92
        0
 66
   257
 43
1.0
 76
     1
 77
     6
 78
     2
 67
     7
 79
     5
170
     0
171
     0
290
     0
174
     0
 93
       13
 44
0.0
173
     0
291
     1
 45
0.0
1001
ACAD
1000
AcDbSavedByObjectVersion
1070
     0
  0
VISUALSTYLE
  5
2D
102
{ACAD_REACTORS
330
2A
102
}
102
{ACAD_XDICTIONARY
360
30C
102
}
330
2A
100
AcDbVisualStyle
  2
Gouraud
 70
     2
 71
     2
 72
     2
 73
     1
 90
        2
 40
-0.6
 41
30.0
 62
     5
 63
     7
 74
     0
 91
        4
 64
     7
 65
   257
 75
     1
175
     1
 42
1.0
 92
        0
 66
     7
 43
1.0
 76
     1
 77
     6
 78
     2
 67
     7
 79
     5
170
     0
171
     0
290
     0
174
     0
 93
       13
 44
0.0
173
     0
291
     1
 45
0.0
1001
ACAD
1000
AcDbSavedByObjectVersion
1070
     0
  0
VISUALSTYLE
  5
2E
102
{ACAD_REACTORS
330
2A
102
}
102
{ACAD_XDICTIONARY
360
30E
102
}
330
2A
100
AcDbVisualStyle
  2
GouraudWithEdges
 70
     3
 71
     2
 72
     2
 73
     1
 90
        2
 40
-0.6
 41
30.0
 62
     5
 63
     7
 74
     1
 91
        4
 64
     7
 65
   257
 75
     1
175
     1
 42
1.0
 92
        0
 66
   257
 43
1.0
 76
     1
 77
     6
 78
     2
 67
     7
 79
     5
170
     0
171
     0
290
     0
174
     0
 93
       13
 44
0.0
173
     0
291
     1
 45
0.0
1001
ACAD
1000
AcDbSavedByObjectVersion
1070
     0
  0
VISUALSTYLE
  5
38
102
{ACAD_REACTORS
330
2A
102
}
102
{ACAD_XDICTIONARY
360
322
102
}
330
2A
100
AcDbVisualStyle
  2
Linepattern
 70
    14
 71
     2
 72
     2
 73
     0
 90
        0
 40
-0.6
 41
-30.0
 62
     5
 63
     7
 74
     1
 91
        4
 64
     7
 65
   257
 75
     7
175
     7
 42
1.0
 92
        8
 66
     7
 43
1.0
 76
     1
 77
     6
 78
     2
 67
     7
 79
     5
170
     0
171
     0
290
     0
174
     0
 93
        1
 44
0.0
173
     0
291
     1
 45
0.0
1001
ACAD
1000
AcDbSavedByObjectVersion
1070
     0
  0
VISUALSTYLE
  5
33
102
{ACAD_REACTORS
330
2A
102
}
102
{ACAD_XDICTIONARY
360
318
102
}
330
2A
100
AcDbVisualStyle
  2
Realistic
 70
     8
 71
     2
 72
     2
 73
     0
 90
        0
 40
-0.6
 41
-30.0
 62
     5
 63
     7
 74
     1
 91
        0
 64
     7
 65
   257
 75
     1
175
     1
 42
1.0
 92
        8
 66
     8
 43
1.0
 76
     1
 77
     6
 78
     2
 67
     7
 79
     5
170
     0
171
     0
290
     0
174
     0
 93
       13
 44
0.0
173
     0
291
     0
 45
0.0
1001
ACAD
1000
AcDbSavedByObjectVersion
1070
     0
  0
VISUALSTYLE
  5
37
102
{ACAD_REACTORS
330
2A
102
}
102
{ACAD_XDICTIONARY
360
320
102
}
330
2A
100
AcDbVisualStyle
  2
Thicken
 70
    13
 71
     2
 72
     2
 73
     0
 90
        0
 40
-0.6
 41
-30.0
 62
     5
 63
     7
 74
     1
 91
        4
 64
     7
 65
   257
 75
     1
175
     1
 42
1.0
 92
       12
 66
     7
 43
1.0
 76
     1
 77
     6
 78
     2
 67
     7
 79
     5
170
     0
171
     0
290
     0
174
     0
 93
        1
 44
0.0
173
     0
291
     1
 45
0.0
1001
ACAD
1000
AcDbSavedByObjectVersion
1070
     0
  0
DICTIONARYVAR
  5
305
102
{ACAD_REACTORS
330
302
102
}
330
302
100
DictionaryVariables
280
     0
  1
1:1
  0
DICTIONARYVAR
  5
306
102
{ACAD_REACTORS
330
302
102
}
330
302
100
DictionaryVariables
280
     0
  1
2
  0
DICTIONARYVAR
  5
307
102
{ACAD_REACTORS
330
302
102
}
330
302
100
DictionaryVariables
280
     0
  1
1
  0
DICTIONARY
  5
32A
330
3D
100
AcDbDictionary
280
     1
281
     1
  3
ACAD_XREC_ROUNDTRIP
360
32B
  0
DICTIONARY
  5
328
330
3C
100
AcDbDictionary
280
     1
281
     1
  3
ACAD_XREC_ROUNDTRIP
360
329
  0
DICTIONARY
  5
32C
330
3E
100
AcDbDictionary
280
     1
281
     1
  3
ACAD_XREC_ROUNDTRIP
360
32D
  0
DICTIONARY
  5
310
330
2F
100
AcDbDictionary
280
     1
281
     1
  3
ACAD_XREC_ROUNDTRIP
360
311
  0
DICTIONARY
  5
314
330
31
100
AcDbDictionary
280
     1
281
     1
  3
ACAD_XREC_ROUNDTRIP
360
315
  0
DICTIONARY
  5
312
330
30
100
AcDbDictionary
280
     1
281
     1
  3
ACAD_XREC_ROUNDTRIP
360
313
  0
DICTIONARY
  5
316
330
32
100
AcDbDictionary
280
     1
281
     1
  3
ACAD_XREC_ROUNDTRIP
360
317
  0
DICTIONARY
  5
31E
330
36
100
AcDbDictionary
280
     1
281
     1
  3
ACAD_XREC_ROUNDTRIP
360
31F
  0
DICTIONARY
  5
326
330
3A
100
AcDbDictionary
280
     1
281
     1
  3
ACAD_XREC_ROUNDTRIP
360
327
  0
DICTIONARY
  5
31A
330
34
100
AcDbDictionary
280
     1
281
     1
  3
ACAD_XREC_ROUNDTRIP
360
31B
  0
DICTIONARY
  5
31C
330
35
100
AcDbDictionary
280
     1
281
     1
  3
ACAD_XREC_ROUNDTRIP
360
31D
  0
DICTIONARY
  5
324
330
39
100
AcDbDictionary
280
     1
281
     1
  3
ACAD_XREC_ROUNDTRIP
360
325
  0
DICTIONARY
  5
308
330
2B
100
AcDbDictionary
280
     1
281
     1
  3
ACAD_XREC_ROUNDTRIP
360
309
  0
DICTIONARY
  5
30A
330
2C
100
AcDbDictionary
280
     1
281
     1
  3
ACAD_XREC_ROUNDTRIP
360
30B
  0
DICTIONARY
  5
30C
330
2D
100
AcDbDictionary
280
     1
281
     1
  3
ACAD_XREC_ROUNDTRIP
360
30D
  0
DICTIONARY
  5
30E
330
2E
100
AcDbDictionary
280
     1
281
     1
  3
ACAD_XREC_ROUNDTRIP
360
30F
  0
DICTIONARY
  5
322
330
38
100
AcDbDictionary
280
     1
281
     1
  3
ACAD_XREC_ROUNDTRIP
360
323
  0
DICTIONARY
  5
318
330
33
100
AcDbDictionary
280
     1
281
     1
  3
ACAD_XREC_ROUNDTRIP
360
319
  0
DICTIONARY
  5
320
330
37
100
AcDbDictionary
280
     1
281
     1
  3
ACAD_XREC_ROUNDTRIP
360
321
  0
XRECORD
  5
32B
102
{ACAD_REACTORS
330
32A
102
}
330
32A
100
AcDbXrecord
280
     1
102
MATERIAL
148
0.0
149
0.0
149
0.0
 93
        0
 94
      127
282
     0
 72
     1
 77
     1
171
     1
175
     1
179
     1
273
     0
  0
XRECORD
  5
329
102
{ACAD_REACTORS
330
328
102
}
330
328
100
AcDbXrecord
280
     1
102
MATERIAL
148
0.0
149
0.0
149
0.0
 93
        0
 94
      127
282
     0
 72
     1
 77
     1
171
     1
175
     1
179
     1
273
     0
  0
XRECORD
  5
32D
102
{ACAD_REACTORS
330
32C
102
}
330
32C
100
AcDbXrecord
280
     1
102
MATERIAL
148
0.0
149
0.0
149
0.0
 93
        0
 94
      127
282
     0
 72
     1
 77
     1
171
     1
175
     1
179
     1
273
     0
  0
XRECORD
  5
311
102
{ACAD_REACTORS
330
310
102
}
330
310
100
AcDbXrecord
280
     1
102
RTVSPropertyOp0
 70
     1
102
RTVSPropertyOp1
 70
     1
102
RTVSPropertyOp2
 70
     1
102
RTVSPropertyOp3
 70
     1
102
RTVSPropertyOp4
 70
     1
102
RTVSPropertyOp5
 70
     1
102
RTVSPropertyOp6
 70
     1
102
RTVSPropertyOp7
 70
     1
102
RTVSPropertyOp8
 70
     1
102
RTVSPropertyOp9
 70
     1
102
RTVSPropertyOp10
 70
     1
102
RTVSPropertyOp11
 70
     1
102
RTVSPropertyOp12
 70
     1
102
RTVSPropertyOp13
 70
     1
102
RTVSPropertyOp14
 70
     1
102
RTVSPropertyOp15
 70
     1
102
RTVSPropertyOp16
 70
     1
102
RTVSPropertyOp17
 70
     1
102
RTVSPropertyOp18
 70
     1
102
RTVSPropertyOp19
 70
     1
102
RTVSPropertyOp20
 70
     1
102
RTVSPropertyOp21
 70
     1
102
RTVSPropertyOp22
 70
     1
102
RTVSPropertyOp23
 70
     1
102
RTVSPropertyOp24
 70
     1
102
RTVSPropertyOp25
 70
     1
102
RTVSPropertyOp26
 70
     1
102
RTVSPropertyOp27
 70
     1
  0
XRECORD
  5
315
102
{ACAD_REACTORS
330
314
102
}
330
314
100
AcDbXrecord
280
     1
102
RTVSPropertyOp0
 70
     1
102
RTVSPropertyOp1
 70
     1
102
RTVSPropertyOp2
 70
     1
102
RTVSPropertyOp3
 70
     1
102
RTVSPropertyOp4
 70
     1
102
RTVSPropertyOp5
 70
     1
102
RTVSPropertyOp6
 70
     1
102
RTVSPropertyOp7
 70
     1
102
RTVSPropertyOp8
 70
     1
102
RTVSPropertyOp9
 70
     1
102
RTVSPropertyOp10
 70
     1
102
RTVSPropertyOp11
 70
     1
102
RTVSPropertyOp12
 70
     1
102
RTVSPropertyOp13
 70
     1
102
RTVSPropertyOp14
 70
     1
102
RTVSPropertyOp15
 70
     1
102
RTVSPropertyOp16
 70
     1
102
RTVSPropertyOp17
 70
     1
102
RTVSPropertyOp18
 70
     1
102
RTVSPropertyOp19
 70
     1
102
RTVSPropertyOp20
 70
     1
102
RTVSPropertyOp21
 70
     1
102
RTVSPropertyOp22
 70
     1
102
RTVSPropertyOp23
 70
     1
102
RTVSPropertyOp24
 70
     1
102
RTVSPropertyOp25
 70
     1
102
RTVSPropertyOp26
 70
     1
102
RTVSPropertyOp27
 70
     1
  0
XRECORD
  5
313
102
{ACAD_REACTORS
330
312
102
}
330
312
100
AcDbXrecord
280
     1
102
RTVSPropertyOp0
 70
     1
102
RTVSPropertyOp1
 70
     1
102
RTVSPropertyOp2
 70
     1
102
RTVSPropertyOp3
 70
     1
102
RTVSPropertyOp4
 70
     1
102
RTVSPropertyOp5
 70
     1
102
RTVSPropertyOp6
 70
     1
102
RTVSPropertyOp7
 70
     1
102
RTVSPropertyOp8
 70
     1
102
RTVSPropertyOp9
 70
     1
102
RTVSPropertyOp10
 70
     1
102
RTVSPropertyOp11
 70
     1
102
RTVSPropertyOp12
 70
     1
102
RTVSPropertyOp13
 70
     1
102
RTVSPropertyOp14
 70
     1
102
RTVSPropertyOp15
 70
     1
102
RTVSPropertyOp16
 70
     1
102
RTVSPropertyOp17
 70
     1
102
RTVSPropertyOp18
 70
     1
102
RTVSPropertyOp19
 70
     1
102
RTVSPropertyOp20
 70
     1
102
RTVSPropertyOp21
 70
     1
102
RTVSPropertyOp22
 70
     1
102
RTVSPropertyOp23
 70
     1
102
RTVSPropertyOp24
 70
     1
102
RTVSPropertyOp25
 70
     1
102
RTVSPropertyOp26
 70
     1
102
RTVSPropertyOp27
 70
     1
  0
XRECORD
  5
317
102
{ACAD_REACTORS
330
316
102
}
330
316
100
AcDbXrecord
280
     1
102
RTVSPropertyOp0
 70
     1
102
RTVSPropertyOp1
 70
     1
102
RTVSPropertyOp2
 70
     1
102
RTVSPropertyOp3
 70
     1
102
RTVSPropertyOp4
 70
     1
102
RTVSPropertyOp5
 70
     1
102
RTVSPropertyOp6
 70
     1
102
RTVSPropertyOp7
 70
     1
102
RTVSPropertyOp8
 70
     1
102
RTVSPropertyOp9
 70
     1
102
RTVSPropertyOp10
 70
     1
102
RTVSPropertyOp11
 70
     1
102
RTVSPropertyOp12
 70
     1
102
RTVSPropertyOp13
 70
     1
102
RTVSPropertyOp14
 70
     1
102
RTVSPropertyOp15
 70
     1
102
RTVSPropertyOp16
 70
     1
102
RTVSPropertyOp17
 70
     1
102
RTVSPropertyOp18
 70
     1
102
RTVSPropertyOp19
 70
     1
102
RTVSPropertyOp20
 70
     1
102
RTVSPropertyOp21
 70
     1
102
RTVSPropertyOp22
 70
     1
102
RTVSPropertyOp23
 70
     1
102
RTVSPropertyOp24
 70
     1
102
RTVSPropertyOp25
 70
     1
102
RTVSPropertyOp26
 70
     1
102
RTVSPropertyOp27
 70
     1
  0
XRECORD
  5
31F
102
{ACAD_REACTORS
330
31E
102
}
330
31E
100
AcDbXrecord
280
     1
102
RTVSPropertyOp0
 70
     1
102
RTVSPropertyOp1
 70
     1
102
RTVSPropertyOp2
 70
     1
102
RTVSPropertyOp3
 70
     1
102
RTVSPropertyOp4
 70
     1
102
RTVSPropertyOp5
 70
     1
102
RTVSPropertyOp6
 70
     1
102
RTVSPropertyOp7
 70
     1
102
RTVSPropertyOp8
 70
     1
102
RTVSPropertyOp9
 70
     1
102
RTVSPropertyOp10
 70
     1
102
RTVSPropertyOp11
 70
     1
102
RTVSPropertyOp12
 70
     1
102
RTVSPropertyOp13
 70
     1
102
RTVSPropertyOp14
 70
     1
102
RTVSPropertyOp15
 70
     1
102
RTVSPropertyOp16
 70
     1
102
RTVSPropertyOp17
 70
     1
102
RTVSPropertyOp18
 70
     1
102
RTVSPropertyOp19
 70
     1
102
RTVSPropertyOp20
 70
     1
102
RTVSPropertyOp21
 70
     1
102
RTVSPropertyOp22
 70
     1
102
RTVSPropertyOp23
 70
     1
102
RTVSPropertyOp24
 70
     1
102
RTVSPropertyOp25
 70
     1
102
RTVSPropertyOp26
 70
     1
102
RTVSPropertyOp27
 70
     1
  0
XRECORD
  5
327
102
{ACAD_REACTORS
330
326
102
}
330
326
100
AcDbXrecord
280
     1
102
RTVSPropertyOp0
 70
     1
102
RTVSPropertyOp1
 70
     1
102
RTVSPropertyOp2
 70
     1
102
RTVSPropertyOp3
 70
     1
102
RTVSPropertyOp4
 70
     1
102
RTVSPropertyOp5
 70
     1
102
RTVSPropertyOp6
 70
     1
102
RTVSPropertyOp7
 70
     1
102
RTVSPropertyOp8
 70
     1
102
RTVSPropertyOp9
 70
     1
102
RTVSPropertyOp10
 70
     1
102
RTVSPropertyOp11
 70
     1
102
RTVSPropertyOp12
 70
     1
102
RTVSPropertyOp13
 70
     1
102
RTVSPropertyOp14
 70
     1
102
RTVSPropertyOp15
 70
     1
102
RTVSPropertyOp16
 70
     1
102
RTVSPropertyOp17
 70
     1
102
RTVSPropertyOp18
 70
     1
102
RTVSPropertyOp19
 70
     1
102
RTVSPropertyOp20
 70
     1
102
RTVSPropertyOp21
 70
     1
102
RTVSPropertyOp22
 70
     1
102
RTVSPropertyOp23
 70
     1
102
RTVSPropertyOp24
 70
     1
102
RTVSPropertyOp25
 70
     1
102
RTVSPropertyOp26
 70
     1
102
RTVSPropertyOp27
 70
     1
  0
XRECORD
  5
31B
102
{ACAD_REACTORS
330
31A
102
}
330
31A
100
AcDbXrecord
280
     1
102
RTVSPropertyOp0
 70
     1
102
RTVSPropertyOp1
 70
     1
102
RTVSPropertyOp2
 70
     1
102
RTVSPropertyOp3
 70
     1
102
RTVSPropertyOp4
 70
     1
102
RTVSPropertyOp5
 70
     1
102
RTVSPropertyOp6
 70
     1
102
RTVSPropertyOp7
 70
     1
102
RTVSPropertyOp8
 70
     1
102
RTVSPropertyOp9
 70
     1
102
RTVSPropertyOp10
 70
     1
102
RTVSPropertyOp11
 70
     1
102
RTVSPropertyOp12
 70
     1
102
RTVSPropertyOp13
 70
     1
102
RTVSPropertyOp14
 70
     1
102
RTVSPropertyOp15
 70
     1
102
RTVSPropertyOp16
 70
     1
102
RTVSPropertyOp17
 70
     1
102
RTVSPropertyOp18
 70
     1
102
RTVSPropertyOp19
 70
     1
102
RTVSPropertyOp20
 70
     1
102
RTVSPropertyOp21
 70
     1
102
RTVSPropertyOp22
 70
     1
102
RTVSPropertyOp23
 70
     1
102
RTVSPropertyOp24
 70
     1
102
RTVSPropertyOp25
 70
     1
102
RTVSPropertyOp26
 70
     1
102
RTVSPropertyOp27
 70
     1
  0
XRECORD
  5
31D
102
{ACAD_REACTORS
330
31C
102
}
330
31C
100
AcDbXrecord
280
     1
102
RTVSPropertyOp0
 70
     1
102
RTVSPropertyOp1
 70
     1
102
RTVSPropertyOp2
 70
     1
102
RTVSPropertyOp3
 70
     1
102
RTVSPropertyOp4
 70
     1
102
RTVSPropertyOp5
 70
     1
102
RTVSPropertyOp6
 70
     1
102
RTVSPropertyOp7
 70
     1
102
RTVSPropertyOp8
 70
     1
102
RTVSPropertyOp9
 70
     1
102
RTVSPropertyOp10
 70
     1
102
RTVSPropertyOp11
 70
     1
102
RTVSPropertyOp12
 70
     1
102
RTVSPropertyOp13
 70
     1
102
RTVSPropertyOp14
 70
     1
102
RTVSPropertyOp15
 70
     1
102
RTVSPropertyOp16
 70
     1
102
RTVSPropertyOp17
 70
     1
102
RTVSPropertyOp18
 70
     1
102
RTVSPropertyOp19
 70
     1
102
RTVSPropertyOp20
 70
     1
102
RTVSPropertyOp21
 70
     1
102
RTVSPropertyOp22
 70
     1
102
RTVSPropertyOp23
 70
     1
102
RTVSPropertyOp24
 70
     1
102
RTVSPropertyOp25
 70
     1
102
RTVSPropertyOp26
 70
     1
102
RTVSPropertyOp27
 70
     1
  0
XRECORD
  5
325
102
{ACAD_REACTORS
330
324
102
}
330
324
100
AcDbXrecord
280
     1
102
RTVSPropertyOp0
 70
     1
102
RTVSPropertyOp1
 70
     1
102
RTVSPropertyOp2
 70
     1
102
RTVSPropertyOp3
 70
     1
102
RTVSPropertyOp4
 70
     1
102
RTVSPropertyOp5
 70
     1
102
RTVSPropertyOp6
 70
     1
102
RTVSPropertyOp7
 70
     1
102
RTVSPropertyOp8
 70
     1
102
RTVSPropertyOp9
 70
     1
102
RTVSPropertyOp10
 70
     1
102
RTVSPropertyOp11
 70
     1
102
RTVSPropertyOp12
 70
     1
102
RTVSPropertyOp13
 70
     1
102
RTVSPropertyOp14
 70
     1
102
RTVSPropertyOp15
 70
     1
102
RTVSPropertyOp16
 70
     1
102
RTVSPropertyOp17
 70
     1
102
RTVSPropertyOp18
 70
     1
102
RTVSPropertyOp19
 70
     1
102
RTVSPropertyOp20
 70
     1
102
RTVSPropertyOp21
 70
     1
102
RTVSPropertyOp22
 70
     1
102
RTVSPropertyOp23
 70
     1
102
RTVSPropertyOp24
 70
     1
102
RTVSPropertyOp25
 70
     1
102
RTVSPropertyOp26
 70
     1
102
RTVSPropertyOp27
 70
     1
  0
XRECORD
  5
309
102
{ACAD_REACTORS
330
308
102
}
330
308
100
AcDbXrecord
280
     1
102
RTVSPropertyOp0
 70
     1
102
RTVSPropertyOp1
 70
     1
102
RTVSPropertyOp2
 70
     1
102
RTVSPropertyOp3
 70
     1
102
RTVSPropertyOp4
 70
     1
102
RTVSPropertyOp5
 70
     1
102
RTVSPropertyOp6
 70
     1
102
RTVSPropertyOp7
 70
     1
102
RTVSPropertyOp8
 70
     1
102
RTVSPropertyOp9
 70
     1
102
RTVSPropertyOp10
 70
     1
102
RTVSPropertyOp11
 70
     1
102
RTVSPropertyOp12
 70
     1
102
RTVSPropertyOp13
 70
     1
102
RTVSPropertyOp14
 70
     1
102
RTVSPropertyOp15
 70
     1
102
RTVSPropertyOp16
 70
     1
102
RTVSPropertyOp17
 70
     1
102
RTVSPropertyOp18
 70
     1
102
RTVSPropertyOp19
 70
     1
102
RTVSPropertyOp20
 70
     1
102
RTVSPropertyOp21
 70
     1
102
RTVSPropertyOp22
 70
     1
102
RTVSPropertyOp23
 70
     1
102
RTVSPropertyOp24
 70
     1
102
RTVSPropertyOp25
 70
     1
102
RTVSPropertyOp26
 70
     1
102
RTVSPropertyOp27
 70
     1
  0
XRECORD
  5
30B
102
{ACAD_REACTORS
330
30A
102
}
330
30A
100
AcDbXrecord
280
     1
102
RTVSPropertyOp0
 70
     1
102
RTVSPropertyOp1
 70
     1
102
RTVSPropertyOp2
 70
     1
102
RTVSPropertyOp3
 70
     1
102
RTVSPropertyOp4
 70
     1
102
RTVSPropertyOp5
 70
     1
102
RTVSPropertyOp6
 70
     1
102
RTVSPropertyOp7
 70
     1
102
RTVSPropertyOp8
 70
     1
102
RTVSPropertyOp9
 70
     1
102
RTVSPropertyOp10
 70
     1
102
RTVSPropertyOp11
 70
     1
102
RTVSPropertyOp12
 70
     1
102
RTVSPropertyOp13
 70
     1
102
RTVSPropertyOp14
 70
     1
102
RTVSPropertyOp15
 70
     1
102
RTVSPropertyOp16
 70
     1
102
RTVSPropertyOp17
 70
     1
102
RTVSPropertyOp18
 70
     1
102
RTVSPropertyOp19
 70
     1
102
RTVSPropertyOp20
 70
     1
102
RTVSPropertyOp21
 70
     1
102
RTVSPropertyOp22
 70
     1
102
RTVSPropertyOp23
 70
     1
102
RTVSPropertyOp24
 70
     1
102
RTVSPropertyOp25
 70
     1
102
RTVSPropertyOp26
 70
     1
102
RTVSPropertyOp27
 70
     1
  0
XRECORD
  5
30D
102
{ACAD_REACTORS
330
30C
102
}
330
30C
100
AcDbXrecord
280
     1
102
RTVSPropertyOp0
 70
     1
102
RTVSPropertyOp1
 70
     1
102
RTVSPropertyOp2
 70
     1
102
RTVSPropertyOp3
 70
     1
102
RTVSPropertyOp4
 70
     1
102
RTVSPropertyOp5
 70
     1
102
RTVSPropertyOp6
 70
     1
102
RTVSPropertyOp7
 70
     1
102
RTVSPropertyOp8
 70
     1
102
RTVSPropertyOp9
 70
     1
102
RTVSPropertyOp10
 70
     1
102
RTVSPropertyOp11
 70
     1
102
RTVSPropertyOp12
 70
     1
102
RTVSPropertyOp13
 70
     1
102
RTVSPropertyOp14
 70
     1
102
RTVSPropertyOp15
 70
     1
102
RTVSPropertyOp16
 70
     1
102
RTVSPropertyOp17
 70
     1
102
RTVSPropertyOp18
 70
     1
102
RTVSPropertyOp19
 70
     1
102
RTVSPropertyOp20
 70
     1
102
RTVSPropertyOp21
 70
     1
102
RTVSPropertyOp22
 70
     1
102
RTVSPropertyOp23
 70
     1
102
RTVSPropertyOp24
 70
     1
102
RTVSPropertyOp25
 70
     1
102
RTVSPropertyOp26
 70
     1
102
RTVSPropertyOp27
 70
     1
  0
XRECORD
  5
30F
102
{ACAD_REACTORS
330
30E
102
}
330
30E
100
AcDbXrecord
280
     1
102
RTVSPropertyOp0
 70
     1
102
RTVSPropertyOp1
 70
     1
102
RTVSPropertyOp2
 70
     1
102
RTVSPropertyOp3
 70
     1
102
RTVSPropertyOp4
 70
     1
102
RTVSPropertyOp5
 70
     1
102
RTVSPropertyOp6
 70
     1
102
RTVSPropertyOp7
 70
     1
102
RTVSPropertyOp8
 70
     1
102
RTVSPropertyOp9
 70
     1
102
RTVSPropertyOp10
 70
     1
102
RTVSPropertyOp11
 70
     1
102
RTVSPropertyOp12
 70
     1
102
RTVSPropertyOp13
 70
     1
102
RTVSPropertyOp14
 70
     1
102
RTVSPropertyOp15
 70
     1
102
RTVSPropertyOp16
 70
     1
102
RTVSPropertyOp17
 70
     1
102
RTVSPropertyOp18
 70
     1
102
RTVSPropertyOp19
 70
     1
102
RTVSPropertyOp20
 70
     1
102
RTVSPropertyOp21
 70
     1
102
RTVSPropertyOp22
 70
     1
102
RTVSPropertyOp23
 70
     1
102
RTVSPropertyOp24
 70
     1
102
RTVSPropertyOp25
 70
     1
102
RTVSPropertyOp26
 70
     1
102
RTVSPropertyOp27
 70
     1
  0
XRECORD
  5
323
102
{ACAD_REACTORS
330
322
102
}
330
322
100
AcDbXrecord
280
     1
102
RTVSPropertyOp0
 70
     1
102
RTVSPropertyOp1
 70
     1
102
RTVSPropertyOp2
 70
     1
102
RTVSPropertyOp3
 70
     1
102
RTVSPropertyOp4
 70
     1
102
RTVSPropertyOp5
 70
     1
102
RTVSPropertyOp6
 70
     1
102
RTVSPropertyOp7
 70
     1
102
RTVSPropertyOp8
 70
     1
102
RTVSPropertyOp9
 70
     1
102
RTVSPropertyOp10
 70
     1
102
RTVSPropertyOp11
 70
     1
102
RTVSPropertyOp12
 70
     1
102
RTVSPropertyOp13
 70
     1
102
RTVSPropertyOp14
 70
     1
102
RTVSPropertyOp15
 70
     1
102
RTVSPropertyOp16
 70
     1
102
RTVSPropertyOp17
 70
     1
102
RTVSPropertyOp18
 70
     1
102
RTVSPropertyOp19
 70
     1
102
RTVSPropertyOp20
 70
     1
102
RTVSPropertyOp21
 70
     1
102
RTVSPropertyOp22
 70
     1
102
RTVSPropertyOp23
 70
     1
102
RTVSPropertyOp24
 70
     1
102
RTVSPropertyOp25
 70
     1
102
RTVSPropertyOp26
 70
     1
102
RTVSPropertyOp27
 70
     1
  0
XRECORD
  5
319
102
{ACAD_REACTORS
330
318
102
}
330
318
100
AcDbXrecord
280
     1
102
RTVSPropertyOp0
 70
     1
102
RTVSPropertyOp1
 70
     1
102
RTVSPropertyOp2
 70
     1
102
RTVSPropertyOp3
 70
     1
102
RTVSPropertyOp4
 70
     1
102
RTVSPropertyOp5
 70
     1
102
RTVSPropertyOp6
 70
     1
102
RTVSPropertyOp7
 70
     1
102
RTVSPropertyOp8
 70
     1
102
RTVSPropertyOp9
 70
     1
102
RTVSPropertyOp10
 70
     1
102
RTVSPropertyOp11
 70
     1
102
RTVSPropertyOp12
 70
     1
102
RTVSPropertyOp13
 70
     1
102
RTVSPropertyOp14
 70
     1
102
RTVSPropertyOp15
 70
     1
102
RTVSPropertyOp16
 70
     1
102
RTVSPropertyOp17
 70
     1
102
RTVSPropertyOp18
 70
     1
102
RTVSPropertyOp19
 70
     1
102
RTVSPropertyOp20
 70
     1
102
RTVSPropertyOp21
 70
     1
102
RTVSPropertyOp22
 70
     1
102
RTVSPropertyOp23
 70
     1
102
RTVSPropertyOp24
 70
     1
102
RTVSPropertyOp25
 70
     1
102
RTVSPropertyOp26
 70
     1
102
RTVSPropertyOp27
 70
     1
  0
XRECORD
  5
321
102
{ACAD_REACTORS
330
320
102
}
330
320
100
AcDbXrecord
280
     1
102
RTVSPropertyOp0
 70
     1
102
RTVSPropertyOp1
 70
     1
102
RTVSPropertyOp2
 70
     1
102
RTVSPropertyOp3
 70
     1
102
RTVSPropertyOp4
 70
     1
102
RTVSPropertyOp5
 70
     1
102
RTVSPropertyOp6
 70
     1
102
RTVSPropertyOp7
 70
     1
102
RTVSPropertyOp8
 70
     1
102
RTVSPropertyOp9
 70
     1
102
RTVSPropertyOp10
 70
     1
102
RTVSPropertyOp11
 70
     1
102
RTVSPropertyOp12
 70
     1
102
RTVSPropertyOp13
 70
     1
102
RTVSPropertyOp14
 70
     1
102
RTVSPropertyOp15
 70
     1
102
RTVSPropertyOp16
 70
     1
102
RTVSPropertyOp17
 70
     1
102
RTVSPropertyOp18
 70
     1
102
RTVSPropertyOp19
 70
     1
102
RTVSPropertyOp20
 70
     1
102
RTVSPropertyOp21
 70
     1
102
RTVSPropertyOp22
 70
     1
102
RTVSPropertyOp23
 70
     1
102
RTVSPropertyOp24
 70
     1
102
RTVSPropertyOp25
 70
     1
102
RTVSPropertyOp26
 70
     1
102
RTVSPropertyOp27
 70
     1
  0
ENDSEC
  0
EOF
