  0
SECTION
  2
HEADER
  9
$ACADVER
  1
AC1015
  9
$ACADMAINTVER
 70
     6
  9
$DWGCODEPAGE
  3
ANSI_932
  9
$INSBASE
 10
0.0
 20
0.0
 30
0.0
  9
$EXTMIN
 10
-5.74714169685619
 20
-1.90527578490621
 30
0.0
  9
$EXTMAX
 10
336.46489908201
 20
344.1198548855944
 30
0.0
  9
$LIMMIN
 10
0.0
 20
0.0
  9
$LIMMAX
 10
12.0
 20
9.0
  9
$ORTHOMODE
 70
     0
  9
$REGENMODE
 70
     1
  9
$FILLMODE
 70
     1
  9
$QTEXTMODE
 70
     0
  9
$MIRRTEXT
 70
     1
  9
$LTSCALE
 40
1.0
  9
$ATTMODE
 70
     1
  9
$TEXTSIZE
 40
0.2
  9
$TRACEWID
 40
0.05
  9
$TEXTSTYLE
  7
Standard
  9
$CLAYER
  8
0
  9
$CELTYPE
  6
ByLayer
  9
$CECOLOR
 62
   256
  9
$CELTSCALE
 40
1.0
  9
$DISPSILH
 70
     0
  9
$DIMSCALE
 40
1.0
  9
$DIMASZ
 40
0.18
  9
$DIMEXO
 40
0.0625
  9
$DIMDLI
 40
0.38
  9
$DIMRND
 40
0.0
  9
$DIMDLE
 40
0.0
  9
$DIMEXE
 40
0.18
  9
$DIMTP
 40
0.0
  9
$DIMTM
 40
0.0
  9
$DIMTXT
 40
0.18
  9
$DIMCEN
 40
0.09
  9
$DIMTSZ
 40
0.0
  9
$DIMTOL
 70
     0
  9
$DIMLIM
 70
     0
  9
$DIMTIH
 70
     1
  9
$DIMTOH
 70
     1
  9
$DIMSE1
 70
     0
  9
$DIMSE2
 70
     0
  9
$DIMTAD
 70
     0
  9
$DIMZIN
 70
     0
  9
$DIMBLK
  1

  9
$DIMASO
 70
     1
  9
$DIMSHO
 70
     1
  9
$DIMPOST
  1

  9
$DIMAPOST
  1

  9
$DIMALT
 70
     0
  9
$DIMALTD
 70
     2
  9
$DIMALTF
 40
25.4
  9
$DIMLFAC
 40
1.0
  9
$DIMTOFL
 70
     0
  9
$DIMTVP
 40
0.0
  9
$DIMTIX
 70
     0
  9
$DIMSOXD
 70
     0
  9
$DIMSAH
 70
     0
  9
$DIMBLK1
  1

  9
$DIMBLK2
  1

  9
$DIMSTYLE
  2
Standard
  9
$DIMCLRD
 70
     0
  9
$DIMCLRE
 70
     0
  9
$DIMCLRT
 70
     0
  9
$DIMTFAC
 40
1.0
  9
$DIMGAP
 40
0.09
  9
$DIMJUST
 70
     0
  9
$DIMSD1
 70
     0
  9
$DIMSD2
 70
     0
  9
$DIMTOLJ
 70
     1
  9
$DIMTZIN
 70
     0
  9
$DIMALTZ
 70
     0
  9
$DIMALTTZ
 70
     0
  9
$DIMUPT
 70
     0
  9
$DIMDEC
 70
     4
  9
$DIMTDEC
 70
     4
  9
$DIMALTU
 70
     2
  9
$DIMALTTD
 70
     2
  9
$DIMTXSTY
  7
Standard
  9
$DIMAUNIT
 70
     0
  9
$DIMADEC
 70
     0
  9
$DIMALTRND
 40
0.0
  9
$DIMAZIN
 70
     0
  9
$DIMDSEP
 70
    46
  9
$DIMATFIT
 70
     3
  9
$DIMFRAC
 70
     0
  9
$DIMLDRBLK
  1

  9
$DIMLUNIT
 70
     2
  9
$DIMLWD
 70
    -2
  9
$DIMLWE
 70
    -2
  9
$DIMTMOVE
 70
     0
  9
$LUNITS
 70
     2
  9
$LUPREC
 70
     4
  9
$SKETCHINC
 40
0.1
  9
$FILLETRAD
 40
0.5
  9
$AUNITS
 70
     0
  9
$AUPREC
 70
     0
  9
$MENU
  1
.
  9
$ELEVATION
 40
0.0
  9
$PELEVATION
 40
0.0
  9
$THICKNESS
 40
0.0
  9
$LIMCHECK
 70
     0
  9
$CHAMFERA
 40
0.5
  9
$CHAMFERB
 40
0.5
  9
$CHAMFERC
 40
1.0
  9
$CHAMFERD
 40
0.0
  9
$SKPOLY
 70
     0
  9
$TDCREATE
 40
2457624.399514271
  9
$TDUCREATE
 40
2457624.024514271
  9
$TDUPDATE
 40
2457624.399514283
  9
$TDUUPDATE
 40
2457624.024514283
  9
$TDINDWG
 40
0.0000000116
  9
$TDUSRTIMER
 40
0.0000000116
  9
$USRTIMER
 70
     1
  9
$ANGBASE
 50
0.0
  9
$ANGDIR
 70
     0
  9
$PDMODE
 70
     0
  9
$PDSIZE
 40
0.0
  9
$PLINEWID
 40
0.0
  9
$SPLFRAME
 70
     0
  9
$SPLINETYPE
 70
     6
  9
$SPLINESEGS
 70
     8
  9
$HANDSEED
  5
372
  9
$SURFTAB1
 70
     6
  9
$SURFTAB2
 70
     6
  9
$SURFTYPE
 70
     6
  9
$SURFU
 70
     6
  9
$SURFV
 70
     6
  9
$UCSBASE
  2

  9
$UCSNAME
  2

  9
$UCSORG
 10
0.0
 20
0.0
 30
0.0
  9
$UCSXDIR
 10
1.0
 20
0.0
 30
0.0
  9
$UCSYDIR
 10
0.0
 20
1.0
 30
0.0
  9
$UCSORTHOREF
  2

  9
$UCSORTHOVIEW
 70
     0
  9
$UCSORGTOP
 10
0.0
 20
0.0
 30
0.0
  9
$UCSORGBOTTOM
 10
0.0
 20
0.0
 30
0.0
  9
$UCSORGLEFT
 10
0.0
 20
0.0
 30
0.0
  9
$UCSORGRIGHT
 10
0.0
 20
0.0
 30
0.0
  9
$UCSORGFRONT
 10
0.0
 20
0.0
 30
0.0
  9
$UCSORGBACK
 10
0.0
 20
0.0
 30
0.0
  9
$PUCSBASE
  2

  9
$PUCSNAME
  2

  9
$PUCSORG
 10
0.0
 20
0.0
 30
0.0
  9
$PUCSXDIR
 10
1.0
 20
0.0
 30
0.0
  9
$PUCSYDIR
 10
0.0
 20
1.0
 30
0.0
  9
$PUCSORTHOREF
  2

  9
$PUCSORTHOVIEW
 70
     0
  9
$PUCSORGTOP
 10
0.0
 20
0.0
 30
0.0
  9
$PUCSORGBOTTOM
 10
0.0
 20
0.0
 30
0.0
  9
$PUCSORGLEFT
 10
0.0
 20
0.0
 30
0.0
  9
$PUCSORGRIGHT
 10
0.0
 20
0.0
 30
0.0
  9
$PUCSORGFRONT
 10
0.0
 20
0.0
 30
0.0
  9
$PUCSORGBACK
 10
0.0
 20
0.0
 30
0.0
  9
$USERI1
 70
     0
  9
$USERI2
 70
     0
  9
$USERI3
 70
     0
  9
$USERI4
 70
     0
  9
$USERI5
 70
     0
  9
$USERR1
 40
18.0
  9
$USERR2
 40
0.0
  9
$USERR3
 40
0.0
  9
$USERR4
 40
0.0
  9
$USERR5
 40
0.0
  9
$WORLDVIEW
 70
     1
  9
$SHADEDGE
 70
     3
  9
$SHADEDIF
 70
    70
  9
$TILEMODE
 70
     1
  9
$MAXACTVP
 70
    64
  9
$PINSBASE
 10
0.0
 20
0.0
 30
0.0
  9
$PLIMCHECK
 70
     0
  9
$PEXTMIN
 10
1.00000000000000E+20
 20
1.00000000000000E+20
 30
1.00000000000000E+20
  9
$PEXTMAX
 10
-1.00000000000000E+20
 20
-1.00000000000000E+20
 30
-1.00000000000000E+20
  9
$PLIMMIN
 10
0.0
 20
0.0
  9
$PLIMMAX
 10
12.0
 20
9.0
  9
$UNITMODE
 70
     0
  9
$VISRETAIN
 70
     1
  9
$PLINEGEN
 70
     0
  9
$PSLTSCALE
 70
     1
  9
$TREEDEPTH
 70
  3020
  9
$CMLSTYLE
  2
Standard
  9
$CMLJUST
 70
     0
  9
$CMLSCALE
 40
1.0
  9
$PROXYGRAPHICS
 70
     1
  9
$MEASUREMENT
 70
     1
  9
$CELWEIGHT
370
    -1
  9
$ENDCAPS
280
     0
  9
$JOINSTYLE
280
     0
  9
$LWDISPLAY
290
     0
  9
$INSUNITS
 70
     1
  9
$HYPERLINKBASE
  1

  9
$STYLESHEET
  1

  9
$XEDIT
290
     1
  9
$CEPSNTYPE
380
     0
  9
$PSTYLEMODE
290
     1
  9
$FINGERPRINTGUID
  2
{9C119FC0-35D8-4F75-B9FD-E5D811A81836}
  9
$VERSIONGUID
  2
{FAEB1C32-E019-11D5-929B-00C0DF256EC4}
  9
$EXTNAMES
290
     1
  9
$PSVPSCALE
 40
0.0
  9
$OLESTARTUP
290
     0
  0
ENDSEC
  0
SECTION
  2
CLASSES
  0
CLASS
  1
ACDBDICTIONARYWDFLT
  2
AcDbDictionaryWithDefault
  3
ObjectDBX Classes
 90
        0
280
     0
281
     0
  0
CLASS
  1
VISUALSTYLE
  2
AcDbVisualStyle
  3
ObjectDBX Classes
 90
     4095
280
     0
281
     0
  0
CLASS
  1
MATERIAL
  2
AcDbMaterial
  3
ObjectDBX Classes
 90
     1153
280
     0
281
     0
  0
CLASS
  1

  2
exOdDbCircle
  3

 90
        0
280
     0
281
     1
  0
CLASS
  1

  2
exOdDbPolyline
  3

 90
        0
280
     0
281
     1
  0
CLASS
  1
SCALE
  2
AcDbScale
  3
ObjectDBX Classes
 90
     1153
280
     0
281
     0
  0
CLASS
  1
DICTIONARYVAR
  2
AcDbDictionaryVar
  3
ObjectDBX Classes
 90
        0
280
     0
281
     0
  0
CLASS
  1
ACDBPLACEHOLDER
  2
AcDbPlaceHolder
  3
ObjectDBX Classes
 90
        0
280
     0
281
     0
  0
CLASS
  1
LAYOUT
  2
AcDbLayout
  3
ObjectDBX Classes
 90
        0
280
     0
281
     0
  0
ENDSEC
  0
SECTION
  2
TABLES
  0
TABLE
  2
VPORT
  5
8
330
0
100
AcDbSymbolTable
 70
     1
  0
VPORT
  5
29
330
8
100
AcDbSymbolTableRecord
100
AcDbViewportTableRecord
  2
*Active
 70
     0
 10
0.0
 20
0.0
 11
1.0
 21
1.0
 12
165.3588786925769
 22
171.1072895503441
 13
0.0
 23
0.0
 14
0.5
 24
0.5
 15
0.5
 25
0.5
 16
0.0
 26
0.0
 36
1.0
 17
0.0
 27
0.0
 37
0.0
 40
380.6276437375507
 41
1.60267857142857
 42
50.0
 43
0.0
 44
0.0
 50
0.0
 51
0.0
 71
     0
 72
   100
 73
     1
 74
     3
 75
     0
 76
     0
 77
     0
 78
     0
281
     0
 65
     1
110
0.0
120
0.0
130
0.0
111
1.0
121
0.0
131
0.0
112
0.0
122
1.0
132
0.0
 79
     0
146
0.0
  0
ENDTAB
  0
TABLE
  2
LTYPE
  5
5
330
0
100
AcDbSymbolTable
 70
     9
  0
LTYPE
  5
14
330
5
100
AcDbSymbolTableRecord
100
AcDbLinetypeTableRecord
  2
ByBlock
 70
     0
  3

 72
    65
 73
     0
 40
0.0
  0
LTYPE
  5
15
330
5
100
AcDbSymbolTableRecord
100
AcDbLinetypeTableRecord
  2
ByLayer
 70
     0
  3

 72
    65
 73
     0
 40
0.0
  0
LTYPE
  5
16
330
5
100
AcDbSymbolTableRecord
100
AcDbLinetypeTableRecord
  2
Continuous
 70
     0
  3
Solid line
 72
    65
 73
     0
 40
0.0
  0
LTYPE
  5
3F
330
5
100
AcDbSymbolTableRecord
100
AcDbLinetypeTableRecord
  2
DASHED
 70
     0
  3
Dashed
 72
    65
 73
     2
 40
15.0
 49
7.0
 74
     0
 49
-8.0
 74
     0
  0
LTYPE
  5
40
330
5
100
AcDbSymbolTableRecord
100
AcDbLinetypeTableRecord
  2
DOTTED
 70
     0
  3
Dotted
 72
    65
 73
     2
 40
1.0
 49
0.0
 74
     0
 49
-1.0
 74
     0
  0
LTYPE
  5
41
330
5
100
AcDbSymbolTableRecord
100
AcDbLinetypeTableRecord
  2
DOT_CENTER
 70
     0
  3
Dot_Center
 72
    65
 73
     4
 40
14.0
 49
12.0
 74
     0
 49
-1.0
 74
     0
 49
0.0
 74
     0
 49
-1.0
 74
     0
  0
LTYPE
  5
42
330
5
100
AcDbSymbolTableRecord
100
AcDbLinetypeTableRecord
  2
LONG_DASHED
 70
     0
  3
Long_Dashed
 72
    65
 73
     2
 40
15.0
 49
10.0
 74
     0
 49
-5.0
 74
     0
  0
LTYPE
  5
43
330
5
100
AcDbSymbolTableRecord
100
AcDbLinetypeTableRecord
  2
DASH_CENTER
 70
     0
  3
Dash_Center
 72
    65
 73
     4
 40
14.0
 49
11.0
 74
     0
 49
-1.0
 74
     0
 49
1.0
 74
     0
 49
-1.0
 74
     0
  0
LTYPE
  5
44
330
5
100
AcDbSymbolTableRecord
100
AcDbLinetypeTableRecord
  2
PHANTOM
 70
     0
  3
Phantom
 72
    65
 73
     6
 40
13.0
 49
10.0
 74
     0
 49
-1.0
 74
     0
 49
0.0
 74
     0
 49
-1.0
 74
     0
 49
0.0
 74
     0
 49
-1.0
 74
     0
  0
LTYPE
  5
45
330
5
100
AcDbSymbolTableRecord
100
AcDbLinetypeTableRecord
  2
CENTER_DASH_DASH
 70
     0
  3
Center_Dash_Dash
 72
    65
 73
     6
 40
14.0
 49
9.0
 74
     0
 49
-1.0
 74
     0
 49
1.0
 74
     0
 49
-1.0
 74
     0
 49
1.0
 74
     0
 49
-1.0
 74
     0
  0
LTYPE
  5
46
330
5
100
AcDbSymbolTableRecord
100
AcDbLinetypeTableRecord
  2
CENTER
 70
     0
  3
CENTER
 72
    65
 73
     4
 40
6.0
 49
3.0
 74
     0
 49
-1.0
 74
     0
 49
1.0
 74
     0
 49
-1.0
 74
     0
  0
ENDTAB
  0
TABLE
  2
LAYER
  5
2
330
0
100
AcDbSymbolTable
 70
     5
  0
LAYER
  5
10
330
2
100
AcDbSymbolTableRecord
100
AcDbLayerTableRecord
  2
0
 70
     0
 62
     7
  6
Continuous
370
    -3
390
F
  0
LAYER
  5
47
330
2
100
AcDbSymbolTableRecord
100
AcDbLayerTableRecord
  2
1
 70
     0
 62
     7
  6
Continuous
370
    -3
390
F
  0
LAYER
  5
48
330
2
100
AcDbSymbolTableRecord
100
AcDbLayerTableRecord
  2
100
 70
     0
 62
     7
  6
Continuous
370
    -3
390
F
  0
LAYER
  5
49
330
2
100
AcDbSymbolTableRecord
100
AcDbLayerTableRecord
  2
2
 70
     0
 62
     7
  6
Continuous
370
    -3
390
F
  0
LAYER
  5
4A
330
2
100
AcDbSymbolTableRecord
100
AcDbLayerTableRecord
  2
5
 70
     0
 62
     7
  6
Continuous
370
    -3
390
F
  0
ENDTAB
  0
TABLE
  2
STYLE
  5
3
330
0
100
AcDbSymbolTable
 70
     2
  0
STYLE
  5
11
330
3
100
AcDbSymbolTableRecord
100
AcDbTextStyleTableRecord
  2
Standard
 70
     0
 40
0.0
 41
1.0
 50
0.0
 71
     0
 42
0.2
  3
txt
  4

  0
STYLE
  5
30B
330
3
100
AcDbSymbolTableRecord
100
AcDbTextStyleTableRecord
  2
CONVERTER_11
 70
     0
 40
0.0
 41
0.9
 50
0.0
 71
     0
 42
0.2
  3
txt.shx
  4

  0
ENDTAB
  0
TABLE
  2
VIEW
  5
6
330
0
100
AcDbSymbolTable
 70
     0
  0
ENDTAB
  0
TABLE
  2
UCS
  5
7
330
0
100
AcDbSymbolTable
 70
     0
  0
ENDTAB
  0
TABLE
  2
APPID
  5
9
330
0
100
AcDbSymbolTable
 70
     1
  0
APPID
  5
12
330
9
100
AcDbSymbolTableRecord
100
AcDbRegAppTableRecord
  2
ACAD
 70
     0
  0
ENDTAB
  0
TABLE
  2
DIMSTYLE
  5
A
330
0
100
AcDbSymbolTable
 70
     3
100
AcDbDimStyleTable
  0
DIMSTYLE
105
27
330
A
100
AcDbSymbolTableRecord
100
AcDbDimStyleTableRecord
  2
Standard
 70
     0
340
11
  0
DIMSTYLE
105
337
102
{ACAD_REACTORS
330
338
102
}
330
A
100
AcDbSymbolTableRecord
100
AcDbDimStyleTableRecord
  2
ME10_DIM_10
 70
     0
 41
8.0
 42
1.0
 44
1.0
 73
     0
 74
     0
 77
     1
 78
    12
140
10.0
147
1.0
172
     1
173
     1
174
     1
175
     1
176
     2
177
     2
178
     2
271
     3
340
30B
343
331
344
331
  0
DIMSTYLE
105
344
102
{ACAD_REACTORS
330
345
102
}
330
A
100
AcDbSymbolTableRecord
100
AcDbDimStyleTableRecord
  2
ME10_DIM_11
 70
     0
 41
8.0
 42
1.0
 44
1.0
 73
     0
 74
     0
 77
     1
 78
    12
140
10.0
147
1.0
172
     1
173
     1
174
     1
175
     1
176
     2
177
     2
178
     2
271
     3
340
30B
343
331
344
331
  0
ENDTAB
  0
TABLE
  2
BLOCK_RECORD
  5
1
330
0
100
AcDbSymbolTable
 70
     4
  0
BLOCK_RECORD
  5
1F
330
1
100
AcDbSymbolTableRecord
100
AcDbBlockTableRecord
  2
*Model_Space
340
22
  0
BLOCK_RECORD
  5
1B
330
1
100
AcDbSymbolTableRecord
100
AcDbBlockTableRecord
  2
*Paper_Space
340
1E
  0
BLOCK_RECORD
  5
23
330
1
100
AcDbSymbolTableRecord
100
AcDbBlockTableRecord
  2
*Paper_Space0
340
26
  0
BLOCK_RECORD
  5
303
330
1
100
AcDbSymbolTableRecord
100
AcDbBlockTableRecord
  2
*D1
340
0
  0
BLOCK_RECORD
  5
331
330
1
100
AcDbSymbolTableRecord
100
AcDbBlockTableRecord
  2
_OPEN30
340
0
  0
BLOCK_RECORD
  5
339
330
1
100
AcDbSymbolTableRecord
100
AcDbBlockTableRecord
  2
*D3
340
0
  0
ENDTAB
  0
ENDSEC
  0
SECTION
  2
BLOCKS
  0
BLOCK
  5
20
330
1F
100
AcDbEntity
  8
0
100
AcDbBlockBegin
  2
*Model_Space
 70
     0
 10
0.0
 20
0.0
 30
0.0
  3
*Model_Space
  1

  0
ENDBLK
  5
21
330
1F
100
AcDbEntity
  8
0
100
AcDbBlockEnd
  0
BLOCK
  5
1C
330
1B
100
AcDbEntity
 67
     1
  8
0
100
AcDbBlockBegin
  2
*Paper_Space
 70
     0
 10
0.0
 20
0.0
 30
0.0
  3
*Paper_Space
  1

  0
ENDBLK
  5
1D
330
1B
100
AcDbEntity
 67
     1
  8
0
100
AcDbBlockEnd
  0
BLOCK
  5
24
330
23
100
AcDbEntity
  8
0
100
AcDbBlockBegin
  2
*Paper_Space0
 70
     0
 10
0.0
 20
0.0
 30
0.0
  3
*Paper_Space0
  1

  0
ENDBLK
  5
25
330
23
100
AcDbEntity
  8
0
100
AcDbBlockEnd
  0
BLOCK
  5
32F
330
303
100
AcDbEntity
  8
0
100
AcDbBlockBegin
  2
*D1
 70
     1
 10
0.0
 20
0.0
 30
0.0
  3
*D1
  1

  0
LINE
  5
304
330
303
100
AcDbEntity
  8
1
  6
Continuous
 62
     2
100
AcDbLine
 10
187.5
 20
0.23831775454277
 30
0.0
 11
52.5
 21
0.23831775454277
 31
0.0
  0
LINE
  5
305
330
303
100
AcDbEntity
  8
1
  6
Continuous
 62
     2
100
AcDbLine
 10
187.5
 20
37.27608007996767
 30
0.0
 11
187.5
 21
-0.76168224545723
 31
0.0
  0
LINE
  5
306
330
303
100
AcDbEntity
  8
1
  6
Continuous
 62
     2
100
AcDbLine
 10
52.5
 20
37.27608007996767
 30
0.0
 11
52.5
 21
-0.76168224545723
 31
0.0
  0
LINE
  5
307
330
303
100
AcDbEntity
  8
1
 62
     2
100
AcDbLine
 10
52.5
 20
0.23831775454277
 30
0.0
 11
60.5
 21
2.38191129399175
 31
0.0
  0
LINE
  5
308
330
303
100
AcDbEntity
  8
1
 62
     2
100
AcDbLine
 10
52.5
 20
0.23831775454277
 30
0.0
 11
60.5
 21
-1.90527578490621
 31
0.0
  0
LINE
  5
309
330
303
100
AcDbEntity
  8
1
 62
     2
100
AcDbLine
 10
187.5
 20
0.23831775454277
 30
0.0
 11
179.5
 21
-1.90527578490621
 31
0.0
  0
LINE
  5
30A
330
303
100
AcDbEntity
  8
1
 62
     2
100
AcDbLine
 10
187.5
 20
0.23831775454277
 30
0.0
 11
179.5
 21
2.38191129399175
 31
0.0
  0
MTEXT
  5
32E
330
303
100
AcDbEntity
  8
1
 62
     2
100
AcDbMText
 10
108.9300121203746
 20
1.23829092012021
 30
0.0
 40
10.0
 41
0.0
 71
     7
 72
     1
  1
135
  7
CONVERTER_11
 11
0.9999999999882478
 21
4.848136811095759E-6
 31
0.0
 73
     1
 44
0.60024009603842
  0
ENDBLK
  5
330
330
303
100
AcDbEntity
  8
0
100
AcDbBlockEnd
  0
BLOCK
  5
332
330
331
100
AcDbEntity
  8
0
100
AcDbBlockBegin
  2
_OPEN30
 70
     0
 10
0.0
 20
0.0
 30
0.0
  3
_OPEN30
  1

  0
LINE
  5
334
330
331
100
AcDbEntity
  8
0
  6
ByBlock
 62
     0
370
    -2
100
AcDbLine
 10
-1.0
 20
0.267949
 30
0.0
 11
0.0
 21
0.0
 31
0.0
  0
LINE
  5
335
330
331
100
AcDbEntity
  8
0
  6
ByBlock
 62
     0
370
    -2
100
AcDbLine
 10
0.0
 20
0.0
 30
0.0
 11
-1.0
 21
-0.267949
 31
0.0
  0
LINE
  5
336
330
331
100
AcDbEntity
  8
0
  6
ByBlock
 62
     0
370
    -2
100
AcDbLine
 10
0.0
 20
0.0
 30
0.0
 11
-1.0
 21
0.0
 31
0.0
  0
ENDBLK
  5
333
330
331
100
AcDbEntity
  8
0
100
AcDbBlockEnd
  0
BLOCK
  5
342
330
339
100
AcDbEntity
  8
0
100
AcDbBlockBegin
  2
*D3
 70
     1
 10
0.0
 20
0.0
 30
0.0
  3
*D3
  1

  0
LINE
  5
33A
330
339
100
AcDbEntity
  8
1
  6
Continuous
 62
     2
100
AcDbLine
 10
214.469216756269
 20
228.000000000001
 30
0.0
 11
214.469216756269
 21
81.00000000000001
 31
0.0
  0
LINE
  5
33B
330
339
100
AcDbEntity
  8
1
  6
Continuous
 62
     2
100
AcDbLine
 10
160.658386075379
 20
228.000000000001
 30
0.0
 11
215.469216756269
 21
228.000000000001
 31
0.0
  0
LINE
  5
33C
330
339
100
AcDbEntity
  8
1
  6
Continuous
 62
     2
100
AcDbLine
 10
198.884641006117
 20
81.00000000000001
 30
0.0
 11
215.469216756269
 21
81.00000000000001
 31
0.0
  0
LINE
  5
33D
330
339
100
AcDbEntity
  8
1
 62
     2
100
AcDbLine
 10
214.469216756269
 20
81.00000000000001
 30
0.0
 11
212.32562321682
 21
89.00000000000001
 31
0.0
  0
LINE
  5
33E
330
339
100
AcDbEntity
  8
1
 62
     2
100
AcDbLine
 10
214.469216756269
 20
81.00000000000001
 30
0.0
 11
216.612810295718
 21
89.00000000000001
 31
0.0
  0
LINE
  5
33F
330
339
100
AcDbEntity
  8
1
 62
     2
100
AcDbLine
 10
214.469216756269
 20
228.000000000001
 30
0.0
 11
216.612810295718
 21
220.000000000001
 31
0.0
  0
LINE
  5
340
330
339
100
AcDbEntity
  8
1
 62
     2
100
AcDbLine
 10
214.469216756269
 20
228.000000000001
 30
0.0
 11
212.32562321682
 21
220.000000000001
 31
0.0
  0
MTEXT
  5
341
330
339
100
AcDbEntity
  8
1
 62
     2
100
AcDbMText
 10
213.469216756269
 20
144.982687622656
 30
0.0
 40
10.0
 41
0.0
 71
     7
 72
     1
  1
147
  7
CONVERTER_11
 11
0.0
 21
1.0
 31
0.0
 73
     1
 44
0.60024009603842
  0
ENDBLK
  5
343
330
339
100
AcDbEntity
  8
0
100
AcDbBlockEnd
  0
ENDSEC
  0
SECTION
  2
ENTITIES
  0
POINT
  5
4B
330
1F
100
AcDbEntity
  8
1
 62
     7
100
AcDbPoint
 10
187.5
 20
38.2760800799677
 30
0.0
  0
POINT
  5
4C
330
1F
100
AcDbEntity
  8
1
 62
     7
100
AcDbPoint
 10
52.5
 20
38.2760800799677
 30
0.0
  0
POINT
  5
4D
330
1F
100
AcDbEntity
  8
1
 62
     7
100
AcDbPoint
 10
159.658386075379
 20
228.000000000001
 30
0.0
  0
POINT
  5
4E
330
1F
100
AcDbEntity
  8
1
 62
     7
100
AcDbPoint
 10
197.884641006117
 20
81.0
 30
0.0
  0
POINT
  5
4F
330
1F
100
AcDbEntity
  8
1
 62
     7
100
AcDbPoint
 10
187.5
 20
38.2760800799677
 30
0.0
  0
POINT
  5
50
330
1F
100
AcDbEntity
  8
1
 62
     7
100
AcDbPoint
 10
52.5
 20
38.2760800799677
 30
0.0
  0
POINT
  5
51
330
1F
100
AcDbEntity
  8
1
 62
     7
100
AcDbPoint
 10
159.658386075379
 20
228.000000000001
 30
0.0
  0
POINT
  5
52
330
1F
100
AcDbEntity
  8
1
 62
     7
100
AcDbPoint
 10
197.884641006117
 20
81.0
 30
0.0
  0
LINE
  5
53
330
1F
100
AcDbEntity
  8
1
  6
Continuous
 62
     4
100
AcDbLine
 10
143.518141857666
 20
22.6089445070235
 30
0.0
 11
142.726041857666
 21
21.3589445070235
 31
0.0
  0
LINE
  5
54
330
1F
100
AcDbEntity
  8
1
  6
Continuous
 62
     4
100
AcDbLine
 10
142.726041857666
 20
23.8589445070235
 30
0.0
 11
143.518141857666
 21
22.6089445070235
 31
0.0
  0
LINE
  5
55
330
1F
100
AcDbEntity
  8
1
  6
Continuous
 62
     4
100
AcDbLine
 10
137.577391857666
 20
22.6089445070235
 30
0.0
 11
143.518141857666
 21
22.6089445070235
 31
0.0
  0
LINE
  5
56
330
1F
100
AcDbEntity
  8
1
  6
Continuous
 62
     4
100
AcDbLine
 10
131.042566857666
 20
25.4839445070235
 30
0.0
 11
135.597141857666
 21
25.4839445070235
 31
0.0
  0
LINE
  5
57
330
1F
100
AcDbEntity
  8
1
  6
Continuous
 62
     4
100
AcDbLine
 10
131.042566857666
 20
25.4839445070235
 30
0.0
 11
132.131704357666
 21
27.3589445070235
 31
0.0
  0
LINE
  5
58
330
1F
100
AcDbEntity
  8
1
  6
Continuous
 62
     4
100
AcDbLine
 10
133.616891857666
 20
20.7339445070235
 30
0.0
 11
131.933679357666
 21
20.7339445070235
 31
0.0
  0
LINE
  5
59
330
1F
100
AcDbEntity
  8
1
  6
Continuous
 62
     4
100
AcDbLine
 10
133.616891857666
 20
23.2339445070235
 30
0.0
 11
133.616891857666
 21
20.7339445070235
 31
0.0
  0
LINE
  5
5A
330
1F
100
AcDbEntity
  8
1
  6
Continuous
 62
     4
100
AcDbLine
 10
131.933679357666
 20
23.2339445070235
 30
0.0
 11
133.616891857666
 21
23.2339445070235
 31
0.0
  0
LINE
  5
5B
330
1F
100
AcDbEntity
  8
1
  6
Continuous
 62
     4
100
AcDbLine
 10
131.933679357666
 20
20.7339445070235
 30
0.0
 11
131.933679357666
 21
23.2339445070235
 31
0.0
  0
LINE
  5
5C
330
1F
100
AcDbEntity
  8
1
  6
Continuous
 62
     4
100
AcDbLine
 10
135.597141857666
 20
17.9839445070235
 30
0.0
 11
134.508004357666
 21
17.9839445070235
 31
0.0
  0
LINE
  5
5D
330
1F
100
AcDbEntity
  8
1
  6
Continuous
 62
     4
100
AcDbLine
 10
135.597141857666
 20
25.4839445070235
 30
0.0
 11
135.597141857666
 21
17.9839445070235
 31
0.0
  0
LINE
  5
5E
330
1F
100
AcDbEntity
  8
1
  6
Continuous
 62
     4
100
AcDbLine
 10
129.953429357666
 20
25.4839445070235
 30
0.0
 11
131.042566857666
 21
25.4839445070235
 31
0.0
  0
LINE
  5
5F
330
1F
100
AcDbEntity
  8
1
  6
Continuous
 62
     4
100
AcDbLine
 10
129.953429357666
 20
17.9839445070235
 30
0.0
 11
129.953429357666
 21
25.4839445070235
 31
0.0
  0
LINE
  5
60
330
1F
100
AcDbEntity
  8
1
  6
Continuous
 62
     4
100
AcDbLine
 10
125.695891857666
 20
17.6089445070235
 30
0.0
 11
124.903791857666
 21
18.2339445070235
 31
0.0
  0
LINE
  5
61
330
1F
100
AcDbEntity
  8
1
  6
Continuous
 62
     4
100
AcDbLine
 10
126.190954357666
 20
18.6089445070235
 30
0.0
 11
125.695891857666
 21
17.6089445070235
 31
0.0
  0
LINE
  5
62
330
1F
100
AcDbEntity
  8
1
  6
Continuous
 62
     4
100
AcDbLine
 10
126.587004357666
 20
20.1089445070235
 30
0.0
 11
126.190954357666
 21
18.6089445070235
 31
0.0
  0
LINE
  5
63
330
1F
100
AcDbEntity
  8
1
  6
Continuous
 62
     4
100
AcDbLine
 10
127.082066857666
 20
22.3589445070235
 30
0.0
 11
126.587004357666
 21
20.1089445070235
 31
0.0
  0
LINE
  5
64
330
1F
100
AcDbEntity
  8
1
  6
Continuous
 62
     4
100
AcDbLine
 10
127.082066857666
 20
23.2339445070235
 30
0.0
 11
127.082066857666
 21
22.3589445070235
 31
0.0
  0
LINE
  5
65
330
1F
100
AcDbEntity
  8
1
  6
Continuous
 62
     4
100
AcDbLine
 10
124.210704357666
 20
23.2339445070235
 30
0.0
 11
127.082066857666
 21
23.2339445070235
 31
0.0
  0
LINE
  5
66
330
1F
100
AcDbEntity
  8
1
  6
Continuous
 62
     4
100
AcDbLine
 10
121.537366857666
 20
25.7339445070235
 30
0.0
 11
128.171204357666
 21
25.7339445070235
 31
0.0
  0
LINE
  5
67
330
1F
100
AcDbEntity
  8
1
  6
Continuous
 62
     4
100
AcDbLine
 10
124.408729357666
 20
24.8589445070235
 30
0.0
 11
124.606754357666
 21
27.3589445070235
 31
0.0
  0
LINE
  5
68
330
1F
100
AcDbEntity
  8
1
  6
Continuous
 62
     4
100
AcDbLine
 10
124.012679357666
 20
22.3589445070235
 30
0.0
 11
124.408729357666
 21
24.8589445070235
 31
0.0
  0
LINE
  5
69
330
1F
100
AcDbEntity
  8
1
  6
Continuous
 62
     4
100
AcDbLine
 10
123.517616857666
 20
20.7339445070235
 30
0.0
 11
124.012679357666
 21
22.3589445070235
 31
0.0
  0
LINE
  5
6A
330
1F
100
AcDbEntity
  8
1
  6
Continuous
 62
     4
100
AcDbLine
 10
122.923541857666
 20
19.2339445070235
 30
0.0
 11
123.517616857666
 21
20.7339445070235
 31
0.0
  0
LINE
  5
6B
330
1F
100
AcDbEntity
  8
1
  6
Continuous
 62
     4
100
AcDbLine
 10
122.032429357666
 20
17.9839445070235
 30
0.0
 11
122.923541857666
 21
19.2339445070235
 31
0.0
  0
LINE
  5
6C
330
1F
100
AcDbEntity
  8
1
  6
Continuous
 62
     4
100
AcDbLine
 10
119.359091857666
 20
20.7339445070235
 30
0.0
 11
120.448229357666
 21
19.2339445070235
 31
0.0
  0
LINE
  5
6D
330
1F
100
AcDbEntity
  8
1
  6
Continuous
 62
     4
100
AcDbLine
 10
118.467979357666
 20
22.6089445070235
 30
0.0
 11
119.359091857666
 21
20.7339445070235
 31
0.0
  0
LINE
  5
6E
330
1F
100
AcDbEntity
  8
1
  6
Continuous
 62
     4
100
AcDbLine
 10
117.774891857666
 20
24.8589445070235
 30
0.0
 11
118.467979357666
 21
22.6089445070235
 31
0.0
  0
LINE
  5
6F
330
1F
100
AcDbEntity
  8
1
  6
Continuous
 62
     4
100
AcDbLine
 10
119.755141857666
 20
25.1089445070235
 30
0.0
 11
118.269954357666
 21
23.6089445070235
 31
0.0
  0
LINE
  5
70
330
1F
100
AcDbEntity
  8
1
  6
Continuous
 62
     4
100
AcDbLine
 10
117.180816857666
 20
17.6089445070235
 30
0.0
 11
116.487729357666
 21
17.9839445070235
 31
0.0
  0
LINE
  5
71
330
1F
100
AcDbEntity
  8
1
  6
Continuous
 62
     4
100
AcDbLine
 10
117.180816857666
 20
27.3589445070235
 30
0.0
 11
117.180816857666
 21
17.6089445070235
 31
0.0
  0
LINE
  5
72
330
1F
100
AcDbEntity
  8
1
  6
Continuous
 62
     4
100
AcDbLine
 10
116.091679357666
 20
24.2339445070235
 30
0.0
 11
113.814391857666
 21
24.2339445070235
 31
0.0
  0
LINE
  5
73
330
1F
100
AcDbEntity
  8
1
  6
Continuous
 62
     4
100
AcDbLine
 10
115.596616857666
 20
22.3589445070235
 30
0.0
 11
116.091679357666
 21
24.2339445070235
 31
0.0
  0
LINE
  5
74
330
1F
100
AcDbEntity
  8
1
  6
Continuous
 62
     4
100
AcDbLine
 10
114.705504357666
 20
20.4839445070235
 30
0.0
 11
115.596616857666
 21
22.3589445070235
 31
0.0
  0
LINE
  5
75
330
1F
100
AcDbEntity
  8
1
  6
Continuous
 62
     4
100
AcDbLine
 10
113.814391857666
 20
19.2339445070235
 30
0.0
 11
114.705504357666
 21
20.4839445070235
 31
0.0
  0
LINE
  5
76
330
1F
100
AcDbEntity
  8
1
  6
Continuous
 62
     4
100
AcDbLine
 10
109.457841857666
 20
26.1089445070235
 30
0.0
 11
112.131179357666
 21
26.1089445070235
 31
0.0
  0
LINE
  5
77
330
1F
100
AcDbEntity
  8
1
  6
Continuous
 62
     4
100
AcDbLine
 10
112.527229357666
 20
18.6089445070235
 30
0.0
 11
112.527229357666
 21
19.2339445070235
 31
0.0
  0
LINE
  5
78
330
1F
100
AcDbEntity
  8
1
  6
Continuous
 62
     4
100
AcDbLine
 10
112.131179357666
 20
17.9839445070235
 30
0.0
 11
112.527229357666
 21
18.6089445070235
 31
0.0
  0
LINE
  5
79
330
1F
100
AcDbEntity
  8
1
  6
Continuous
 62
     4
100
AcDbLine
 10
111.240066857666
 20
17.9839445070235
 30
0.0
 11
112.131179357666
 21
17.9839445070235
 31
0.0
  0
LINE
  5
7A
330
1F
100
AcDbEntity
  8
1
  6
Continuous
 62
     4
100
AcDbLine
 10
110.745004357666
 20
18.8589445070235
 30
0.0
 11
111.240066857666
 21
17.9839445070235
 31
0.0
  0
LINE
  5
7B
330
1F
100
AcDbEntity
  8
1
  6
Continuous
 62
     4
100
AcDbLine
 10
110.745004357666
 20
21.9839445070235
 30
0.0
 11
110.745004357666
 21
18.8589445070235
 31
0.0
  0
LINE
  5
7C
330
1F
100
AcDbEntity
  8
1
  6
Continuous
 62
     4
100
AcDbLine
 10
109.457841857666
 20
17.9839445070235
 30
0.0
 11
109.457841857666
 21
21.9839445070235
 31
0.0
  0
LINE
  5
7D
330
1F
100
AcDbEntity
  8
1
  6
Continuous
 62
     4
100
AcDbLine
 10
107.477591857666
 20
18.2339445070235
 30
0.0
 11
106.784504357666
 21
17.6089445070235
 31
0.0
  0
LINE
  5
7E
330
1F
100
AcDbEntity
  8
1
  6
Continuous
 62
     4
100
AcDbLine
 10
107.873641857666
 20
18.8589445070235
 30
0.0
 11
107.477591857666
 21
18.2339445070235
 31
0.0
  0
LINE
  5
7F
330
1F
100
AcDbEntity
  8
1
  6
Continuous
 62
     4
100
AcDbLine
 10
108.170679357666
 20
19.8589445070235
 30
0.0
 11
107.873641857666
 21
18.8589445070235
 31
0.0
  0
LINE
  5
80
330
1F
100
AcDbEntity
  8
1
  6
Continuous
 62
     4
100
AcDbLine
 10
108.368704357666
 20
21.9839445070235
 30
0.0
 11
108.170679357666
 21
19.8589445070235
 31
0.0
  0
LINE
  5
81
330
1F
100
AcDbEntity
  8
1
  6
Continuous
 62
     4
100
AcDbLine
 10
110.546979357666
 20
25.1089445070235
 30
0.0
 11
111.438091857666
 21
22.9839445070235
 31
0.0
  0
LINE
  5
82
330
1F
100
AcDbEntity
  8
1
  6
Continuous
 62
     4
100
AcDbLine
 10
107.675616857666
 20
23.6089445070235
 30
0.0
 11
111.042041857666
 21
23.8589445070235
 31
0.0
  0
LINE
  5
83
330
1F
100
AcDbEntity
  8
1
  6
Continuous
 62
     4
100
AcDbLine
 10
109.457841857666
 20
26.1089445070235
 30
0.0
 11
108.566729357666
 21
23.6089445070235
 31
0.0
  0
LINE
  5
84
330
1F
100
AcDbEntity
  8
1
  6
Continuous
 62
     4
100
AcDbLine
 10
109.655866857666
 20
27.6089445070235
 30
0.0
 11
109.655866857666
 21
26.1089445070235
 31
0.0
  0
LINE
  5
85
330
1F
100
AcDbEntity
  8
1
  6
Continuous
 62
     4
100
AcDbLine
 10
107.279566857666
 20
26.1089445070235
 30
0.0
 11
109.457841857666
 21
26.1089445070235
 31
0.0
  0
LINE
  5
86
330
1F
100
AcDbEntity
  8
1
  6
Continuous
 62
     4
100
AcDbLine
 10
105.695366857666
 20
17.9839445070235
 30
0.0
 11
106.586479357666
 21
21.9839445070235
 31
0.0
  0
LINE
  5
87
330
1F
100
AcDbEntity
  8
1
  6
Continuous
 62
     4
100
AcDbLine
 10
105.497341857666
 20
24.4839445070235
 30
0.0
 11
106.190429357666
 21
23.6089445070235
 31
0.0
  0
LINE
  5
88
330
1F
100
AcDbEntity
  8
1
  6
Continuous
 62
     4
100
AcDbLine
 10
106.190429357666
 20
27.3589445070235
 30
0.0
 11
106.586479357666
 21
26.3589445070235
 31
0.0
  0
LINE
  5
89
330
1F
100
AcDbEntity
  8
1
  6
Continuous
 62
     4
100
AcDbLine
 10
16.98104633602395
 20
49.1942489865139
 30
0.0
 11
22.98104633602395
 21
49.1942489865139
 31
0.0
  0
LINE
  5
8A
330
1F
100
AcDbEntity
  8
1
  6
Continuous
 62
     4
100
AcDbLine
 10
22.48104633602395
 20
55.6942489865139
 30
0.0
 11
16.98104633602395
 21
49.1942489865139
 31
0.0
  0
LINE
  5
8B
330
1F
100
AcDbEntity
  8
1
  6
Continuous
 62
     4
100
AcDbLine
 10
22.98104633602395
 20
56.6942489865139
 30
0.0
 11
22.48104633602395
 21
55.6942489865139
 31
0.0
  0
LINE
  5
8C
330
1F
100
AcDbEntity
  8
1
  6
Continuous
 62
     4
100
AcDbLine
 10
22.98104633602395
 20
57.6942489865139
 30
0.0
 11
22.98104633602395
 21
56.6942489865139
 31
0.0
  0
LINE
  5
8D
330
1F
100
AcDbEntity
  8
1
  6
Continuous
 62
     4
100
AcDbLine
 10
22.48104633602395
 20
58.4442489865139
 30
0.0
 11
22.98104633602395
 21
57.6942489865139
 31
0.0
  0
LINE
  5
8E
330
1F
100
AcDbEntity
  8
1
  6
Continuous
 62
     4
100
AcDbLine
 10
21.73104633602395
 20
58.9442489865139
 30
0.0
 11
22.48104633602395
 21
58.4442489865139
 31
0.0
  0
LINE
  5
8F
330
1F
100
AcDbEntity
  8
1
  6
Continuous
 62
     4
100
AcDbLine
 10
20.73104633602395
 20
59.1942489865139
 30
0.0
 11
21.73104633602395
 21
58.9442489865139
 31
0.0
  0
LINE
  5
90
330
1F
100
AcDbEntity
  8
1
  6
Continuous
 62
     4
100
AcDbLine
 10
19.23104633602395
 20
59.1942489865139
 30
0.0
 11
20.73104633602395
 21
59.1942489865139
 31
0.0
  0
LINE
  5
91
330
1F
100
AcDbEntity
  8
1
  6
Continuous
 62
     4
100
AcDbLine
 10
18.23104633602395
 20
58.9442489865139
 30
0.0
 11
19.23104633602395
 21
59.1942489865139
 31
0.0
  0
LINE
  5
92
330
1F
100
AcDbEntity
  8
1
  6
Continuous
 62
     4
100
AcDbLine
 10
17.48104633602395
 20
58.4442489865139
 30
0.0
 11
18.23104633602395
 21
58.9442489865139
 31
0.0
  0
LINE
  5
93
330
1F
100
AcDbEntity
  8
1
  6
Continuous
 62
     4
100
AcDbLine
 10
16.98104633602395
 20
57.6942489865139
 30
0.0
 11
17.48104633602395
 21
58.4442489865139
 31
0.0
  0
LINE
  5
94
330
1F
100
AcDbEntity
  8
1
  6
Continuous
 62
     4
100
AcDbLine
 10
10.23104633602395
 20
49.1942489865139
 30
0.0
 11
13.98104633602395
 21
49.1942489865139
 31
0.0
  0
LINE
  5
95
330
1F
100
AcDbEntity
  8
1
  6
Continuous
 62
     4
100
AcDbLine
 10
9.23104633602395
 20
49.4442489865139
 30
0.0
 11
10.23104633602395
 21
49.1942489865139
 31
0.0
  0
LINE
  5
96
330
1F
100
AcDbEntity
  8
1
  6
Continuous
 62
     4
100
AcDbLine
 10
8.73104633602395
 20
49.6942489865139
 30
0.0
 11
9.23104633602395
 21
49.4442489865139
 31
0.0
  0
LINE
  5
97
330
1F
100
AcDbEntity
  8
1
  6
Continuous
 62
     4
100
AcDbLine
 10
8.23104633602395
 20
50.1942489865139
 30
0.0
 11
8.73104633602395
 21
49.6942489865139
 31
0.0
  0
LINE
  5
98
330
1F
100
AcDbEntity
  8
1
  6
Continuous
 62
     4
100
AcDbLine
 10
7.98104633602395
 20
51.1942489865139
 30
0.0
 11
8.23104633602395
 21
50.1942489865139
 31
0.0
  0
LINE
  5
99
330
1F
100
AcDbEntity
  8
1
  6
Continuous
 62
     4
100
AcDbLine
 10
7.98104633602395
 20
54.1942489865139
 30
0.0
 11
7.98104633602395
 21
51.1942489865139
 31
0.0
  0
LINE
  5
9A
330
1F
100
AcDbEntity
  8
1
  6
Continuous
 62
     4
100
AcDbLine
 10
8.23104633602395
 20
55.1942489865139
 30
0.0
 11
7.98104633602395
 21
54.1942489865139
 31
0.0
  0
LINE
  5
9B
330
1F
100
AcDbEntity
  8
1
  6
Continuous
 62
     4
100
AcDbLine
 10
8.73104633602395
 20
55.6942489865139
 30
0.0
 11
8.23104633602395
 21
55.1942489865139
 31
0.0
  0
LINE
  5
9C
330
1F
100
AcDbEntity
  8
1
  6
Continuous
 62
     4
100
AcDbLine
 10
9.23104633602395
 20
55.9442489865139
 30
0.0
 11
8.73104633602395
 21
55.6942489865139
 31
0.0
  0
LINE
  5
9D
330
1F
100
AcDbEntity
  8
1
  6
Continuous
 62
     4
100
AcDbLine
 10
10.23104633602395
 20
56.1942489865139
 30
0.0
 11
9.23104633602395
 21
55.9442489865139
 31
0.0
  0
LINE
  5
9E
330
1F
100
AcDbEntity
  8
1
  6
Continuous
 62
     4
100
AcDbLine
 10
13.98104633602395
 20
56.1942489865139
 30
0.0
 11
10.23104633602395
 21
56.1942489865139
 31
0.0
  0
LINE
  5
9F
330
1F
100
AcDbEntity
  8
1
  6
Continuous
 62
     4
100
AcDbLine
 10
-2.01895366397605
 20
49.1942489865139
 30
0.0
 11
-2.01895366397605
 21
54.1942489865139
 31
0.0
  0
LINE
  5
A0
330
1F
100
AcDbEntity
  8
1
  6
Continuous
 62
     4
100
AcDbLine
 10
1.98104633602395
 20
54.1942489865139
 30
0.0
 11
4.98104633602395
 21
49.1942489865139
 31
0.0
  0
LINE
  5
A1
330
1F
100
AcDbEntity
  8
1
  6
Continuous
 62
     4
100
AcDbLine
 10
2.73104633602395
 20
54.1942489865139
 30
0.0
 11
1.98104633602395
 21
54.1942489865139
 31
0.0
  0
LINE
  5
A2
330
1F
100
AcDbEntity
  8
1
  6
Continuous
 62
     4
100
AcDbLine
 10
3.73104633602395
 20
54.4442489865139
 30
0.0
 11
2.73104633602395
 21
54.1942489865139
 31
0.0
  0
LINE
  5
A3
330
1F
100
AcDbEntity
  8
1
  6
Continuous
 62
     4
100
AcDbLine
 10
4.48104633602395
 20
54.9442489865139
 30
0.0
 11
3.73104633602395
 21
54.4442489865139
 31
0.0
  0
LINE
  5
A4
330
1F
100
AcDbEntity
  8
1
  6
Continuous
 62
     4
100
AcDbLine
 10
4.73104633602395
 20
55.4442489865139
 30
0.0
 11
4.48104633602395
 21
54.9442489865139
 31
0.0
  0
LINE
  5
A5
330
1F
100
AcDbEntity
  8
1
  6
Continuous
 62
     4
100
AcDbLine
 10
4.98104633602395
 20
56.1942489865139
 30
0.0
 11
4.73104633602395
 21
55.4442489865139
 31
0.0
  0
LINE
  5
A6
330
1F
100
AcDbEntity
  8
1
  6
Continuous
 62
     4
100
AcDbLine
 10
4.98104633602395
 20
57.1942489865139
 30
0.0
 11
4.98104633602395
 21
56.1942489865139
 31
0.0
  0
LINE
  5
A7
330
1F
100
AcDbEntity
  8
1
  6
Continuous
 62
     4
100
AcDbLine
 10
4.73104633602395
 20
57.9442489865139
 30
0.0
 11
4.98104633602395
 21
57.1942489865139
 31
0.0
  0
LINE
  5
A8
330
1F
100
AcDbEntity
  8
1
  6
Continuous
 62
     4
100
AcDbLine
 10
4.48104633602395
 20
58.4442489865139
 30
0.0
 11
4.73104633602395
 21
57.9442489865139
 31
0.0
  0
LINE
  5
A9
330
1F
100
AcDbEntity
  8
1
  6
Continuous
 62
     4
100
AcDbLine
 10
3.73104633602395
 20
58.9442489865139
 30
0.0
 11
4.48104633602395
 21
58.4442489865139
 31
0.0
  0
LINE
  5
AA
330
1F
100
AcDbEntity
  8
1
  6
Continuous
 62
     4
100
AcDbLine
 10
2.73104633602395
 20
59.1942489865139
 30
0.0
 11
3.73104633602395
 21
58.9442489865139
 31
0.0
  0
LINE
  5
AB
330
1F
100
AcDbEntity
  8
1
  6
Continuous
 62
     4
100
AcDbLine
 10
-2.01895366397605
 20
59.1942489865139
 30
0.0
 11
2.73104633602395
 21
59.1942489865139
 31
0.0
  0
LINE
  5
AC
330
1F
100
AcDbEntity
  8
1
  6
Continuous
 62
     4
100
AcDbLine
 10
-2.01895366397605
 20
54.1942489865139
 30
0.0
 11
-2.01895366397605
 21
59.1942489865139
 31
0.0
  0
LINE
  5
AD
330
1F
100
AcDbEntity
  8
1
  6
Continuous
 62
     4
100
AcDbLine
 10
1.98104633602395
 20
54.1942489865139
 30
0.0
 11
-2.01895366397605
 21
54.1942489865139
 31
0.0
  0
LINE
  5
AE
330
1F
100
AcDbEntity
  8
1
  6
Continuous
 62
     4
100
AcDbLine
 10
233.805742707605
 20
48.7824688582552
 30
0.0
 11
239.805742707605
 21
48.7824688582552
 31
0.0
  0
LINE
  5
AF
330
1F
100
AcDbEntity
  8
1
  6
Continuous
 62
     4
100
AcDbLine
 10
239.305742707605
 20
55.2824688582552
 30
0.0
 11
233.805742707605
 21
48.7824688582552
 31
0.0
  0
LINE
  5
B0
330
1F
100
AcDbEntity
  8
1
  6
Continuous
 62
     4
100
AcDbLine
 10
239.805742707605
 20
56.2824688582552
 30
0.0
 11
239.305742707605
 21
55.2824688582552
 31
0.0
  0
LINE
  5
B1
330
1F
100
AcDbEntity
  8
1
  6
Continuous
 62
     4
100
AcDbLine
 10
239.805742707605
 20
57.2824688582552
 30
0.0
 11
239.805742707605
 21
56.2824688582552
 31
0.0
  0
LINE
  5
B2
330
1F
100
AcDbEntity
  8
1
  6
Continuous
 62
     4
100
AcDbLine
 10
239.305742707605
 20
58.0324688582552
 30
0.0
 11
239.805742707605
 21
57.2824688582552
 31
0.0
  0
LINE
  5
B3
330
1F
100
AcDbEntity
  8
1
  6
Continuous
 62
     4
100
AcDbLine
 10
238.555742707605
 20
58.5324688582552
 30
0.0
 11
239.305742707605
 21
58.0324688582552
 31
0.0
  0
LINE
  5
B4
330
1F
100
AcDbEntity
  8
1
  6
Continuous
 62
     4
100
AcDbLine
 10
237.555742707605
 20
58.7824688582552
 30
0.0
 11
238.555742707605
 21
58.5324688582552
 31
0.0
  0
LINE
  5
B5
330
1F
100
AcDbEntity
  8
1
  6
Continuous
 62
     4
100
AcDbLine
 10
236.055742707605
 20
58.7824688582552
 30
0.0
 11
237.555742707605
 21
58.7824688582552
 31
0.0
  0
LINE
  5
B6
330
1F
100
AcDbEntity
  8
1
  6
Continuous
 62
     4
100
AcDbLine
 10
235.055742707605
 20
58.5324688582552
 30
0.0
 11
236.055742707605
 21
58.7824688582552
 31
0.0
  0
LINE
  5
B7
330
1F
100
AcDbEntity
  8
1
  6
Continuous
 62
     4
100
AcDbLine
 10
234.305742707605
 20
58.0324688582552
 30
0.0
 11
235.055742707605
 21
58.5324688582552
 31
0.0
  0
LINE
  5
B8
330
1F
100
AcDbEntity
  8
1
  6
Continuous
 62
     4
100
AcDbLine
 10
233.805742707605
 20
57.2824688582552
 30
0.0
 11
234.305742707605
 21
58.0324688582552
 31
0.0
  0
LINE
  5
B9
330
1F
100
AcDbEntity
  8
1
  6
Continuous
 62
     4
100
AcDbLine
 10
227.055742707605
 20
48.7824688582552
 30
0.0
 11
230.805742707605
 21
48.7824688582552
 31
0.0
  0
LINE
  5
BA
330
1F
100
AcDbEntity
  8
1
  6
Continuous
 62
     4
100
AcDbLine
 10
226.055742707605
 20
49.0324688582552
 30
0.0
 11
227.055742707605
 21
48.7824688582552
 31
0.0
  0
LINE
  5
BB
330
1F
100
AcDbEntity
  8
1
  6
Continuous
 62
     4
100
AcDbLine
 10
225.555742707605
 20
49.2824688582552
 30
0.0
 11
226.055742707605
 21
49.0324688582552
 31
0.0
  0
LINE
  5
BC
330
1F
100
AcDbEntity
  8
1
  6
Continuous
 62
     4
100
AcDbLine
 10
225.055742707605
 20
49.7824688582552
 30
0.0
 11
225.555742707605
 21
49.2824688582552
 31
0.0
  0
LINE
  5
BD
330
1F
100
AcDbEntity
  8
1
  6
Continuous
 62
     4
100
AcDbLine
 10
224.805742707605
 20
50.7824688582552
 30
0.0
 11
225.055742707605
 21
49.7824688582552
 31
0.0
  0
LINE
  5
BE
330
1F
100
AcDbEntity
  8
1
  6
Continuous
 62
     4
100
AcDbLine
 10
224.805742707605
 20
53.7824688582552
 30
0.0
 11
224.805742707605
 21
50.7824688582552
 31
0.0
  0
LINE
  5
BF
330
1F
100
AcDbEntity
  8
1
  6
Continuous
 62
     4
100
AcDbLine
 10
225.055742707605
 20
54.7824688582552
 30
0.0
 11
224.805742707605
 21
53.7824688582552
 31
0.0
  0
LINE
  5
C0
330
1F
100
AcDbEntity
  8
1
  6
Continuous
 62
     4
100
AcDbLine
 10
225.555742707605
 20
55.2824688582552
 30
0.0
 11
225.055742707605
 21
54.7824688582552
 31
0.0
  0
LINE
  5
C1
330
1F
100
AcDbEntity
  8
1
  6
Continuous
 62
     4
100
AcDbLine
 10
226.055742707605
 20
55.5324688582552
 30
0.0
 11
225.555742707605
 21
55.2824688582552
 31
0.0
  0
LINE
  5
C2
330
1F
100
AcDbEntity
  8
1
  6
Continuous
 62
     4
100
AcDbLine
 10
227.055742707605
 20
55.7824688582552
 30
0.0
 11
226.055742707605
 21
55.5324688582552
 31
0.0
  0
LINE
  5
C3
330
1F
100
AcDbEntity
  8
1
  6
Continuous
 62
     4
100
AcDbLine
 10
230.805742707605
 20
55.7824688582552
 30
0.0
 11
227.055742707605
 21
55.7824688582552
 31
0.0
  0
LINE
  5
C4
330
1F
100
AcDbEntity
  8
1
  6
Continuous
 62
     4
100
AcDbLine
 10
214.805742707605
 20
48.7824688582552
 30
0.0
 11
214.805742707605
 21
53.7824688582552
 31
0.0
  0
LINE
  5
C5
330
1F
100
AcDbEntity
  8
1
  6
Continuous
 62
     4
100
AcDbLine
 10
218.805742707605
 20
53.7824688582552
 30
0.0
 11
221.805742707605
 21
48.7824688582552
 31
0.0
  0
LINE
  5
C6
330
1F
100
AcDbEntity
  8
1
  6
Continuous
 62
     4
100
AcDbLine
 10
219.555742707605
 20
53.7824688582552
 30
0.0
 11
218.805742707605
 21
53.7824688582552
 31
0.0
  0
LINE
  5
C7
330
1F
100
AcDbEntity
  8
1
  6
Continuous
 62
     4
100
AcDbLine
 10
220.555742707605
 20
54.0324688582552
 30
0.0
 11
219.555742707605
 21
53.7824688582552
 31
0.0
  0
LINE
  5
C8
330
1F
100
AcDbEntity
  8
1
  6
Continuous
 62
     4
100
AcDbLine
 10
221.305742707605
 20
54.5324688582552
 30
0.0
 11
220.555742707605
 21
54.0324688582552
 31
0.0
  0
LINE
  5
C9
330
1F
100
AcDbEntity
  8
1
  6
Continuous
 62
     4
100
AcDbLine
 10
221.555742707605
 20
55.0324688582552
 30
0.0
 11
221.305742707605
 21
54.5324688582552
 31
0.0
  0
LINE
  5
CA
330
1F
100
AcDbEntity
  8
1
  6
Continuous
 62
     4
100
AcDbLine
 10
221.805742707605
 20
55.7824688582552
 30
0.0
 11
221.555742707605
 21
55.0324688582552
 31
0.0
  0
LINE
  5
CB
330
1F
100
AcDbEntity
  8
1
  6
Continuous
 62
     4
100
AcDbLine
 10
221.805742707605
 20
56.7824688582552
 30
0.0
 11
221.805742707605
 21
55.7824688582552
 31
0.0
  0
LINE
  5
CC
330
1F
100
AcDbEntity
  8
1
  6
Continuous
 62
     4
100
AcDbLine
 10
221.555742707605
 20
57.5324688582552
 30
0.0
 11
221.805742707605
 21
56.7824688582552
 31
0.0
  0
LINE
  5
CD
330
1F
100
AcDbEntity
  8
1
  6
Continuous
 62
     4
100
AcDbLine
 10
221.305742707605
 20
58.0324688582552
 30
0.0
 11
221.555742707605
 21
57.5324688582552
 31
0.0
  0
LINE
  5
CE
330
1F
100
AcDbEntity
  8
1
  6
Continuous
 62
     4
100
AcDbLine
 10
220.555742707605
 20
58.5324688582552
 30
0.0
 11
221.305742707605
 21
58.0324688582552
 31
0.0
  0
LINE
  5
CF
330
1F
100
AcDbEntity
  8
1
  6
Continuous
 62
     4
100
AcDbLine
 10
219.555742707605
 20
58.7824688582552
 30
0.0
 11
220.555742707605
 21
58.5324688582552
 31
0.0
  0
LINE
  5
D0
330
1F
100
AcDbEntity
  8
1
  6
Continuous
 62
     4
100
AcDbLine
 10
214.805742707605
 20
58.7824688582552
 30
0.0
 11
219.555742707605
 21
58.7824688582552
 31
0.0
  0
LINE
  5
D1
330
1F
100
AcDbEntity
  8
1
  6
Continuous
 62
     4
100
AcDbLine
 10
214.805742707605
 20
53.7824688582552
 30
0.0
 11
214.805742707605
 21
58.7824688582552
 31
0.0
  0
LINE
  5
D2
330
1F
100
AcDbEntity
  8
1
  6
Continuous
 62
     4
100
AcDbLine
 10
218.805742707605
 20
53.7824688582552
 30
0.0
 11
214.805742707605
 21
53.7824688582552
 31
0.0
  0
LINE
  5
D3
330
1F
100
AcDbEntity
  8
1
  6
Continuous
 62
     4
100
AcDbLine
 10
312.773292660736
 20
302.484104072914
 30
0.0
 11
312.773292660736
 21
299.984104072914
 31
0.0
  0
LINE
  5
D4
330
1F
100
AcDbEntity
  8
1
  6
Continuous
 62
     4
100
AcDbLine
 10
312.523292660736
 20
303.984104072914
 30
0.0
 11
312.773292660736
 21
302.484104072914
 31
0.0
  0
LINE
  5
D5
330
1F
100
AcDbEntity
  8
1
  6
Continuous
 62
     4
100
AcDbLine
 10
312.023292660736
 20
304.984104072914
 30
0.0
 11
312.523292660736
 21
303.984104072914
 31
0.0
  0
LINE
  5
D6
330
1F
100
AcDbEntity
  8
1
  6
Continuous
 62
     4
100
AcDbLine
 10
311.523292660736
 20
305.484104072914
 30
0.0
 11
312.023292660736
 21
304.984104072914
 31
0.0
  0
LINE
  5
D7
330
1F
100
AcDbEntity
  8
1
  6
Continuous
 62
     4
100
AcDbLine
 10
310.773292660736
 20
305.984104072914
 30
0.0
 11
311.523292660736
 21
305.484104072914
 31
0.0
  0
LINE
  5
D8
330
1F
100
AcDbEntity
  8
1
  6
Continuous
 62
     4
100
AcDbLine
 10
310.023292660736
 20
306.234104072914
 30
0.0
 11
310.773292660736
 21
305.984104072914
 31
0.0
  0
LINE
  5
D9
330
1F
100
AcDbEntity
  8
1
  6
Continuous
 62
     4
100
AcDbLine
 10
309.523292660736
 20
306.234104072914
 30
0.0
 11
310.023292660736
 21
306.234104072914
 31
0.0
  0
LINE
  5
DA
330
1F
100
AcDbEntity
  8
1
  6
Continuous
 62
     4
100
AcDbLine
 10
308.773292660736
 20
305.984104072914
 30
0.0
 11
309.523292660736
 21
306.234104072914
 31
0.0
  0
LINE
  5
DB
330
1F
100
AcDbEntity
  8
1
  6
Continuous
 62
     4
100
AcDbLine
 10
308.023292660736
 20
305.484104072914
 30
0.0
 11
308.773292660736
 21
305.984104072914
 31
0.0
  0
LINE
  5
DC
330
1F
100
AcDbEntity
  8
1
  6
Continuous
 62
     4
100
AcDbLine
 10
307.523292660736
 20
304.984104072914
 30
0.0
 11
308.023292660736
 21
305.484104072914
 31
0.0
  0
LINE
  5
DD
330
1F
100
AcDbEntity
  8
1
  6
Continuous
 62
     4
100
AcDbLine
 10
307.023292660736
 20
303.984104072914
 30
0.0
 11
307.523292660736
 21
304.984104072914
 31
0.0
  0
LINE
  5
DE
330
1F
100
AcDbEntity
  8
1
  6
Continuous
 62
     4
100
AcDbLine
 10
306.773292660736
 20
302.484104072914
 30
0.0
 11
307.023292660736
 21
303.984104072914
 31
0.0
  0
LINE
  5
DF
330
1F
100
AcDbEntity
  8
1
  6
Continuous
 62
     4
100
AcDbLine
 10
306.773292660736
 20
299.984104072914
 30
0.0
 11
306.773292660736
 21
302.484104072914
 31
0.0
  0
LINE
  5
E0
330
1F
100
AcDbEntity
  8
1
  6
Continuous
 62
     4
100
AcDbLine
 10
307.023292660736
 20
298.484104072914
 30
0.0
 11
306.773292660736
 21
299.984104072914
 31
0.0
  0
LINE
  5
E1
330
1F
100
AcDbEntity
  8
1
  6
Continuous
 62
     4
100
AcDbLine
 10
307.523292660736
 20
297.484104072914
 30
0.0
 11
307.023292660736
 21
298.484104072914
 31
0.0
  0
LINE
  5
E2
330
1F
100
AcDbEntity
  8
1
  6
Continuous
 62
     4
100
AcDbLine
 10
308.023292660736
 20
296.984104072914
 30
0.0
 11
307.523292660736
 21
297.484104072914
 31
0.0
  0
LINE
  5
E3
330
1F
100
AcDbEntity
  8
1
  6
Continuous
 62
     4
100
AcDbLine
 10
308.773292660736
 20
296.484104072914
 30
0.0
 11
308.023292660736
 21
296.984104072914
 31
0.0
  0
LINE
  5
E4
330
1F
100
AcDbEntity
  8
1
  6
Continuous
 62
     4
100
AcDbLine
 10
309.523292660736
 20
296.234104072914
 30
0.0
 11
308.773292660736
 21
296.484104072914
 31
0.0
  0
LINE
  5
E5
330
1F
100
AcDbEntity
  8
1
  6
Continuous
 62
     4
100
AcDbLine
 10
310.023292660736
 20
296.234104072914
 30
0.0
 11
309.523292660736
 21
296.234104072914
 31
0.0
  0
LINE
  5
E6
330
1F
100
AcDbEntity
  8
1
  6
Continuous
 62
     4
100
AcDbLine
 10
310.773292660736
 20
296.484104072914
 30
0.0
 11
310.023292660736
 21
296.234104072914
 31
0.0
  0
LINE
  5
E7
330
1F
100
AcDbEntity
  8
1
  6
Continuous
 62
     4
100
AcDbLine
 10
311.523292660736
 20
296.984104072914
 30
0.0
 11
310.773292660736
 21
296.484104072914
 31
0.0
  0
LINE
  5
E8
330
1F
100
AcDbEntity
  8
1
  6
Continuous
 62
     4
100
AcDbLine
 10
312.023292660736
 20
297.484104072914
 30
0.0
 11
311.523292660736
 21
296.984104072914
 31
0.0
  0
LINE
  5
E9
330
1F
100
AcDbEntity
  8
1
  6
Continuous
 62
     4
100
AcDbLine
 10
312.523292660736
 20
298.484104072914
 30
0.0
 11
312.023292660736
 21
297.484104072914
 31
0.0
  0
LINE
  5
EA
330
1F
100
AcDbEntity
  8
1
  6
Continuous
 62
     4
100
AcDbLine
 10
312.773292660736
 20
299.984104072914
 30
0.0
 11
312.523292660736
 21
298.484104072914
 31
0.0
  0
LINE
  5
EB
330
1F
100
AcDbEntity
  8
1
  6
Continuous
 62
     4
100
AcDbLine
 10
301.523292660736
 20
296.234104072914
 30
0.0
 11
297.773292660736
 21
296.234104072914
 31
0.0
  0
LINE
  5
EC
330
1F
100
AcDbEntity
  8
1
  6
Continuous
 62
     4
100
AcDbLine
 10
302.273292660736
 20
296.484104072914
 30
0.0
 11
301.523292660736
 21
296.234104072914
 31
0.0
  0
LINE
  5
ED
330
1F
100
AcDbEntity
  8
1
  6
Continuous
 62
     4
100
AcDbLine
 10
303.023292660736
 20
296.984104072914
 30
0.0
 11
302.273292660736
 21
296.484104072914
 31
0.0
  0
LINE
  5
EE
330
1F
100
AcDbEntity
  8
1
  6
Continuous
 62
     4
100
AcDbLine
 10
303.523292660736
 20
297.734104072914
 30
0.0
 11
303.023292660736
 21
296.984104072914
 31
0.0
  0
LINE
  5
EF
330
1F
100
AcDbEntity
  8
1
  6
Continuous
 62
     4
100
AcDbLine
 10
303.773292660736
 20
298.734104072914
 30
0.0
 11
303.523292660736
 21
297.734104072914
 31
0.0
  0
LINE
  5
F0
330
1F
100
AcDbEntity
  8
1
  6
Continuous
 62
     4
100
AcDbLine
 10
303.773292660736
 20
300.234104072914
 30
0.0
 11
303.773292660736
 21
298.734104072914
 31
0.0
  0
LINE
  5
F1
330
1F
100
AcDbEntity
  8
1
  6
Continuous
 62
     4
100
AcDbLine
 10
303.523292660736
 20
301.234104072914
 30
0.0
 11
303.773292660736
 21
300.234104072914
 31
0.0
  0
LINE
  5
F2
330
1F
100
AcDbEntity
  8
1
  6
Continuous
 62
     4
100
AcDbLine
 10
302.773292660736
 20
301.984104072914
 30
0.0
 11
303.523292660736
 21
301.234104072914
 31
0.0
  0
LINE
  5
F3
330
1F
100
AcDbEntity
  8
1
  6
Continuous
 62
     4
100
AcDbLine
 10
301.523292660736
 20
302.234104072914
 30
0.0
 11
302.773292660736
 21
301.984104072914
 31
0.0
  0
LINE
  5
F4
330
1F
100
AcDbEntity
  8
1
  6
Continuous
 62
     4
100
AcDbLine
 10
297.773292660736
 20
302.234104072914
 30
0.0
 11
301.523292660736
 21
302.234104072914
 31
0.0
  0
LINE
  5
F5
330
1F
100
AcDbEntity
  8
1
  6
Continuous
 62
     4
100
AcDbLine
 10
297.773292660736
 20
306.234104072914
 30
0.0
 11
297.773292660736
 21
302.234104072914
 31
0.0
  0
LINE
  5
F6
330
1F
100
AcDbEntity
  8
1
  6
Continuous
 62
     4
100
AcDbLine
 10
303.273292660736
 20
306.234104072914
 30
0.0
 11
297.773292660736
 21
306.234104072914
 31
0.0
  0
LINE
  5
F7
330
1F
100
AcDbEntity
  8
1
  6
Continuous
 62
     4
100
AcDbLine
 10
289.773292660736
 20
299.734104072914
 30
0.0
 11
294.773292660736
 21
299.734104072914
 31
0.0
  0
LINE
  5
F8
330
1F
100
AcDbEntity
  8
1
  6
Continuous
 62
     4
100
AcDbLine
 10
280.273292660736
 20
301.734104072914
 30
0.0
 11
280.273292660736
 21
306.234104072914
 31
0.0
  0
LINE
  5
F9
330
1F
100
AcDbEntity
  8
1
  6
Continuous
 62
     4
100
AcDbLine
 10
285.023292660736
 20
301.984104072914
 30
0.0
 11
284.273292660736
 21
301.734104072914
 31
0.0
  0
LINE
  5
FA
330
1F
100
AcDbEntity
  8
1
  6
Continuous
 62
     4
100
AcDbLine
 10
285.773292660736
 20
302.484104072914
 30
0.0
 11
285.023292660736
 21
301.984104072914
 31
0.0
  0
LINE
  5
FB
330
1F
100
AcDbEntity
  8
1
  6
Continuous
 62
     4
100
AcDbLine
 10
286.273292660736
 20
303.484104072914
 30
0.0
 11
285.773292660736
 21
302.484104072914
 31
0.0
  0
LINE
  5
FC
330
1F
100
AcDbEntity
  8
1
  6
Continuous
 62
     4
100
AcDbLine
 10
286.273292660736
 20
304.234104072914
 30
0.0
 11
286.273292660736
 21
303.484104072914
 31
0.0
  0
LINE
  5
FD
330
1F
100
AcDbEntity
  8
1
  6
Continuous
 62
     4
100
AcDbLine
 10
286.023292660736
 20
305.234104072914
 30
0.0
 11
286.273292660736
 21
304.234104072914
 31
0.0
  0
LINE
  5
FE
330
1F
100
AcDbEntity
  8
1
  6
Continuous
 62
     4
100
AcDbLine
 10
285.273292660736
 20
305.984104072914
 30
0.0
 11
286.023292660736
 21
305.234104072914
 31
0.0
  0
LINE
  5
FF
330
1F
100
AcDbEntity
  8
1
  6
Continuous
 62
     4
100
AcDbLine
 10
284.023292660736
 20
306.234104072914
 30
0.0
 11
285.273292660736
 21
305.984104072914
 31
0.0
  0
LINE
  5
100
330
1F
100
AcDbEntity
  8
1
  6
Continuous
 62
     4
100
AcDbLine
 10
280.273292660736
 20
306.234104072914
 30
0.0
 11
284.023292660736
 21
306.234104072914
 31
0.0
  0
LINE
  5
101
330
1F
100
AcDbEntity
  8
1
  6
Continuous
 62
     4
100
AcDbLine
 10
280.273292660736
 20
296.234104072914
 30
0.0
 11
280.273292660736
 21
301.734104072914
 31
0.0
  0
LINE
  5
102
330
1F
100
AcDbEntity
  8
1
  6
Continuous
 62
     4
100
AcDbLine
 10
284.773292660736
 20
296.234104072914
 30
0.0
 11
280.273292660736
 21
296.234104072914
 31
0.0
  0
LINE
  5
103
330
1F
100
AcDbEntity
  8
1
  6
Continuous
 62
     4
100
AcDbLine
 10
285.773292660736
 20
296.734104072914
 30
0.0
 11
284.773292660736
 21
296.234104072914
 31
0.0
  0
LINE
  5
104
330
1F
100
AcDbEntity
  8
1
  6
Continuous
 62
     4
100
AcDbLine
 10
286.273292660736
 20
297.234104072914
 30
0.0
 11
285.773292660736
 21
296.734104072914
 31
0.0
  0
LINE
  5
105
330
1F
100
AcDbEntity
  8
1
  6
Continuous
 62
     4
100
AcDbLine
 10
286.773292660736
 20
298.234104072914
 30
0.0
 11
286.273292660736
 21
297.234104072914
 31
0.0
  0
LINE
  5
106
330
1F
100
AcDbEntity
  8
1
  6
Continuous
 62
     4
100
AcDbLine
 10
286.773292660736
 20
299.484104072914
 30
0.0
 11
286.773292660736
 21
298.234104072914
 31
0.0
  0
LINE
  5
107
330
1F
100
AcDbEntity
  8
1
  6
Continuous
 62
     4
100
AcDbLine
 10
286.273292660736
 20
300.734104072914
 30
0.0
 11
286.773292660736
 21
299.484104072914
 31
0.0
  0
LINE
  5
108
330
1F
100
AcDbEntity
  8
1
  6
Continuous
 62
     4
100
AcDbLine
 10
285.773292660736
 20
301.234104072914
 30
0.0
 11
286.273292660736
 21
300.734104072914
 31
0.0
  0
LINE
  5
109
330
1F
100
AcDbEntity
  8
1
  6
Continuous
 62
     4
100
AcDbLine
 10
284.773292660736
 20
301.734104072914
 30
0.0
 11
285.773292660736
 21
301.234104072914
 31
0.0
  0
LINE
  5
10A
330
1F
100
AcDbEntity
  8
1
  6
Continuous
 62
     4
100
AcDbLine
 10
284.273292660736
 20
301.734104072914
 30
0.0
 11
284.773292660736
 21
301.734104072914
 31
0.0
  0
LINE
  5
10B
330
1F
100
AcDbEntity
  8
1
  6
Continuous
 62
     4
100
AcDbLine
 10
280.273292660736
 20
301.734104072914
 30
0.0
 11
284.273292660736
 21
301.734104072914
 31
0.0
  0
LINE
  5
10C
330
1F
100
AcDbEntity
  8
1
  6
Continuous
 62
     4
100
AcDbLine
 10
272.273292660736
 20
299.734104072914
 30
0.0
 11
277.273292660736
 21
299.734104072914
 31
0.0
  0
LINE
  5
10D
330
1F
100
AcDbEntity
  8
1
  6
Continuous
 62
     4
100
AcDbLine
 10
262.273292660736
 20
299.234104072914
 30
0.0
 11
262.273292660736
 21
306.234104072914
 31
0.0
  0
LINE
  5
10E
330
1F
100
AcDbEntity
  8
1
  6
Continuous
 62
     4
100
AcDbLine
 10
262.273292660736
 20
296.234104072914
 30
0.0
 11
262.273292660736
 21
299.234104072914
 31
0.0
  0
LINE
  5
10F
330
1F
100
AcDbEntity
  8
1
  6
Continuous
 62
     4
100
AcDbLine
 10
264.273292660736
 20
301.234104072914
 30
0.0
 11
269.273292660736
 21
296.234104072914
 31
0.0
  0
LINE
  5
110
330
1F
100
AcDbEntity
  8
1
  6
Continuous
 62
     4
100
AcDbLine
 10
269.273292660736
 20
306.234104072914
 30
0.0
 11
264.273292660736
 21
301.234104072914
 31
0.0
  0
LINE
  5
111
330
1F
100
AcDbEntity
  8
1
  6
Continuous
 62
     4
100
AcDbLine
 10
264.273292660736
 20
301.234104072914
 30
0.0
 11
262.273292660736
 21
299.234104072914
 31
0.0
  0
LINE
  5
112
330
1F
100
AcDbEntity
  8
1
  6
Continuous
 62
     4
100
AcDbLine
 10
255.773292660736
 20
306.234104072914
 30
0.0
 11
255.773292660736
 21
296.234104072914
 31
0.0
  0
LINE
  5
113
330
1F
100
AcDbEntity
  8
1
  6
Continuous
 62
     4
100
AcDbLine
 10
252.273292660736
 20
306.234104072914
 30
0.0
 11
255.773292660736
 21
306.234104072914
 31
0.0
  0
LINE
  5
114
330
1F
100
AcDbEntity
  8
1
  6
Continuous
 62
     4
100
AcDbLine
 10
255.773292660736
 20
306.234104072914
 30
0.0
 11
259.273292660736
 21
306.234104072914
 31
0.0
  0
LINE
  5
115
330
1F
100
AcDbEntity
  8
1
  6
Continuous
 62
     3
100
AcDbLine
 10
126.1165459616148
 20
82.7254486083984
 30
0.0
 11
126.1165459616148
 21
80.2254486083984
 31
0.0
  0
LINE
  5
116
330
1F
100
AcDbEntity
  8
1
  6
Continuous
 62
     3
100
AcDbLine
 10
125.9155225698019
 20
84.2254486083984
 30
0.0
 11
126.1165459616148
 21
82.7254486083984
 31
0.0
  0
LINE
  5
117
330
1F
100
AcDbEntity
  8
1
  6
Continuous
 62
     3
100
AcDbLine
 10
125.5134757861762
 20
85.2254486083984
 30
0.0
 11
125.9155225698019
 21
84.2254486083984
 31
0.0
  0
LINE
  5
118
330
1F
100
AcDbEntity
  8
1
  6
Continuous
 62
     3
100
AcDbLine
 10
125.1114290025505
 20
85.7254486083984
 30
0.0
 11
125.5134757861762
 21
85.2254486083984
 31
0.0
  0
LINE
  5
119
330
1F
100
AcDbEntity
  8
1
  6
Continuous
 62
     3
100
AcDbLine
 10
124.5083588271119
 20
86.2254486083984
 30
0.0
 11
125.1114290025505
 21
85.7254486083984
 31
0.0
  0
LINE
  5
11A
330
1F
100
AcDbEntity
  8
1
  6
Continuous
 62
     3
100
AcDbLine
 10
123.9052886516733
 20
86.4754486083984
 30
0.0
 11
124.5083588271119
 21
86.2254486083984
 31
0.0
  0
LINE
  5
11B
330
1F
100
AcDbEntity
  8
1
  6
Continuous
 62
     3
100
AcDbLine
 10
123.5032418680475
 20
86.4754486083984
 30
0.0
 11
123.9052886516733
 21
86.4754486083984
 31
0.0
  0
LINE
  5
11C
330
1F
100
AcDbEntity
  8
1
  6
Continuous
 62
     3
100
AcDbLine
 10
122.9001716926089
 20
86.2254486083984
 30
0.0
 11
123.5032418680475
 21
86.4754486083984
 31
0.0
  0
LINE
  5
11D
330
1F
100
AcDbEntity
  8
1
  6
Continuous
 62
     3
100
AcDbLine
 10
122.2971015171703
 20
85.7254486083984
 30
0.0
 11
122.9001716926089
 21
86.2254486083984
 31
0.0
  0
LINE
  5
11E
330
1F
100
AcDbEntity
  8
1
  6
Continuous
 62
     3
100
AcDbLine
 10
121.8950547335446
 20
85.2254486083984
 30
0.0
 11
122.2971015171703
 21
85.7254486083984
 31
0.0
  0
LINE
  5
11F
330
1F
100
AcDbEntity
  8
1
  6
Continuous
 62
     3
100
AcDbLine
 10
121.4930079499189
 20
84.2254486083984
 30
0.0
 11
121.8950547335446
 21
85.2254486083984
 31
0.0
  0
LINE
  5
120
330
1F
100
AcDbEntity
  8
1
  6
Continuous
 62
     3
100
AcDbLine
 10
121.291984558106
 20
82.7254486083984
 30
0.0
 11
121.4930079499189
 21
84.2254486083984
 31
0.0
  0
LINE
  5
121
330
1F
100
AcDbEntity
  8
1
  6
Continuous
 62
     3
100
AcDbLine
 10
121.291984558106
 20
80.2254486083984
 30
0.0
 11
121.291984558106
 21
82.7254486083984
 31
0.0
  0
LINE
  5
122
330
1F
100
AcDbEntity
  8
1
  6
Continuous
 62
     3
100
AcDbLine
 10
121.4930079499189
 20
78.7254486083984
 30
0.0
 11
121.291984558106
 21
80.2254486083984
 31
0.0
  0
LINE
  5
123
330
1F
100
AcDbEntity
  8
1
  6
Continuous
 62
     3
100
AcDbLine
 10
121.8950547335446
 20
77.7254486083984
 30
0.0
 11
121.4930079499189
 21
78.7254486083984
 31
0.0
  0
LINE
  5
124
330
1F
100
AcDbEntity
  8
1
  6
Continuous
 62
     3
100
AcDbLine
 10
122.2971015171703
 20
77.2254486083984
 30
0.0
 11
121.8950547335446
 21
77.7254486083984
 31
0.0
  0
LINE
  5
125
330
1F
100
AcDbEntity
  8
1
  6
Continuous
 62
     3
100
AcDbLine
 10
122.9001716926089
 20
76.7254486083984
 30
0.0
 11
122.2971015171703
 21
77.2254486083984
 31
0.0
  0
LINE
  5
126
330
1F
100
AcDbEntity
  8
1
  6
Continuous
 62
     3
100
AcDbLine
 10
123.5032418680475
 20
76.4754486083984
 30
0.0
 11
122.9001716926089
 21
76.7254486083984
 31
0.0
  0
LINE
  5
127
330
1F
100
AcDbEntity
  8
1
  6
Continuous
 62
     3
100
AcDbLine
 10
123.9052886516733
 20
76.4754486083984
 30
0.0
 11
123.5032418680475
 21
76.4754486083984
 31
0.0
  0
LINE
  5
128
330
1F
100
AcDbEntity
  8
1
  6
Continuous
 62
     3
100
AcDbLine
 10
124.5083588271119
 20
76.7254486083984
 30
0.0
 11
123.9052886516733
 21
76.4754486083984
 31
0.0
  0
LINE
  5
129
330
1F
100
AcDbEntity
  8
1
  6
Continuous
 62
     3
100
AcDbLine
 10
125.1114290025505
 20
77.2254486083984
 30
0.0
 11
124.5083588271119
 21
76.7254486083984
 31
0.0
  0
LINE
  5
12A
330
1F
100
AcDbEntity
  8
1
  6
Continuous
 62
     3
100
AcDbLine
 10
125.5134757861762
 20
77.7254486083984
 30
0.0
 11
125.1114290025505
 21
77.2254486083984
 31
0.0
  0
LINE
  5
12B
330
1F
100
AcDbEntity
  8
1
  6
Continuous
 62
     3
100
AcDbLine
 10
125.9155225698019
 20
78.7254486083984
 30
0.0
 11
125.5134757861762
 21
77.7254486083984
 31
0.0
  0
LINE
  5
12C
330
1F
100
AcDbEntity
  8
1
  6
Continuous
 62
     3
100
AcDbLine
 10
126.1165459616148
 20
80.2254486083984
 30
0.0
 11
125.9155225698019
 21
78.7254486083984
 31
0.0
  0
LINE
  5
12D
330
1F
100
AcDbEntity
  8
1
  6
Continuous
 62
     3
100
AcDbLine
 10
117.432335435299
 20
76.4754486083984
 30
0.0
 11
114.416984558106
 21
76.4754486083984
 31
0.0
  0
LINE
  5
12E
330
1F
100
AcDbEntity
  8
1
  6
Continuous
 62
     3
100
AcDbLine
 10
118.0354056107376
 20
76.7254486083984
 30
0.0
 11
117.432335435299
 21
76.4754486083984
 31
0.0
  0
LINE
  5
12F
330
1F
100
AcDbEntity
  8
1
  6
Continuous
 62
     3
100
AcDbLine
 10
118.6384757861762
 20
77.2254486083984
 30
0.0
 11
118.0354056107376
 21
76.7254486083984
 31
0.0
  0
LINE
  5
130
330
1F
100
AcDbEntity
  8
1
  6
Continuous
 62
     3
100
AcDbLine
 10
119.0405225698019
 20
77.9754486083984
 30
0.0
 11
118.6384757861762
 21
77.2254486083984
 31
0.0
  0
LINE
  5
131
330
1F
100
AcDbEntity
  8
1
  6
Continuous
 62
     3
100
AcDbLine
 10
119.2415459616148
 20
78.9754486083984
 30
0.0
 11
119.0405225698019
 21
77.9754486083984
 31
0.0
  0
LINE
  5
132
330
1F
100
AcDbEntity
  8
1
  6
Continuous
 62
     3
100
AcDbLine
 10
119.2415459616148
 20
80.4754486083984
 30
0.0
 11
119.2415459616148
 21
78.9754486083984
 31
0.0
  0
LINE
  5
133
330
1F
100
AcDbEntity
  8
1
  6
Continuous
 62
     3
100
AcDbLine
 10
119.0405225698019
 20
81.4754486083984
 30
0.0
 11
119.2415459616148
 21
80.4754486083984
 31
0.0
  0
LINE
  5
134
330
1F
100
AcDbEntity
  8
1
  6
Continuous
 62
     3
100
AcDbLine
 10
118.4374523943633
 20
82.2254486083984
 30
0.0
 11
119.0405225698019
 21
81.4754486083984
 31
0.0
  0
LINE
  5
135
330
1F
100
AcDbEntity
  8
1
  6
Continuous
 62
     3
100
AcDbLine
 10
117.432335435299
 20
82.4754486083984
 30
0.0
 11
118.4374523943633
 21
82.2254486083984
 31
0.0
  0
LINE
  5
136
330
1F
100
AcDbEntity
  8
1
  6
Continuous
 62
     3
100
AcDbLine
 10
114.416984558106
 20
82.4754486083984
 30
0.0
 11
117.432335435299
 21
82.4754486083984
 31
0.0
  0
LINE
  5
137
330
1F
100
AcDbEntity
  8
1
  6
Continuous
 62
     3
100
AcDbLine
 10
114.416984558106
 20
86.4754486083984
 30
0.0
 11
114.416984558106
 21
82.4754486083984
 31
0.0
  0
LINE
  5
138
330
1F
100
AcDbEntity
  8
1
  6
Continuous
 62
     3
100
AcDbLine
 10
118.8394991779891
 20
86.4754486083984
 30
0.0
 11
114.416984558106
 21
86.4754486083984
 31
0.0
  0
LINE
  5
157
330
1F
100
AcDbEntity
  8
100
  6
Continuous
 62
     3
100
AcDbLine
 10
76.8109746670838
 20
303.119854885594
 30
0.0
 11
52.5
 21
303.119854885594
 31
0.0
  0
LINE
  5
158
330
1F
100
AcDbEntity
  8
100
  6
Continuous
 62
     3
100
AcDbLine
 10
163.189025332916
 20
303.119854885594
 30
0.0
 11
187.5
 21
303.119854885594
 31
0.0
  0
LINE
  5
159
330
1F
100
AcDbEntity
  8
100
  6
Continuous
 62
     3
100
AcDbLine
 10
52.5
 20
340.119854885594
 30
0.0
 11
76.8109746670838
 21
340.119854885594
 31
0.0
  0
LINE
  5
15A
330
1F
100
AcDbEntity
  8
100
  6
Continuous
 62
     3
100
AcDbLine
 10
90.0834493966968
 20
339.119854885594
 30
0.0
 11
79.8109746670838
 21
339.119854885594
 31
0.0
  0
LINE
  5
15B
330
1F
100
AcDbEntity
  8
100
  6
Continuous
 62
     3
100
AcDbLine
 10
187.5
 20
340.119854885594
 30
0.0
 11
163.189025332916
 21
340.119854885594
 31
0.0
  0
LINE
  5
15C
330
1F
100
AcDbEntity
  8
100
  6
Continuous
 62
     3
100
AcDbLine
 10
149.916550603303
 20
339.119854885594
 30
0.0
 11
160.189025332916
 21
339.119854885594
 31
0.0
  0
LINE
  5
15D
330
1F
100
AcDbEntity
  8
100
  6
Continuous
 62
     3
100
AcDbLine
 10
52.5
 20
266.119854885594
 30
0.0
 11
52.5
 21
340.119854885594
 31
0.0
  0
LINE
  5
15E
330
1F
100
AcDbEntity
  8
100
  6
Continuous
 62
     3
100
AcDbLine
 10
52.5
 20
266.119854885594
 30
0.0
 11
76.8109746670838
 21
266.119854885594
 31
0.0
  0
LINE
  5
15F
330
1F
100
AcDbEntity
  8
100
  6
Continuous
 62
     3
100
AcDbLine
 10
90.0834493966968
 20
267.119854885594
 30
0.0
 11
79.8109746670838
 21
267.119854885594
 31
0.0
  0
LINE
  5
160
330
1F
100
AcDbEntity
  8
100
  6
Continuous
 62
     3
100
AcDbLine
 10
149.916550603303
 20
267.119854885594
 30
0.0
 11
160.189025332916
 21
267.119854885594
 31
0.0
  0
LINE
  5
161
330
1F
100
AcDbEntity
  8
100
  6
Continuous
 62
     3
100
AcDbLine
 10
187.5
 20
266.119854885594
 30
0.0
 11
163.189025332916
 21
266.119854885594
 31
0.0
  0
LINE
  5
162
330
1F
100
AcDbEntity
  8
100
  6
Continuous
 62
     3
100
AcDbLine
 10
187.5
 20
266.119854885594
 30
0.0
 11
187.5
 21
340.119854885594
 31
0.0
  0
LINE
  5
163
330
1F
100
AcDbEntity
  8
1
  6
CENTER
 62
     1
100
AcDbLine
 10
97.5
 20
264.148711715294
 30
0.0
 11
142.5
 21
342.090998055894
 31
0.0
  0
LINE
  5
164
330
1F
100
AcDbEntity
  8
100
  6
Continuous
 62
     3
100
AcDbLine
 10
141.354078752184
 20
326.88925839911
 30
0.0
 11
137.159410729975
 21
326.498362609571
 31
0.0
  0
LINE
  5
165
330
1F
100
AcDbEntity
  8
100
  6
Continuous
 62
     3
100
AcDbLine
 10
143.144862994883
 20
330.259010762402
 30
0.0
 11
141.354078752184
 21
326.88925839911
 31
0.0
  0
LINE
  5
166
330
1F
100
AcDbEntity
  8
100
  6
Continuous
 62
     3
100
AcDbLine
 10
151.2619466516
 20
309.728327802641
 30
0.0
 11
148.826086956522
 21
306.291086629735
 31
0.0
  0
LINE
  5
167
330
1F
100
AcDbEntity
  8
100
  6
Continuous
 62
     3
100
AcDbLine
 10
155.075629924023
 20
309.594316267869
 30
0.0
 11
151.2619466516
 21
309.728327802641
 31
0.0
  0
LINE
  5
168
330
1F
100
AcDbEntity
  8
100
  6
Continuous
 62
     3
100
AcDbLine
 10
151.2619466516
 20
309.728327802641
 30
0.0
 11
141.354078752184
 21
326.88925839911
 31
0.0
  0
LINE
  5
169
330
1F
100
AcDbEntity
  8
100
  6
Continuous
 62
     3
100
AcDbLine
 10
129.907867899416
 20
272.741978455031
 30
0.0
 11
131.666676226547
 21
276.570115417477
 31
0.0
  0
LINE
  5
16A
330
1F
100
AcDbEntity
  8
100
  6
Continuous
 62
     3
100
AcDbLine
 10
131.93076692914
 20
269.506237626511
 30
0.0
 11
129.907867899416
 21
272.741978455031
 31
0.0
  0
LINE
  5
16B
330
1F
100
AcDbEntity
  8
100
  6
Continuous
 62
     3
100
AcDbLine
 10
129.907867899416
 20
272.741978455031
 30
0.0
 11
110.092132100584
 21
272.741978455031
 31
0.0
  0
LINE
  5
16C
330
1F
100
AcDbEntity
  8
100
  6
Continuous
 62
     3
100
AcDbLine
 10
110.092132100584
 20
272.741978455031
 30
0.0
 11
108.333323773453
 21
276.570115417476
 31
0.0
  0
LINE
  5
16D
330
1F
100
AcDbEntity
  8
100
  6
Continuous
 62
     3
100
AcDbLine
 10
108.06923307086
 20
269.506237626511
 30
0.0
 11
110.092132100584
 21
272.741978455031
 31
0.0
  0
LINE
  5
16E
330
1F
100
AcDbEntity
  8
100
  6
Continuous
 62
     3
100
AcDbLine
 10
98.6459212478159
 20
326.88925839911
 30
0.0
 11
102.840589270025
 21
326.498362609571
 31
0.0
  0
LINE
  5
16F
330
1F
100
AcDbEntity
  8
100
  6
Continuous
 62
     3
100
AcDbLine
 10
96.8551370051171
 20
330.259010762402
 30
0.0
 11
98.6459212478159
 21
326.88925839911
 31
0.0
  0
LINE
  5
170
330
1F
100
AcDbEntity
  8
100
  6
Continuous
 62
     3
100
AcDbLine
 10
88.7380533483998
 20
309.728327802641
 30
0.0
 11
91.1739130434783
 21
306.291086629735
 31
0.0
  0
LINE
  5
171
330
1F
100
AcDbEntity
  8
100
  6
Continuous
 62
     3
100
AcDbLine
 10
84.9243700759769
 20
309.594316267869
 30
0.0
 11
88.7380533483998
 21
309.728327802641
 31
0.0
  0
LINE
  5
172
330
1F
100
AcDbEntity
  8
100
  6
Continuous
 62
     3
100
AcDbLine
 10
98.6459212478159
 20
326.88925839911
 30
0.0
 11
88.7380533483998
 21
309.728327802641
 31
0.0
  0
LINE
  5
173
330
1F
100
AcDbEntity
  8
1
  6
CENTER
 62
     1
100
AcDbLine
 10
194.668892119367
 20
303.119854885594
 30
0.0
 11
45.0660296613423
 21
303.119854885594
 31
0.0
  0
LINE
  5
174
330
1F
100
AcDbEntity
  8
1
  6
CENTER
 62
     1
100
AcDbLine
 10
142.499998962137
 20
264.148711715294
 30
0.0
 11
97.4999989621369
 21
342.090998055894
 31
0.0
  0
LINE
  5
175
330
1F
100
AcDbEntity
  8
100
  6
Continuous
 62
     3
100
AcDbLine
 10
72.5
 20
59.6380400399839
 30
0.0
 11
52.5
 21
59.6380400399839
 31
0.0
  0
LINE
  5
176
330
1F
100
AcDbEntity
  8
100
  6
Continuous
 62
     3
100
AcDbLine
 10
72.5
 20
102.361959960016
 30
0.0
 11
52.5
 21
102.361959960016
 31
0.0
  0
LINE
  5
177
330
1F
100
AcDbEntity
  8
100
  6
Continuous
 62
     3
100
AcDbLine
 10
167.5
 20
59.6380400399839
 30
0.0
 11
187.5
 21
59.6380400399839
 31
0.0
  0
LINE
  5
178
330
1F
100
AcDbEntity
  8
100
  6
Continuous
 62
     3
100
AcDbLine
 10
167.5
 20
102.361959960016
 30
0.0
 11
187.5
 21
102.361959960016
 31
0.0
  0
LINE
  5
179
330
1F
100
AcDbEntity
  8
100
  6
Continuous
 62
     3
100
AcDbLine
 10
278.613856110508
 20
152.5
 30
0.0
 11
278.613856110508
 21
153.998302206587
 31
0.0
  0
LINE
  5
17A
330
1F
100
AcDbEntity
  8
100
  6
Continuous
 62
     3
100
AcDbLine
 10
278.613856110508
 20
153.998302206587
 30
0.0
 11
294.313856110508
 21
153.998302206587
 31
0.0
  0
LINE
  5
17B
330
1F
100
AcDbEntity
  8
100
  6
Continuous
 62
     3
100
AcDbLine
 10
294.313856110508
 20
152.5
 30
0.0
 11
294.313856110508
 21
153.998302206587
 31
0.0
  0
LINE
  5
17C
330
1F
100
AcDbEntity
  8
100
  6
Continuous
 62
     3
100
AcDbLine
 10
293.219048324413
 20
214.000000000002
 30
0.0
 11
296.86746094023
 21
214.937119463885
 31
0.0
  0
LINE
  5
17D
330
1F
100
AcDbEntity
  8
100
  6
Continuous
 62
     3
100
AcDbLine
 10
279.21110165663
 20
214.000000000002
 30
0.0
 11
293.219048324413
 21
214.000000000002
 31
0.0
  0
LINE
  5
17E
330
1F
100
AcDbEntity
  8
100
  6
Continuous
 62
     3
100
AcDbLine
 10
280.463856110508
 20
228.000000000002
 30
0.0
 11
292.463856110508
 21
228.000000000002
 31
0.0
  0
LINE
  5
17F
330
1F
100
AcDbEntity
  8
100
  6
Continuous
 62
     3
100
AcDbLine
 10
253.538096528242
 20
214.211145618002
 30
0.0
 11
254.693514056242
 21
214.788854382002
 31
0.0
  0
LINE
  5
180
330
1F
100
AcDbEntity
  8
100
  6
Continuous
 62
     3
100
AcDbLine
 10
251.457419216863
 20
214.000000000002
 30
0.0
 11
252.643669337242
 21
214.000000000002
 31
0.0
  0
LINE
  5
181
330
1F
100
AcDbEntity
  8
100
  6
Continuous
 62
     3
100
AcDbLine
 10
261.67428685213
 20
228.000000000002
 30
0.0
 11
251.457419216863
 21
228.000000000002
 31
0.0
  0
LINE
  5
182
330
1F
100
AcDbEntity
  8
100
  6
Continuous
 62
     3
100
AcDbLine
 10
273.063856110508
 20
215.000000000002
 30
0.0
 11
274.303079337536
 21
208.803883864864
 31
0.0
  0
LINE
  5
183
330
1F
100
AcDbEntity
  8
100
  6
Continuous
 62
     3
100
AcDbLine
 10
279.21110165663
 20
214.000000000002
 30
0.0
 11
275.562689040814
 21
214.937119463885
 31
0.0
  0
LINE
  5
184
330
1F
100
AcDbEntity
  8
100
  6
Continuous
 62
     3
100
AcDbLine
 10
298.62463288348
 20
208.803883864862
 30
0.0
 11
299.863856110508
 21
215.000000000002
 31
0.0
  0
LINE
  5
185
330
1F
100
AcDbEntity
  8
100
  6
Continuous
 62
     3
100
AcDbLine
 10
319.389615692774
 20
214.211145618002
 30
0.0
 11
318.234198164774
 21
214.788854382002
 31
0.0
  0
LINE
  5
186
330
1F
100
AcDbEntity
  8
100
  6
Continuous
 62
     3
100
AcDbLine
 10
321.470293004153
 20
214.000000000002
 30
0.0
 11
320.284042883774
 21
214.000000000002
 31
0.0
  0
LINE
  5
187
330
1F
100
AcDbEntity
  8
100
  6
Continuous
 62
     3
100
AcDbLine
 10
311.253425368886
 20
228.000000000002
 30
0.0
 11
321.470293004153
 21
228.000000000002
 31
0.0
  0
LINE
  5
188
330
1F
100
AcDbEntity
  8
100
  6
Continuous
 62
     3
100
AcDbLine
 10
297.112268726324
 20
215.000000000002
 30
0.0
 11
317.339770973774
 21
215.000000000002
 31
0.0
  0
LINE
  5
189
330
1F
100
AcDbEntity
  8
100
  6
Continuous
 62
     3
100
AcDbLine
 10
255.587941247242
 20
215.000000000002
 30
0.0
 11
275.317881254719
 21
215.000000000002
 31
0.0
  0
LINE
  5
18A
330
1F
100
AcDbEntity
  8
100
  6
Continuous
 62
     3
100
AcDbLine
 10
275.283660013227
 20
208.0
 30
0.0
 11
297.644052207789
 21
208.0
 31
0.0
  0
LINE
  5
18B
330
1F
100
AcDbEntity
  8
100
  6
Continuous
 62
     3
100
AcDbLine
 10
293.463856110508
 20
227.000000000002
 30
0.0
 11
309.521374561317
 21
227.000000000002
 31
0.0
  0
LINE
  5
18C
330
1F
100
AcDbEntity
  8
100
  6
Continuous
 62
     3
100
AcDbLine
 10
263.406337659699
 20
227.000000000002
 30
0.0
 11
279.463856110508
 21
227.000000000002
 31
0.0
  0
LINE
  5
18D
330
1F
100
AcDbEntity
  8
100
  6
Continuous
 62
     3
100
AcDbLine
 10
279.963856110508
 20
208.0
 30
0.0
 11
279.963856110508
 21
182.8556
 31
0.0
  0
LINE
  5
18E
330
1F
100
AcDbEntity
  8
100
  6
Continuous
 62
     3
100
AcDbLine
 10
292.963856110508
 20
208.0
 30
0.0
 11
292.963856110508
 21
182.8556
 31
0.0
  0
LINE
  5
18F
330
1F
100
AcDbEntity
  8
100
  6
Continuous
 62
     3
100
AcDbLine
 10
275.283660013227
 20
208.0
 30
0.0
 11
297.644052207789
 21
208.0
 31
0.0
  0
LINE
  5
190
330
1F
100
AcDbEntity
  8
100
  6
Continuous
 62
     3
100
AcDbLine
 10
277.213856110508
 20
178.056561894323
 30
0.0
 11
295.713856110508
 21
178.056561894323
 31
0.0
  0
LINE
  5
191
330
1F
100
AcDbEntity
  8
100
  6
Continuous
 62
     3
100
AcDbLine
 10
297.963856110508
 20
182.8556
 30
0.0
 11
274.963856110508
 21
182.8556
 31
0.0
  0
LINE
  5
192
330
1F
100
AcDbEntity
  8
100
  6
Continuous
 62
     3
100
AcDbLine
 10
274.963856110508
 20
176.5
 30
0.0
 11
297.963856110508
 21
176.5
 31
0.0
  0
LINE
  5
193
330
1F
100
AcDbEntity
  8
100
  6
Continuous
 62
     3
100
AcDbLine
 10
275.463856110508
 20
179.3556
 30
0.0
 11
297.463856110508
 21
179.3556
 31
0.0
  0
LINE
  5
194
330
1F
100
AcDbEntity
  8
100
  6
Continuous
 62
     3
100
AcDbLine
 10
277.213856110508
 20
179.3556
 30
0.0
 11
277.213856110508
 21
176.5
 31
0.0
  0
LINE
  5
195
330
1F
100
AcDbEntity
  8
1
  6
Continuous
 62
     3
100
AcDbLine
 10
277.963856110508
 20
176.5
 30
0.0
 11
277.963856110508
 21
178.056561894323
 31
0.0
  0
LINE
  5
196
330
1F
100
AcDbEntity
  8
1
  6
Continuous
 62
     3
100
AcDbLine
 10
294.963856110508
 20
176.5
 30
0.0
 11
294.963856110508
 21
178.056561894323
 31
0.0
  0
LINE
  5
197
330
1F
100
AcDbEntity
  8
100
  6
Continuous
 62
     3
100
AcDbLine
 10
295.713856110508
 20
179.3556
 30
0.0
 11
295.713856110508
 21
176.5
 31
0.0
  0
LINE
  5
198
330
1F
100
AcDbEntity
  8
100
  6
Continuous
 62
     3
100
AcDbLine
 10
274.963856110508
 20
182.8556
 30
0.0
 11
274.463856110508
 21
182.3556
 31
0.0
  0
LINE
  5
199
330
1F
100
AcDbEntity
  8
100
  6
Continuous
 62
     3
100
AcDbLine
 10
275.463856110508
 20
179.3556
 30
0.0
 11
274.463856110508
 21
180.3556
 31
0.0
  0
LINE
  5
19A
330
1F
100
AcDbEntity
  8
1
  6
Continuous
 62
     3
100
AcDbLine
 10
277.213856110508
 20
179.3556
 30
0.0
 11
277.963856110508
 21
178.056561894323
 31
0.0
  0
LINE
  5
19B
330
1F
100
AcDbEntity
  8
1
  6
Continuous
 62
     3
100
AcDbLine
 10
277.213856110508
 20
179.3556
 30
0.0
 11
277.963856110508
 21
178.056561894323
 31
0.0
  0
LINE
  5
19C
330
1F
100
AcDbEntity
  8
100
  6
Continuous
 62
     3
100
AcDbLine
 10
274.463856110508
 20
182.3556
 30
0.0
 11
274.463856110508
 21
180.3556
 31
0.0
  0
LINE
  5
19D
330
1F
100
AcDbEntity
  8
100
  6
Continuous
 62
     3
100
AcDbLine
 10
297.963856110508
 20
182.8556
 30
0.0
 11
298.463856110508
 21
182.3556
 31
0.0
  0
LINE
  5
19E
330
1F
100
AcDbEntity
  8
100
  6
Continuous
 62
     3
100
AcDbLine
 10
297.463856110508
 20
179.3556
 30
0.0
 11
298.463856110508
 21
180.3556
 31
0.0
  0
LINE
  5
19F
330
1F
100
AcDbEntity
  8
1
  6
Continuous
 62
     3
100
AcDbLine
 10
295.713856110508
 20
179.3556
 30
0.0
 11
294.963856110508
 21
178.056561894323
 31
0.0
  0
LINE
  5
1A0
330
1F
100
AcDbEntity
  8
1
  6
Continuous
 62
     3
100
AcDbLine
 10
295.713856110508
 20
179.3556
 30
0.0
 11
294.963856110508
 21
178.056561894323
 31
0.0
  0
LINE
  5
1A1
330
1F
100
AcDbEntity
  8
100
  6
Continuous
 62
     3
100
AcDbLine
 10
298.463856110508
 20
182.3556
 30
0.0
 11
298.463856110508
 21
180.3556
 31
0.0
  0
LINE
  5
1A2
330
1F
100
AcDbEntity
  8
100
  6
Continuous
 62
     3
100
AcDbLine
 10
297.963856110508
 20
176.5
 30
0.0
 11
298.963856110508
 21
175.5
 31
0.0
  0
LINE
  5
1A3
330
1F
100
AcDbEntity
  8
100
  6
Continuous
 62
     3
100
AcDbLine
 10
273.963856110508
 20
175.5
 30
0.0
 11
274.963856110508
 21
176.5
 31
0.0
  0
LINE
  5
1A4
330
1F
100
AcDbEntity
  8
100
  6
Continuous
 62
     3
100
AcDbLine
 10
298.963856110508
 20
175.5
 30
0.0
 11
298.963856110508
 21
135.0
 31
0.0
  0
LINE
  5
1A5
330
1F
100
AcDbEntity
  8
100
  6
Continuous
 62
     3
100
AcDbLine
 10
273.963856110508
 20
175.5
 30
0.0
 11
273.963856110508
 21
135.0
 31
0.0
  0
LINE
  5
1A6
330
1F
100
AcDbEntity
  8
100
  6
Continuous
 62
     3
100
AcDbLine
 10
254.963856110508
 20
135.0
 30
0.0
 11
253.963856110508
 21
134.0
 31
0.0
  0
LINE
  5
1A7
330
1F
100
AcDbEntity
  8
100
  6
Continuous
 62
     3
100
AcDbLine
 10
253.963856110508
 20
134.0
 30
0.0
 11
253.963856110508
 21
129.0
 31
0.0
  0
LINE
  5
1A8
330
1F
100
AcDbEntity
  8
100
  6
Continuous
 62
     3
100
AcDbLine
 10
318.963856110508
 20
129.0
 30
0.0
 11
253.963856110508
 21
129.0
 31
0.0
  0
LINE
  5
1A9
330
1F
100
AcDbEntity
  8
100
  6
Continuous
 62
     3
100
AcDbLine
 10
273.963856110508
 20
152.5
 30
0.0
 11
298.963856110508
 21
152.5
 31
0.0
  0
LINE
  5
1AA
330
1F
100
AcDbEntity
  8
100
  6
Continuous
 62
     3
100
AcDbLine
 10
317.963856110508
 20
135.0
 30
0.0
 11
254.963856110508
 21
135.0
 31
0.0
  0
LINE
  5
1AB
330
1F
100
AcDbEntity
  8
100
  6
Continuous
 62
     3
100
AcDbLine
 10
317.963856110508
 20
135.0
 30
0.0
 11
318.963856110508
 21
134.0
 31
0.0
  0
LINE
  5
1AC
330
1F
100
AcDbEntity
  8
100
  6
Continuous
 62
     3
100
AcDbLine
 10
318.963856110508
 20
134.0
 30
0.0
 11
318.963856110508
 21
129.0
 31
0.0
  0
LINE
  5
1AD
330
1F
100
AcDbEntity
  8
100
  6
Continuous
 62
     3
100
AcDbLine
 10
255.963856110508
 20
126.0
 30
0.0
 11
255.963856110508
 21
129.0
 31
0.0
  0
LINE
  5
1AE
330
1F
100
AcDbEntity
  8
100
  6
Continuous
 62
     3
100
AcDbLine
 10
255.76267575194
 20
126.0
 30
0.0
 11
254.752391663847
 21
110.934651246028
 31
0.0
  0
LINE
  5
1AF
330
1F
100
AcDbEntity
  8
1
  6
CENTER
 62
     1
100
AcDbLine
 10
286.463856110508
 20
33.2760800799677
 30
0.0
 11
286.463856110508
 21
237.594997853828
 31
0.0
  0
LINE
  5
1B0
330
1F
100
AcDbEntity
  8
1
  6
CENTER
 62
     1
100
AcDbLine
 10
239.11987339353
 20
81.0
 30
0.0
 11
336.46489908201
 21
81.0
 31
0.0
  0
LINE
  5
1B1
330
1F
100
AcDbEntity
  8
100
  6
Continuous
 62
     3
100
AcDbLine
 10
316.963856110508
 20
126.0
 30
0.0
 11
316.963856110508
 21
129.0
 31
0.0
  0
LINE
  5
1B2
330
1F
100
AcDbEntity
  8
100
  6
Continuous
 62
     3
100
AcDbLine
 10
317.165036469076
 20
126.0
 30
0.0
 11
318.175320557169
 21
110.934651246028
 31
0.0
  0
LINE
  5
1B3
330
1F
100
AcDbEntity
  8
100
  6
Continuous
 62
     3
100
AcDbLine
 10
255.76267575194
 20
126.0
 30
0.0
 11
317.165036469076
 21
126.0
 31
0.0
  0
LINE
  5
1B4
330
1F
100
AcDbEntity
  8
2
  6
DOTTED
 62
     6
100
AcDbLine
 10
106.034076775929
 20
201.389986552188
 30
0.0
 11
103.106779598088
 21
203.0
 31
0.0
  0
LINE
  5
1B5
330
1F
100
AcDbEntity
  8
2
  6
DOTTED
 62
     6
100
AcDbLine
 10
107.839223227028
 20
197.803883864862
 30
0.0
 11
107.530062553686
 21
199.349687231572
 31
0.0
  0
LINE
  5
1B6
330
1F
100
AcDbEntity
  8
2
  6
DOTTED
 62
     6
100
AcDbLine
 10
108.819803902719
 20
197.0
 30
0.0
 11
131.180196097281
 21
197.0
 31
0.0
  0
LINE
  5
1B7
330
1F
100
AcDbEntity
  8
2
  6
DOTTED
 62
     6
100
AcDbLine
 10
132.160776772972
 20
197.803883864862
 30
0.0
 11
132.469937446314
 21
199.349687231572
 31
0.0
  0
LINE
  5
1B8
330
1F
100
AcDbEntity
  8
2
  6
DOTTED
 62
     6
100
AcDbLine
 10
133.965923224071
 20
201.389986552188
 30
0.0
 11
136.893220401911
 21
203.0
 31
0.0
  0
LINE
  5
1B9
330
1F
100
AcDbEntity
  8
2
  6
DOTTED
 62
     6
100
AcDbLine
 10
144.0
 20
216.0
 30
0.0
 11
147.709467632543
 21
216.0
 31
0.0
  0
LINE
  5
1BA
330
1F
100
AcDbEntity
  8
2
  6
DOTTED
 62
     6
100
AcDbLine
 10
110.0
 20
216.0
 30
0.0
 11
130.0
 21
216.0
 31
0.0
  0
LINE
  5
1BB
330
1F
100
AcDbEntity
  8
2
  6
DOTTED
 62
     6
100
AcDbLine
 10
92.2905323674569
 20
216.0
 30
0.0
 11
96.0000000000002
 21
216.0
 31
0.0
  0
LINE
  5
1BC
330
1F
100
AcDbEntity
  8
2
  6
DOTTED
 62
     6
100
AcDbLine
 10
131.0
 20
217.0
 30
0.0
 11
143.0
 21
217.0
 31
0.0
  0
LINE
  5
1BD
330
1F
100
AcDbEntity
  8
2
  6
DOTTED
 62
     6
100
AcDbLine
 10
109.0
 20
217.0
 30
0.0
 11
97.0000000000002
 21
217.0
 31
0.0
  0
LINE
  5
1BE
330
1F
100
AcDbEntity
  8
2
  6
DOTTED
 62
     6
100
AcDbLine
 10
90.558481559888
 20
217.0
 30
0.0
 11
80.3416139246211
 21
217.000000000001
 31
0.0
  0
LINE
  5
1BF
330
1F
100
AcDbEntity
  8
2
  6
DOTTED
 62
     6
100
AcDbLine
 10
82.4222912360004
 20
203.211145618
 30
0.0
 11
83.5777087639997
 21
203.788854382
 31
0.0
  0
LINE
  5
1C0
330
1F
100
AcDbEntity
  8
2
  6
DOTTED
 62
     6
100
AcDbLine
 10
80.341613924621
 20
203.0
 30
0.0
 11
81.5278640450005
 21
203.0
 31
0.0
  0
LINE
  5
1C1
330
1F
100
AcDbEntity
  8
2
  6
DOTTED
 62
     6
100
AcDbLine
 10
95.4222912360004
 20
203.788854382
 30
0.0
 11
96.5777087639997
 21
203.211145618
 31
0.0
  0
LINE
  5
1C2
330
1F
100
AcDbEntity
  8
2
  6
DOTTED
 62
     6
100
AcDbLine
 10
145.472135955
 20
204.0
 30
0.0
 11
155.527864045
 21
204.0
 31
0.0
  0
LINE
  5
1C3
330
1F
100
AcDbEntity
  8
2
  6
DOTTED
 62
     6
100
AcDbLine
 10
84.4721359549997
 20
204.0
 30
0.0
 11
95.0000000000001
 21
204.0
 31
0.0
  0
LINE
  5
1C4
330
1F
100
AcDbEntity
  8
2
  6
DOTTED
 62
     6
100
AcDbLine
 10
136.893220401911
 20
203.0
 30
0.0
 11
142.527864045
 21
203.0
 31
0.0
  0
LINE
  5
1C5
330
1F
100
AcDbEntity
  8
2
  6
DOTTED
 62
     6
100
AcDbLine
 10
97.4721359549997
 20
203.0
 30
0.0
 11
103.106779598088
 21
203.0
 31
0.0
  0
LINE
  5
1C6
330
1F
100
AcDbEntity
  8
2
  6
DOTTED
 62
     6
100
AcDbLine
 10
144.577708764
 20
203.788854382
 30
0.0
 11
143.422291236
 21
203.211145618
 31
0.0
  0
LINE
  5
1C7
330
1F
100
AcDbEntity
  8
2
  6
DOTTED
 62
     6
100
AcDbLine
 10
157.577708764
 20
203.211145618
 30
0.0
 11
156.422291236
 21
203.788854382
 31
0.0
  0
LINE
  5
1C8
330
1F
100
AcDbEntity
  8
2
  6
DOTTED
 62
     6
100
AcDbLine
 10
159.658386075379
 20
203.0
 30
0.0
 11
158.472135954999
 21
203.0
 31
0.0
  0
LINE
  5
1C9
330
1F
100
AcDbEntity
  8
2
  6
DOTTED
 62
     6
100
AcDbLine
 10
149.441518440112
 20
217.0
 30
0.0
 11
159.658386075379
 21
217.000000000001
 31
0.0
  0
LINE
  5
1CA
330
1F
100
AcDbEntity
  8
100
  6
Continuous
 62
     3
100
AcDbLine
 10
96.0000000000002
 20
227.0
 30
0.0
 11
82.5000000000002
 21
227.0
 31
0.0
  0
LINE
  5
1CB
330
1F
100
AcDbEntity
  8
100
  6
Continuous
 62
     3
100
AcDbLine
 10
109.0
 20
228.0
 30
0.0
 11
97.0000000000002
 21
228.0
 31
0.0
  0
LINE
  5
1CC
330
1F
100
AcDbEntity
  8
100
  6
Continuous
 62
     3
100
AcDbLine
 10
90.558481559888
 20
228.0
 30
0.0
 11
80.3416139246211
 21
228.000000000001
 31
0.0
  0
LINE
  5
1CD
330
1F
100
AcDbEntity
  8
100
  6
Continuous
 62
     3
100
AcDbLine
 10
107.839223227028
 20
208.803883864862
 30
0.0
 11
107.530062553686
 21
210.349687231572
 31
0.0
  0
LINE
  5
1CE
330
1F
100
AcDbEntity
  8
5
  6
Continuous
 62
     3
100
AcDbLine
 10
119.943170554936
 20
211.717672785336
 30
0.0
 11
108.164749145508
 21
211.717672785336
 31
0.0
  0
LINE
  5
1CF
330
1F
100
AcDbEntity
  8
100
  6
Continuous
 62
     3
100
AcDbLine
 10
106.034076775929
 20
212.389986552188
 30
0.0
 11
103.106779598088
 21
214.0
 31
0.0
  0
LINE
  5
1D0
330
1F
100
AcDbEntity
  8
100
  6
Continuous
 62
     3
100
AcDbLine
 10
97.4721359549997
 20
214.0
 30
0.0
 11
102.854025144211
 21
214.0
 31
0.0
  0
LINE
  5
1D1
330
1F
100
AcDbEntity
  8
100
  6
Continuous
 62
     3
100
AcDbLine
 10
82.4222912360004
 20
214.211145618
 30
0.0
 11
83.5777087639997
 21
214.788854382
 31
0.0
  0
LINE
  5
1D2
330
1F
100
AcDbEntity
  8
100
  6
Continuous
 62
     3
100
AcDbLine
 10
80.341613924621
 20
214.0
 30
0.0
 11
81.5278640450005
 21
214.0
 31
0.0
  0
LINE
  5
1D3
330
1F
100
AcDbEntity
  8
100
  6
Continuous
 62
     3
100
AcDbLine
 10
107.252754453878
 20
215.0
 30
0.0
 11
120.0
 21
215.0
 31
0.0
  0
LINE
  5
1D4
330
1F
100
AcDbEntity
  8
100
  6
Continuous
 62
     3
100
AcDbLine
 10
103.351587384184
 20
214.062880536117
 30
0.0
 11
106.755192213905
 21
214.937119463883
 31
0.0
  0
LINE
  5
1D5
330
1F
100
AcDbEntity
  8
100
  6
Continuous
 62
     3
100
AcDbLine
 10
95.4222912360004
 20
214.788854382
 30
0.0
 11
96.5777087639997
 21
214.211145618
 31
0.0
  0
LINE
  5
1D6
330
1F
100
AcDbEntity
  8
100
  6
Continuous
 62
     3
100
AcDbLine
 10
84.4721359549997
 20
215.0
 30
0.0
 11
94.5278640450004
 21
215.0
 31
0.0
  0
LINE
  5
1D7
330
1F
100
AcDbEntity
  8
100
  6
Continuous
 62
     3
100
AcDbLine
 10
108.819803902719
 20
208.0
 30
0.0
 11
131.180196097281
 21
208.0
 31
0.0
  0
LINE
  5
1D8
330
1F
100
AcDbEntity
  8
100
  6
Continuous
 62
     3
100
AcDbLine
 10
132.160776772972
 20
208.803883864862
 30
0.0
 11
132.469937446314
 21
210.349687231572
 31
0.0
  0
LINE
  5
1D9
330
1F
100
AcDbEntity
  8
5
  6
Continuous
 62
     3
100
AcDbLine
 10
120.056829445064
 20
211.717672785336
 30
0.0
 11
131.835250854492
 21
211.717672785336
 31
0.0
  0
LINE
  5
1DA
330
1F
100
AcDbEntity
  8
100
  6
Continuous
 62
     3
100
AcDbLine
 10
133.965923224071
 20
212.389986552188
 30
0.0
 11
136.893220401911
 21
214.0
 31
0.0
  0
LINE
  5
1DB
330
1F
100
AcDbEntity
  8
100
  6
Continuous
 62
     3
100
AcDbLine
 10
142.527864045
 20
214.0
 30
0.0
 11
137.145974855789
 21
214.0
 31
0.0
  0
LINE
  5
1DC
330
1F
100
AcDbEntity
  8
100
  6
Continuous
 62
     3
100
AcDbLine
 10
157.577708764
 20
214.211145618
 30
0.0
 11
156.422291236
 21
214.788854382
 31
0.0
  0
LINE
  5
1DD
330
1F
100
AcDbEntity
  8
100
  6
Continuous
 62
     3
100
AcDbLine
 10
159.658386075379
 20
214.0
 30
0.0
 11
158.472135954999
 21
214.0
 31
0.0
  0
LINE
  5
1DE
330
1F
100
AcDbEntity
  8
100
  6
Continuous
 62
     3
100
AcDbLine
 10
144.0
 20
227.0
 30
0.0
 11
157.5
 21
227.0
 31
0.0
  0
LINE
  5
1DF
330
1F
100
AcDbEntity
  8
100
  6
Continuous
 62
     3
100
AcDbLine
 10
131.0
 20
228.0
 30
0.0
 11
143.0
 21
228.0
 31
0.0
  0
LINE
  5
1E0
330
1F
100
AcDbEntity
  8
100
  6
Continuous
 62
     3
100
AcDbLine
 10
132.747245546122
 20
215.0
 30
0.0
 11
120.0
 21
215.0
 31
0.0
  0
LINE
  5
1E1
330
1F
100
AcDbEntity
  8
100
  6
Continuous
 62
     3
100
AcDbLine
 10
136.648412615817
 20
214.062880536117
 30
0.0
 11
133.244807786095
 21
214.937119463883
 31
0.0
  0
LINE
  5
1E2
330
1F
100
AcDbEntity
  8
100
  6
Continuous
 62
     3
100
AcDbLine
 10
144.577708764
 20
214.788854382
 30
0.0
 11
143.422291236
 21
214.211145618
 31
0.0
  0
LINE
  5
1E3
330
1F
100
AcDbEntity
  8
100
  6
Continuous
 62
     3
100
AcDbLine
 10
155.527864045
 20
215.0
 30
0.0
 11
145.472135955
 21
215.0
 31
0.0
  0
LINE
  5
1E4
330
1F
100
AcDbEntity
  8
100
  6
Continuous
 62
     3
100
AcDbLine
 10
149.441518440112
 20
228.0
 30
0.0
 11
159.658386075379
 21
228.000000000001
 31
0.0
  0
LINE
  5
1E5
330
1F
100
AcDbEntity
  8
100
  6
Continuous
 62
     3
100
AcDbLine
 10
107.0
 20
227.0
 30
0.0
 11
137.5
 21
227.0
 31
0.0
  0
LINE
  5
1E6
330
1F
100
AcDbEntity
  8
100
  6
Continuous
 62
     3
100
AcDbLine
 10
92.2905323674565
 20
227.0
 30
0.0
 11
103.0
 21
227.0
 31
0.0
  0
LINE
  5
1E7
330
1F
100
AcDbEntity
  8
100
  6
Continuous
 62
     3
100
AcDbLine
 10
113.5
 20
208.0
 30
0.0
 11
113.5
 21
182.8556
 31
0.0
  0
LINE
  5
1E8
330
1F
100
AcDbEntity
  8
100
  6
Continuous
 62
     3
100
AcDbLine
 10
126.5
 20
208.0
 30
0.0
 11
126.5
 21
182.8556
 31
0.0
  0
LINE
  5
1E9
330
1F
100
AcDbEntity
  8
100
  6
Continuous
 62
     3
100
AcDbLine
 10
131.5
 20
182.8556
 30
0.0
 11
108.5
 21
182.8556
 31
0.0
  0
LINE
  5
1EA
330
1F
100
AcDbEntity
  8
100
  6
Continuous
 62
     3
100
AcDbLine
 10
108.5
 20
182.8556
 30
0.0
 11
108.0
 21
182.3556
 31
0.0
  0
LINE
  5
1EB
330
1F
100
AcDbEntity
  8
100
  6
Continuous
 62
     3
100
AcDbLine
 10
109.0
 20
179.3556
 30
0.0
 11
108.0
 21
180.3556
 31
0.0
  0
LINE
  5
1EC
330
1F
100
AcDbEntity
  8
100
  6
Continuous
 62
     3
100
AcDbLine
 10
110.75
 20
178.056561894323
 30
0.0
 11
129.25
 21
178.056561894323
 31
0.0
  0
LINE
  5
1ED
330
1F
100
AcDbEntity
  8
1
  6
Continuous
 62
     3
100
AcDbLine
 10
110.75
 20
179.3556
 30
0.0
 11
111.5
 21
178.056561894323
 31
0.0
  0
LINE
  5
1EE
330
1F
100
AcDbEntity
  8
1
  6
Continuous
 62
     3
100
AcDbLine
 10
110.75
 20
179.3556
 30
0.0
 11
111.5
 21
178.056561894323
 31
0.0
  0
LINE
  5
1EF
330
1F
100
AcDbEntity
  8
100
  6
Continuous
 62
     3
100
AcDbLine
 10
109.0
 20
179.3556
 30
0.0
 11
131.0
 21
179.3556
 31
0.0
  0
LINE
  5
1F0
330
1F
100
AcDbEntity
  8
1
  6
Continuous
 62
     3
100
AcDbLine
 10
111.5
 20
176.5
 30
0.0
 11
111.5
 21
178.056561894323
 31
0.0
  0
LINE
  5
1F1
330
1F
100
AcDbEntity
  8
100
  6
Continuous
 62
     3
100
AcDbLine
 10
110.75
 20
179.3556
 30
0.0
 11
110.75
 21
176.5
 31
0.0
  0
LINE
  5
1F2
330
1F
100
AcDbEntity
  8
100
  6
Continuous
 62
     3
100
AcDbLine
 10
108.0
 20
182.3556
 30
0.0
 11
108.0
 21
180.3556
 31
0.0
  0
LINE
  5
1F3
330
1F
100
AcDbEntity
  8
100
  6
Continuous
 62
     3
100
AcDbLine
 10
131.5
 20
182.8556
 30
0.0
 11
132.0
 21
182.3556
 31
0.0
  0
LINE
  5
1F4
330
1F
100
AcDbEntity
  8
100
  6
Continuous
 62
     3
100
AcDbLine
 10
131.0
 20
179.3556
 30
0.0
 11
132.0
 21
180.3556
 31
0.0
  0
LINE
  5
1F5
330
1F
100
AcDbEntity
  8
1
  6
Continuous
 62
     3
100
AcDbLine
 10
129.25
 20
179.3556
 30
0.0
 11
128.5
 21
178.056561894323
 31
0.0
  0
LINE
  5
1F6
330
1F
100
AcDbEntity
  8
1
  6
Continuous
 62
     3
100
AcDbLine
 10
129.25
 20
179.3556
 30
0.0
 11
128.5
 21
178.056561894323
 31
0.0
  0
LINE
  5
1F7
330
1F
100
AcDbEntity
  8
1
  6
Continuous
 62
     3
100
AcDbLine
 10
128.5
 20
176.5
 30
0.0
 11
128.5
 21
178.056561894323
 31
0.0
  0
LINE
  5
1F8
330
1F
100
AcDbEntity
  8
100
  6
Continuous
 62
     3
100
AcDbLine
 10
129.25
 20
179.3556
 30
0.0
 11
129.25
 21
176.5
 31
0.0
  0
LINE
  5
1F9
330
1F
100
AcDbEntity
  8
100
  6
Continuous
 62
     3
100
AcDbLine
 10
132.0
 20
182.3556
 30
0.0
 11
132.0
 21
180.3556
 31
0.0
  0
LINE
  5
1FA
330
1F
100
AcDbEntity
  8
1
  6
CENTER
 62
     1
100
AcDbLine
 10
41.4066894397569
 20
81.0
 30
0.0
 11
197.884641006117
 21
81.0
 31
0.0
  0
LINE
  5
1FB
330
1F
100
AcDbEntity
  8
1
  6
CENTER
 62
     1
100
AcDbLine
 10
120.0
 20
32.0
 30
0.0
 11
120.0
 21
238.771523805455
 31
0.0
  0
LINE
  5
1FC
330
1F
100
AcDbEntity
  8
100
  6
Continuous
 62
     3
100
AcDbLine
 10
83.5860889073134
 20
117.0
 30
0.0
 11
79.8109746670838
 21
117.0
 31
0.0
  0
LINE
  5
1FD
330
1F
100
AcDbEntity
  8
100
  6
Continuous
 62
     3
100
AcDbLine
 10
150.875
 20
126.0
 30
0.0
 11
89.125
 21
126.0
 31
0.0
  0
LINE
  5
1FE
330
1F
100
AcDbEntity
  8
100
  6
Continuous
 62
     3
100
AcDbLine
 10
89.5
 20
126.0
 30
0.0
 11
89.5
 21
129.0
 31
0.0
  0
LINE
  5
1FF
330
1F
100
AcDbEntity
  8
100
  6
Continuous
 62
     3
100
AcDbLine
 10
89.125
 20
126.0
 30
0.0
 11
88.5474782908817
 21
121.379826327054
 31
0.0
  0
LINE
  5
200
330
1F
100
AcDbEntity
  8
100
  6
Continuous
 62
     3
100
AcDbLine
 10
150.875
 20
126.0
 30
0.0
 11
151.452521709118
 21
121.379826327054
 31
0.0
  0
LINE
  5
201
330
1F
100
AcDbEntity
  8
100
  6
Continuous
 62
     3
100
AcDbLine
 10
150.5
 20
126.0
 30
0.0
 11
150.5
 21
129.0
 31
0.0
  0
LINE
  5
202
330
1F
100
AcDbEntity
  8
100
  6
Continuous
 62
     3
100
AcDbLine
 10
156.413911092687
 20
117.0
 30
0.0
 11
160.189025332916
 21
117.0
 31
0.0
  0
LINE
  5
203
330
1F
100
AcDbEntity
  8
100
  6
Continuous
 62
     3
100
AcDbLine
 10
52.5
 20
38.2760800799677
 30
0.0
 11
52.5
 21
123.723919920032
 31
0.0
  0
LINE
  5
204
330
1F
100
AcDbEntity
  8
100
  6
Continuous
 62
     3
100
AcDbLine
 10
167.5
 20
123.723919920032
 30
0.0
 11
187.5
 21
123.723919920032
 31
0.0
  0
LINE
  5
205
330
1F
100
AcDbEntity
  8
100
  6
Continuous
 62
     3
100
AcDbLine
 10
52.5
 20
123.723919920032
 30
0.0
 11
72.5
 21
123.723919920032
 31
0.0
  0
LINE
  5
206
330
1F
100
AcDbEntity
  8
100
  6
Continuous
 62
     3
100
AcDbLine
 10
167.5
 20
38.2760800799677
 30
0.0
 11
187.5
 21
38.2760800799677
 31
0.0
  0
LINE
  5
207
330
1F
100
AcDbEntity
  8
100
  6
Continuous
 62
     3
100
AcDbLine
 10
52.5
 20
38.2760800799677
 30
0.0
 11
72.5
 21
38.2760800799677
 31
0.0
  0
LINE
  5
208
330
1F
100
AcDbEntity
  8
100
  6
Continuous
 62
     3
100
AcDbLine
 10
187.5
 20
38.2760800799677
 30
0.0
 11
187.5
 21
123.723919920032
 31
0.0
  0
LINE
  5
209
330
1F
100
AcDbEntity
  8
100
  6
Continuous
 62
     3
100
AcDbLine
 10
90.0834493966968
 20
45.0
 30
0.0
 11
79.8109746670838
 21
45.0
 31
0.0
  0
LINE
  5
20A
330
1F
100
AcDbEntity
  8
100
  6
Continuous
 62
     3
100
AcDbLine
 10
75.7152144456388
 20
42.8678821817552
 30
0.0
 11
72.5
 21
38.2760800799677
 31
0.0
  0
LINE
  5
20B
330
1F
100
AcDbEntity
  8
100
  6
Continuous
 62
     3
100
AcDbLine
 10
75.7152144456388
 20
119.132117818245
 30
0.0
 11
72.5
 21
123.723919920032
 31
0.0
  0
LINE
  5
20C
330
1F
100
AcDbEntity
  8
100
  6
Continuous
 62
     3
100
AcDbLine
 10
164.284785554361
 20
42.8678821817552
 30
0.0
 11
167.5
 21
38.2760800799677
 31
0.0
  0
LINE
  5
20D
330
1F
100
AcDbEntity
  8
100
  6
Continuous
 62
     3
100
AcDbLine
 10
149.916550603303
 20
45.0
 30
0.0
 11
160.189025332916
 21
45.0
 31
0.0
  0
LINE
  5
20E
330
1F
100
AcDbEntity
  8
100
  6
Continuous
 62
     3
100
AcDbLine
 10
164.284785554361
 20
119.132117818245
 30
0.0
 11
167.5
 21
123.723919920032
 31
0.0
  0
LINE
  5
20F
330
1F
100
AcDbEntity
  8
100
  6
Continuous
 62
     3
100
AcDbLine
 10
143.676560190385
 20
153.998302206587
 30
0.0
 11
143.605212466261
 21
152.5
 31
0.0
  0
LINE
  5
210
330
1F
100
AcDbEntity
  8
100
  6
Continuous
 62
     3
100
AcDbLine
 10
135.835445309248
 20
154.371688629498
 30
0.0
 11
143.676560190385
 21
153.998302206587
 31
0.0
  0
LINE
  5
211
330
1F
100
AcDbEntity
  8
100
  6
Continuous
 62
     3
100
AcDbLine
 10
135.847426507802
 20
154.623293799135
 30
0.0
 11
135.746317279272
 21
152.5
 31
0.0
  0
LINE
  5
212
330
1F
100
AcDbEntity
  8
100
  6
Continuous
 62
     3
100
AcDbLine
 10
151.5
 20
135.0
 30
0.0
 11
152.5
 21
134.0
 31
0.0
  0
LINE
  5
213
330
1F
100
AcDbEntity
  8
100
  6
Continuous
 62
     3
100
AcDbLine
 10
152.5
 20
134.0
 30
0.0
 11
152.5
 21
129.0
 31
0.0
  0
LINE
  5
214
330
1F
100
AcDbEntity
  8
100
  6
Continuous
 62
     3
100
AcDbLine
 10
145.0
 20
152.5
 30
0.0
 11
145.0
 21
136.5
 31
0.0
  0
LINE
  5
215
330
1F
100
AcDbEntity
  8
100
  6
Continuous
 62
     3
100
AcDbLine
 10
132.5
 20
152.5
 30
0.0
 11
145.0
 21
152.5
 31
0.0
  0
LINE
  5
216
330
1F
100
AcDbEntity
  8
100
  6
Continuous
 62
     3
100
AcDbLine
 10
95.0
 20
152.5
 30
0.0
 11
107.5
 21
152.5
 31
0.0
  0
LINE
  5
217
330
1F
100
AcDbEntity
  8
100
  6
Continuous
 62
     3
100
AcDbLine
 10
152.5
 20
129.0
 30
0.0
 11
87.5
 21
129.0
 31
0.0
  0
LINE
  5
218
330
1F
100
AcDbEntity
  8
100
  6
Continuous
 62
     3
100
AcDbLine
 10
132.5
 20
175.5
 30
0.0
 11
132.5
 21
152.5
 31
0.0
  0
LINE
  5
219
330
1F
100
AcDbEntity
  8
100
  6
Continuous
 62
     3
100
AcDbLine
 10
96.3234398096153
 20
153.998302206587
 30
0.0
 11
96.3947875337385
 21
152.5
 31
0.0
  0
LINE
  5
21A
330
1F
100
AcDbEntity
  8
100
  6
Continuous
 62
     3
100
AcDbLine
 10
104.164554690752
 20
154.371688629498
 30
0.0
 11
96.3234398096153
 21
153.998302206587
 31
0.0
  0
LINE
  5
21B
330
1F
100
AcDbEntity
  8
100
  6
Continuous
 62
     3
100
AcDbLine
 10
104.152573492198
 20
154.623293799135
 30
0.0
 11
104.253682720728
 21
152.5
 31
0.0
  0
LINE
  5
21C
330
1F
100
AcDbEntity
  8
100
  6
Continuous
 62
     3
100
AcDbLine
 10
131.5
 20
176.5
 30
0.0
 11
132.5
 21
175.5
 31
0.0
  0
LINE
  5
21D
330
1F
100
AcDbEntity
  8
100
  6
Continuous
 62
     3
100
AcDbLine
 10
107.5
 20
175.5
 30
0.0
 11
108.5
 21
176.5
 31
0.0
  0
LINE
  5
21E
330
1F
100
AcDbEntity
  8
100
  6
Continuous
 62
     3
100
AcDbLine
 10
88.5
 20
135.0
 30
0.0
 11
87.5
 21
134.0
 31
0.0
  0
LINE
  5
21F
330
1F
100
AcDbEntity
  8
100
  6
Continuous
 62
     3
100
AcDbLine
 10
87.5
 20
134.0
 30
0.0
 11
87.5
 21
129.0
 31
0.0
  0
LINE
  5
220
330
1F
100
AcDbEntity
  8
100
  6
Continuous
 62
     3
100
AcDbLine
 10
95.0
 20
152.5
 30
0.0
 11
95.0
 21
136.5
 31
0.0
  0
LINE
  5
221
330
1F
100
AcDbEntity
  8
100
  6
Continuous
 62
     3
100
AcDbLine
 10
151.5
 20
135.0
 30
0.0
 11
88.5
 21
135.0
 31
0.0
  0
LINE
  5
222
330
1F
100
AcDbEntity
  8
100
  6
Continuous
 62
     3
100
AcDbLine
 10
107.5
 20
175.5
 30
0.0
 11
107.5
 21
152.5
 31
0.0
  0
LINE
  5
223
330
1F
100
AcDbEntity
  8
100
  6
Continuous
 62
     3
100
AcDbLine
 10
108.5
 20
176.5
 30
0.0
 11
131.5
 21
176.5
 31
0.0
  0
LINE
  5
224
330
1F
100
AcDbEntity
  8
1
  6
Continuous
 62
     4
100
AcDbLine
 10
52.5
 20
81.0
 30
0.0
 11
49.2783754651586
 21
73.3700505493892
 31
0.0
  0
LINE
  5
225
330
1F
100
AcDbEntity
  8
1
  6
Continuous
 62
     4
100
AcDbLine
 10
52.5
 20
81.0
 30
0.0
 11
45.8950165860668
 21
76.0030822136006
 31
0.0
  0
LINE
  5
226
330
1F
100
AcDbEntity
  8
1
  6
Continuous
 62
     4
100
AcDbLine
 10
187.5
 20
81.0
 30
0.0
 11
193.732852925278
 21
75.5459613428011
 31
0.0
  0
LINE
  5
227
330
1F
100
AcDbEntity
  8
1
  6
Continuous
 62
     4
100
AcDbLine
 10
187.5
 20
81.0
 30
0.0
 11
190.170789642743
 21
73.1602375070043
 31
0.0
  0
ARC
  5
258
330
1F
100
AcDbEntity
  8
100
  6
Continuous
 62
     3
100
AcDbCircle
 10
79.8109746670838
 20
344.119854885594
 30
0.0
 40
5.0
100
AcDbArc
 50
233.130102354156
 51
270.0
  0
ARC
  5
259
330
1F
100
AcDbEntity
  8
100
  6
Continuous
 62
     3
100
AcDbCircle
 10
90.0834493966968
 20
349.119854885594
 30
0.0
 40
10.0
100
AcDbArc
 50
270.0
 51
288.9764743992978
  0
ARC
  5
25A
330
1F
100
AcDbEntity
  8
100
  6
Continuous
 62
     3
100
AcDbCircle
 10
90.0834493966968
 20
349.119854885594
 30
0.0
 40
10.0
100
AcDbArc
 50
270.0
 51
288.9764743992978
  0
ARC
  5
25B
330
1F
100
AcDbEntity
  8
100
  6
Continuous
 62
     3
100
AcDbCircle
 10
120.0
 20
262.119854885594
 30
0.0
 40
82.00000000000034
100
AcDbArc
 50
71.02352560070484
 51
108.9764743992952
  0
ARC
  5
25C
330
1F
100
AcDbEntity
  8
100
  6
Continuous
 62
     3
100
AcDbCircle
 10
160.189025332916
 20
344.119854885594
 30
0.0
 40
5.0
100
AcDbArc
 50
270.0
 51
306.869897645844
  0
ARC
  5
25D
330
1F
100
AcDbEntity
  8
100
  6
Continuous
 62
     3
100
AcDbCircle
 10
149.916550603303
 20
349.119854885594
 30
0.0
 40
9.999999999999602
100
AcDbArc
 50
251.0235256007032
 51
270.0
  0
ARC
  5
25E
330
1F
100
AcDbEntity
  8
100
  6
Continuous
 62
     3
100
AcDbCircle
 10
90.0834493966968
 20
257.119854885594
 30
0.0
 40
10.0000000000006
100
AcDbArc
 50
71.02352560070466
 51
90.0
  0
ARC
  5
25F
330
1F
100
AcDbEntity
  8
100
  6
Continuous
 62
     3
100
AcDbCircle
 10
79.8109746670838
 20
262.119854885594
 30
0.0
 40
5.0
100
AcDbArc
 50
90.0
 51
126.869897645844
  0
ARC
  5
260
330
1F
100
AcDbEntity
  8
100
  6
Continuous
 62
     3
100
AcDbCircle
 10
160.189025332916
 20
262.119854885594
 30
0.0
 40
5.0
100
AcDbArc
 50
53.13010235415597
 51
90.0
  0
ARC
  5
261
330
1F
100
AcDbEntity
  8
100
  6
Continuous
 62
     3
100
AcDbCircle
 10
90.0834493966968
 20
257.119854885594
 30
0.0
 40
10.0000000000006
100
AcDbArc
 50
71.02352560070466
 51
90.0
  0
ARC
  5
262
330
1F
100
AcDbEntity
  8
100
  6
Continuous
 62
     3
100
AcDbCircle
 10
120.0
 20
344.119854885594
 30
0.0
 40
81.9999999999994
100
AcDbArc
 50
251.0235256007045
 51
288.9764743992954
  0
ARC
  5
263
330
1F
100
AcDbEntity
  8
100
  6
Continuous
 62
     3
100
AcDbCircle
 10
149.916550603303
 20
257.119854885594
 30
0.0
 40
10.0
100
AcDbArc
 50
90.0
 51
108.9764743992949
  0
ARC
  5
264
330
1F
100
AcDbEntity
  8
100
  6
Continuous
 62
     3
100
AcDbCircle
 10
193.831523278903
 20
345.746504725349
 30
0.0
 40
52.99999999999972
100
AcDbArc
 50
196.9907233384297
 51
223.0092766615707
  0
ARC
  5
265
330
1F
100
AcDbEntity
  8
100
  6
Continuous
 62
     3
100
AcDbCircle
 10
120.0
 20
303.119854885594
 30
0.0
 40
29.00000000000027
100
AcDbArc
 50
6.27800976222508
 51
53.7219902377747
  0
ARC
  5
266
330
1F
100
AcDbEntity
  8
100
  6
Continuous
 62
     3
100
AcDbCircle
 10
120.0
 20
303.119854885594
 30
0.0
 40
29.00000000000033
100
AcDbArc
 50
246.2780097622257
 51
293.721990237775
  0
ARC
  5
267
330
1F
100
AcDbEntity
  8
100
  6
Continuous
 62
     3
100
AcDbCircle
 10
120.0
 20
217.866555206084
 30
0.0
 40
53.00000000000016
100
AcDbArc
 50
76.99072333842967
 51
103.0092766615703
  0
ARC
  5
268
330
1F
100
AcDbEntity
  8
100
  6
Continuous
 62
     3
100
AcDbCircle
 10
46.1684767210967
 20
345.746504725349
 30
0.0
 40
52.99999999999997
100
AcDbArc
 50
316.9907233384295
 51
343.0092766615704
  0
ARC
  5
269
330
1F
100
AcDbEntity
  8
100
  6
Continuous
 62
     3
100
AcDbCircle
 10
120.0
 20
303.119854885594
 30
0.0
 40
29.00000000000058
100
AcDbArc
 50
126.2780097622253
 51
173.7219902377749
  0
ARC
  5
26A
330
1F
100
AcDbEntity
  8
100
  6
Continuous
 62
     3
100
AcDbCircle
 10
115.255596199022
 20
280.614507911567
 30
0.0
 40
3.000000000000167
100
AcDbArc
 50
147.8779855696493
 51
258.0956555031694
  0
ARC
  5
26B
330
1F
100
AcDbEntity
  8
100
  6
Continuous
 62
     3
100
AcDbCircle
 10
124.744401725252
 20
280.614507911567
 30
0.0
 40
2.999999999999527
100
AcDbArc
 50
281.9043444968344
 51
32.12201443036084
  0
ARC
  5
26C
330
1F
100
AcDbEntity
  8
100
  6
Continuous
 62
     3
100
AcDbCircle
 10
137.11799978107
 20
287.758408079938
 30
0.0
 40
3.000000000000265
100
AcDbArc
 50
207.8779855696649
 51
318.095655503164
  0
ARC
  5
26D
330
1F
100
AcDbEntity
  8
100
  6
Continuous
 62
     3
100
AcDbCircle
 10
141.862402544185
 20
295.975954717223
 30
0.0
 40
3.000000000000099
100
AcDbArc
 50
341.9043444968268
 51
92.12201443034525
  0
ARC
  5
26E
330
1F
100
AcDbEntity
  8
100
  6
Continuous
 62
     3
100
AcDbCircle
 10
141.862402544185
 20
310.263755053965
 30
0.0
 40
2.999999999999847
100
AcDbArc
 50
267.8779855696548
 51
18.09565550317323
  0
ARC
  5
26F
330
1F
100
AcDbEntity
  8
100
  6
Continuous
 62
     3
100
AcDbCircle
 10
137.11799978107
 20
318.48130169125
 30
0.0
 40
3.000000000000131
100
AcDbArc
 50
41.90434449683604
 51
152.122014430336
  0
ARC
  5
270
330
1F
100
AcDbEntity
  8
100
  6
Continuous
 62
     3
100
AcDbCircle
 10
102.881998143204
 20
287.758408079938
 30
0.0
 40
3.000000000000131
100
AcDbArc
 50
221.904344496836
 51
332.1220144303351
  0
ARC
  5
271
330
1F
100
AcDbEntity
  8
100
  6
Continuous
 62
     3
100
AcDbCircle
 10
98.1375953800888
 20
295.975954717223
 30
0.0
 40
2.999999999999897
100
AcDbArc
 50
87.87798556965855
 51
198.0956555031745
  0
ARC
  5
272
330
1F
100
AcDbEntity
  8
100
  6
Continuous
 62
     3
100
AcDbCircle
 10
98.1375953800888
 20
310.263755053965
 30
0.0
 40
3.000000000000085
100
AcDbArc
 50
161.9043444968267
 51
272.1220144303415
  0
ARC
  5
273
330
1F
100
AcDbEntity
  8
100
  6
Continuous
 62
     3
100
AcDbCircle
 10
102.881998143204
 20
318.48130169125
 30
0.0
 40
3.000000000000238
100
AcDbArc
 50
27.87798556966396
 51
138.095655503164
  0
ARC
  5
274
330
1F
100
AcDbEntity
  8
100
  6
Continuous
 62
     3
100
AcDbCircle
 10
124.744401725252
 20
325.625201859621
 30
0.0
 40
2.999999999999623
100
AcDbArc
 50
327.8779855696658
 51
78.09565550316586
  0
ARC
  5
275
330
1F
100
AcDbEntity
  8
100
  6
Continuous
 62
     3
100
AcDbCircle
 10
115.255596199022
 20
325.625201859621
 30
0.0
 40
3.000000000000529
100
AcDbArc
 50
101.9043444968303
 51
212.1220144303241
  0
ARC
  5
276
330
1F
100
AcDbEntity
  8
100
  6
Continuous
 62
     3
100
AcDbCircle
 10
102.749998962137
 20
273.241978455031
 30
0.0
 40
8.00000000000031
100
AcDbArc
 50
240.0000000000038
 51
287.3023355693559
  0
ARC
  5
277
330
1F
100
AcDbEntity
  8
100
  6
Continuous
 62
     3
100
AcDbCircle
 10
119.999998962137
 20
217.866555206084
 30
0.0
 40
51.49999999999986
100
AcDbArc
 50
72.69766443064037
 51
107.3023355693607
  0
ARC
  5
278
330
1F
100
AcDbEntity
  8
100
  6
Continuous
 62
     3
100
AcDbCircle
 10
119.999998962137
 20
217.866555206084
 30
0.0
 40
49.99999999999989
100
AcDbArc
 50
72.69766443064015
 51
107.3023355693609
  0
ARC
  5
279
330
1F
100
AcDbEntity
  8
100
  6
Continuous
 62
     3
100
AcDbCircle
 10
137.249998962137
 20
273.241978455031
 30
0.0
 40
8.0000000000003
100
AcDbArc
 50
252.6976644306374
 51
299.9999999999981
  0
ARC
  5
27A
330
1F
100
AcDbEntity
  8
100
  6
Continuous
 62
     3
100
AcDbCircle
 10
137.249998962137
 20
273.241978455031
 30
0.0
 40
8.00000000000046
100
AcDbArc
 50
299.9999999999981
 51
347.3023355693621
  0
ARC
  5
27B
330
1F
100
AcDbEntity
  8
100
  6
Continuous
 62
     3
100
AcDbCircle
 10
154.499998962137
 20
303.119854885594
 30
0.0
 40
8.0
100
AcDbArc
 50
0.0
 51
47.30233556935603
  0
ARC
  5
27C
330
1F
100
AcDbEntity
  8
100
  6
Continuous
 62
     3
100
AcDbCircle
 10
154.499998962137
 20
303.119854885594
 30
0.0
 40
8.000000000000336
100
AcDbArc
 50
312.697664430639
 51
0.0
  0
ARC
  5
27D
330
1F
100
AcDbEntity
  8
100
  6
Continuous
 62
     3
100
AcDbCircle
 10
193.83152224104
 20
260.493205045839
 30
0.0
 40
49.99999999999946
100
AcDbArc
 50
132.6976644306395
 51
167.3023355693597
  0
ARC
  5
27E
330
1F
100
AcDbEntity
  8
100
  6
Continuous
 62
     3
100
AcDbCircle
 10
193.83152224104
 20
260.493205045839
 30
0.0
 40
51.49999999999979
100
AcDbArc
 50
132.6976644306394
 51
167.3023355693603
  0
ARC
  5
27F
330
1F
100
AcDbEntity
  8
100
  6
Continuous
 62
     3
100
AcDbCircle
 10
193.83152224104
 20
345.746504725349
 30
0.0
 40
51.50000000000006
100
AcDbArc
 50
192.6976644306397
 51
227.3023355693606
  0
ARC
  5
280
330
1F
100
AcDbEntity
  8
100
  6
Continuous
 62
     3
100
AcDbCircle
 10
137.249998962137
 20
332.997731316157
 30
0.0
 40
7.999999999999542
100
AcDbArc
 50
12.69766443063955
 51
59.99999999999824
  0
ARC
  5
281
330
1F
100
AcDbEntity
  8
100
  6
Continuous
 62
     3
100
AcDbCircle
 10
193.83152224104
 20
345.746504725349
 30
0.0
 40
50.00000000000014
100
AcDbArc
 50
192.69766443064
 51
227.3023355693613
  0
ARC
  5
282
330
1F
100
AcDbEntity
  8
100
  6
Continuous
 62
     3
100
AcDbCircle
 10
46.1684756832336
 20
260.493205045839
 30
0.0
 40
51.49999999999996
100
AcDbArc
 50
12.69766443063978
 51
47.30233556936037
  0
ARC
  5
283
330
1F
100
AcDbEntity
  8
100
  6
Continuous
 62
     3
100
AcDbCircle
 10
85.4999989621369
 20
303.119854885594
 30
0.0
 40
8.000000000000199
100
AcDbArc
 50
180.0
 51
227.3023355693631
  0
ARC
  5
284
330
1F
100
AcDbEntity
  8
100
  6
Continuous
 62
     3
100
AcDbCircle
 10
46.1684756832336
 20
260.493205045839
 30
0.0
 40
50.00000000000004
100
AcDbArc
 50
12.69766443064008
 51
47.30233556935993
  0
ARC
  5
285
330
1F
100
AcDbEntity
  8
100
  6
Continuous
 62
     3
100
AcDbCircle
 10
102.749998962137
 20
273.241978455031
 30
0.0
 40
8.00000000000004
100
AcDbArc
 50
192.6976644306387
 51
240.0000000000038
  0
ARC
  5
286
330
1F
100
AcDbEntity
  8
100
  6
Continuous
 62
     3
100
AcDbCircle
 10
85.4999989621369
 20
303.119854885594
 30
0.0
 40
8.00000000000016
100
AcDbArc
 50
132.6976644306382
 51
180.0
  0
ARC
  5
287
330
1F
100
AcDbEntity
  8
100
  6
Continuous
 62
     3
100
AcDbCircle
 10
46.1684756832336
 20
345.746504725349
 30
0.0
 40
51.50000000000005
100
AcDbArc
 50
312.6976644306397
 51
347.3023355693603
  0
ARC
  5
288
330
1F
100
AcDbEntity
  8
100
  6
Continuous
 62
     3
100
AcDbCircle
 10
102.749998962137
 20
332.997731316157
 30
0.0
 40
8.000000000000211
100
AcDbArc
 50
119.9999999999958
 51
167.3023355693616
  0
ARC
  5
289
330
1F
100
AcDbEntity
  8
100
  6
Continuous
 62
     3
100
AcDbCircle
 10
46.1684756832336
 20
345.746504725349
 30
0.0
 40
49.99999999999979
100
AcDbArc
 50
312.6976644306399
 51
347.3023355693599
  0
ARC
  5
28A
330
1F
100
AcDbEntity
  8
100
  6
Continuous
 62
     3
100
AcDbCircle
 10
119.999998962137
 20
388.373154565104
 30
0.0
 40
51.50000000000016
100
AcDbArc
 50
252.6976644306393
 51
287.3023355693608
  0
ARC
  5
28B
330
1F
100
AcDbEntity
  8
100
  6
Continuous
 62
     3
100
AcDbCircle
 10
119.999998962137
 20
388.373154565104
 30
0.0
 40
50.00000000000023
100
AcDbArc
 50
252.6976644306391
 51
287.3023355693595
  0
ARC
  5
28C
330
1F
100
AcDbEntity
  8
100
  6
Continuous
 62
     3
100
AcDbCircle
 10
102.749998962137
 20
332.997731316157
 30
0.0
 40
7.999999999999956
100
AcDbArc
 50
72.69766443064398
 51
119.9999999999958
  0
ARC
  5
28D
330
1F
100
AcDbEntity
  8
100
  6
Continuous
 62
     3
100
AcDbCircle
 10
137.249998962137
 20
332.997731316157
 30
0.0
 40
7.999999999999574
100
AcDbArc
 50
59.99999999999824
 51
107.3023355693648
  0
ARC
  5
28E
330
1F
100
AcDbEntity
  8
100
  6
Continuous
 62
     3
100
AcDbCircle
 10
286.463856110508
 20
112.089841557159
 30
0.0
 40
42.63732606536971
100
AcDbArc
 50
79.39069482873411
 51
100.6093051712659
  0
ARC
  5
28F
330
1F
100
AcDbEntity
  8
100
  6
Continuous
 62
     3
100
AcDbCircle
 10
292.463856110508
 20
227.000000000002
 30
0.0
 40
1.0
100
AcDbArc
 50
0.0
 51
90.0
  0
ARC
  5
290
330
1F
100
AcDbEntity
  8
100
  6
Continuous
 62
     3
100
AcDbCircle
 10
280.463856110508
 20
227.000000000002
 30
0.0
 40
1.0
100
AcDbArc
 50
90.0
 51
180.0
  0
ARC
  5
291
330
1F
100
AcDbEntity
  8
100
  6
Continuous
 62
     3
100
AcDbCircle
 10
255.587941247242
 20
213.000000000002
 30
0.0
 40
2.0
100
AcDbArc
 50
90.0
 51
116.5650511770773
  0
ARC
  5
292
330
1F
100
AcDbEntity
  8
100
  6
Continuous
 62
     3
100
AcDbCircle
 10
252.643669337242
 20
216.000000000002
 30
0.0
 40
2.0
100
AcDbArc
 50
270.0
 51
296.5650511770784
  0
ARC
  5
293
330
1F
100
AcDbEntity
  8
100
  6
Continuous
 62
     3
100
AcDbCircle
 10
251.457419216863
 20
216.000000000002
 30
0.0
 40
1.999999999999304
100
AcDbArc
 50
199.7732748502821
 51
270.0
  0
ARC
  5
294
330
1F
100
AcDbEntity
  8
100
  6
Continuous
 62
     3
100
AcDbCircle
 10
265.365805292242
 20
221.000000000002
 30
0.0
 40
16.77982419454933
100
AcDbArc
 50
160.2267251497064
 51
199.7732748502903
  0
ARC
  5
295
330
1F
100
AcDbEntity
  8
100
  6
Continuous
 62
     3
100
AcDbCircle
 10
251.457419216863
 20
226.000000000002
 30
0.0
 40
2.0
100
AcDbArc
 50
90.0
 51
160.2267251496903
  0
ARC
  5
296
330
1F
100
AcDbEntity
  8
100
  6
Continuous
 62
     3
100
AcDbCircle
 10
261.67428685213
 20
226.000000000002
 30
0.0
 40
2.000000000000066
100
AcDbArc
 50
29.99999999999891
 51
90.0
  0
ARC
  5
297
330
1F
100
AcDbEntity
  8
100
  6
Continuous
 62
     3
100
AcDbCircle
 10
275.283660013227
 20
209.000000000002
 30
0.0
 40
1.00000000000003
100
AcDbArc
 50
191.309932474009
 51
270.0
  0
ARC
  5
298
330
1F
100
AcDbEntity
  8
100
  6
Continuous
 62
     3
100
AcDbCircle
 10
321.470293004153
 20
226.000000000002
 30
0.0
 40
2.000000000000613
100
AcDbArc
 50
19.77327485029976
 51
90.0
  0
ARC
  5
299
330
1F
100
AcDbEntity
  8
100
  6
Continuous
 62
     3
100
AcDbCircle
 10
317.339770973774
 20
213.000000000002
 30
0.0
 40
2.000000000000187
100
AcDbArc
 50
63.43494882292274
 51
90.0
  0
ARC
  5
29A
330
1F
100
AcDbEntity
  8
100
  6
Continuous
 62
     3
100
AcDbCircle
 10
320.284042883774
 20
216.000000000002
 30
0.0
 40
2.000000000000187
100
AcDbArc
 50
243.4349488229209
 51
270.0
  0
ARC
  5
29B
330
1F
100
AcDbEntity
  8
100
  6
Continuous
 62
     3
100
AcDbCircle
 10
321.470293004153
 20
216.000000000002
 30
0.0
 40
2.0
100
AcDbArc
 50
270.0
 51
340.2267251497278
  0
ARC
  5
29C
330
1F
100
AcDbEntity
  8
100
  6
Continuous
 62
     3
100
AcDbCircle
 10
307.561906928774
 20
221.000000000002
 30
0.0
 40
16.77982419454995
100
AcDbArc
 50
340.2267251497108
 51
19.77327485029246
  0
ARC
  5
29D
330
1F
100
AcDbEntity
  8
100
  6
Continuous
 62
     3
100
AcDbCircle
 10
311.253425368886
 20
226.000000000002
 30
0.0
 40
2.0
100
AcDbArc
 50
90.0
 51
150.0000000000019
  0
ARC
  5
29E
330
1F
100
AcDbEntity
  8
100
  6
Continuous
 62
     3
100
AcDbCircle
 10
297.644052207789
 20
209.0
 30
0.0
 40
1.0
100
AcDbArc
 50
270.0
 51
348.690067525991
  0
ARC
  5
29F
330
1F
100
AcDbEntity
  8
100
  6
Continuous
 62
     3
100
AcDbCircle
 10
239.786006278273
 20
111.938298838808
 30
0.0
 40
15.00000000000002
100
AcDbArc
 50
328.897551691711
 51
356.1634823134624
  0
ARC
  5
2A0
330
1F
100
AcDbEntity
  8
100
  6
Continuous
 62
     3
100
AcDbCircle
 10
333.141705942743
 20
111.938298838808
 30
0.0
 40
15.00000000000051
100
AcDbArc
 50
183.8365176865376
 51
211.102448308289
  0
ARC
  5
2A1
330
1F
100
AcDbEntity
  8
100
  6
Continuous
 62
     3
100
AcDbCircle
 10
286.463856110508
 20
81.0
 30
0.0
 40
41.00000000000001
100
AcDbArc
 50
334.4805415091432
 51
25.51945849085679
  0
ARC
  5
2A2
330
1F
100
AcDbEntity
  8
100
  6
Continuous
 62
     3
100
AcDbCircle
 10
286.463856110508
 20
81.0
 30
0.0
 40
41.00000000000006
100
AcDbArc
 50
274.4805415091437
 51
325.5194584908559
  0
ARC
  5
2A3
330
1F
100
AcDbEntity
  8
100
  6
Continuous
 62
     3
100
AcDbCircle
 10
286.463856110508
 20
81.0
 30
0.0
 40
40.99999999999967
100
AcDbArc
 50
214.4805415091434
 51
265.5194584908562
  0
ARC
  5
2A4
330
1F
100
AcDbEntity
  8
100
  6
Continuous
 62
     3
100
AcDbCircle
 10
286.463856110508
 20
81.0
 30
0.0
 40
41.0
100
AcDbArc
 50
154.4805415091432
 51
205.5194584908568
  0
ARC
  5
2A5
330
1F
100
AcDbEntity
  8
2
  6
DOTTED
 62
     6
100
AcDbCircle
 10
104.588320526613
 20
198.761338826158
 30
0.0
 40
3.000000000000116
100
AcDbArc
 50
11.30993247400893
 51
61.18920625703529
  0
ARC
  5
2A6
330
1F
100
AcDbEntity
  8
2
  6
DOTTED
 62
     6
100
AcDbCircle
 10
108.819803902719
 20
198.0
 30
0.0
 40
1.000000000000043
100
AcDbArc
 50
191.3099324740089
 51
270.0
  0
ARC
  5
2A7
330
1F
100
AcDbEntity
  8
2
  6
DOTTED
 62
     6
100
AcDbCircle
 10
131.180196097281
 20
198.0
 30
0.0
 40
1.0
100
AcDbArc
 50
270.0
 51
348.6900675259913
  0
ARC
  5
2A8
330
1F
100
AcDbEntity
  8
2
  6
DOTTED
 62
     6
100
AcDbCircle
 10
135.411679473387
 20
198.761338826158
 30
0.0
 40
2.99999999999982
100
AcDbArc
 50
118.8107937429652
 51
168.6900675259912
  0
ARC
  5
2A9
330
1F
100
AcDbEntity
  8
2
  6
DOTTED
 62
     6
100
AcDbCircle
 10
149.441518440112
 20
215.0
 30
0.0
 40
2.0
100
AcDbArc
 50
90.0
 51
150.0000000000015
  0
ARC
  5
2AA
330
1F
100
AcDbEntity
  8
2
  6
DOTTED
 62
     6
100
AcDbCircle
 10
131.0
 20
216.0
 30
0.0
 40
1.0
100
AcDbArc
 50
90.0
 51
180.0
  0
ARC
  5
2AB
330
1F
100
AcDbEntity
  8
2
  6
DOTTED
 62
     6
100
AcDbCircle
 10
143.0
 20
216.0
 30
0.0
 40
1.0
100
AcDbArc
 50
0.0
 51
90.0
  0
ARC
  5
2AC
330
1F
100
AcDbEntity
  8
2
  6
DOTTED
 62
     6
100
AcDbCircle
 10
109.0
 20
216.0
 30
0.0
 40
1.0
100
AcDbArc
 50
0.0
 51
90.0
  0
ARC
  5
2AD
330
1F
100
AcDbEntity
  8
2
  6
DOTTED
 62
     6
100
AcDbCircle
 10
97.0000000000002
 20
216.0
 30
0.0
 40
1.0
100
AcDbArc
 50
90.0
 51
180.0
  0
ARC
  5
2AE
330
1F
100
AcDbEntity
  8
2
  6
DOTTED
 62
     6
100
AcDbCircle
 10
80.3416139246211
 20
215.000000000001
 30
0.0
 40
2.0
100
AcDbArc
 50
90.0
 51
160.226725149724
  0
ARC
  5
2AF
330
1F
100
AcDbEntity
  8
2
  6
DOTTED
 62
     6
100
AcDbCircle
 10
90.558481559888
 20
215.0
 30
0.0
 40
2.000000000000029
100
AcDbArc
 50
29.99999999999953
 51
90.0
  0
ARC
  5
2B0
330
1F
100
AcDbEntity
  8
2
  6
DOTTED
 62
     6
100
AcDbCircle
 10
94.2500000000001
 20
210.0
 30
0.0
 40
16.77982419455001
100
AcDbArc
 50
160.2267251497072
 51
199.7732748502893
  0
ARC
  5
2B1
330
1F
100
AcDbEntity
  8
2
  6
DOTTED
 62
     6
100
AcDbCircle
 10
84.4721359549997
 20
202.0
 30
0.0
 40
2.0
100
AcDbArc
 50
90.0
 51
116.565051177078
  0
ARC
  5
2B2
330
1F
100
AcDbEntity
  8
2
  6
DOTTED
 62
     6
100
AcDbCircle
 10
81.5278640450005
 20
205.0
 30
0.0
 40
2.0
100
AcDbArc
 50
270.0
 51
296.5650511770754
  0
ARC
  5
2B3
330
1F
100
AcDbEntity
  8
2
  6
DOTTED
 62
     6
100
AcDbCircle
 10
80.341613924621
 20
205.0
 30
0.0
 40
2.000000000000169
100
AcDbArc
 50
199.773274850274
 51
270.0
  0
ARC
  5
2B4
330
1F
100
AcDbEntity
  8
2
  6
DOTTED
 62
     6
100
AcDbCircle
 10
97.4721359549997
 20
205.0
 30
0.0
 40
2.0000000000002
100
AcDbArc
 50
243.434948822922
 51
270.0
  0
ARC
  5
2B5
330
1F
100
AcDbEntity
  8
2
  6
DOTTED
 62
     6
100
AcDbCircle
 10
94.5278640450004
 20
202.0
 30
0.0
 40
2.0000000000002
100
AcDbArc
 50
63.43494882292201
 51
90.0
  0
ARC
  5
2B6
330
1F
100
AcDbEntity
  8
2
  6
DOTTED
 62
     6
100
AcDbCircle
 10
145.472135955
 20
202.0
 30
0.0
 40
2.0
100
AcDbArc
 50
90.0
 51
116.565051177078
  0
ARC
  5
2B7
330
1F
100
AcDbEntity
  8
2
  6
DOTTED
 62
     6
100
AcDbCircle
 10
142.527864045
 20
205.0
 30
0.0
 40
2.0
100
AcDbArc
 50
270.0
 51
296.565051177078
  0
ARC
  5
2B8
330
1F
100
AcDbEntity
  8
2
  6
DOTTED
 62
     6
100
AcDbCircle
 10
155.527864045
 20
202.0
 30
0.0
 40
2.0000000000002
100
AcDbArc
 50
63.43494882292201
 51
90.0
  0
ARC
  5
2B9
330
1F
100
AcDbEntity
  8
2
  6
PHANTOM
 62
     6
100
AcDbCircle
 10
158.472135954999
 20
205.0
 30
0.0
 40
1.999999999999755
100
AcDbArc
 50
243.4349488229475
 51
270.0
  0
ARC
  5
2BA
330
1F
100
AcDbEntity
  8
2
  6
DOTTED
 62
     6
100
AcDbCircle
 10
159.658386075379
 20
205.0
 30
0.0
 40
2.0
100
AcDbArc
 50
270.0
 51
340.2267251497268
  0
ARC
  5
2BB
330
1F
100
AcDbEntity
  8
2
  6
DOTTED
 62
     6
100
AcDbCircle
 10
159.658386075379
 20
215.000000000001
 30
0.0
 40
2.000000000000249
100
AcDbArc
 50
19.77327485027322
 51
90.0
  0
ARC
  5
2BC
330
1F
100
AcDbEntity
  8
2
  6
DOTTED
 62
     6
100
AcDbCircle
 10
145.75
 20
210.0
 30
0.0
 40
16.77982419454996
100
AcDbArc
 50
340.2267251497108
 51
19.77327485029246
  0
ARC
  5
2BD
330
1F
100
AcDbEntity
  8
100
  6
Continuous
 62
     3
100
AcDbCircle
 10
109.0
 20
227.0
 30
0.0
 40
1.0
100
AcDbArc
 50
0.0
 51
90.0
  0
ARC
  5
2BE
330
1F
100
AcDbEntity
  8
100
  6
Continuous
 62
     3
100
AcDbCircle
 10
80.3416139246211
 20
226.000000000001
 30
0.0
 40
2.0
100
AcDbArc
 50
90.0
 51
160.226725149724
  0
ARC
  5
2BF
330
1F
100
AcDbEntity
  8
100
  6
Continuous
 62
     3
100
AcDbCircle
 10
97.0000000000002
 20
227.0
 30
0.0
 40
1.0
100
AcDbArc
 50
90.0
 51
180.0
  0
ARC
  5
2C0
330
1F
100
AcDbEntity
  8
100
  6
Continuous
 62
     3
100
AcDbCircle
 10
90.558481559888
 20
226.0
 30
0.0
 40
1.999999999999684
100
AcDbArc
 50
30.00000000000523
 51
90.0
  0
ARC
  5
2C1
330
1F
100
AcDbEntity
  8
100
  6
Continuous
 62
     3
100
AcDbCircle
 10
108.819803902719
 20
209.0
 30
0.0
 40
1.000000000000043
100
AcDbArc
 50
191.3099324740089
 51
270.0
  0
ARC
  5
2C2
330
1F
100
AcDbEntity
  8
100
  6
Continuous
 62
     3
100
AcDbCircle
 10
104.588320526613
 20
209.761338826158
 30
0.0
 40
3.000000000000116
100
AcDbArc
 50
11.30993247400893
 51
61.18920625703529
  0
ARC
  5
2C3
330
1F
100
AcDbEntity
  8
100
  6
Continuous
 62
     3
100
AcDbCircle
 10
102.854025144211
 20
216.0
 30
0.0
 40
2.0
100
AcDbArc
 50
270.0
 51
284.4053968714916
  0
ARC
  5
2C4
330
1F
100
AcDbEntity
  8
100
  6
Continuous
 62
     3
100
AcDbCircle
 10
97.4721359549997
 20
216.0
 30
0.0
 40
2.0000000000002
100
AcDbArc
 50
243.434948822922
 51
270.0
  0
ARC
  5
2C5
330
1F
100
AcDbEntity
  8
100
  6
Continuous
 62
     3
100
AcDbCircle
 10
84.4721359549997
 20
213.0
 30
0.0
 40
2.0
100
AcDbArc
 50
90.0
 51
116.565051177078
  0
ARC
  5
2C6
330
1F
100
AcDbEntity
  8
100
  6
Continuous
 62
     3
100
AcDbCircle
 10
81.5278640450005
 20
216.0
 30
0.0
 40
2.0
100
AcDbArc
 50
270.0
 51
296.5650511770754
  0
ARC
  5
2C7
330
1F
100
AcDbEntity
  8
100
  6
Continuous
 62
     3
100
AcDbCircle
 10
80.341613924621
 20
216.0
 30
0.0
 40
2.000000000000169
100
AcDbArc
 50
199.773274850274
 51
270.0
  0
ARC
  5
2C8
330
1F
100
AcDbEntity
  8
100
  6
Continuous
 62
     3
100
AcDbCircle
 10
94.2500000000001
 20
221.0
 30
0.0
 40
16.77982419455001
100
AcDbArc
 50
160.2267251497072
 51
199.7732748502893
  0
ARC
  5
2C9
330
1F
100
AcDbEntity
  8
100
  6
Continuous
 62
     3
100
AcDbCircle
 10
107.252754453878
 20
213.0
 30
0.0
 40
2.0
100
AcDbArc
 50
90.0
 51
104.4053968714912
  0
ARC
  5
2CA
330
1F
100
AcDbEntity
  8
100
  6
Continuous
 62
     3
100
AcDbCircle
 10
94.5278640450004
 20
213.0
 30
0.0
 40
2.0000000000002
100
AcDbArc
 50
63.43494882292201
 51
90.0
  0
ARC
  5
2CB
330
1F
100
AcDbEntity
  8
5
  6
Continuous
 62
     3
100
AcDbCircle
 10
111.5
 20
221.0
 30
0.0
 40
16.7798241945497
100
AcDbArc
 50
161.29722079194
 51
198.5230634625849
  0
ARC
  5
2CC
330
1F
100
AcDbEntity
  8
100
  6
Continuous
 62
     3
100
AcDbCircle
 10
131.180196097281
 20
209.0
 30
0.0
 40
1.0
100
AcDbArc
 50
270.0
 51
348.6900675259913
  0
ARC
  5
2CD
330
1F
100
AcDbEntity
  8
100
  6
Continuous
 62
     3
100
AcDbCircle
 10
131.0
 20
227.0
 30
0.0
 40
1.0
100
AcDbArc
 50
90.0
 51
180.0
  0
ARC
  5
2CE
330
1F
100
AcDbEntity
  8
100
  6
Continuous
 62
     3
100
AcDbCircle
 10
135.411679473387
 20
209.761338826158
 30
0.0
 40
2.99999999999982
100
AcDbArc
 50
118.8107937429652
 51
168.6900675259912
  0
ARC
  5
2CF
330
1F
100
AcDbEntity
  8
100
  6
Continuous
 62
     3
100
AcDbCircle
 10
137.145974855789
 20
216.0
 30
0.0
 40
2.000000000000075
100
AcDbArc
 50
255.594603128536
 51
270.0
  0
ARC
  5
2D0
330
1F
100
AcDbEntity
  8
100
  6
Continuous
 62
     3
100
AcDbCircle
 10
142.527864045
 20
216.0
 30
0.0
 40
2.0
100
AcDbArc
 50
270.0
 51
296.565051177078
  0
ARC
  5
2D1
330
1F
100
AcDbEntity
  8
100
  6
Continuous
 62
     3
100
AcDbCircle
 10
159.658386075379
 20
226.000000000001
 30
0.0
 40
2.000000000000249
100
AcDbArc
 50
19.77327485027322
 51
90.0
  0
ARC
  5
2D2
330
1F
100
AcDbEntity
  8
100
  6
Continuous
 62
     3
100
AcDbCircle
 10
155.527864045
 20
213.0
 30
0.0
 40
2.0000000000002
100
AcDbArc
 50
63.43494882292201
 51
90.0
  0
ARC
  5
2D3
330
1F
100
AcDbEntity
  8
100
  6
Continuous
 62
     3
100
AcDbCircle
 10
158.472135954999
 20
216.0
 30
0.0
 40
1.999999999999755
100
AcDbArc
 50
243.4349488229475
 51
270.0
  0
ARC
  5
2D4
330
1F
100
AcDbEntity
  8
100
  6
Continuous
 62
     3
100
AcDbCircle
 10
159.658386075379
 20
216.0
 30
0.0
 40
2.0
100
AcDbArc
 50
270.0
 51
340.2267251497268
  0
ARC
  5
2D5
330
1F
100
AcDbEntity
  8
100
  6
Continuous
 62
     3
100
AcDbCircle
 10
145.75
 20
221.0
 30
0.0
 40
16.77982419454996
100
AcDbArc
 50
340.2267251497108
 51
19.77327485029246
  0
ARC
  5
2D6
330
1F
100
AcDbEntity
  8
100
  6
Continuous
 62
     3
100
AcDbCircle
 10
143.0
 20
227.0
 30
0.0
 40
1.0
100
AcDbArc
 50
0.0
 51
90.0
  0
ARC
  5
2D7
330
1F
100
AcDbEntity
  8
100
  6
Continuous
 62
     3
100
AcDbCircle
 10
132.747245546122
 20
213.0
 30
0.0
 40
2.000000000000323
100
AcDbArc
 50
75.59460312850841
 51
90.0
  0
ARC
  5
2D8
330
1F
100
AcDbEntity
  8
100
  6
Continuous
 62
     3
100
AcDbCircle
 10
145.472135955
 20
213.0
 30
0.0
 40
2.0
100
AcDbArc
 50
90.0
 51
116.565051177078
  0
ARC
  5
2D9
330
1F
100
AcDbEntity
  8
100
  6
Continuous
 62
     3
100
AcDbCircle
 10
149.441518440112
 20
226.0
 30
0.0
 40
2.0
100
AcDbArc
 50
90.0
 51
150.0000000000015
  0
ARC
  5
2DA
330
1F
100
AcDbEntity
  8
5
  6
Continuous
 62
     3
100
AcDbCircle
 10
128.5
 20
221.0
 30
0.0
 40
16.77982419454952
100
AcDbArc
 50
341.4769365374149
 51
18.70277920806048
  0
ARC
  5
2DB
330
1F
100
AcDbEntity
  8
100
  6
Continuous
 62
     3
100
AcDbCircle
 10
83.5860889073134
 20
122.0
 30
0.0
 40
5.0
100
AcDbArc
 50
270.0
 51
352.8749836510987
  0
ARC
  5
2DC
330
1F
100
AcDbEntity
  8
100
  6
Continuous
 62
     3
100
AcDbCircle
 10
156.413911092687
 20
122.0
 30
0.0
 40
5.000000000000636
100
AcDbArc
 50
187.1250163489003
 51
270.0
  0
ARC
  5
2DD
330
1F
100
AcDbEntity
  8
100
  6
Continuous
 62
     3
100
AcDbCircle
 10
90.0834493966968
 20
35.0
 30
0.0
 40
9.999999999999993
100
AcDbArc
 50
71.02352560070408
 51
90.0
  0
ARC
  5
2DE
330
1F
100
AcDbEntity
  8
100
  6
Continuous
 62
     3
100
AcDbCircle
 10
120.0
 20
122.0
 30
0.0
 40
82.0
100
AcDbArc
 50
251.0235256007046
 51
288.9764743992953
  0
ARC
  5
2DF
330
1F
100
AcDbEntity
  8
100
  6
Continuous
 62
     3
100
AcDbCircle
 10
79.8109746670838
 20
40.0
 30
0.0
 40
5.0
100
AcDbArc
 50
90.0
 51
145.0000000000006
  0
ARC
  5
2E0
330
1F
100
AcDbEntity
  8
100
  6
Continuous
 62
     3
100
AcDbCircle
 10
79.8109746670838
 20
122.0
 30
0.0
 40
4.999999999999901
100
AcDbArc
 50
214.9999999999975
 51
270.0
  0
ARC
  5
2E1
330
1F
100
AcDbEntity
  8
100
  6
Continuous
 62
     3
100
AcDbCircle
 10
160.189025332916
 20
40.0
 30
0.0
 40
5.00000000000002
100
AcDbArc
 50
34.9999999999994
 51
90.0
  0
ARC
  5
2E2
330
1F
100
AcDbEntity
  8
100
  6
Continuous
 62
     3
100
AcDbCircle
 10
160.189025332916
 20
122.0
 30
0.0
 40
5.0
100
AcDbArc
 50
270.0
 51
325.0000000000025
  0
ARC
  5
2E3
330
1F
100
AcDbEntity
  8
100
  6
Continuous
 62
     3
100
AcDbCircle
 10
149.916550603303
 20
35.0
 30
0.0
 40
10.0
100
AcDbArc
 50
90.0
 51
108.976474399296
  0
ARC
  5
2E4
330
1F
100
AcDbEntity
  8
100
  6
Continuous
 62
     3
100
AcDbCircle
 10
138.087179482575
 20
133.33076913408
 30
0.0
 40
21.41000000000023
100
AcDbArc
 50
74.86679320270875
 51
96.00483974399658
  0
ARC
  5
2E5
330
1F
100
AcDbEntity
  8
100
  6
Continuous
 62
     3
100
AcDbCircle
 10
146.5
 20
136.5
 30
0.0
 40
1.5
100
AcDbArc
 50
180.0
 51
270.0
  0
ARC
  5
2E6
330
1F
100
AcDbEntity
  8
100
  6
Continuous
 62
     3
100
AcDbCircle
 10
101.912820517425
 20
133.33076913408
 30
0.0
 40
21.40999999999956
100
AcDbArc
 50
83.99516025600347
 51
105.1332067972905
  0
ARC
  5
2E7
330
1F
100
AcDbEntity
  8
100
  6
Continuous
 62
     3
100
AcDbCircle
 10
93.5
 20
136.5
 30
0.0
 40
1.5
100
AcDbArc
 50
270.0
 51
0.0
  0
CIRCLE
  5
2E8
330
1F
100
AcDbEntity
  8
100
  6
Continuous
 62
     3
100
AcDbCircle
 10
154.499998962137
 20
303.119854885594
 30
0.0
 40
6.5
  0
CIRCLE
  5
2E9
330
1F
100
AcDbEntity
  8
100
  6
Continuous
 62
     3
100
AcDbCircle
 10
137.249998962137
 20
273.241978455031
 30
0.0
 40
6.5
  0
CIRCLE
  5
2EA
330
1F
100
AcDbEntity
  8
100
  6
Continuous
 62
     3
100
AcDbCircle
 10
102.749998962137
 20
273.241978455031
 30
0.0
 40
6.5
  0
CIRCLE
  5
2EB
330
1F
100
AcDbEntity
  8
100
  6
Continuous
 62
     3
100
AcDbCircle
 10
85.4999989621369
 20
303.119854885594
 30
0.0
 40
6.5
  0
CIRCLE
  5
2EC
330
1F
100
AcDbEntity
  8
100
  6
Continuous
 62
     3
100
AcDbCircle
 10
102.749998962137
 20
332.997731316157
 30
0.0
 40
6.5
  0
CIRCLE
  5
2ED
330
1F
100
AcDbEntity
  8
100
  6
Continuous
 62
     3
100
AcDbCircle
 10
119.999998962137
 20
303.119854885594
 30
0.0
 40
12.0
  0
CIRCLE
  5
2EE
330
1F
100
AcDbEntity
  8
100
  6
Continuous
 62
     3
100
AcDbCircle
 10
119.999998962137
 20
303.119854885594
 30
0.0
 40
28.0
  0
CIRCLE
  5
2EF
330
1F
100
AcDbEntity
  8
100
  6
Continuous
 62
     3
100
AcDbCircle
 10
137.249998962137
 20
332.997731316157
 30
0.0
 40
6.5
  0
CIRCLE
  5
2F0
330
1F
100
AcDbEntity
  8
1
  6
Continuous
 62
     3
100
AcDbCircle
 10
286.463856110508
 20
81.0
 30
0.0
 40
29.80700000000002
  0
CIRCLE
  5
2F1
330
1F
100
AcDbEntity
  8
100
  6
Continuous
 62
     3
100
AcDbCircle
 10
286.463856110508
 20
81.0
 30
0.0
 40
28.32799999999997
  0
LWPOLYLINE
  5
2F2
330
1F
100
AcDbEntity
  8
100
  6
Continuous
 62
     3
100
AcDbPolyline
 90
        4
 70
     0
 43
0.0
 10
129.902696339844
 20
278.867869258273
 42
0.23133765090673
 10
129.4650026823631
 20
278.9038745301326
 42
-0.18848588941661
 10
110.534995241911
 20
278.903874530132
 42
0.2313376509072
 10
110.0973015844298
 20
278.8678692582723
  0
LWPOLYLINE
  5
2F3
330
1F
100
AcDbEntity
  8
100
  6
Continuous
 62
     3
100
AcDbPolyline
 90
        8
 70
     0
 43
0.0
 10
109.748581109367
 20
278.683029559707
 42
0.14401283997075
 10
111.439577473539
 20
280.178466422276
 10
116.80746193546
 20
288.728308171713
 42
-0.26894396973054
 10
119.470424479334
 20
290.13064586937
 42
0.02037670644276
 10
120.52957344494
 20
290.13064586937
 42
-0.26894396973054
 10
123.192535988814
 20
288.728308171713
 10
128.560420450735
 20
280.178466422276
 42
0.14401283997075
 10
130.251416814907
 20
278.683029559707
  0
LWPOLYLINE
  5
2F4
330
1F
100
AcDbEntity
  8
100
  6
Continuous
 62
     3
100
AcDbPolyline
 90
        4
 70
     0
 43
0.0
 10
145.954183296465
 20
299.569849567017
 42
0.23133765090617
 10
145.7041549876247
 20
299.2087983764931
 42
-0.18848588941661
 10
136.239151267399
 20
282.814931039233
 42
0.23133765090625
 10
136.0514859187588
 20
282.41787457685
  0
LWPOLYLINE
  5
2F5
330
1F
100
AcDbEntity
  8
100
  6
Continuous
 62
     3
100
AcDbPolyline
 90
        8
 70
     0
 43
0.0
 10
136.037201555813
 20
282.023453937342
 42
0.14401283997079
 10
135.5876134251587
 20
284.2356181777068
 10
130.867175502769
 20
293.159263361028
 42
-0.26894396973065
 10
130.984196703852
 20
296.166625422179
 42
0.02037670644274
 10
131.5137711866546
 20
297.0838753327852
 42
-0.26894396973057
 10
134.059712529447
 20
298.688899696279
 10
144.148034913757
 20
299.062703130163
 42
0.14401283997074
 10
146.288619408583
 20
299.7794305079589
  0
LWPOLYLINE
  5
2F6
330
1F
100
AcDbEntity
  8
100
  6
Continuous
 62
     3
100
AcDbPolyline
 90
        4
 70
     0
 43
0.0
 10
136.051485918758
 20
323.821835194338
 42
0.23133765090669
 10
136.2391512673987
 20
323.4247787319546
 42
-0.1884858894166
 10
145.704154987625
 20
307.030911394695
 42
0.2313376509062
 10
145.9541832964651
 20
306.6698602041712
  0
LWPOLYLINE
  5
2F7
330
1F
100
AcDbEntity
  8
100
  6
Continuous
 62
     3
100
AcDbPolyline
 90
        8
 70
     0
 43
0.0
 10
146.288619408583
 20
306.46027926323
 42
0.14401283997071
 10
144.148034913757
 20
307.1770066410252
 10
134.059712529447
 20
307.550810074909
 42
-0.26894396973058
 10
131.513771186655
 20
309.155834438403
 42
0.02037670644276
 10
130.9841967038519
 20
310.0730843490099
 42
-0.26894396973058
 10
130.867175502769
 20
313.08044641016
 10
135.587613425159
 20
322.004091593481
 42
0.14401283997075
 10
136.0372015558133
 20
324.216255833846
  0
LWPOLYLINE
  5
2F8
330
1F
100
AcDbEntity
  8
100
  6
Continuous
 62
     3
100
AcDbPolyline
 90
        4
 70
     0
 43
0.0
 10
103.948512005515
 20
282.41787457685
 42
0.23133765090687
 10
103.7608466568752
 20
282.8149310392332
 42
-0.1884858894166
 10
94.2958429366491
 20
299.208798376493
 42
0.23133765090654
 10
94.04581462780838
 20
299.569849567017
  0
LWPOLYLINE
  5
2F9
330
1F
100
AcDbEntity
  8
100
  6
Continuous
 62
     3
100
AcDbPolyline
 90
        8
 70
     0
 43
0.0
 10
93.711378515691
 20
299.779430507959
 42
0.14401283997077
 10
95.85196301051741
 20
299.0627031301634
 10
105.940285394827
 20
298.688899696279
 42
-0.26894396973057
 10
108.486226737619
 20
297.083875332785
 42
0.02037670644274
 10
109.0158012204217
 20
296.1666254221788
 42
-0.26894396973065
 10
109.132822421505
 20
293.159263361028
 10
104.412384499115
 20
284.235618177707
 42
0.14401283997072
 10
103.9627963684605
 20
282.0234539373429
  0
LWPOLYLINE
  5
2FA
330
1F
100
AcDbEntity
  8
100
  6
Continuous
 62
     3
100
AcDbPolyline
 90
        4
 70
     0
 43
0.0
 10
94.0458146278085
 20
306.669860204171
 42
0.23133765090676
 10
94.29584293664944
 20
307.030911394695
 42
-0.1884858894166
 10
103.760846656875
 20
323.424778731955
 42
0.23133765090626
 10
103.9485120055152
 20
323.821835194338
  0
LWPOLYLINE
  5
2FB
330
1F
100
AcDbEntity
  8
100
  6
Continuous
 62
     3
100
AcDbPolyline
 90
        8
 70
     0
 43
0.0
 10
103.962796368461
 20
324.216255833846
 42
0.14401283997079
 10
104.4123844991153
 20
322.0040915934812
 10
109.132822421505
 20
313.08044641016
 42
-0.26894396973058
 10
109.015801220422
 20
310.07308434901
 42
0.02037670644276
 10
108.4862267376189
 20
309.1558344384031
 42
-0.26894396973058
 10
105.940285394827
 20
307.550810074909
 10
95.8519630105174
 20
307.177006641025
 42
0.14401283997069
 10
93.71137851569183
 20
306.4602792632298
  0
LWPOLYLINE
  5
2FC
330
1F
100
AcDbEntity
  8
100
  6
Continuous
 62
     3
100
AcDbPolyline
 90
        8
 70
     0
 43
0.0
 10
130.251416814907
 20
327.556680211481
 42
0.1440128399708
 10
128.5604204507349
 20
326.0612433489121
 10
123.192535988815
 20
317.511401599475
 42
-0.26894396973051
 10
120.52957344494
 20
316.109063901818
 42
0.02037670644276
 10
119.470424479334
 20
316.109063901818
 42
-0.26894396973054
 10
116.80746193546
 20
317.511401599475
 10
111.439577473539
 20
326.061243348912
 42
0.1440128399708
 10
109.748581109367
 20
327.556680211481
  0
LWPOLYLINE
  5
2FD
330
1F
100
AcDbEntity
  8
100
  6
Continuous
 62
     3
100
AcDbPolyline
 90
        4
 70
     0
 43
0.0
 10
110.09730158443
 20
327.371840512915
 42
0.23133765090647
 10
110.5349952419112
 20
327.3358352410556
 42
-0.1884858894166
 10
129.465002682363
 20
327.335835241056
 42
0.23133765090645
 10
129.9026963398438
 20
327.3718405129154
  0
LWPOLYLINE
  5
2FE
330
1F
100
AcDbEntity
  8
100
  6
Continuous
 62
     3
100
AcDbPolyline
 90
        6
 70
     1
 43
0.0
 10
98.5004968261719
 20
76.0
 10
98.5004968261719
 20
76.0
 10
100.320347997503
 20
81.0
 10
112.437261107291
 20
81.0
 10
110.61740993596
 20
76.0
 10
98.5004968261719
 20
76.0
  0
LWPOLYLINE
  5
2FF
330
1F
100
AcDbEntity
  8
100
  6
Continuous
 62
     3
100
AcDbPolyline
 90
        7
 70
     1
 43
0.0
 10
128.0
 20
81.0
 10
128.0
 20
81.0
 10
128.0
 20
79.8
 10
135.518206931238
 20
79.8
 10
134.5
 20
76.0
 10
139.5
 20
81.0
 10
128.0
 20
81.0
  0
LWPOLYLINE
  5
300
330
1F
100
AcDbEntity
  8
100
  6
Continuous
 62
     3
100
AcDbPolyline
 90
        8
 70
     1
 43
0.0
 10
286.463856110508
 20
123.723919920032
 10
286.463856110508
 20
123.723919920032
 10
249.463856110508
 20
102.361959960016
 10
249.463856110508
 20
59.6380400399839
 10
286.463856110508
 20
38.2760800799677
 10
323.463856110508
 20
59.6380400399838
 10
323.463856110508
 20
102.361959960016
 10
286.463856110508
 20
123.723919920032
  0
LEADER
  5
301
330
1F
100
AcDbEntity
  8
1
  6
Continuous
 62
     4
100
AcDbLeader
  3
Standard
 71
     0
 76
     3
 10
52.5
 20
81.0
 30
0.0
 10
25.0498918148368
 20
45.7275159950952
 30
0.0
 10
-5.74714169685619
 20
45.7275159950952
 30
0.0
  0
LEADER
  5
302
330
1F
100
AcDbEntity
  8
1
  6
Continuous
 62
     4
100
AcDbLeader
  3
Standard
 71
     0
 76
     3
 10
187.5
 20
81.0
 30
0.0
 10
211.925095162488
 20
44.5315146936702
 30
0.0
 10
242.722128674181
 20
44.5315146936702
 30
0.0
  0
DIMENSION
  5
338
330
1F
100
AcDbEntity
  8
1
100
AcDbDimension
  2
*D1
 10
52.5
 20
0.23831775454277
 30
0.0
 11
120.0
 21
6.23831775454277
 31
0.0
 70
    32
  1
135
 71
     5
 42
-1.0
 53
0.00013888888889
  3
ME10_DIM_10
100
AcDbAlignedDimension
 13
187.5
 23
38.2760800799677
 33
0.0
 14
52.5
 24
38.2760800799677
 34
0.0
100
AcDbRotatedDimension
  0
DIMENSION
  5
345
330
1F
100
AcDbEntity
  8
1
100
AcDbDimension
  2
*D3
 10
214.469216756269
 20
81.00000000000001
 30
0.0
 11
208.469216756269
 21
156.052687622656
 31
0.0
 70
    32
  1
147
 71
     5
 42
-1.0
 53
90.0
  3
ME10_DIM_11
100
AcDbAlignedDimension
 13
159.658386075379
 23
228.000000000001
 33
0.0
 14
197.884641006117
 24
81.0
 34
0.0
 50
90.0
100
AcDbRotatedDimension
  0
ENDSEC
  0
SECTION
  2
OBJECTS
  0
DICTIONARY
  5
C
330
0
100
AcDbDictionary
281
     1
  3
ACAD_GROUP
350
D
  3
ACAD_LAYOUT
350
1A
  3
ACAD_MATERIAL
350
3B
  3
ACAD_MLEADERSTYLE
350
348
  3
ACAD_MLINESTYLE
350
17
  3
ACAD_PLOTSETTINGS
350
19
  3
ACAD_PLOTSTYLENAME
350
E
  3
ACAD_SCALELIST
350
30C
  3
ACAD_VISUALSTYLE
350
2A
  3
AcDbVariableDictionary
350
346
  0
DICTIONARY
  5
D
102
{ACAD_REACTORS
330
C
102
}
330
C
100
AcDbDictionary
281
     1
  0
DICTIONARY
  5
1A
102
{ACAD_REACTORS
330
C
102
}
330
C
100
AcDbDictionary
281
     1
  3
Layout1
350
1E
  3
Layout2
350
26
  3
Model
350
22
  0
DICTIONARY
  5
3B
102
{ACAD_REACTORS
330
C
102
}
330
C
100
AcDbDictionary
281
     1
  3
ByBlock
350
3D
  3
ByLayer
350
3C
  3
Global
350
3E
  0
DICTIONARY
  5
348
102
{ACAD_REACTORS
330
C
102
}
330
C
100
AcDbDictionary
281
     1
  0
DICTIONARY
  5
17
102
{ACAD_REACTORS
330
C
102
}
330
C
100
AcDbDictionary
281
     1
  3
Standard
350
18
  0
DICTIONARY
  5
19
102
{ACAD_REACTORS
330
C
102
}
330
C
100
AcDbDictionary
281
     1
  0
ACDBDICTIONARYWDFLT
  5
E
102
{ACAD_REACTORS
330
C
102
}
330
C
100
AcDbDictionary
281
     1
  3
Normal
350
F
100
AcDbDictionaryWithDefault
340
F
  0
DICTIONARY
  5
30C
102
{ACAD_REACTORS
330
C
102
}
330
C
100
AcDbDictionary
281
     1
  3
A0
350
30D
  3
A1
350
30E
  3
A2
350
30F
  3
A3
350
310
  3
A4
350
311
  3
A5
350
312
  3
A6
350
313
  3
A7
350
314
  3
A8
350
315
  3
A9
350
316
  3
B0
350
317
  3
B1
350
318
  3
B2
350
319
  3
B3
350
31A
  3
B4
350
31B
  3
B5
350
31C
  3
B6
350
31D
  3
B7
350
31E
  3
B8
350
31F
  3
B9
350
320
  3
C0
350
321
  3
C1
350
322
  3
C2
350
323
  3
C3
350
324
  3
C4
350
325
  3
C5
350
326
  3
C6
350
327
  3
C7
350
328
  3
C8
350
329
  3
C9
350
32A
  3
D0
350
32B
  3
D1
350
32C
  3
D2
350
32D
  0
DICTIONARY
  5
2A
102
{ACAD_REACTORS
330
C
102
}
330
C
100
AcDbDictionary
281
     1
  3
2dWireframe
350
2F
  3
3D Hidden
350
31
  3
3dWireframe
350
30
  3
Basic
350
32
  3
Brighten
350
36
  3
ColorChange
350
3A
  3
Conceptual
350
34
  3
Dim
350
35
  3
Facepattern
350
39
  3
Flat
350
2B
  3
FlatWithEdges
350
2C
  3
Gouraud
350
2D
  3
GouraudWithEdges
350
2E
  3
Linepattern
350
38
  3
Realistic
350
33
  3
Thicken
350
37
  0
DICTIONARY
  5
346
102
{ACAD_REACTORS
330
C
102
}
330
C
100
AcDbDictionary
281
     1
  3
CANNOSCALE
350
349
  3
DIMASSOC
350
34A
  3
HIDETEXT
350
34B
  0
LAYOUT
  5
1E
102
{ACAD_REACTORS
330
1A
102
}
330
1A
100
AcDbPlotSettings
  1

  2
none_device
  4

  6

 40
0.0
 41
0.0
 42
0.0
 43
0.0
 44
0.0
 45
0.0
 46
0.0
 47
0.0
 48
0.0
 49
0.0
140
0.0
141
0.0
142
1.0
143
1.0
 70
   688
 72
     0
 73
     0
 74
     5
  7

 75
    16
147
1.0
148
0.0
149
0.0
100
AcDbLayout
  1
Layout1
 70
     1
 71
     1
 10
0.0
 20
0.0
 11
12.0
 21
9.0
 12
0.0
 22
0.0
 32
0.0
 14
1.00000000000000E+20
 24
1.00000000000000E+20
 34
1.00000000000000E+20
 15
-1.00000000000000E+20
 25
-1.00000000000000E+20
 35
-1.00000000000000E+20
146
0.0
 13
0.0
 23
0.0
 33
0.0
 16
1.0
 26
0.0
 36
0.0
 17
0.0
 27
1.0
 37
0.0
 76
     0
330
1B
  0
LAYOUT
  5
26
102
{ACAD_REACTORS
330
1A
102
}
330
1A
100
AcDbPlotSettings
  1

  2
none_device
  4

  6

 40
0.0
 41
0.0
 42
0.0
 43
0.0
 44
0.0
 45
0.0
 46
0.0
 47
0.0
 48
0.0
 49
0.0
140
0.0
141
0.0
142
1.0
143
1.0
 70
   688
 72
     0
 73
     0
 74
     5
  7

 75
    16
147
1.0
148
0.0
149
0.0
100
AcDbLayout
  1
Layout2
 70
     1
 71
     2
 10
0.0
 20
0.0
 11
0.0
 21
0.0
 12
0.0
 22
0.0
 32
0.0
 14
0.0
 24
0.0
 34
0.0
 15
0.0
 25
0.0
 35
0.0
146
0.0
 13
0.0
 23
0.0
 33
0.0
 16
1.0
 26
0.0
 36
0.0
 17
0.0
 27
1.0
 37
0.0
 76
     0
330
23
  0
LAYOUT
  5
22
102
{ACAD_REACTORS
330
1A
102
}
330
1A
100
AcDbPlotSettings
  1

  2
none_device
  4

  6

 40
0.0
 41
0.0
 42
0.0
 43
0.0
 44
0.0
 45
0.0
 46
0.0
 47
0.0
 48
0.0
 49
0.0
140
0.0
141
0.0
142
1.0
143
1.0
 70
  1712
 72
     0
 73
     0
 74
     0
  7

 75
     0
147
1.0
148
0.0
149
0.0
100
AcDbLayout
  1
Model
 70
     1
 71
     0
 10
0.0
 20
0.0
 11
12.0
 21
9.0
 12
0.0
 22
0.0
 32
0.0
 14
-5.74714169685619
 24
-1.90527578490621
 34
0.0
 15
336.46489908201
 25
344.1198548855944
 35
0.0
146
0.0
 13
0.0
 23
0.0
 33
0.0
 16
1.0
 26
0.0
 36
0.0
 17
0.0
 27
1.0
 37
0.0
 76
     0
330
1F
331
29
  0
MATERIAL
  5
3D
102
{ACAD_REACTORS
330
3B
102
}
102
{ACAD_XDICTIONARY
360
36E
102
}
330
3B
100
AcDbMaterial
  1
ByBlock
  0
MATERIAL
  5
3C
102
{ACAD_REACTORS
330
3B
102
}
102
{ACAD_XDICTIONARY
360
36C
102
}
330
3B
100
AcDbMaterial
  1
ByLayer
  0
MATERIAL
  5
3E
102
{ACAD_REACTORS
330
3B
102
}
102
{ACAD_XDICTIONARY
360
370
102
}
330
3B
100
AcDbMaterial
  1
Global
  0
MLINESTYLE
  5
18
102
{ACAD_REACTORS
330
17
102
}
330
17
100
AcDbMlineStyle
  2
Standard
 70
     0
  3

 62
   256
 51
90.0
 52
90.0
 71
     2
 49
0.5
 62
   256
  6
BYLAYER
 49
-0.5
 62
   256
  6
BYLAYER
  0
ACDBPLACEHOLDER
  5
F
102
{ACAD_REACTORS
330
E
102
}
330
E
  0
SCALE
  5
30D
102
{ACAD_REACTORS
330
30C
102
}
330
30C
100
AcDbScale
 70
     0
300
1:1
140
1.0
141
1.0
290
     1
  0
SCALE
  5
30E
102
{ACAD_REACTORS
330
30C
102
}
330
30C
100
AcDbScale
 70
     0
300
1:2
140
1.0
141
2.0
290
     0
  0
SCALE
  5
30F
102
{ACAD_REACTORS
330
30C
102
}
330
30C
100
AcDbScale
 70
     0
300
1:4
140
1.0
141
4.0
290
     0
  0
SCALE
  5
310
102
{ACAD_REACTORS
330
30C
102
}
330
30C
100
AcDbScale
 70
     0
300
1:5
140
1.0
141
5.0
290
     0
  0
SCALE
  5
311
102
{ACAD_REACTORS
330
30C
102
}
330
30C
100
AcDbScale
 70
     0
300
1:8
140
1.0
141
8.0
290
     0
  0
SCALE
  5
312
102
{ACAD_REACTORS
330
30C
102
}
330
30C
100
AcDbScale
 70
     0
300
1:10
140
1.0
141
10.0
290
     0
  0
SCALE
  5
313
102
{ACAD_REACTORS
330
30C
102
}
330
30C
100
AcDbScale
 70
     0
300
1:16
140
1.0
141
16.0
290
     0
  0
SCALE
  5
314
102
{ACAD_REACTORS
330
30C
102
}
330
30C
100
AcDbScale
 70
     0
300
1:20
140
1.0
141
20.0
290
     0
  0
SCALE
  5
315
102
{ACAD_REACTORS
330
30C
102
}
330
30C
100
AcDbScale
 70
     0
300
1:30
140
1.0
141
30.0
290
     0
  0
SCALE
  5
316
102
{ACAD_REACTORS
330
30C
102
}
330
30C
100
AcDbScale
 70
     0
300
1:40
140
1.0
141
40.0
290
     0
  0
SCALE
  5
317
102
{ACAD_REACTORS
330
30C
102
}
330
30C
100
AcDbScale
 70
     0
300
1:50
140
1.0
141
50.0
290
     0
  0
SCALE
  5
318
102
{ACAD_REACTORS
330
30C
102
}
330
30C
100
AcDbScale
 70
     0
300
1:100
140
1.0
141
100.0
290
     0
  0
SCALE
  5
319
102
{ACAD_REACTORS
330
30C
102
}
330
30C
100
AcDbScale
 70
     0
300
2:1
140
2.0
141
1.0
290
     0
  0
SCALE
  5
31A
102
{ACAD_REACTORS
330
30C
102
}
330
30C
100
AcDbScale
 70
     0
300
4:1
140
4.0
141
1.0
290
     0
  0
SCALE
  5
31B
102
{ACAD_REACTORS
330
30C
102
}
330
30C
100
AcDbScale
 70
     0
300
8:1
140
8.0
141
1.0
290
     0
  0
SCALE
  5
31C
102
{ACAD_REACTORS
330
30C
102
}
330
30C
100
AcDbScale
 70
     0
300
10:1
140
10.0
141
1.0
290
     0
  0
SCALE
  5
31D
102
{ACAD_REACTORS
330
30C
102
}
330
30C
100
AcDbScale
 70
     0
300
100:1
140
100.0
141
1.0
290
     0
  0
SCALE
  5
31E
102
{ACAD_REACTORS
330
30C
102
}
330
30C
100
AcDbScale
 70
     0
300
1/128" = 1'-0"
140
0.0078125
141
12.0
290
     0
  0
SCALE
  5
31F
102
{ACAD_REACTORS
330
30C
102
}
330
30C
100
AcDbScale
 70
     0
300
1/64" = 1'-0"
140
0.015625
141
12.0
290
     0
  0
SCALE
  5
320
102
{ACAD_REACTORS
330
30C
102
}
330
30C
100
AcDbScale
 70
     0
300
1/32" = 1'-0"
140
0.03125
141
12.0
290
     0
  0
SCALE
  5
321
102
{ACAD_REACTORS
330
30C
102
}
330
30C
100
AcDbScale
 70
     0
300
1/16" = 1'-0"
140
0.0625
141
12.0
290
     0
  0
SCALE
  5
322
102
{ACAD_REACTORS
330
30C
102
}
330
30C
100
AcDbScale
 70
     0
300
3/32" = 1'-0"
140
0.09375
141
12.0
290
     0
  0
SCALE
  5
323
102
{ACAD_REACTORS
330
30C
102
}
330
30C
100
AcDbScale
 70
     0
300
1/8" = 1'-0"
140
0.125
141
12.0
290
     0
  0
SCALE
  5
324
102
{ACAD_REACTORS
330
30C
102
}
330
30C
100
AcDbScale
 70
     0
300
3/16" = 1'-0"
140
0.1875
141
12.0
290
     0
  0
SCALE
  5
325
102
{ACAD_REACTORS
330
30C
102
}
330
30C
100
AcDbScale
 70
     0
300
1/4" = 1'-0"
140
0.25
141
12.0
290
     0
  0
SCALE
  5
326
102
{ACAD_REACTORS
330
30C
102
}
330
30C
100
AcDbScale
 70
     0
300
3/8" = 1'-0"
140
0.375
141
12.0
290
     0
  0
SCALE
  5
327
102
{ACAD_REACTORS
330
30C
102
}
330
30C
100
AcDbScale
 70
     0
300
1/2" = 1'-0"
140
0.5
141
12.0
290
     0
  0
SCALE
  5
328
102
{ACAD_REACTORS
330
30C
102
}
330
30C
100
AcDbScale
 70
     0
300
3/4" = 1'-0"
140
0.75
141
12.0
290
     0
  0
SCALE
  5
329
102
{ACAD_REACTORS
330
30C
102
}
330
30C
100
AcDbScale
 70
     0
300
1" = 1'-0"
140
1.0
141
12.0
290
     0
  0
SCALE
  5
32A
102
{ACAD_REACTORS
330
30C
102
}
330
30C
100
AcDbScale
 70
     0
300
1-1/2" = 1'-0"
140
1.5
141
12.0
290
     0
  0
SCALE
  5
32B
102
{ACAD_REACTORS
330
30C
102
}
330
30C
100
AcDbScale
 70
     0
300
3" = 1'-0"
140
3.0
141
12.0
290
     0
  0
SCALE
  5
32C
102
{ACAD_REACTORS
330
30C
102
}
330
30C
100
AcDbScale
 70
     0
300
6" = 1'-0"
140
6.0
141
12.0
290
     0
  0
SCALE
  5
32D
102
{ACAD_REACTORS
330
30C
102
}
330
30C
100
AcDbScale
 70
     0
300
1'-0" = 1'-0"
140
12.0
141
12.0
290
     0
  0
VISUALSTYLE
  5
2F
102
{ACAD_REACTORS
330
2A
102
}
102
{ACAD_XDICTIONARY
360
354
102
}
330
2A
100
AcDbVisualStyle
  2
2dWireframe
 70
     4
 71
     0
 72
     2
 73
     0
 90
        0
 40
-0.6
 41
-30.0
 62
     5
 63
     7
 74
     1
 91
        4
 64
     7
 65
   257
 75
     1
175
     1
 42
1.0
 92
        0
 66
   257
 43
1.0
 76
     1
 77
     6
 78
     2
 67
     7
 79
     5
170
     0
171
     0
290
     0
174
     0
 93
        1
 44
0.0
173
     0
291
     0
 45
0.0
1001
ACAD
1000
AcDbSavedByObjectVersion
1070
     0
  0
VISUALSTYLE
  5
31
102
{ACAD_REACTORS
330
2A
102
}
102
{ACAD_XDICTIONARY
360
358
102
}
330
2A
100
AcDbVisualStyle
  2
3D Hidden
 70
     6
 71
     1
 72
     2
 73
     2
 90
        0
 40
-0.6
 41
-30.0
 62
     5
 63
     7
 74
     2
 91
        2
 64
     7
 65
   257
 75
     2
175
     1
 42
40.0
 92
        0
 66
   257
 43
1.0
 76
     1
 77
     6
 78
     2
 67
     7
 79
     3
170
     0
171
     0
290
     0
174
     0
 93
        1
 44
0.0
173
     0
291
     0
 45
0.0
1001
ACAD
1000
AcDbSavedByObjectVersion
1070
     0
  0
VISUALSTYLE
  5
30
102
{ACAD_REACTORS
330
2A
102
}
102
{ACAD_XDICTIONARY
360
356
102
}
330
2A
100
AcDbVisualStyle
  2
3dWireframe
 70
     5
 71
     0
 72
     2
 73
     0
 90
        0
 40
-0.6
 41
-30.0
 62
     5
 63
     7
 74
     1
 91
        4
 64
     7
 65
   257
 75
     1
175
     1
 42
1.0
 92
        0
 66
   257
 43
1.0
 76
     1
 77
     6
 78
     2
 67
     7
 79
     5
170
     0
171
     0
290
     0
174
     0
 93
        1
 44
0.0
173
     0
291
     0
 45
0.0
1001
ACAD
1000
AcDbSavedByObjectVersion
1070
     0
  0
VISUALSTYLE
  5
32
102
{ACAD_REACTORS
330
2A
102
}
102
{ACAD_XDICTIONARY
360
35A
102
}
330
2A
100
AcDbVisualStyle
  2
Basic
 70
     7
 71
     1
 72
     0
 73
     1
 90
        0
 40
-0.6
 41
-30.0
 62
     5
 63
     7
 74
     0
 91
        4
 64
     7
 65
   257
 75
     1
175
     1
 42
1.0
 92
        8
 66
     7
 43
1.0
 76
     1
 77
     6
 78
     2
 67
     7
 79
     5
170
     0
171
     0
290
     0
174
     0
 93
        1
 44
0.0
173
     0
291
     1
 45
0.0
1001
ACAD
1000
AcDbSavedByObjectVersion
1070
     0
  0
VISUALSTYLE
  5
36
102
{ACAD_REACTORS
330
2A
102
}
102
{ACAD_XDICTIONARY
360
362
102
}
330
2A
100
AcDbVisualStyle
  2
Brighten
 70
    12
 71
     2
 72
     2
 73
     0
 90
        0
 40
-0.6
 41
-30.0
 62
     5
 63
     7
 74
     1
 91
        4
 64
     7
 65
   257
 75
     1
175
     1
 42
1.0
 92
        8
 66
     7
 43
1.0
 76
     1
 77
     6
 78
     2
 67
     7
 79
     5
170
     0
171
     0
290
     0
174
     0
 93
        1
 44
50.0
173
     0
291
     1
 45
0.0
1001
ACAD
1000
AcDbSavedByObjectVersion
1070
     0
  0
VISUALSTYLE
  5
3A
102
{ACAD_REACTORS
330
2A
102
}
102
{ACAD_XDICTIONARY
360
36A
102
}
330
2A
100
AcDbVisualStyle
  2
ColorChange
 70
    16
 71
     2
 72
     2
 73
     3
 90
        0
 40
-0.6
 41
-30.0
 62
     5
 63
     8
 74
     1
 91
        4
 64
     7
 65
   257
 75
     1
175
     1
 42
1.0
 92
        8
 66
     8
 43
1.0
 76
     1
 77
     6
 78
     2
 67
     7
 79
     5
170
     0
171
     0
290
     0
174
     0
 93
        1
 44
0.0
173
     0
291
     1
 45
0.0
1001
ACAD
1000
AcDbSavedByObjectVersion
1070
     0
  0
VISUALSTYLE
  5
34
102
{ACAD_REACTORS
330
2A
102
}
102
{ACAD_XDICTIONARY
360
35E
102
}
330
2A
100
AcDbVisualStyle
  2
Conceptual
 70
     9
 71
     3
 72
     2
 73
     0
 90
        0
 40
-0.6
 41
-30.0
 62
     5
 63
     7
 74
     2
 91
        2
 64
     7
 65
   257
 75
     1
175
     1
 42
40.0
 92
        8
 66
     7
 43
1.0
 76
     1
 77
     6
 78
     2
 67
     7
 79
     3
170
     0
171
     0
290
     0
174
     0
 93
        1
 44
0.0
173
     0
291
     0
 45
0.0
1001
ACAD
1000
AcDbSavedByObjectVersion
1070
     0
  0
VISUALSTYLE
  5
35
102
{ACAD_REACTORS
330
2A
102
}
102
{ACAD_XDICTIONARY
360
360
102
}
330
2A
100
AcDbVisualStyle
  2
Dim
 70
    11
 71
     2
 72
     2
 73
     0
 90
        0
 40
-0.6
 41
-30.0
 62
     5
 63
     7
 74
     1
 91
        4
 64
     7
 65
   257
 75
     1
175
     1
 42
1.0
 92
        8
 66
     7
 43
1.0
 76
     1
 77
     6
 78
     2
 67
     7
 79
     5
170
     0
171
     0
290
     0
174
     0
 93
        1
 44
-50.0
173
     0
291
     1
 45
0.0
1001
ACAD
1000
AcDbSavedByObjectVersion
1070
     0
  0
VISUALSTYLE
  5
39
102
{ACAD_REACTORS
330
2A
102
}
102
{ACAD_XDICTIONARY
360
368
102
}
330
2A
100
AcDbVisualStyle
  2
Facepattern
 70
    15
 71
     2
 72
     2
 73
     0
 90
        0
 40
-0.6
 41
-30.0
 62
     5
 63
     7
 74
     1
 91
        4
 64
     7
 65
   257
 75
     1
175
     1
 42
1.0
 92
        8
 66
     7
 43
1.0
 76
     1
 77
     6
 78
     2
 67
     7
 79
     5
170
     0
171
     0
290
     0
174
     0
 93
        1
 44
0.0
173
     0
291
     1
 45
0.0
1001
ACAD
1000
AcDbSavedByObjectVersion
1070
     0
  0
VISUALSTYLE
  5
2B
102
{ACAD_REACTORS
330
2A
102
}
102
{ACAD_XDICTIONARY
360
34C
102
}
330
2A
100
AcDbVisualStyle
  2
Flat
 70
     0
 71
     2
 72
     1
 73
     1
 90
        2
 40
-0.6
 41
30.0
 62
     5
 63
     7
 74
     0
 91
        4
 64
     7
 65
   257
 75
     1
175
     1
 42
1.0
 92
        8
 66
     7
 43
1.0
 76
     1
 77
     6
 78
     2
 67
     7
 79
     5
170
     0
171
     0
290
     0
174
     0
 93
       13
 44
0.0
173
     0
291
     1
 45
0.0
1001
ACAD
1000
AcDbSavedByObjectVersion
1070
     0
  0
VISUALSTYLE
  5
2C
102
{ACAD_REACTORS
330
2A
102
}
102
{ACAD_XDICTIONARY
360
34E
102
}
330
2A
100
AcDbVisualStyle
  2
FlatWithEdges
 70
     1
 71
     2
 72
     1
 73
     1
 90
        2
 40
-0.6
 41
30.0
 62
     5
 63
     7
 74
     1
 91
        4
 64
     7
 65
   257
 75
     1
175
     1
 42
1.0
 92
        0
 66
   257
 43
1.0
 76
     1
 77
     6
 78
     2
 67
     7
 79
     5
170
     0
171
     0
290
     0
174
     0
 93
       13
 44
0.0
173
     0
291
     1
 45
0.0
1001
ACAD
1000
AcDbSavedByObjectVersion
1070
     0
  0
VISUALSTYLE
  5
2D
102
{ACAD_REACTORS
330
2A
102
}
102
{ACAD_XDICTIONARY
360
350
102
}
330
2A
100
AcDbVisualStyle
  2
Gouraud
 70
     2
 71
     2
 72
     2
 73
     1
 90
        2
 40
-0.6
 41
30.0
 62
     5
 63
     7
 74
     0
 91
        4
 64
     7
 65
   257
 75
     1
175
     1
 42
1.0
 92
        0
 66
     7
 43
1.0
 76
     1
 77
     6
 78
     2
 67
     7
 79
     5
170
     0
171
     0
290
     0
174
     0
 93
       13
 44
0.0
173
     0
291
     1
 45
0.0
1001
ACAD
1000
AcDbSavedByObjectVersion
1070
     0
  0
VISUALSTYLE
  5
2E
102
{ACAD_REACTORS
330
2A
102
}
102
{ACAD_XDICTIONARY
360
352
102
}
330
2A
100
AcDbVisualStyle
  2
GouraudWithEdges
 70
     3
 71
     2
 72
     2
 73
     1
 90
        2
 40
-0.6
 41
30.0
 62
     5
 63
     7
 74
     1
 91
        4
 64
     7
 65
   257
 75
     1
175
     1
 42
1.0
 92
        0
 66
   257
 43
1.0
 76
     1
 77
     6
 78
     2
 67
     7
 79
     5
170
     0
171
     0
290
     0
174
     0
 93
       13
 44
0.0
173
     0
291
     1
 45
0.0
1001
ACAD
1000
AcDbSavedByObjectVersion
1070
     0
  0
VISUALSTYLE
  5
38
102
{ACAD_REACTORS
330
2A
102
}
102
{ACAD_XDICTIONARY
360
366
102
}
330
2A
100
AcDbVisualStyle
  2
Linepattern
 70
    14
 71
     2
 72
     2
 73
     0
 90
        0
 40
-0.6
 41
-30.0
 62
     5
 63
     7
 74
     1
 91
        4
 64
     7
 65
   257
 75
     7
175
     7
 42
1.0
 92
        8
 66
     7
 43
1.0
 76
     1
 77
     6
 78
     2
 67
     7
 79
     5
170
     0
171
     0
290
     0
174
     0
 93
        1
 44
0.0
173
     0
291
     1
 45
0.0
1001
ACAD
1000
AcDbSavedByObjectVersion
1070
     0
  0
VISUALSTYLE
  5
33
102
{ACAD_REACTORS
330
2A
102
}
102
{ACAD_XDICTIONARY
360
35C
102
}
330
2A
100
AcDbVisualStyle
  2
Realistic
 70
     8
 71
     2
 72
     2
 73
     0
 90
        0
 40
-0.6
 41
-30.0
 62
     5
 63
     7
 74
     1
 91
        0
 64
     7
 65
   257
 75
     1
175
     1
 42
1.0
 92
        8
 66
     8
 43
1.0
 76
     1
 77
     6
 78
     2
 67
     7
 79
     5
170
     0
171
     0
290
     0
174
     0
 93
       13
 44
0.0
173
     0
291
     0
 45
0.0
1001
ACAD
1000
AcDbSavedByObjectVersion
1070
     0
  0
VISUALSTYLE
  5
37
102
{ACAD_REACTORS
330
2A
102
}
102
{ACAD_XDICTIONARY
360
364
102
}
330
2A
100
AcDbVisualStyle
  2
Thicken
 70
    13
 71
     2
 72
     2
 73
     0
 90
        0
 40
-0.6
 41
-30.0
 62
     5
 63
     7
 74
     1
 91
        4
 64
     7
 65
   257
 75
     1
175
     1
 42
1.0
 92
       12
 66
     7
 43
1.0
 76
     1
 77
     6
 78
     2
 67
     7
 79
     5
170
     0
171
     0
290
     0
174
     0
 93
        1
 44
0.0
173
     0
291
     1
 45
0.0
1001
ACAD
1000
AcDbSavedByObjectVersion
1070
     0
  0
DICTIONARYVAR
  5
349
102
{ACAD_REACTORS
330
346
102
}
330
346
100
DictionaryVariables
280
     0
  1
1:1
  0
DICTIONARYVAR
  5
34A
102
{ACAD_REACTORS
330
346
102
}
330
346
100
DictionaryVariables
280
     0
  1
2
  0
DICTIONARYVAR
  5
34B
102
{ACAD_REACTORS
330
346
102
}
330
346
100
DictionaryVariables
280
     0
  1
1
  0
DICTIONARY
  5
36E
330
3D
100
AcDbDictionary
280
     1
281
     1
  3
ACAD_XREC_ROUNDTRIP
360
36F
  0
DICTIONARY
  5
36C
330
3C
100
AcDbDictionary
280
     1
281
     1
  3
ACAD_XREC_ROUNDTRIP
360
36D
  0
DICTIONARY
  5
370
330
3E
100
AcDbDictionary
280
     1
281
     1
  3
ACAD_XREC_ROUNDTRIP
360
371
  0
DICTIONARY
  5
354
330
2F
100
AcDbDictionary
280
     1
281
     1
  3
ACAD_XREC_ROUNDTRIP
360
355
  0
DICTIONARY
  5
358
330
31
100
AcDbDictionary
280
     1
281
     1
  3
ACAD_XREC_ROUNDTRIP
360
359
  0
DICTIONARY
  5
356
330
30
100
AcDbDictionary
280
     1
281
     1
  3
ACAD_XREC_ROUNDTRIP
360
357
  0
DICTIONARY
  5
35A
330
32
100
AcDbDictionary
280
     1
281
     1
  3
ACAD_XREC_ROUNDTRIP
360
35B
  0
DICTIONARY
  5
362
330
36
100
AcDbDictionary
280
     1
281
     1
  3
ACAD_XREC_ROUNDTRIP
360
363
  0
DICTIONARY
  5
36A
330
3A
100
AcDbDictionary
280
     1
281
     1
  3
ACAD_XREC_ROUNDTRIP
360
36B
  0
DICTIONARY
  5
35E
330
34
100
AcDbDictionary
280
     1
281
     1
  3
ACAD_XREC_ROUNDTRIP
360
35F
  0
DICTIONARY
  5
360
330
35
100
AcDbDictionary
280
     1
281
     1
  3
ACAD_XREC_ROUNDTRIP
360
361
  0
DICTIONARY
  5
368
330
39
100
AcDbDictionary
280
     1
281
     1
  3
ACAD_XREC_ROUNDTRIP
360
369
  0
DICTIONARY
  5
34C
330
2B
100
AcDbDictionary
280
     1
281
     1
  3
ACAD_XREC_ROUNDTRIP
360
34D
  0
DICTIONARY
  5
34E
330
2C
100
AcDbDictionary
280
     1
281
     1
  3
ACAD_XREC_ROUNDTRIP
360
34F
  0
DICTIONARY
  5
350
330
2D
100
AcDbDictionary
280
     1
281
     1
  3
ACAD_XREC_ROUNDTRIP
360
351
  0
DICTIONARY
  5
352
330
2E
100
AcDbDictionary
280
     1
281
     1
  3
ACAD_XREC_ROUNDTRIP
360
353
  0
DICTIONARY
  5
366
330
38
100
AcDbDictionary
280
     1
281
     1
  3
ACAD_XREC_ROUNDTRIP
360
367
  0
DICTIONARY
  5
35C
330
33
100
AcDbDictionary
280
     1
281
     1
  3
ACAD_XREC_ROUNDTRIP
360
35D
  0
DICTIONARY
  5
364
330
37
100
AcDbDictionary
280
     1
281
     1
  3
ACAD_XREC_ROUNDTRIP
360
365
  0
XRECORD
  5
36F
102
{ACAD_REACTORS
330
36E
102
}
330
36E
100
AcDbXrecord
280
     1
102
MATERIAL
148
0.0
149
0.0
149
0.0
 93
        0
 94
      127
282
     0
 72
     1
 77
     1
171
     1
175
     1
179
     1
273
     0
  0
XRECORD
  5
36D
102
{ACAD_REACTORS
330
36C
102
}
330
36C
100
AcDbXrecord
280
     1
102
MATERIAL
148
0.0
149
0.0
149
0.0
 93
        0
 94
      127
282
     0
 72
     1
 77
     1
171
     1
175
     1
179
     1
273
     0
  0
XRECORD
  5
371
102
{ACAD_REACTORS
330
370
102
}
330
370
100
AcDbXrecord
280
     1
102
MATERIAL
148
0.0
149
0.0
149
0.0
 93
        0
 94
      127
282
     0
 72
     1
 77
     1
171
     1
175
     1
179
     1
273
     0
  0
XRECORD
  5
355
102
{ACAD_REACTORS
330
354
102
}
330
354
100
AcDbXrecord
280
     1
102
RTVSPropertyOp0
 70
     1
102
RTVSPropertyOp1
 70
     1
102
RTVSPropertyOp2
 70
     1
102
RTVSPropertyOp3
 70
     1
102
RTVSPropertyOp4
 70
     1
102
RTVSPropertyOp5
 70
     1
102
RTVSPropertyOp6
 70
     1
102
RTVSPropertyOp7
 70
     1
102
RTVSPropertyOp8
 70
     1
102
RTVSPropertyOp9
 70
     1
102
RTVSPropertyOp10
 70
     1
102
RTVSPropertyOp11
 70
     1
102
RTVSPropertyOp12
 70
     1
102
RTVSPropertyOp13
 70
     1
102
RTVSPropertyOp14
 70
     1
102
RTVSPropertyOp15
 70
     1
102
RTVSPropertyOp16
 70
     1
102
RTVSPropertyOp17
 70
     1
102
RTVSPropertyOp18
 70
     1
102
RTVSPropertyOp19
 70
     1
102
RTVSPropertyOp20
 70
     1
102
RTVSPropertyOp21
 70
     1
102
RTVSPropertyOp22
 70
     1
102
RTVSPropertyOp23
 70
     1
102
RTVSPropertyOp24
 70
     1
102
RTVSPropertyOp25
 70
     1
102
RTVSPropertyOp26
 70
     1
102
RTVSPropertyOp27
 70
     1
  0
XRECORD
  5
359
102
{ACAD_REACTORS
330
358
102
}
330
358
100
AcDbXrecord
280
     1
102
RTVSPropertyOp0
 70
     1
102
RTVSPropertyOp1
 70
     1
102
RTVSPropertyOp2
 70
     1
102
RTVSPropertyOp3
 70
     1
102
RTVSPropertyOp4
 70
     1
102
RTVSPropertyOp5
 70
     1
102
RTVSPropertyOp6
 70
     1
102
RTVSPropertyOp7
 70
     1
102
RTVSPropertyOp8
 70
     1
102
RTVSPropertyOp9
 70
     1
102
RTVSPropertyOp10
 70
     1
102
RTVSPropertyOp11
 70
     1
102
RTVSPropertyOp12
 70
     1
102
RTVSPropertyOp13
 70
     1
102
RTVSPropertyOp14
 70
     1
102
RTVSPropertyOp15
 70
     1
102
RTVSPropertyOp16
 70
     1
102
RTVSPropertyOp17
 70
     1
102
RTVSPropertyOp18
 70
     1
102
RTVSPropertyOp19
 70
     1
102
RTVSPropertyOp20
 70
     1
102
RTVSPropertyOp21
 70
     1
102
RTVSPropertyOp22
 70
     1
102
RTVSPropertyOp23
 70
     1
102
RTVSPropertyOp24
 70
     1
102
RTVSPropertyOp25
 70
     1
102
RTVSPropertyOp26
 70
     1
102
RTVSPropertyOp27
 70
     1
  0
XRECORD
  5
357
102
{ACAD_REACTORS
330
356
102
}
330
356
100
AcDbXrecord
280
     1
102
RTVSPropertyOp0
 70
     1
102
RTVSPropertyOp1
 70
     1
102
RTVSPropertyOp2
 70
     1
102
RTVSPropertyOp3
 70
     1
102
RTVSPropertyOp4
 70
     1
102
RTVSPropertyOp5
 70
     1
102
RTVSPropertyOp6
 70
     1
102
RTVSPropertyOp7
 70
     1
102
RTVSPropertyOp8
 70
     1
102
RTVSPropertyOp9
 70
     1
102
RTVSPropertyOp10
 70
     1
102
RTVSPropertyOp11
 70
     1
102
RTVSPropertyOp12
 70
     1
102
RTVSPropertyOp13
 70
     1
102
RTVSPropertyOp14
 70
     1
102
RTVSPropertyOp15
 70
     1
102
RTVSPropertyOp16
 70
     1
102
RTVSPropertyOp17
 70
     1
102
RTVSPropertyOp18
 70
     1
102
RTVSPropertyOp19
 70
     1
102
RTVSPropertyOp20
 70
     1
102
RTVSPropertyOp21
 70
     1
102
RTVSPropertyOp22
 70
     1
102
RTVSPropertyOp23
 70
     1
102
RTVSPropertyOp24
 70
     1
102
RTVSPropertyOp25
 70
     1
102
RTVSPropertyOp26
 70
     1
102
RTVSPropertyOp27
 70
     1
  0
XRECORD
  5
35B
102
{ACAD_REACTORS
330
35A
102
}
330
35A
100
AcDbXrecord
280
     1
102
RTVSPropertyOp0
 70
     1
102
RTVSPropertyOp1
 70
     1
102
RTVSPropertyOp2
 70
     1
102
RTVSPropertyOp3
 70
     1
102
RTVSPropertyOp4
 70
     1
102
RTVSPropertyOp5
 70
     1
102
RTVSPropertyOp6
 70
     1
102
RTVSPropertyOp7
 70
     1
102
RTVSPropertyOp8
 70
     1
102
RTVSPropertyOp9
 70
     1
102
RTVSPropertyOp10
 70
     1
102
RTVSPropertyOp11
 70
     1
102
RTVSPropertyOp12
 70
     1
102
RTVSPropertyOp13
 70
     1
102
RTVSPropertyOp14
 70
     1
102
RTVSPropertyOp15
 70
     1
102
RTVSPropertyOp16
 70
     1
102
RTVSPropertyOp17
 70
     1
102
RTVSPropertyOp18
 70
     1
102
RTVSPropertyOp19
 70
     1
102
RTVSPropertyOp20
 70
     1
102
RTVSPropertyOp21
 70
     1
102
RTVSPropertyOp22
 70
     1
102
RTVSPropertyOp23
 70
     1
102
RTVSPropertyOp24
 70
     1
102
RTVSPropertyOp25
 70
     1
102
RTVSPropertyOp26
 70
     1
102
RTVSPropertyOp27
 70
     1
  0
XRECORD
  5
363
102
{ACAD_REACTORS
330
362
102
}
330
362
100
AcDbXrecord
280
     1
102
RTVSPropertyOp0
 70
     1
102
RTVSPropertyOp1
 70
     1
102
RTVSPropertyOp2
 70
     1
102
RTVSPropertyOp3
 70
     1
102
RTVSPropertyOp4
 70
     1
102
RTVSPropertyOp5
 70
     1
102
RTVSPropertyOp6
 70
     1
102
RTVSPropertyOp7
 70
     1
102
RTVSPropertyOp8
 70
     1
102
RTVSPropertyOp9
 70
     1
102
RTVSPropertyOp10
 70
     1
102
RTVSPropertyOp11
 70
     1
102
RTVSPropertyOp12
 70
     1
102
RTVSPropertyOp13
 70
     1
102
RTVSPropertyOp14
 70
     1
102
RTVSPropertyOp15
 70
     1
102
RTVSPropertyOp16
 70
     1
102
RTVSPropertyOp17
 70
     1
102
RTVSPropertyOp18
 70
     1
102
RTVSPropertyOp19
 70
     1
102
RTVSPropertyOp20
 70
     1
102
RTVSPropertyOp21
 70
     1
102
RTVSPropertyOp22
 70
     1
102
RTVSPropertyOp23
 70
     1
102
RTVSPropertyOp24
 70
     1
102
RTVSPropertyOp25
 70
     1
102
RTVSPropertyOp26
 70
     1
102
RTVSPropertyOp27
 70
     1
  0
XRECORD
  5
36B
102
{ACAD_REACTORS
330
36A
102
}
330
36A
100
AcDbXrecord
280
     1
102
RTVSPropertyOp0
 70
     1
102
RTVSPropertyOp1
 70
     1
102
RTVSPropertyOp2
 70
     1
102
RTVSPropertyOp3
 70
     1
102
RTVSPropertyOp4
 70
     1
102
RTVSPropertyOp5
 70
     1
102
RTVSPropertyOp6
 70
     1
102
RTVSPropertyOp7
 70
     1
102
RTVSPropertyOp8
 70
     1
102
RTVSPropertyOp9
 70
     1
102
RTVSPropertyOp10
 70
     1
102
RTVSPropertyOp11
 70
     1
102
RTVSPropertyOp12
 70
     1
102
RTVSPropertyOp13
 70
     1
102
RTVSPropertyOp14
 70
     1
102
RTVSPropertyOp15
 70
     1
102
RTVSPropertyOp16
 70
     1
102
RTVSPropertyOp17
 70
     1
102
RTVSPropertyOp18
 70
     1
102
RTVSPropertyOp19
 70
     1
102
RTVSPropertyOp20
 70
     1
102
RTVSPropertyOp21
 70
     1
102
RTVSPropertyOp22
 70
     1
102
RTVSPropertyOp23
 70
     1
102
RTVSPropertyOp24
 70
     1
102
RTVSPropertyOp25
 70
     1
102
RTVSPropertyOp26
 70
     1
102
RTVSPropertyOp27
 70
     1
  0
XRECORD
  5
35F
102
{ACAD_REACTORS
330
35E
102
}
330
35E
100
AcDbXrecord
280
     1
102
RTVSPropertyOp0
 70
     1
102
RTVSPropertyOp1
 70
     1
102
RTVSPropertyOp2
 70
     1
102
RTVSPropertyOp3
 70
     1
102
RTVSPropertyOp4
 70
     1
102
RTVSPropertyOp5
 70
     1
102
RTVSPropertyOp6
 70
     1
102
RTVSPropertyOp7
 70
     1
102
RTVSPropertyOp8
 70
     1
102
RTVSPropertyOp9
 70
     1
102
RTVSPropertyOp10
 70
     1
102
RTVSPropertyOp11
 70
     1
102
RTVSPropertyOp12
 70
     1
102
RTVSPropertyOp13
 70
     1
102
RTVSPropertyOp14
 70
     1
102
RTVSPropertyOp15
 70
     1
102
RTVSPropertyOp16
 70
     1
102
RTVSPropertyOp17
 70
     1
102
RTVSPropertyOp18
 70
     1
102
RTVSPropertyOp19
 70
     1
102
RTVSPropertyOp20
 70
     1
102
RTVSPropertyOp21
 70
     1
102
RTVSPropertyOp22
 70
     1
102
RTVSPropertyOp23
 70
     1
102
RTVSPropertyOp24
 70
     1
102
RTVSPropertyOp25
 70
     1
102
RTVSPropertyOp26
 70
     1
102
RTVSPropertyOp27
 70
     1
  0
XRECORD
  5
361
102
{ACAD_REACTORS
330
360
102
}
330
360
100
AcDbXrecord
280
     1
102
RTVSPropertyOp0
 70
     1
102
RTVSPropertyOp1
 70
     1
102
RTVSPropertyOp2
 70
     1
102
RTVSPropertyOp3
 70
     1
102
RTVSPropertyOp4
 70
     1
102
RTVSPropertyOp5
 70
     1
102
RTVSPropertyOp6
 70
     1
102
RTVSPropertyOp7
 70
     1
102
RTVSPropertyOp8
 70
     1
102
RTVSPropertyOp9
 70
     1
102
RTVSPropertyOp10
 70
     1
102
RTVSPropertyOp11
 70
     1
102
RTVSPropertyOp12
 70
     1
102
RTVSPropertyOp13
 70
     1
102
RTVSPropertyOp14
 70
     1
102
RTVSPropertyOp15
 70
     1
102
RTVSPropertyOp16
 70
     1
102
RTVSPropertyOp17
 70
     1
102
RTVSPropertyOp18
 70
     1
102
RTVSPropertyOp19
 70
     1
102
RTVSPropertyOp20
 70
     1
102
RTVSPropertyOp21
 70
     1
102
RTVSPropertyOp22
 70
     1
102
RTVSPropertyOp23
 70
     1
102
RTVSPropertyOp24
 70
     1
102
RTVSPropertyOp25
 70
     1
102
RTVSPropertyOp26
 70
     1
102
RTVSPropertyOp27
 70
     1
  0
XRECORD
  5
369
102
{ACAD_REACTORS
330
368
102
}
330
368
100
AcDbXrecord
280
     1
102
RTVSPropertyOp0
 70
     1
102
RTVSPropertyOp1
 70
     1
102
RTVSPropertyOp2
 70
     1
102
RTVSPropertyOp3
 70
     1
102
RTVSPropertyOp4
 70
     1
102
RTVSPropertyOp5
 70
     1
102
RTVSPropertyOp6
 70
     1
102
RTVSPropertyOp7
 70
     1
102
RTVSPropertyOp8
 70
     1
102
RTVSPropertyOp9
 70
     1
102
RTVSPropertyOp10
 70
     1
102
RTVSPropertyOp11
 70
     1
102
RTVSPropertyOp12
 70
     1
102
RTVSPropertyOp13
 70
     1
102
RTVSPropertyOp14
 70
     1
102
RTVSPropertyOp15
 70
     1
102
RTVSPropertyOp16
 70
     1
102
RTVSPropertyOp17
 70
     1
102
RTVSPropertyOp18
 70
     1
102
RTVSPropertyOp19
 70
     1
102
RTVSPropertyOp20
 70
     1
102
RTVSPropertyOp21
 70
     1
102
RTVSPropertyOp22
 70
     1
102
RTVSPropertyOp23
 70
     1
102
RTVSPropertyOp24
 70
     1
102
RTVSPropertyOp25
 70
     1
102
RTVSPropertyOp26
 70
     1
102
RTVSPropertyOp27
 70
     1
  0
XRECORD
  5
34D
102
{ACAD_REACTORS
330
34C
102
}
330
34C
100
AcDbXrecord
280
     1
102
RTVSPropertyOp0
 70
     1
102
RTVSPropertyOp1
 70
     1
102
RTVSPropertyOp2
 70
     1
102
RTVSPropertyOp3
 70
     1
102
RTVSPropertyOp4
 70
     1
102
RTVSPropertyOp5
 70
     1
102
RTVSPropertyOp6
 70
     1
102
RTVSPropertyOp7
 70
     1
102
RTVSPropertyOp8
 70
     1
102
RTVSPropertyOp9
 70
     1
102
RTVSPropertyOp10
 70
     1
102
RTVSPropertyOp11
 70
     1
102
RTVSPropertyOp12
 70
     1
102
RTVSPropertyOp13
 70
     1
102
RTVSPropertyOp14
 70
     1
102
RTVSPropertyOp15
 70
     1
102
RTVSPropertyOp16
 70
     1
102
RTVSPropertyOp17
 70
     1
102
RTVSPropertyOp18
 70
     1
102
RTVSPropertyOp19
 70
     1
102
RTVSPropertyOp20
 70
     1
102
RTVSPropertyOp21
 70
     1
102
RTVSPropertyOp22
 70
     1
102
RTVSPropertyOp23
 70
     1
102
RTVSPropertyOp24
 70
     1
102
RTVSPropertyOp25
 70
     1
102
RTVSPropertyOp26
 70
     1
102
RTVSPropertyOp27
 70
     1
  0
XRECORD
  5
34F
102
{ACAD_REACTORS
330
34E
102
}
330
34E
100
AcDbXrecord
280
     1
102
RTVSPropertyOp0
 70
     1
102
RTVSPropertyOp1
 70
     1
102
RTVSPropertyOp2
 70
     1
102
RTVSPropertyOp3
 70
     1
102
RTVSPropertyOp4
 70
     1
102
RTVSPropertyOp5
 70
     1
102
RTVSPropertyOp6
 70
     1
102
RTVSPropertyOp7
 70
     1
102
RTVSPropertyOp8
 70
     1
102
RTVSPropertyOp9
 70
     1
102
RTVSPropertyOp10
 70
     1
102
RTVSPropertyOp11
 70
     1
102
RTVSPropertyOp12
 70
     1
102
RTVSPropertyOp13
 70
     1
102
RTVSPropertyOp14
 70
     1
102
RTVSPropertyOp15
 70
     1
102
RTVSPropertyOp16
 70
     1
102
RTVSPropertyOp17
 70
     1
102
RTVSPropertyOp18
 70
     1
102
RTVSPropertyOp19
 70
     1
102
RTVSPropertyOp20
 70
     1
102
RTVSPropertyOp21
 70
     1
102
RTVSPropertyOp22
 70
     1
102
RTVSPropertyOp23
 70
     1
102
RTVSPropertyOp24
 70
     1
102
RTVSPropertyOp25
 70
     1
102
RTVSPropertyOp26
 70
     1
102
RTVSPropertyOp27
 70
     1
  0
XRECORD
  5
351
102
{ACAD_REACTORS
330
350
102
}
330
350
100
AcDbXrecord
280
     1
102
RTVSPropertyOp0
 70
     1
102
RTVSPropertyOp1
 70
     1
102
RTVSPropertyOp2
 70
     1
102
RTVSPropertyOp3
 70
     1
102
RTVSPropertyOp4
 70
     1
102
RTVSPropertyOp5
 70
     1
102
RTVSPropertyOp6
 70
     1
102
RTVSPropertyOp7
 70
     1
102
RTVSPropertyOp8
 70
     1
102
RTVSPropertyOp9
 70
     1
102
RTVSPropertyOp10
 70
     1
102
RTVSPropertyOp11
 70
     1
102
RTVSPropertyOp12
 70
     1
102
RTVSPropertyOp13
 70
     1
102
RTVSPropertyOp14
 70
     1
102
RTVSPropertyOp15
 70
     1
102
RTVSPropertyOp16
 70
     1
102
RTVSPropertyOp17
 70
     1
102
RTVSPropertyOp18
 70
     1
102
RTVSPropertyOp19
 70
     1
102
RTVSPropertyOp20
 70
     1
102
RTVSPropertyOp21
 70
     1
102
RTVSPropertyOp22
 70
     1
102
RTVSPropertyOp23
 70
     1
102
RTVSPropertyOp24
 70
     1
102
RTVSPropertyOp25
 70
     1
102
RTVSPropertyOp26
 70
     1
102
RTVSPropertyOp27
 70
     1
  0
XRECORD
  5
353
102
{ACAD_REACTORS
330
352
102
}
330
352
100
AcDbXrecord
280
     1
102
RTVSPropertyOp0
 70
     1
102
RTVSPropertyOp1
 70
     1
102
RTVSPropertyOp2
 70
     1
102
RTVSPropertyOp3
 70
     1
102
RTVSPropertyOp4
 70
     1
102
RTVSPropertyOp5
 70
     1
102
RTVSPropertyOp6
 70
     1
102
RTVSPropertyOp7
 70
     1
102
RTVSPropertyOp8
 70
     1
102
RTVSPropertyOp9
 70
     1
102
RTVSPropertyOp10
 70
     1
102
RTVSPropertyOp11
 70
     1
102
RTVSPropertyOp12
 70
     1
102
RTVSPropertyOp13
 70
     1
102
RTVSPropertyOp14
 70
     1
102
RTVSPropertyOp15
 70
     1
102
RTVSPropertyOp16
 70
     1
102
RTVSPropertyOp17
 70
     1
102
RTVSPropertyOp18
 70
     1
102
RTVSPropertyOp19
 70
     1
102
RTVSPropertyOp20
 70
     1
102
RTVSPropertyOp21
 70
     1
102
RTVSPropertyOp22
 70
     1
102
RTVSPropertyOp23
 70
     1
102
RTVSPropertyOp24
 70
     1
102
RTVSPropertyOp25
 70
     1
102
RTVSPropertyOp26
 70
     1
102
RTVSPropertyOp27
 70
     1
  0
XRECORD
  5
367
102
{ACAD_REACTORS
330
366
102
}
330
366
100
AcDbXrecord
280
     1
102
RTVSPropertyOp0
 70
     1
102
RTVSPropertyOp1
 70
     1
102
RTVSPropertyOp2
 70
     1
102
RTVSPropertyOp3
 70
     1
102
RTVSPropertyOp4
 70
     1
102
RTVSPropertyOp5
 70
     1
102
RTVSPropertyOp6
 70
     1
102
RTVSPropertyOp7
 70
     1
102
RTVSPropertyOp8
 70
     1
102
RTVSPropertyOp9
 70
     1
102
RTVSPropertyOp10
 70
     1
102
RTVSPropertyOp11
 70
     1
102
RTVSPropertyOp12
 70
     1
102
RTVSPropertyOp13
 70
     1
102
RTVSPropertyOp14
 70
     1
102
RTVSPropertyOp15
 70
     1
102
RTVSPropertyOp16
 70
     1
102
RTVSPropertyOp17
 70
     1
102
RTVSPropertyOp18
 70
     1
102
RTVSPropertyOp19
 70
     1
102
RTVSPropertyOp20
 70
     1
102
RTVSPropertyOp21
 70
     1
102
RTVSPropertyOp22
 70
     1
102
RTVSPropertyOp23
 70
     1
102
RTVSPropertyOp24
 70
     1
102
RTVSPropertyOp25
 70
     1
102
RTVSPropertyOp26
 70
     1
102
RTVSPropertyOp27
 70
     1
  0
XRECORD
  5
35D
102
{ACAD_REACTORS
330
35C
102
}
330
35C
100
AcDbXrecord
280
     1
102
RTVSPropertyOp0
 70
     1
102
RTVSPropertyOp1
 70
     1
102
RTVSPropertyOp2
 70
     1
102
RTVSPropertyOp3
 70
     1
102
RTVSPropertyOp4
 70
     1
102
RTVSPropertyOp5
 70
     1
102
RTVSPropertyOp6
 70
     1
102
RTVSPropertyOp7
 70
     1
102
RTVSPropertyOp8
 70
     1
102
RTVSPropertyOp9
 70
     1
102
RTVSPropertyOp10
 70
     1
102
RTVSPropertyOp11
 70
     1
102
RTVSPropertyOp12
 70
     1
102
RTVSPropertyOp13
 70
     1
102
RTVSPropertyOp14
 70
     1
102
RTVSPropertyOp15
 70
     1
102
RTVSPropertyOp16
 70
     1
102
RTVSPropertyOp17
 70
     1
102
RTVSPropertyOp18
 70
     1
102
RTVSPropertyOp19
 70
     1
102
RTVSPropertyOp20
 70
     1
102
RTVSPropertyOp21
 70
     1
102
RTVSPropertyOp22
 70
     1
102
RTVSPropertyOp23
 70
     1
102
RTVSPropertyOp24
 70
     1
102
RTVSPropertyOp25
 70
     1
102
RTVSPropertyOp26
 70
     1
102
RTVSPropertyOp27
 70
     1
  0
XRECORD
  5
365
102
{ACAD_REACTORS
330
364
102
}
330
364
100
AcDbXrecord
280
     1
102
RTVSPropertyOp0
 70
     1
102
RTVSPropertyOp1
 70
     1
102
RTVSPropertyOp2
 70
     1
102
RTVSPropertyOp3
 70
     1
102
RTVSPropertyOp4
 70
     1
102
RTVSPropertyOp5
 70
     1
102
RTVSPropertyOp6
 70
     1
102
RTVSPropertyOp7
 70
     1
102
RTVSPropertyOp8
 70
     1
102
RTVSPropertyOp9
 70
     1
102
RTVSPropertyOp10
 70
     1
102
RTVSPropertyOp11
 70
     1
102
RTVSPropertyOp12
 70
     1
102
RTVSPropertyOp13
 70
     1
102
RTVSPropertyOp14
 70
     1
102
RTVSPropertyOp15
 70
     1
102
RTVSPropertyOp16
 70
     1
102
RTVSPropertyOp17
 70
     1
102
RTVSPropertyOp18
 70
     1
102
RTVSPropertyOp19
 70
     1
102
RTVSPropertyOp20
 70
     1
102
RTVSPropertyOp21
 70
     1
102
RTVSPropertyOp22
 70
     1
102
RTVSPropertyOp23
 70
     1
102
RTVSPropertyOp24
 70
     1
102
RTVSPropertyOp25
 70
     1
102
RTVSPropertyOp26
 70
     1
102
RTVSPropertyOp27
 70
     1
  0
ENDSEC
  0
EOF
