  0
SECTION
  2
HEADER
  9
$ACADVER
  1
AC1015
  9
$ACADMAINTVER
 70
     6
  9
$DWGCODEPAGE
  3
ANSI_932
  9
$INSBASE
 10
0.0
 20
0.0
 30
0.0
  9
$EXTMIN
 10
40.2818969387003
 20
-14.06759478763854
 30
0.0
  9
$EXTMAX
 10
402.251057232071
 20
316.044450101536
 30
0.0
  9
$LIMMIN
 10
0.0
 20
0.0
  9
$LIMMAX
 10
12.0
 20
9.0
  9
$ORTHOMODE
 70
     0
  9
$REGENMODE
 70
     1
  9
$FILLMODE
 70
     1
  9
$QTEXTMODE
 70
     0
  9
$MIRRTEXT
 70
     1
  9
$LTSCALE
 40
1.0
  9
$ATTMODE
 70
     1
  9
$TEXTSIZE
 40
0.2
  9
$TRACEWID
 40
0.05
  9
$TEXTSTYLE
  7
Standard
  9
$CLAYER
  8
0
  9
$CELTYPE
  6
ByLayer
  9
$CECOLOR
 62
   256
  9
$CELTSCALE
 40
1.0
  9
$DISPSILH
 70
     0
  9
$DIMSCALE
 40
1.0
  9
$DIMASZ
 40
0.18
  9
$DIMEXO
 40
0.0625
  9
$DIMDLI
 40
0.38
  9
$DIMRND
 40
0.0
  9
$DIMDLE
 40
0.0
  9
$DIMEXE
 40
0.18
  9
$DIMTP
 40
0.0
  9
$DIMTM
 40
0.0
  9
$DIMTXT
 40
0.18
  9
$DIMCEN
 40
0.09
  9
$DIMTSZ
 40
0.0
  9
$DIMTOL
 70
     0
  9
$DIMLIM
 70
     0
  9
$DIMTIH
 70
     1
  9
$DIMTOH
 70
     1
  9
$DIMSE1
 70
     0
  9
$DIMSE2
 70
     0
  9
$DIMTAD
 70
     0
  9
$DIMZIN
 70
     0
  9
$DIMBLK
  1

  9
$DIMASO
 70
     1
  9
$DIMSHO
 70
     1
  9
$DIMPOST
  1

  9
$DIMAPOST
  1

  9
$DIMALT
 70
     0
  9
$DIMALTD
 70
     2
  9
$DIMALTF
 40
25.4
  9
$DIMLFAC
 40
1.0
  9
$DIMTOFL
 70
     0
  9
$DIMTVP
 40
0.0
  9
$DIMTIX
 70
     0
  9
$DIMSOXD
 70
     0
  9
$DIMSAH
 70
     0
  9
$DIMBLK1
  1

  9
$DIMBLK2
  1

  9
$DIMSTYLE
  2
Standard
  9
$DIMCLRD
 70
     0
  9
$DIMCLRE
 70
     0
  9
$DIMCLRT
 70
     0
  9
$DIMTFAC
 40
1.0
  9
$DIMGAP
 40
0.09
  9
$DIMJUST
 70
     0
  9
$DIMSD1
 70
     0
  9
$DIMSD2
 70
     0
  9
$DIMTOLJ
 70
     1
  9
$DIMTZIN
 70
     0
  9
$DIMALTZ
 70
     0
  9
$DIMALTTZ
 70
     0
  9
$DIMUPT
 70
     0
  9
$DIMDEC
 70
     4
  9
$DIMTDEC
 70
     4
  9
$DIMALTU
 70
     2
  9
$DIMALTTD
 70
     2
  9
$DIMTXSTY
  7
Standard
  9
$DIMAUNIT
 70
     0
  9
$DIMADEC
 70
     0
  9
$DIMALTRND
 40
0.0
  9
$DIMAZIN
 70
     0
  9
$DIMDSEP
 70
    46
  9
$DIMATFIT
 70
     3
  9
$DIMFRAC
 70
     0
  9
$DIMLDRBLK
  1

  9
$DIMLUNIT
 70
     2
  9
$DIMLWD
 70
    -2
  9
$DIMLWE
 70
    -2
  9
$DIMTMOVE
 70
     0
  9
$LUNITS
 70
     2
  9
$LUPREC
 70
     4
  9
$SKETCHINC
 40
0.1
  9
$FILLETRAD
 40
0.5
  9
$AUNITS
 70
     0
  9
$AUPREC
 70
     0
  9
$MENU
  1
.
  9
$ELEVATION
 40
0.0
  9
$PELEVATION
 40
0.0
  9
$THICKNESS
 40
0.0
  9
$LIMCHECK
 70
     0
  9
$CHAMFERA
 40
0.5
  9
$CHAMFERB
 40
0.5
  9
$CHAMFERC
 40
1.0
  9
$CHAMFERD
 40
0.0
  9
$SKPOLY
 70
     0
  9
$TDCREATE
 40
2457624.398729549
  9
$TDUCREATE
 40
2457624.023729549
  9
$TDUPDATE
 40
2457624.39872956
  9
$TDUUPDATE
 40
2457624.02372956
  9
$TDINDWG
 40
0.0000000116
  9
$TDUSRTIMER
 40
0.0000000116
  9
$USRTIMER
 70
     1
  9
$ANGBASE
 50
0.0
  9
$ANGDIR
 70
     0
  9
$PDMODE
 70
     0
  9
$PDSIZE
 40
0.0
  9
$PLINEWID
 40
0.0
  9
$SPLFRAME
 70
     0
  9
$SPLINETYPE
 70
     6
  9
$SPLINESEGS
 70
     8
  9
$HANDSEED
  5
373
  9
$SURFTAB1
 70
     6
  9
$SURFTAB2
 70
     6
  9
$SURFTYPE
 70
     6
  9
$SURFU
 70
     6
  9
$SURFV
 70
     6
  9
$UCSBASE
  2

  9
$UCSNAME
  2

  9
$UCSORG
 10
0.0
 20
0.0
 30
0.0
  9
$UCSXDIR
 10
1.0
 20
0.0
 30
0.0
  9
$UCSYDIR
 10
0.0
 20
1.0
 30
0.0
  9
$UCSORTHOREF
  2

  9
$UCSORTHOVIEW
 70
     0
  9
$UCSORGTOP
 10
0.0
 20
0.0
 30
0.0
  9
$UCSORGBOTTOM
 10
0.0
 20
0.0
 30
0.0
  9
$UCSORGLEFT
 10
0.0
 20
0.0
 30
0.0
  9
$UCSORGRIGHT
 10
0.0
 20
0.0
 30
0.0
  9
$UCSORGFRONT
 10
0.0
 20
0.0
 30
0.0
  9
$UCSORGBACK
 10
0.0
 20
0.0
 30
0.0
  9
$PUCSBASE
  2

  9
$PUCSNAME
  2

  9
$PUCSORG
 10
0.0
 20
0.0
 30
0.0
  9
$PUCSXDIR
 10
1.0
 20
0.0
 30
0.0
  9
$PUCSYDIR
 10
0.0
 20
1.0
 30
0.0
  9
$PUCSORTHOREF
  2

  9
$PUCSORTHOVIEW
 70
     0
  9
$PUCSORGTOP
 10
0.0
 20
0.0
 30
0.0
  9
$PUCSORGBOTTOM
 10
0.0
 20
0.0
 30
0.0
  9
$PUCSORGLEFT
 10
0.0
 20
0.0
 30
0.0
  9
$PUCSORGRIGHT
 10
0.0
 20
0.0
 30
0.0
  9
$PUCSORGFRONT
 10
0.0
 20
0.0
 30
0.0
  9
$PUCSORGBACK
 10
0.0
 20
0.0
 30
0.0
  9
$USERI1
 70
     0
  9
$USERI2
 70
     0
  9
$USERI3
 70
     0
  9
$USERI4
 70
     0
  9
$USERI5
 70
     0
  9
$USERR1
 40
18.0
  9
$USERR2
 40
0.0
  9
$USERR3
 40
0.0
  9
$USERR4
 40
0.0
  9
$USERR5
 40
0.0
  9
$WORLDVIEW
 70
     1
  9
$SHADEDGE
 70
     3
  9
$SHADEDIF
 70
    70
  9
$TILEMODE
 70
     1
  9
$MAXACTVP
 70
    64
  9
$PINSBASE
 10
0.0
 20
0.0
 30
0.0
  9
$PLIMCHECK
 70
     0
  9
$PEXTMIN
 10
1.00000000000000E+20
 20
1.00000000000000E+20
 30
1.00000000000000E+20
  9
$PEXTMAX
 10
-1.00000000000000E+20
 20
-1.00000000000000E+20
 30
-1.00000000000000E+20
  9
$PLIMMIN
 10
0.0
 20
0.0
  9
$PLIMMAX
 10
12.0
 20
9.0
  9
$UNITMODE
 70
     0
  9
$VISRETAIN
 70
     1
  9
$PLINEGEN
 70
     0
  9
$PSLTSCALE
 70
     1
  9
$TREEDEPTH
 70
  3020
  9
$CMLSTYLE
  2
Standard
  9
$CMLJUST
 70
     0
  9
$CMLSCALE
 40
1.0
  9
$PROXYGRAPHICS
 70
     1
  9
$MEASUREMENT
 70
     1
  9
$CELWEIGHT
370
    -1
  9
$ENDCAPS
280
     0
  9
$JOINSTYLE
280
     0
  9
$LWDISPLAY
290
     0
  9
$INSUNITS
 70
     1
  9
$HYPERLINKBASE
  1

  9
$STYLESHEET
  1

  9
$XEDIT
290
     1
  9
$CEPSNTYPE
380
     0
  9
$PSTYLEMODE
290
     1
  9
$FINGERPRINTGUID
  2
{52AAE08C-1835-4BCD-B1EB-CB1D5A78A8CF}
  9
$VERSIONGUID
  2
{FAEB1C32-E019-11D5-929B-00C0DF256EC4}
  9
$EXTNAMES
290
     1
  9
$PSVPSCALE
 40
0.0
  9
$OLESTARTUP
290
     0
  0
ENDSEC
  0
SECTION
  2
CLASSES
  0
CLASS
  1
ACDBDICTIONARYWDFLT
  2
AcDbDictionaryWithDefault
  3
ObjectDBX Classes
 90
        0
280
     0
281
     0
  0
CLASS
  1
VISUALSTYLE
  2
AcDbVisualStyle
  3
ObjectDBX Classes
 90
     4095
280
     0
281
     0
  0
CLASS
  1
MATERIAL
  2
AcDbMaterial
  3
ObjectDBX Classes
 90
     1153
280
     0
281
     0
  0
CLASS
  1

  2
exOdDbCircle
  3

 90
        0
280
     0
281
     1
  0
CLASS
  1

  2
exOdDbPolyline
  3

 90
        0
280
     0
281
     1
  0
CLASS
  1
SCALE
  2
AcDbScale
  3
ObjectDBX Classes
 90
     1153
280
     0
281
     0
  0
CLASS
  1
DICTIONARYVAR
  2
AcDbDictionaryVar
  3
ObjectDBX Classes
 90
        0
280
     0
281
     0
  0
CLASS
  1
ACDBPLACEHOLDER
  2
AcDbPlaceHolder
  3
ObjectDBX Classes
 90
        0
280
     0
281
     0
  0
CLASS
  1
LAYOUT
  2
AcDbLayout
  3
ObjectDBX Classes
 90
        0
280
     0
281
     0
  0
ENDSEC
  0
SECTION
  2
TABLES
  0
TABLE
  2
VPORT
  5
8
330
0
100
AcDbSymbolTable
 70
     1
  0
VPORT
  5
29
330
8
100
AcDbSymbolTableRecord
100
AcDbViewportTableRecord
  2
*Active
 70
     0
 10
0.0
 20
0.0
 11
1.0
 21
1.0
 12
221.2664770853856
 22
150.9884276569487
 13
0.0
 23
0.0
 14
0.5
 24
0.5
 15
0.5
 25
0.5
 16
0.0
 26
0.0
 36
1.0
 17
0.0
 27
0.0
 37
0.0
 40
363.123249378092
 41
1.60267857142857
 42
50.0
 43
0.0
 44
0.0
 50
0.0
 51
0.0
 71
     0
 72
   100
 73
     1
 74
     3
 75
     0
 76
     0
 77
     0
 78
     0
281
     0
 65
     1
110
0.0
120
0.0
130
0.0
111
1.0
121
0.0
131
0.0
112
0.0
122
1.0
132
0.0
 79
     0
146
0.0
  0
ENDTAB
  0
TABLE
  2
LTYPE
  5
5
330
0
100
AcDbSymbolTable
 70
     9
  0
LTYPE
  5
14
330
5
100
AcDbSymbolTableRecord
100
AcDbLinetypeTableRecord
  2
ByBlock
 70
     0
  3

 72
    65
 73
     0
 40
0.0
  0
LTYPE
  5
15
330
5
100
AcDbSymbolTableRecord
100
AcDbLinetypeTableRecord
  2
ByLayer
 70
     0
  3

 72
    65
 73
     0
 40
0.0
  0
LTYPE
  5
16
330
5
100
AcDbSymbolTableRecord
100
AcDbLinetypeTableRecord
  2
Continuous
 70
     0
  3
Solid line
 72
    65
 73
     0
 40
0.0
  0
LTYPE
  5
3F
330
5
100
AcDbSymbolTableRecord
100
AcDbLinetypeTableRecord
  2
DASHED
 70
     0
  3
Dashed
 72
    65
 73
     2
 40
15.0
 49
7.0
 74
     0
 49
-8.0
 74
     0
  0
LTYPE
  5
40
330
5
100
AcDbSymbolTableRecord
100
AcDbLinetypeTableRecord
  2
DOTTED
 70
     0
  3
Dotted
 72
    65
 73
     2
 40
1.0
 49
0.0
 74
     0
 49
-1.0
 74
     0
  0
LTYPE
  5
41
330
5
100
AcDbSymbolTableRecord
100
AcDbLinetypeTableRecord
  2
DOT_CENTER
 70
     0
  3
Dot_Center
 72
    65
 73
     4
 40
14.0
 49
12.0
 74
     0
 49
-1.0
 74
     0
 49
0.0
 74
     0
 49
-1.0
 74
     0
  0
LTYPE
  5
42
330
5
100
AcDbSymbolTableRecord
100
AcDbLinetypeTableRecord
  2
LONG_DASHED
 70
     0
  3
Long_Dashed
 72
    65
 73
     2
 40
15.0
 49
10.0
 74
     0
 49
-5.0
 74
     0
  0
LTYPE
  5
43
330
5
100
AcDbSymbolTableRecord
100
AcDbLinetypeTableRecord
  2
DASH_CENTER
 70
     0
  3
Dash_Center
 72
    65
 73
     4
 40
14.0
 49
11.0
 74
     0
 49
-1.0
 74
     0
 49
1.0
 74
     0
 49
-1.0
 74
     0
  0
LTYPE
  5
44
330
5
100
AcDbSymbolTableRecord
100
AcDbLinetypeTableRecord
  2
PHANTOM
 70
     0
  3
Phantom
 72
    65
 73
     6
 40
13.0
 49
10.0
 74
     0
 49
-1.0
 74
     0
 49
0.0
 74
     0
 49
-1.0
 74
     0
 49
0.0
 74
     0
 49
-1.0
 74
     0
  0
LTYPE
  5
45
330
5
100
AcDbSymbolTableRecord
100
AcDbLinetypeTableRecord
  2
CENTER_DASH_DASH
 70
     0
  3
Center_Dash_Dash
 72
    65
 73
     6
 40
14.0
 49
9.0
 74
     0
 49
-1.0
 74
     0
 49
1.0
 74
     0
 49
-1.0
 74
     0
 49
1.0
 74
     0
 49
-1.0
 74
     0
  0
LTYPE
  5
46
330
5
100
AcDbSymbolTableRecord
100
AcDbLinetypeTableRecord
  2
CENTER
 70
     0
  3
CENTER
 72
    65
 73
     4
 40
6.0
 49
3.0
 74
     0
 49
-1.0
 74
     0
 49
1.0
 74
     0
 49
-1.0
 74
     0
  0
ENDTAB
  0
TABLE
  2
LAYER
  5
2
330
0
100
AcDbSymbolTable
 70
     5
  0
LAYER
  5
10
330
2
100
AcDbSymbolTableRecord
100
AcDbLayerTableRecord
  2
0
 70
     0
 62
     7
  6
Continuous
370
    -3
390
F
  0
LAYER
  5
47
330
2
100
AcDbSymbolTableRecord
100
AcDbLayerTableRecord
  2
1
 70
     0
 62
     7
  6
Continuous
370
    -3
390
F
  0
LAYER
  5
48
330
2
100
AcDbSymbolTableRecord
100
AcDbLayerTableRecord
  2
100
 70
     0
 62
     7
  6
Continuous
370
    -3
390
F
  0
LAYER
  5
49
330
2
100
AcDbSymbolTableRecord
100
AcDbLayerTableRecord
  2
2
 70
     0
 62
     7
  6
Continuous
370
    -3
390
F
  0
LAYER
  5
4A
330
2
100
AcDbSymbolTableRecord
100
AcDbLayerTableRecord
  2
5
 70
     0
 62
     7
  6
Continuous
370
    -3
390
F
  0
ENDTAB
  0
TABLE
  2
STYLE
  5
3
330
0
100
AcDbSymbolTable
 70
     2
  0
STYLE
  5
11
330
3
100
AcDbSymbolTableRecord
100
AcDbTextStyleTableRecord
  2
Standard
 70
     0
 40
0.0
 41
1.0
 50
0.0
 71
     0
 42
0.2
  3
txt
  4

  0
STYLE
  5
30C
330
3
100
AcDbSymbolTableRecord
100
AcDbTextStyleTableRecord
  2
CONVERTER_11
 70
     0
 40
0.0
 41
0.9
 50
0.0
 71
     0
 42
0.2
  3
txt.shx
  4

  0
ENDTAB
  0
TABLE
  2
VIEW
  5
6
330
0
100
AcDbSymbolTable
 70
     0
  0
ENDTAB
  0
TABLE
  2
UCS
  5
7
330
0
100
AcDbSymbolTable
 70
     0
  0
ENDTAB
  0
TABLE
  2
APPID
  5
9
330
0
100
AcDbSymbolTable
 70
     1
  0
APPID
  5
12
330
9
100
AcDbSymbolTableRecord
100
AcDbRegAppTableRecord
  2
ACAD
 70
     0
  0
ENDTAB
  0
TABLE
  2
DIMSTYLE
  5
A
330
0
100
AcDbSymbolTable
 70
     3
100
AcDbDimStyleTable
  0
DIMSTYLE
105
27
330
A
100
AcDbSymbolTableRecord
100
AcDbDimStyleTableRecord
  2
Standard
 70
     0
340
11
  0
DIMSTYLE
105
338
102
{ACAD_REACTORS
330
339
102
}
330
A
100
AcDbSymbolTableRecord
100
AcDbDimStyleTableRecord
  2
ME10_DIM_10
 70
     0
 41
8.0
 42
1.0
 44
1.0
 73
     0
 74
     0
 77
     1
 78
    12
140
10.0
147
1.0
172
     1
173
     1
174
     1
175
     1
176
     2
177
     2
178
     2
271
     3
340
30C
343
332
344
332
  0
DIMSTYLE
105
345
102
{ACAD_REACTORS
330
346
102
}
330
A
100
AcDbSymbolTableRecord
100
AcDbDimStyleTableRecord
  2
ME10_DIM_11
 70
     0
 41
8.0
 42
1.0
 44
1.0
 73
     0
 74
     0
 77
     1
 78
    12
140
10.0
147
1.0
172
     1
173
     1
174
     1
175
     1
176
     2
177
     2
178
     2
271
     3
340
30C
343
332
344
332
  0
ENDTAB
  0
TABLE
  2
BLOCK_RECORD
  5
1
330
0
100
AcDbSymbolTable
 70
     4
  0
BLOCK_RECORD
  5
1F
330
1
100
AcDbSymbolTableRecord
100
AcDbBlockTableRecord
  2
*Model_Space
340
22
  0
BLOCK_RECORD
  5
1B
330
1
100
AcDbSymbolTableRecord
100
AcDbBlockTableRecord
  2
*Paper_Space
340
1E
  0
BLOCK_RECORD
  5
23
330
1
100
AcDbSymbolTableRecord
100
AcDbBlockTableRecord
  2
*Paper_Space0
340
26
  0
BLOCK_RECORD
  5
304
330
1
100
AcDbSymbolTableRecord
100
AcDbBlockTableRecord
  2
*D1
340
0
  0
BLOCK_RECORD
  5
332
330
1
100
AcDbSymbolTableRecord
100
AcDbBlockTableRecord
  2
_OPEN30
340
0
  0
BLOCK_RECORD
  5
33A
330
1
100
AcDbSymbolTableRecord
100
AcDbBlockTableRecord
  2
*D3
340
0
  0
ENDTAB
  0
ENDSEC
  0
SECTION
  2
BLOCKS
  0
BLOCK
  5
20
330
1F
100
AcDbEntity
  8
0
100
AcDbBlockBegin
  2
*Model_Space
 70
     0
 10
0.0
 20
0.0
 30
0.0
  3
*Model_Space
  1

  0
ENDBLK
  5
21
330
1F
100
AcDbEntity
  8
0
100
AcDbBlockEnd
  0
BLOCK
  5
1C
330
1B
100
AcDbEntity
 67
     1
  8
0
100
AcDbBlockBegin
  2
*Paper_Space
 70
     0
 10
0.0
 20
0.0
 30
0.0
  3
*Paper_Space
  1

  0
ENDBLK
  5
1D
330
1B
100
AcDbEntity
 67
     1
  8
0
100
AcDbBlockEnd
  0
BLOCK
  5
24
330
23
100
AcDbEntity
  8
0
100
AcDbBlockBegin
  2
*Paper_Space0
 70
     0
 10
0.0
 20
0.0
 30
0.0
  3
*Paper_Space0
  1

  0
ENDBLK
  5
25
330
23
100
AcDbEntity
  8
0
100
AcDbBlockEnd
  0
BLOCK
  5
330
330
304
100
AcDbEntity
  8
0
100
AcDbBlockBegin
  2
*D1
 70
     1
 10
0.0
 20
0.0
 30
0.0
  3
*D1
  1

  0
LINE
  5
305
330
304
100
AcDbEntity
  8
1
  6
Continuous
 62
     2
100
AcDbLine
 10
227.137838478976
 20
-11.92400124818956
 30
0.0
 11
117.137838478976
 21
-11.92400124818956
 31
0.0
  0
LINE
  5
306
330
304
100
AcDbEntity
  8
1
  6
Continuous
 62
     2
100
AcDbLine
 10
227.137838478976
 20
23.79411871857504
 30
0.0
 11
227.137838478976
 21
-12.92400124818956
 31
0.0
  0
LINE
  5
307
330
304
100
AcDbEntity
  8
1
  6
Continuous
 62
     2
100
AcDbLine
 10
117.137838478976
 20
23.79411871857504
 30
0.0
 11
117.137838478976
 21
-12.92400124818956
 31
0.0
  0
LINE
  5
308
330
304
100
AcDbEntity
  8
1
 62
     2
100
AcDbLine
 10
117.137838478976
 20
-11.92400124818956
 30
0.0
 11
125.137838478976
 21
-9.78040770874058
 31
0.0
  0
LINE
  5
309
330
304
100
AcDbEntity
  8
1
 62
     2
100
AcDbLine
 10
117.137838478976
 20
-11.92400124818956
 30
0.0
 11
125.137838478976
 21
-14.06759478763854
 31
0.0
  0
LINE
  5
30A
330
304
100
AcDbEntity
  8
1
 62
     2
100
AcDbLine
 10
227.137838478976
 20
-11.92400124818956
 30
0.0
 11
219.137838478976
 21
-14.06759478763854
 31
0.0
  0
LINE
  5
30B
330
304
100
AcDbEntity
  8
1
 62
     2
100
AcDbLine
 10
227.137838478976
 20
-11.92400124818956
 30
0.0
 11
219.137838478976
 21
-9.78040770874058
 31
0.0
  0
MTEXT
  5
32F
330
304
100
AcDbEntity
  8
1
 62
     2
100
AcDbMText
 10
162.1378360549076
 20
-10.92402808261212
 30
0.0
 40
10.0
 41
0.0
 71
     7
 72
     1
  1
110
  7
CONVERTER_11
 11
0.9999999999882478
 21
4.848136811095759E-6
 31
0.0
 73
     1
 44
0.60024009603842
  0
ENDBLK
  5
331
330
304
100
AcDbEntity
  8
0
100
AcDbBlockEnd
  0
BLOCK
  5
333
330
332
100
AcDbEntity
  8
0
100
AcDbBlockBegin
  2
_OPEN30
 70
     0
 10
0.0
 20
0.0
 30
0.0
  3
_OPEN30
  1

  0
LINE
  5
335
330
332
100
AcDbEntity
  8
0
  6
ByBlock
 62
     0
370
    -2
100
AcDbLine
 10
-1.0
 20
0.267949
 30
0.0
 11
0.0
 21
0.0
 31
0.0
  0
LINE
  5
336
330
332
100
AcDbEntity
  8
0
  6
ByBlock
 62
     0
370
    -2
100
AcDbLine
 10
0.0
 20
0.0
 30
0.0
 11
-1.0
 21
-0.267949
 31
0.0
  0
LINE
  5
337
330
332
100
AcDbEntity
  8
0
  6
ByBlock
 62
     0
370
    -2
100
AcDbLine
 10
0.0
 20
0.0
 30
0.0
 11
-1.0
 21
0.0
 31
0.0
  0
ENDBLK
  5
334
330
332
100
AcDbEntity
  8
0
100
AcDbBlockEnd
  0
BLOCK
  5
343
330
33A
100
AcDbEntity
  8
0
100
AcDbBlockBegin
  2
*D3
 70
     1
 10
0.0
 20
0.0
 30
0.0
  3
*D3
  1

  0
LINE
  5
33B
330
33A
100
AcDbEntity
  8
1
  6
Continuous
 62
     2
100
AcDbLine
 10
256.716154236243
 20
206.435134869953
 30
0.0
 11
256.716154236243
 21
59.43513486995249
 31
0.0
  0
LINE
  5
33C
330
33A
100
AcDbEntity
  8
1
  6
Continuous
 62
     2
100
AcDbLine
 10
212.796224554354
 20
206.435134869953
 30
0.0
 11
257.716154236243
 21
206.435134869953
 31
0.0
  0
LINE
  5
33D
330
33A
100
AcDbEntity
  8
1
  6
Continuous
 62
     2
100
AcDbLine
 10
233.137838478976
 20
59.43513486995249
 30
0.0
 11
257.716154236243
 21
59.43513486995249
 31
0.0
  0
LINE
  5
33E
330
33A
100
AcDbEntity
  8
1
 62
     2
100
AcDbLine
 10
256.716154236243
 20
59.43513486995249
 30
0.0
 11
254.5725606967941
 21
67.43513486995249
 31
0.0
  0
LINE
  5
33F
330
33A
100
AcDbEntity
  8
1
 62
     2
100
AcDbLine
 10
256.716154236243
 20
59.43513486995249
 30
0.0
 11
258.859747775692
 21
67.43513486995249
 31
0.0
  0
LINE
  5
340
330
33A
100
AcDbEntity
  8
1
 62
     2
100
AcDbLine
 10
256.716154236243
 20
206.435134869953
 30
0.0
 11
258.859747775692
 21
198.435134869953
 31
0.0
  0
LINE
  5
341
330
33A
100
AcDbEntity
  8
1
 62
     2
100
AcDbLine
 10
256.716154236243
 20
206.435134869953
 30
0.0
 11
254.5725606967941
 21
198.435134869953
 31
0.0
  0
MTEXT
  5
342
330
33A
100
AcDbEntity
  8
1
 62
     2
100
AcDbMText
 10
255.716154236243
 20
127.194855224711
 30
0.0
 40
10.0
 41
0.0
 71
     7
 72
     1
  1
147
  7
CONVERTER_11
 11
0.0
 21
1.0
 31
0.0
 73
     1
 44
0.60024009603842
  0
ENDBLK
  5
344
330
33A
100
AcDbEntity
  8
0
100
AcDbBlockEnd
  0
ENDSEC
  0
SECTION
  2
ENTITIES
  0
POINT
  5
4B
330
1F
100
AcDbEntity
  8
1
 62
     7
100
AcDbPoint
 10
227.137838478976
 20
24.794118718575
 30
0.0
  0
POINT
  5
4C
330
1F
100
AcDbEntity
  8
1
 62
     7
100
AcDbPoint
 10
117.137838478976
 20
24.794118718575
 30
0.0
  0
POINT
  5
4D
330
1F
100
AcDbEntity
  8
1
 62
     7
100
AcDbPoint
 10
211.796224554354
 20
206.435134869953
 30
0.0
  0
POINT
  5
4E
330
1F
100
AcDbEntity
  8
1
 62
     7
100
AcDbPoint
 10
232.137838478976
 20
59.4351348699525
 30
0.0
  0
POINT
  5
4F
330
1F
100
AcDbEntity
  8
1
 62
     7
100
AcDbPoint
 10
227.137838478976
 20
24.794118718575
 30
0.0
  0
POINT
  5
50
330
1F
100
AcDbEntity
  8
1
 62
     7
100
AcDbPoint
 10
117.137838478976
 20
24.794118718575
 30
0.0
  0
POINT
  5
51
330
1F
100
AcDbEntity
  8
1
 62
     7
100
AcDbPoint
 10
211.796224554354
 20
206.435134869953
 30
0.0
  0
POINT
  5
52
330
1F
100
AcDbEntity
  8
1
 62
     7
100
AcDbPoint
 10
232.137838478976
 20
59.4351348699525
 30
0.0
  0
LINE
  5
53
330
1F
100
AcDbEntity
  8
1
  6
Continuous
 62
     4
100
AcDbLine
 10
191.676069810959
 20
12.3262857512054
 30
0.0
 11
190.883969810959
 21
11.0762857512054
 31
0.0
  0
LINE
  5
54
330
1F
100
AcDbEntity
  8
1
  6
Continuous
 62
     4
100
AcDbLine
 10
190.883969810959
 20
13.5762857512054
 30
0.0
 11
191.676069810959
 21
12.3262857512054
 31
0.0
  0
LINE
  5
55
330
1F
100
AcDbEntity
  8
1
  6
Continuous
 62
     4
100
AcDbLine
 10
185.735319810959
 20
12.3262857512054
 30
0.0
 11
191.676069810959
 21
12.3262857512054
 31
0.0
  0
LINE
  5
56
330
1F
100
AcDbEntity
  8
1
  6
Continuous
 62
     4
100
AcDbLine
 10
179.200494810959
 20
15.2012857512054
 30
0.0
 11
183.755069810959
 21
15.2012857512054
 31
0.0
  0
LINE
  5
57
330
1F
100
AcDbEntity
  8
1
  6
Continuous
 62
     4
100
AcDbLine
 10
179.200494810959
 20
15.2012857512054
 30
0.0
 11
180.289632310959
 21
17.0762857512054
 31
0.0
  0
LINE
  5
58
330
1F
100
AcDbEntity
  8
1
  6
Continuous
 62
     4
100
AcDbLine
 10
181.774819810959
 20
10.4512857512054
 30
0.0
 11
180.091607310959
 21
10.4512857512054
 31
0.0
  0
LINE
  5
59
330
1F
100
AcDbEntity
  8
1
  6
Continuous
 62
     4
100
AcDbLine
 10
181.774819810959
 20
12.9512857512054
 30
0.0
 11
181.774819810959
 21
10.4512857512054
 31
0.0
  0
LINE
  5
5A
330
1F
100
AcDbEntity
  8
1
  6
Continuous
 62
     4
100
AcDbLine
 10
180.091607310959
 20
12.9512857512054
 30
0.0
 11
181.774819810959
 21
12.9512857512054
 31
0.0
  0
LINE
  5
5B
330
1F
100
AcDbEntity
  8
1
  6
Continuous
 62
     4
100
AcDbLine
 10
180.091607310959
 20
10.4512857512054
 30
0.0
 11
180.091607310959
 21
12.9512857512054
 31
0.0
  0
LINE
  5
5C
330
1F
100
AcDbEntity
  8
1
  6
Continuous
 62
     4
100
AcDbLine
 10
183.755069810959
 20
7.7012857512054
 30
0.0
 11
182.665932310959
 21
7.7012857512054
 31
0.0
  0
LINE
  5
5D
330
1F
100
AcDbEntity
  8
1
  6
Continuous
 62
     4
100
AcDbLine
 10
183.755069810959
 20
15.2012857512054
 30
0.0
 11
183.755069810959
 21
7.7012857512054
 31
0.0
  0
LINE
  5
5E
330
1F
100
AcDbEntity
  8
1
  6
Continuous
 62
     4
100
AcDbLine
 10
178.111357310959
 20
15.2012857512054
 30
0.0
 11
179.200494810959
 21
15.2012857512054
 31
0.0
  0
LINE
  5
5F
330
1F
100
AcDbEntity
  8
1
  6
Continuous
 62
     4
100
AcDbLine
 10
178.111357310959
 20
7.7012857512054
 30
0.0
 11
178.111357310959
 21
15.2012857512054
 31
0.0
  0
LINE
  5
60
330
1F
100
AcDbEntity
  8
1
  6
Continuous
 62
     4
100
AcDbLine
 10
173.853819810959
 20
7.3262857512054
 30
0.0
 11
173.061719810959
 21
7.9512857512054
 31
0.0
  0
LINE
  5
61
330
1F
100
AcDbEntity
  8
1
  6
Continuous
 62
     4
100
AcDbLine
 10
174.348882310959
 20
8.3262857512054
 30
0.0
 11
173.853819810959
 21
7.3262857512054
 31
0.0
  0
LINE
  5
62
330
1F
100
AcDbEntity
  8
1
  6
Continuous
 62
     4
100
AcDbLine
 10
174.744932310959
 20
9.8262857512054
 30
0.0
 11
174.348882310959
 21
8.3262857512054
 31
0.0
  0
LINE
  5
63
330
1F
100
AcDbEntity
  8
1
  6
Continuous
 62
     4
100
AcDbLine
 10
175.239994810959
 20
12.0762857512054
 30
0.0
 11
174.744932310959
 21
9.8262857512054
 31
0.0
  0
LINE
  5
64
330
1F
100
AcDbEntity
  8
1
  6
Continuous
 62
     4
100
AcDbLine
 10
175.239994810959
 20
12.9512857512054
 30
0.0
 11
175.239994810959
 21
12.0762857512054
 31
0.0
  0
LINE
  5
65
330
1F
100
AcDbEntity
  8
1
  6
Continuous
 62
     4
100
AcDbLine
 10
172.368632310959
 20
12.9512857512054
 30
0.0
 11
175.239994810959
 21
12.9512857512054
 31
0.0
  0
LINE
  5
66
330
1F
100
AcDbEntity
  8
1
  6
Continuous
 62
     4
100
AcDbLine
 10
169.695294810959
 20
15.4512857512054
 30
0.0
 11
176.329132310959
 21
15.4512857512054
 31
0.0
  0
LINE
  5
67
330
1F
100
AcDbEntity
  8
1
  6
Continuous
 62
     4
100
AcDbLine
 10
172.566657310959
 20
14.5762857512054
 30
0.0
 11
172.764682310959
 21
17.0762857512054
 31
0.0
  0
LINE
  5
68
330
1F
100
AcDbEntity
  8
1
  6
Continuous
 62
     4
100
AcDbLine
 10
172.170607310959
 20
12.0762857512054
 30
0.0
 11
172.566657310959
 21
14.5762857512054
 31
0.0
  0
LINE
  5
69
330
1F
100
AcDbEntity
  8
1
  6
Continuous
 62
     4
100
AcDbLine
 10
171.675544810959
 20
10.4512857512054
 30
0.0
 11
172.170607310959
 21
12.0762857512054
 31
0.0
  0
LINE
  5
6A
330
1F
100
AcDbEntity
  8
1
  6
Continuous
 62
     4
100
AcDbLine
 10
171.081469810959
 20
8.9512857512054
 30
0.0
 11
171.675544810959
 21
10.4512857512054
 31
0.0
  0
LINE
  5
6B
330
1F
100
AcDbEntity
  8
1
  6
Continuous
 62
     4
100
AcDbLine
 10
170.190357310959
 20
7.7012857512054
 30
0.0
 11
171.081469810959
 21
8.9512857512054
 31
0.0
  0
LINE
  5
6C
330
1F
100
AcDbEntity
  8
1
  6
Continuous
 62
     4
100
AcDbLine
 10
167.517019810959
 20
10.4512857512054
 30
0.0
 11
168.606157310959
 21
8.9512857512054
 31
0.0
  0
LINE
  5
6D
330
1F
100
AcDbEntity
  8
1
  6
Continuous
 62
     4
100
AcDbLine
 10
166.625907310959
 20
12.3262857512054
 30
0.0
 11
167.517019810959
 21
10.4512857512054
 31
0.0
  0
LINE
  5
6E
330
1F
100
AcDbEntity
  8
1
  6
Continuous
 62
     4
100
AcDbLine
 10
165.932819810959
 20
14.5762857512054
 30
0.0
 11
166.625907310959
 21
12.3262857512054
 31
0.0
  0
LINE
  5
6F
330
1F
100
AcDbEntity
  8
1
  6
Continuous
 62
     4
100
AcDbLine
 10
167.913069810959
 20
14.8262857512054
 30
0.0
 11
166.427882310959
 21
13.3262857512054
 31
0.0
  0
LINE
  5
70
330
1F
100
AcDbEntity
  8
1
  6
Continuous
 62
     4
100
AcDbLine
 10
165.338744810959
 20
7.3262857512054
 30
0.0
 11
164.645657310959
 21
7.7012857512054
 31
0.0
  0
LINE
  5
71
330
1F
100
AcDbEntity
  8
1
  6
Continuous
 62
     4
100
AcDbLine
 10
165.338744810959
 20
17.0762857512054
 30
0.0
 11
165.338744810959
 21
7.3262857512054
 31
0.0
  0
LINE
  5
72
330
1F
100
AcDbEntity
  8
1
  6
Continuous
 62
     4
100
AcDbLine
 10
164.249607310959
 20
13.9512857512054
 30
0.0
 11
161.972319810959
 21
13.9512857512054
 31
0.0
  0
LINE
  5
73
330
1F
100
AcDbEntity
  8
1
  6
Continuous
 62
     4
100
AcDbLine
 10
163.754544810959
 20
12.0762857512054
 30
0.0
 11
164.249607310959
 21
13.9512857512054
 31
0.0
  0
LINE
  5
74
330
1F
100
AcDbEntity
  8
1
  6
Continuous
 62
     4
100
AcDbLine
 10
162.863432310959
 20
10.2012857512054
 30
0.0
 11
163.754544810959
 21
12.0762857512054
 31
0.0
  0
LINE
  5
75
330
1F
100
AcDbEntity
  8
1
  6
Continuous
 62
     4
100
AcDbLine
 10
161.972319810959
 20
8.9512857512054
 30
0.0
 11
162.863432310959
 21
10.2012857512054
 31
0.0
  0
LINE
  5
76
330
1F
100
AcDbEntity
  8
1
  6
Continuous
 62
     4
100
AcDbLine
 10
157.615769810959
 20
15.8262857512054
 30
0.0
 11
160.289107310959
 21
15.8262857512054
 31
0.0
  0
LINE
  5
77
330
1F
100
AcDbEntity
  8
1
  6
Continuous
 62
     4
100
AcDbLine
 10
160.685157310959
 20
8.3262857512054
 30
0.0
 11
160.685157310959
 21
8.9512857512054
 31
0.0
  0
LINE
  5
78
330
1F
100
AcDbEntity
  8
1
  6
Continuous
 62
     4
100
AcDbLine
 10
160.289107310959
 20
7.7012857512054
 30
0.0
 11
160.685157310959
 21
8.3262857512054
 31
0.0
  0
LINE
  5
79
330
1F
100
AcDbEntity
  8
1
  6
Continuous
 62
     4
100
AcDbLine
 10
159.397994810959
 20
7.7012857512054
 30
0.0
 11
160.289107310959
 21
7.7012857512054
 31
0.0
  0
LINE
  5
7A
330
1F
100
AcDbEntity
  8
1
  6
Continuous
 62
     4
100
AcDbLine
 10
158.902932310959
 20
8.5762857512054
 30
0.0
 11
159.397994810959
 21
7.7012857512054
 31
0.0
  0
LINE
  5
7B
330
1F
100
AcDbEntity
  8
1
  6
Continuous
 62
     4
100
AcDbLine
 10
158.902932310959
 20
11.7012857512054
 30
0.0
 11
158.902932310959
 21
8.5762857512054
 31
0.0
  0
LINE
  5
7C
330
1F
100
AcDbEntity
  8
1
  6
Continuous
 62
     4
100
AcDbLine
 10
157.615769810959
 20
7.7012857512054
 30
0.0
 11
157.615769810959
 21
11.7012857512054
 31
0.0
  0
LINE
  5
7D
330
1F
100
AcDbEntity
  8
1
  6
Continuous
 62
     4
100
AcDbLine
 10
155.635519810959
 20
7.9512857512054
 30
0.0
 11
154.942432310959
 21
7.3262857512054
 31
0.0
  0
LINE
  5
7E
330
1F
100
AcDbEntity
  8
1
  6
Continuous
 62
     4
100
AcDbLine
 10
156.031569810959
 20
8.5762857512054
 30
0.0
 11
155.635519810959
 21
7.9512857512054
 31
0.0
  0
LINE
  5
7F
330
1F
100
AcDbEntity
  8
1
  6
Continuous
 62
     4
100
AcDbLine
 10
156.328607310959
 20
9.5762857512054
 30
0.0
 11
156.031569810959
 21
8.5762857512054
 31
0.0
  0
LINE
  5
80
330
1F
100
AcDbEntity
  8
1
  6
Continuous
 62
     4
100
AcDbLine
 10
156.526632310959
 20
11.7012857512054
 30
0.0
 11
156.328607310959
 21
9.5762857512054
 31
0.0
  0
LINE
  5
81
330
1F
100
AcDbEntity
  8
1
  6
Continuous
 62
     4
100
AcDbLine
 10
158.704907310959
 20
14.8262857512054
 30
0.0
 11
159.596019810959
 21
12.7012857512054
 31
0.0
  0
LINE
  5
82
330
1F
100
AcDbEntity
  8
1
  6
Continuous
 62
     4
100
AcDbLine
 10
155.833544810959
 20
13.3262857512054
 30
0.0
 11
159.199969810959
 21
13.5762857512054
 31
0.0
  0
LINE
  5
83
330
1F
100
AcDbEntity
  8
1
  6
Continuous
 62
     4
100
AcDbLine
 10
157.615769810959
 20
15.8262857512054
 30
0.0
 11
156.724657310959
 21
13.3262857512054
 31
0.0
  0
LINE
  5
84
330
1F
100
AcDbEntity
  8
1
  6
Continuous
 62
     4
100
AcDbLine
 10
157.813794810959
 20
17.3262857512054
 30
0.0
 11
157.813794810959
 21
15.8262857512054
 31
0.0
  0
LINE
  5
85
330
1F
100
AcDbEntity
  8
1
  6
Continuous
 62
     4
100
AcDbLine
 10
155.437494810959
 20
15.8262857512054
 30
0.0
 11
157.615769810959
 21
15.8262857512054
 31
0.0
  0
LINE
  5
86
330
1F
100
AcDbEntity
  8
1
  6
Continuous
 62
     4
100
AcDbLine
 10
153.853294810959
 20
7.7012857512054
 30
0.0
 11
154.744407310959
 21
11.7012857512054
 31
0.0
  0
LINE
  5
87
330
1F
100
AcDbEntity
  8
1
  6
Continuous
 62
     4
100
AcDbLine
 10
153.655269810959
 20
14.2012857512054
 30
0.0
 11
154.348357310959
 21
13.3262857512054
 31
0.0
  0
LINE
  5
88
330
1F
100
AcDbEntity
  8
1
  6
Continuous
 62
     4
100
AcDbLine
 10
154.348357310959
 20
17.0762857512054
 30
0.0
 11
154.744407310959
 21
16.0762857512054
 31
0.0
  0
LINE
  5
89
330
1F
100
AcDbEntity
  8
1
  6
Continuous
 62
     4
100
AcDbLine
 10
91.13897428931719
 20
28.1094113917901
 30
0.0
 11
97.13897428931719
 21
28.1094113917901
 31
0.0
  0
LINE
  5
8A
330
1F
100
AcDbEntity
  8
1
  6
Continuous
 62
     4
100
AcDbLine
 10
96.63897428931719
 20
34.6094113917901
 30
0.0
 11
91.13897428931719
 21
28.1094113917901
 31
0.0
  0
LINE
  5
8B
330
1F
100
AcDbEntity
  8
1
  6
Continuous
 62
     4
100
AcDbLine
 10
97.13897428931719
 20
35.6094113917901
 30
0.0
 11
96.63897428931719
 21
34.6094113917901
 31
0.0
  0
LINE
  5
8C
330
1F
100
AcDbEntity
  8
1
  6
Continuous
 62
     4
100
AcDbLine
 10
97.13897428931719
 20
36.6094113917901
 30
0.0
 11
97.13897428931719
 21
35.6094113917901
 31
0.0
  0
LINE
  5
8D
330
1F
100
AcDbEntity
  8
1
  6
Continuous
 62
     4
100
AcDbLine
 10
96.63897428931719
 20
37.3594113917901
 30
0.0
 11
97.13897428931719
 21
36.6094113917901
 31
0.0
  0
LINE
  5
8E
330
1F
100
AcDbEntity
  8
1
  6
Continuous
 62
     4
100
AcDbLine
 10
95.88897428931719
 20
37.8594113917901
 30
0.0
 11
96.63897428931719
 21
37.3594113917901
 31
0.0
  0
LINE
  5
8F
330
1F
100
AcDbEntity
  8
1
  6
Continuous
 62
     4
100
AcDbLine
 10
94.88897428931719
 20
38.1094113917901
 30
0.0
 11
95.88897428931719
 21
37.8594113917901
 31
0.0
  0
LINE
  5
90
330
1F
100
AcDbEntity
  8
1
  6
Continuous
 62
     4
100
AcDbLine
 10
93.38897428931719
 20
38.1094113917901
 30
0.0
 11
94.88897428931719
 21
38.1094113917901
 31
0.0
  0
LINE
  5
91
330
1F
100
AcDbEntity
  8
1
  6
Continuous
 62
     4
100
AcDbLine
 10
92.38897428931719
 20
37.8594113917901
 30
0.0
 11
93.38897428931719
 21
38.1094113917901
 31
0.0
  0
LINE
  5
92
330
1F
100
AcDbEntity
  8
1
  6
Continuous
 62
     4
100
AcDbLine
 10
91.63897428931719
 20
37.3594113917901
 30
0.0
 11
92.38897428931719
 21
37.8594113917901
 31
0.0
  0
LINE
  5
93
330
1F
100
AcDbEntity
  8
1
  6
Continuous
 62
     4
100
AcDbLine
 10
91.13897428931719
 20
36.6094113917901
 30
0.0
 11
91.63897428931719
 21
37.3594113917901
 31
0.0
  0
LINE
  5
94
330
1F
100
AcDbEntity
  8
1
  6
Continuous
 62
     4
100
AcDbLine
 10
84.13897428931719
 20
28.1094113917901
 30
0.0
 11
88.13897428931719
 21
38.1094113917901
 31
0.0
  0
LINE
  5
95
330
1F
100
AcDbEntity
  8
1
  6
Continuous
 62
     4
100
AcDbLine
 10
81.13897428931719
 20
38.1094113917901
 30
0.0
 11
81.13897428931719
 21
28.1094113917901
 31
0.0
  0
LINE
  5
96
330
1F
100
AcDbEntity
  8
1
  6
Continuous
 62
     4
100
AcDbLine
 10
78.13897428931719
 20
35.1094113917901
 30
0.0
 11
81.13897428931719
 21
38.1094113917901
 31
0.0
  0
LINE
  5
97
330
1F
100
AcDbEntity
  8
1
  6
Continuous
 62
     4
100
AcDbLine
 10
67.13897428931719
 20
38.1094113917901
 30
0.0
 11
67.13897428931719
 21
28.1094113917901
 31
0.0
  0
LINE
  5
98
330
1F
100
AcDbEntity
  8
1
  6
Continuous
 62
     4
100
AcDbLine
 10
64.13897428931719
 20
35.1094113917901
 30
0.0
 11
67.13897428931719
 21
38.1094113917901
 31
0.0
  0
LINE
  5
99
330
1F
100
AcDbEntity
  8
1
  6
Continuous
 62
     4
100
AcDbLine
 10
57.3889742893172
 20
28.1094113917901
 30
0.0
 11
61.1389742893172
 21
28.1094113917901
 31
0.0
  0
LINE
  5
9A
330
1F
100
AcDbEntity
  8
1
  6
Continuous
 62
     4
100
AcDbLine
 10
56.3889742893172
 20
28.3594113917901
 30
0.0
 11
57.3889742893172
 21
28.1094113917901
 31
0.0
  0
LINE
  5
9B
330
1F
100
AcDbEntity
  8
1
  6
Continuous
 62
     4
100
AcDbLine
 10
55.8889742893172
 20
28.6094113917901
 30
0.0
 11
56.3889742893172
 21
28.3594113917901
 31
0.0
  0
LINE
  5
9C
330
1F
100
AcDbEntity
  8
1
  6
Continuous
 62
     4
100
AcDbLine
 10
55.3889742893172
 20
29.1094113917901
 30
0.0
 11
55.8889742893172
 21
28.6094113917901
 31
0.0
  0
LINE
  5
9D
330
1F
100
AcDbEntity
  8
1
  6
Continuous
 62
     4
100
AcDbLine
 10
55.1389742893172
 20
30.1094113917901
 30
0.0
 11
55.3889742893172
 21
29.1094113917901
 31
0.0
  0
LINE
  5
9E
330
1F
100
AcDbEntity
  8
1
  6
Continuous
 62
     4
100
AcDbLine
 10
55.1389742893172
 20
33.1094113917901
 30
0.0
 11
55.1389742893172
 21
30.1094113917901
 31
0.0
  0
LINE
  5
9F
330
1F
100
AcDbEntity
  8
1
  6
Continuous
 62
     4
100
AcDbLine
 10
55.3889742893172
 20
34.1094113917901
 30
0.0
 11
55.1389742893172
 21
33.1094113917901
 31
0.0
  0
LINE
  5
A0
330
1F
100
AcDbEntity
  8
1
  6
Continuous
 62
     4
100
AcDbLine
 10
55.8889742893172
 20
34.6094113917901
 30
0.0
 11
55.3889742893172
 21
34.1094113917901
 31
0.0
  0
LINE
  5
A1
330
1F
100
AcDbEntity
  8
1
  6
Continuous
 62
     4
100
AcDbLine
 10
56.3889742893172
 20
34.8594113917901
 30
0.0
 11
55.8889742893172
 21
34.6094113917901
 31
0.0
  0
LINE
  5
A2
330
1F
100
AcDbEntity
  8
1
  6
Continuous
 62
     4
100
AcDbLine
 10
57.3889742893172
 20
35.1094113917901
 30
0.0
 11
56.3889742893172
 21
34.8594113917901
 31
0.0
  0
LINE
  5
A3
330
1F
100
AcDbEntity
  8
1
  6
Continuous
 62
     4
100
AcDbLine
 10
61.1389742893172
 20
35.1094113917901
 30
0.0
 11
57.3889742893172
 21
35.1094113917901
 31
0.0
  0
LINE
  5
A4
330
1F
100
AcDbEntity
  8
1
  6
Continuous
 62
     4
100
AcDbLine
 10
45.1389742893172
 20
28.1094113917901
 30
0.0
 11
45.1389742893172
 21
33.1094113917901
 31
0.0
  0
LINE
  5
A5
330
1F
100
AcDbEntity
  8
1
  6
Continuous
 62
     4
100
AcDbLine
 10
49.1389742893172
 20
33.1094113917901
 30
0.0
 11
52.1389742893172
 21
28.1094113917901
 31
0.0
  0
LINE
  5
A6
330
1F
100
AcDbEntity
  8
1
  6
Continuous
 62
     4
100
AcDbLine
 10
49.8889742893172
 20
33.1094113917901
 30
0.0
 11
49.1389742893172
 21
33.1094113917901
 31
0.0
  0
LINE
  5
A7
330
1F
100
AcDbEntity
  8
1
  6
Continuous
 62
     4
100
AcDbLine
 10
50.8889742893172
 20
33.3594113917901
 30
0.0
 11
49.8889742893172
 21
33.1094113917901
 31
0.0
  0
LINE
  5
A8
330
1F
100
AcDbEntity
  8
1
  6
Continuous
 62
     4
100
AcDbLine
 10
51.6389742893172
 20
33.8594113917901
 30
0.0
 11
50.8889742893172
 21
33.3594113917901
 31
0.0
  0
LINE
  5
A9
330
1F
100
AcDbEntity
  8
1
  6
Continuous
 62
     4
100
AcDbLine
 10
51.8889742893172
 20
34.3594113917901
 30
0.0
 11
51.6389742893172
 21
33.8594113917901
 31
0.0
  0
LINE
  5
AA
330
1F
100
AcDbEntity
  8
1
  6
Continuous
 62
     4
100
AcDbLine
 10
52.1389742893172
 20
35.1094113917901
 30
0.0
 11
51.8889742893172
 21
34.3594113917901
 31
0.0
  0
LINE
  5
AB
330
1F
100
AcDbEntity
  8
1
  6
Continuous
 62
     4
100
AcDbLine
 10
52.1389742893172
 20
36.1094113917901
 30
0.0
 11
52.1389742893172
 21
35.1094113917901
 31
0.0
  0
LINE
  5
AC
330
1F
100
AcDbEntity
  8
1
  6
Continuous
 62
     4
100
AcDbLine
 10
51.8889742893172
 20
36.8594113917901
 30
0.0
 11
52.1389742893172
 21
36.1094113917901
 31
0.0
  0
LINE
  5
AD
330
1F
100
AcDbEntity
  8
1
  6
Continuous
 62
     4
100
AcDbLine
 10
51.6389742893172
 20
37.3594113917901
 30
0.0
 11
51.8889742893172
 21
36.8594113917901
 31
0.0
  0
LINE
  5
AE
330
1F
100
AcDbEntity
  8
1
  6
Continuous
 62
     4
100
AcDbLine
 10
50.8889742893172
 20
37.8594113917901
 30
0.0
 11
51.6389742893172
 21
37.3594113917901
 31
0.0
  0
LINE
  5
AF
330
1F
100
AcDbEntity
  8
1
  6
Continuous
 62
     4
100
AcDbLine
 10
49.8889742893172
 20
38.1094113917901
 30
0.0
 11
50.8889742893172
 21
37.8594113917901
 31
0.0
  0
LINE
  5
B0
330
1F
100
AcDbEntity
  8
1
  6
Continuous
 62
     4
100
AcDbLine
 10
45.1389742893172
 20
38.1094113917901
 30
0.0
 11
49.8889742893172
 21
38.1094113917901
 31
0.0
  0
LINE
  5
B1
330
1F
100
AcDbEntity
  8
1
  6
Continuous
 62
     4
100
AcDbLine
 10
45.1389742893172
 20
33.1094113917901
 30
0.0
 11
45.1389742893172
 21
38.1094113917901
 31
0.0
  0
LINE
  5
B2
330
1F
100
AcDbEntity
  8
1
  6
Continuous
 62
     4
100
AcDbLine
 10
49.1389742893172
 20
33.1094113917901
 30
0.0
 11
45.1389742893172
 21
33.1094113917901
 31
0.0
  0
LINE
  5
B3
330
1F
100
AcDbEntity
  8
1
  6
Continuous
 62
     4
100
AcDbLine
 10
296.963670660898
 20
28.6976312635314
 30
0.0
 11
302.963670660898
 21
28.6976312635314
 31
0.0
  0
LINE
  5
B4
330
1F
100
AcDbEntity
  8
1
  6
Continuous
 62
     4
100
AcDbLine
 10
302.463670660898
 20
35.1976312635314
 30
0.0
 11
296.963670660898
 21
28.6976312635314
 31
0.0
  0
LINE
  5
B5
330
1F
100
AcDbEntity
  8
1
  6
Continuous
 62
     4
100
AcDbLine
 10
302.963670660898
 20
36.1976312635314
 30
0.0
 11
302.463670660898
 21
35.1976312635314
 31
0.0
  0
LINE
  5
B6
330
1F
100
AcDbEntity
  8
1
  6
Continuous
 62
     4
100
AcDbLine
 10
302.963670660898
 20
37.1976312635314
 30
0.0
 11
302.963670660898
 21
36.1976312635314
 31
0.0
  0
LINE
  5
B7
330
1F
100
AcDbEntity
  8
1
  6
Continuous
 62
     4
100
AcDbLine
 10
302.463670660898
 20
37.9476312635314
 30
0.0
 11
302.963670660898
 21
37.1976312635314
 31
0.0
  0
LINE
  5
B8
330
1F
100
AcDbEntity
  8
1
  6
Continuous
 62
     4
100
AcDbLine
 10
301.713670660898
 20
38.4476312635314
 30
0.0
 11
302.463670660898
 21
37.9476312635314
 31
0.0
  0
LINE
  5
B9
330
1F
100
AcDbEntity
  8
1
  6
Continuous
 62
     4
100
AcDbLine
 10
300.713670660898
 20
38.6976312635314
 30
0.0
 11
301.713670660898
 21
38.4476312635314
 31
0.0
  0
LINE
  5
BA
330
1F
100
AcDbEntity
  8
1
  6
Continuous
 62
     4
100
AcDbLine
 10
299.213670660898
 20
38.6976312635314
 30
0.0
 11
300.713670660898
 21
38.6976312635314
 31
0.0
  0
LINE
  5
BB
330
1F
100
AcDbEntity
  8
1
  6
Continuous
 62
     4
100
AcDbLine
 10
298.213670660898
 20
38.4476312635314
 30
0.0
 11
299.213670660898
 21
38.6976312635314
 31
0.0
  0
LINE
  5
BC
330
1F
100
AcDbEntity
  8
1
  6
Continuous
 62
     4
100
AcDbLine
 10
297.463670660898
 20
37.9476312635314
 30
0.0
 11
298.213670660898
 21
38.4476312635314
 31
0.0
  0
LINE
  5
BD
330
1F
100
AcDbEntity
  8
1
  6
Continuous
 62
     4
100
AcDbLine
 10
296.963670660898
 20
37.1976312635314
 30
0.0
 11
297.463670660898
 21
37.9476312635314
 31
0.0
  0
LINE
  5
BE
330
1F
100
AcDbEntity
  8
1
  6
Continuous
 62
     4
100
AcDbLine
 10
289.963670660898
 20
28.6976312635314
 30
0.0
 11
293.963670660898
 21
38.6976312635314
 31
0.0
  0
LINE
  5
BF
330
1F
100
AcDbEntity
  8
1
  6
Continuous
 62
     4
100
AcDbLine
 10
286.963670660898
 20
38.6976312635314
 30
0.0
 11
286.963670660898
 21
28.6976312635314
 31
0.0
  0
LINE
  5
C0
330
1F
100
AcDbEntity
  8
1
  6
Continuous
 62
     4
100
AcDbLine
 10
283.963670660898
 20
35.6976312635314
 30
0.0
 11
286.963670660898
 21
38.6976312635314
 31
0.0
  0
LINE
  5
C1
330
1F
100
AcDbEntity
  8
1
  6
Continuous
 62
     4
100
AcDbLine
 10
272.963670660898
 20
38.6976312635314
 30
0.0
 11
272.963670660898
 21
28.6976312635314
 31
0.0
  0
LINE
  5
C2
330
1F
100
AcDbEntity
  8
1
  6
Continuous
 62
     4
100
AcDbLine
 10
269.963670660898
 20
35.6976312635314
 30
0.0
 11
272.963670660898
 21
38.6976312635314
 31
0.0
  0
LINE
  5
C3
330
1F
100
AcDbEntity
  8
1
  6
Continuous
 62
     4
100
AcDbLine
 10
263.213670660898
 20
28.6976312635314
 30
0.0
 11
266.963670660898
 21
28.6976312635314
 31
0.0
  0
LINE
  5
C4
330
1F
100
AcDbEntity
  8
1
  6
Continuous
 62
     4
100
AcDbLine
 10
262.213670660898
 20
28.9476312635314
 30
0.0
 11
263.213670660898
 21
28.6976312635314
 31
0.0
  0
LINE
  5
C5
330
1F
100
AcDbEntity
  8
1
  6
Continuous
 62
     4
100
AcDbLine
 10
261.713670660898
 20
29.1976312635314
 30
0.0
 11
262.213670660898
 21
28.9476312635314
 31
0.0
  0
LINE
  5
C6
330
1F
100
AcDbEntity
  8
1
  6
Continuous
 62
     4
100
AcDbLine
 10
261.213670660898
 20
29.6976312635314
 30
0.0
 11
261.713670660898
 21
29.1976312635314
 31
0.0
  0
LINE
  5
C7
330
1F
100
AcDbEntity
  8
1
  6
Continuous
 62
     4
100
AcDbLine
 10
260.963670660898
 20
30.6976312635314
 30
0.0
 11
261.213670660898
 21
29.6976312635314
 31
0.0
  0
LINE
  5
C8
330
1F
100
AcDbEntity
  8
1
  6
Continuous
 62
     4
100
AcDbLine
 10
260.963670660898
 20
33.6976312635314
 30
0.0
 11
260.963670660898
 21
30.6976312635314
 31
0.0
  0
LINE
  5
C9
330
1F
100
AcDbEntity
  8
1
  6
Continuous
 62
     4
100
AcDbLine
 10
261.213670660898
 20
34.6976312635314
 30
0.0
 11
260.963670660898
 21
33.6976312635314
 31
0.0
  0
LINE
  5
CA
330
1F
100
AcDbEntity
  8
1
  6
Continuous
 62
     4
100
AcDbLine
 10
261.713670660898
 20
35.1976312635314
 30
0.0
 11
261.213670660898
 21
34.6976312635314
 31
0.0
  0
LINE
  5
CB
330
1F
100
AcDbEntity
  8
1
  6
Continuous
 62
     4
100
AcDbLine
 10
262.213670660898
 20
35.4476312635314
 30
0.0
 11
261.713670660898
 21
35.1976312635314
 31
0.0
  0
LINE
  5
CC
330
1F
100
AcDbEntity
  8
1
  6
Continuous
 62
     4
100
AcDbLine
 10
263.213670660898
 20
35.6976312635314
 30
0.0
 11
262.213670660898
 21
35.4476312635314
 31
0.0
  0
LINE
  5
CD
330
1F
100
AcDbEntity
  8
1
  6
Continuous
 62
     4
100
AcDbLine
 10
266.963670660898
 20
35.6976312635314
 30
0.0
 11
263.213670660898
 21
35.6976312635314
 31
0.0
  0
LINE
  5
CE
330
1F
100
AcDbEntity
  8
1
  6
Continuous
 62
     4
100
AcDbLine
 10
250.963670660898
 20
28.6976312635314
 30
0.0
 11
250.963670660898
 21
33.6976312635314
 31
0.0
  0
LINE
  5
CF
330
1F
100
AcDbEntity
  8
1
  6
Continuous
 62
     4
100
AcDbLine
 10
254.963670660898
 20
33.6976312635314
 30
0.0
 11
257.963670660898
 21
28.6976312635314
 31
0.0
  0
LINE
  5
D0
330
1F
100
AcDbEntity
  8
1
  6
Continuous
 62
     4
100
AcDbLine
 10
255.713670660898
 20
33.6976312635314
 30
0.0
 11
254.963670660898
 21
33.6976312635314
 31
0.0
  0
LINE
  5
D1
330
1F
100
AcDbEntity
  8
1
  6
Continuous
 62
     4
100
AcDbLine
 10
256.713670660898
 20
33.9476312635314
 30
0.0
 11
255.713670660898
 21
33.6976312635314
 31
0.0
  0
LINE
  5
D2
330
1F
100
AcDbEntity
  8
1
  6
Continuous
 62
     4
100
AcDbLine
 10
257.463670660898
 20
34.4476312635314
 30
0.0
 11
256.713670660898
 21
33.9476312635314
 31
0.0
  0
LINE
  5
D3
330
1F
100
AcDbEntity
  8
1
  6
Continuous
 62
     4
100
AcDbLine
 10
257.713670660898
 20
34.9476312635314
 30
0.0
 11
257.463670660898
 21
34.4476312635314
 31
0.0
  0
LINE
  5
D4
330
1F
100
AcDbEntity
  8
1
  6
Continuous
 62
     4
100
AcDbLine
 10
257.963670660898
 20
35.6976312635314
 30
0.0
 11
257.713670660898
 21
34.9476312635314
 31
0.0
  0
LINE
  5
D5
330
1F
100
AcDbEntity
  8
1
  6
Continuous
 62
     4
100
AcDbLine
 10
257.963670660898
 20
36.6976312635314
 30
0.0
 11
257.963670660898
 21
35.6976312635314
 31
0.0
  0
LINE
  5
D6
330
1F
100
AcDbEntity
  8
1
  6
Continuous
 62
     4
100
AcDbLine
 10
257.713670660898
 20
37.4476312635314
 30
0.0
 11
257.963670660898
 21
36.6976312635314
 31
0.0
  0
LINE
  5
D7
330
1F
100
AcDbEntity
  8
1
  6
Continuous
 62
     4
100
AcDbLine
 10
257.463670660898
 20
37.9476312635314
 30
0.0
 11
257.713670660898
 21
37.4476312635314
 31
0.0
  0
LINE
  5
D8
330
1F
100
AcDbEntity
  8
1
  6
Continuous
 62
     4
100
AcDbLine
 10
256.713670660898
 20
38.4476312635314
 30
0.0
 11
257.463670660898
 21
37.9476312635314
 31
0.0
  0
LINE
  5
D9
330
1F
100
AcDbEntity
  8
1
  6
Continuous
 62
     4
100
AcDbLine
 10
255.713670660898
 20
38.6976312635314
 30
0.0
 11
256.713670660898
 21
38.4476312635314
 31
0.0
  0
LINE
  5
DA
330
1F
100
AcDbEntity
  8
1
  6
Continuous
 62
     4
100
AcDbLine
 10
250.963670660898
 20
38.6976312635314
 30
0.0
 11
255.713670660898
 21
38.6976312635314
 31
0.0
  0
LINE
  5
DB
330
1F
100
AcDbEntity
  8
1
  6
Continuous
 62
     4
100
AcDbLine
 10
250.963670660898
 20
33.6976312635314
 30
0.0
 11
250.963670660898
 21
38.6976312635314
 31
0.0
  0
LINE
  5
DC
330
1F
100
AcDbEntity
  8
1
  6
Continuous
 62
     4
100
AcDbLine
 10
254.963670660898
 20
33.6976312635314
 30
0.0
 11
250.963670660898
 21
33.6976312635314
 31
0.0
  0
LINE
  5
DD
330
1F
100
AcDbEntity
  8
1
  6
Continuous
 62
     4
100
AcDbLine
 10
381.931220614029
 20
276.39926647819
 30
0.0
 11
381.931220614029
 21
273.89926647819
 31
0.0
  0
LINE
  5
DE
330
1F
100
AcDbEntity
  8
1
  6
Continuous
 62
     4
100
AcDbLine
 10
381.681220614029
 20
277.89926647819
 30
0.0
 11
381.931220614029
 21
276.39926647819
 31
0.0
  0
LINE
  5
DF
330
1F
100
AcDbEntity
  8
1
  6
Continuous
 62
     4
100
AcDbLine
 10
381.181220614029
 20
278.89926647819
 30
0.0
 11
381.681220614029
 21
277.89926647819
 31
0.0
  0
LINE
  5
E0
330
1F
100
AcDbEntity
  8
1
  6
Continuous
 62
     4
100
AcDbLine
 10
380.681220614029
 20
279.39926647819
 30
0.0
 11
381.181220614029
 21
278.89926647819
 31
0.0
  0
LINE
  5
E1
330
1F
100
AcDbEntity
  8
1
  6
Continuous
 62
     4
100
AcDbLine
 10
379.931220614029
 20
279.89926647819
 30
0.0
 11
380.681220614029
 21
279.39926647819
 31
0.0
  0
LINE
  5
E2
330
1F
100
AcDbEntity
  8
1
  6
Continuous
 62
     4
100
AcDbLine
 10
379.181220614029
 20
280.14926647819
 30
0.0
 11
379.931220614029
 21
279.89926647819
 31
0.0
  0
LINE
  5
E3
330
1F
100
AcDbEntity
  8
1
  6
Continuous
 62
     4
100
AcDbLine
 10
378.681220614029
 20
280.14926647819
 30
0.0
 11
379.181220614029
 21
280.14926647819
 31
0.0
  0
LINE
  5
E4
330
1F
100
AcDbEntity
  8
1
  6
Continuous
 62
     4
100
AcDbLine
 10
377.931220614029
 20
279.89926647819
 30
0.0
 11
378.681220614029
 21
280.14926647819
 31
0.0
  0
LINE
  5
E5
330
1F
100
AcDbEntity
  8
1
  6
Continuous
 62
     4
100
AcDbLine
 10
377.181220614029
 20
279.39926647819
 30
0.0
 11
377.931220614029
 21
279.89926647819
 31
0.0
  0
LINE
  5
E6
330
1F
100
AcDbEntity
  8
1
  6
Continuous
 62
     4
100
AcDbLine
 10
376.681220614029
 20
278.89926647819
 30
0.0
 11
377.181220614029
 21
279.39926647819
 31
0.0
  0
LINE
  5
E7
330
1F
100
AcDbEntity
  8
1
  6
Continuous
 62
     4
100
AcDbLine
 10
376.181220614029
 20
277.89926647819
 30
0.0
 11
376.681220614029
 21
278.89926647819
 31
0.0
  0
LINE
  5
E8
330
1F
100
AcDbEntity
  8
1
  6
Continuous
 62
     4
100
AcDbLine
 10
375.931220614029
 20
276.39926647819
 30
0.0
 11
376.181220614029
 21
277.89926647819
 31
0.0
  0
LINE
  5
E9
330
1F
100
AcDbEntity
  8
1
  6
Continuous
 62
     4
100
AcDbLine
 10
375.931220614029
 20
273.89926647819
 30
0.0
 11
375.931220614029
 21
276.39926647819
 31
0.0
  0
LINE
  5
EA
330
1F
100
AcDbEntity
  8
1
  6
Continuous
 62
     4
100
AcDbLine
 10
376.181220614029
 20
272.39926647819
 30
0.0
 11
375.931220614029
 21
273.89926647819
 31
0.0
  0
LINE
  5
EB
330
1F
100
AcDbEntity
  8
1
  6
Continuous
 62
     4
100
AcDbLine
 10
376.681220614029
 20
271.39926647819
 30
0.0
 11
376.181220614029
 21
272.39926647819
 31
0.0
  0
LINE
  5
EC
330
1F
100
AcDbEntity
  8
1
  6
Continuous
 62
     4
100
AcDbLine
 10
377.181220614029
 20
270.89926647819
 30
0.0
 11
376.681220614029
 21
271.39926647819
 31
0.0
  0
LINE
  5
ED
330
1F
100
AcDbEntity
  8
1
  6
Continuous
 62
     4
100
AcDbLine
 10
377.931220614029
 20
270.39926647819
 30
0.0
 11
377.181220614029
 21
270.89926647819
 31
0.0
  0
LINE
  5
EE
330
1F
100
AcDbEntity
  8
1
  6
Continuous
 62
     4
100
AcDbLine
 10
378.681220614029
 20
270.14926647819
 30
0.0
 11
377.931220614029
 21
270.39926647819
 31
0.0
  0
LINE
  5
EF
330
1F
100
AcDbEntity
  8
1
  6
Continuous
 62
     4
100
AcDbLine
 10
379.181220614029
 20
270.14926647819
 30
0.0
 11
378.681220614029
 21
270.14926647819
 31
0.0
  0
LINE
  5
F0
330
1F
100
AcDbEntity
  8
1
  6
Continuous
 62
     4
100
AcDbLine
 10
379.931220614029
 20
270.39926647819
 30
0.0
 11
379.181220614029
 21
270.14926647819
 31
0.0
  0
LINE
  5
F1
330
1F
100
AcDbEntity
  8
1
  6
Continuous
 62
     4
100
AcDbLine
 10
380.681220614029
 20
270.89926647819
 30
0.0
 11
379.931220614029
 21
270.39926647819
 31
0.0
  0
LINE
  5
F2
330
1F
100
AcDbEntity
  8
1
  6
Continuous
 62
     4
100
AcDbLine
 10
381.181220614029
 20
271.39926647819
 30
0.0
 11
380.681220614029
 21
270.89926647819
 31
0.0
  0
LINE
  5
F3
330
1F
100
AcDbEntity
  8
1
  6
Continuous
 62
     4
100
AcDbLine
 10
381.681220614029
 20
272.39926647819
 30
0.0
 11
381.181220614029
 21
271.39926647819
 31
0.0
  0
LINE
  5
F4
330
1F
100
AcDbEntity
  8
1
  6
Continuous
 62
     4
100
AcDbLine
 10
381.931220614029
 20
273.89926647819
 30
0.0
 11
381.681220614029
 21
272.39926647819
 31
0.0
  0
LINE
  5
F5
330
1F
100
AcDbEntity
  8
1
  6
Continuous
 62
     4
100
AcDbLine
 10
371.431220614029
 20
274.14926647819
 30
0.0
 11
371.431220614029
 21
270.14926647819
 31
0.0
  0
LINE
  5
F6
330
1F
100
AcDbEntity
  8
1
  6
Continuous
 62
     4
100
AcDbLine
 10
366.931220614029
 20
272.14926647819
 30
0.0
 11
372.931220614029
 21
272.14926647819
 31
0.0
  0
LINE
  5
F7
330
1F
100
AcDbEntity
  8
1
  6
Continuous
 62
     4
100
AcDbLine
 10
371.431220614029
 20
280.14926647819
 30
0.0
 11
366.931220614029
 21
272.14926647819
 31
0.0
  0
LINE
  5
F8
330
1F
100
AcDbEntity
  8
1
  6
Continuous
 62
     4
100
AcDbLine
 10
358.931220614029
 20
273.64926647819
 30
0.0
 11
363.931220614029
 21
273.64926647819
 31
0.0
  0
LINE
  5
F9
330
1F
100
AcDbEntity
  8
1
  6
Continuous
 62
     4
100
AcDbLine
 10
349.431220614029
 20
275.64926647819
 30
0.0
 11
349.431220614029
 21
280.14926647819
 31
0.0
  0
LINE
  5
FA
330
1F
100
AcDbEntity
  8
1
  6
Continuous
 62
     4
100
AcDbLine
 10
354.181220614029
 20
275.89926647819
 30
0.0
 11
353.431220614029
 21
275.64926647819
 31
0.0
  0
LINE
  5
FB
330
1F
100
AcDbEntity
  8
1
  6
Continuous
 62
     4
100
AcDbLine
 10
354.931220614029
 20
276.39926647819
 30
0.0
 11
354.181220614029
 21
275.89926647819
 31
0.0
  0
LINE
  5
FC
330
1F
100
AcDbEntity
  8
1
  6
Continuous
 62
     4
100
AcDbLine
 10
355.431220614029
 20
277.39926647819
 30
0.0
 11
354.931220614029
 21
276.39926647819
 31
0.0
  0
LINE
  5
FD
330
1F
100
AcDbEntity
  8
1
  6
Continuous
 62
     4
100
AcDbLine
 10
355.431220614029
 20
278.14926647819
 30
0.0
 11
355.431220614029
 21
277.39926647819
 31
0.0
  0
LINE
  5
FE
330
1F
100
AcDbEntity
  8
1
  6
Continuous
 62
     4
100
AcDbLine
 10
355.181220614029
 20
279.14926647819
 30
0.0
 11
355.431220614029
 21
278.14926647819
 31
0.0
  0
LINE
  5
FF
330
1F
100
AcDbEntity
  8
1
  6
Continuous
 62
     4
100
AcDbLine
 10
354.431220614029
 20
279.89926647819
 30
0.0
 11
355.181220614029
 21
279.14926647819
 31
0.0
  0
LINE
  5
100
330
1F
100
AcDbEntity
  8
1
  6
Continuous
 62
     4
100
AcDbLine
 10
353.181220614029
 20
280.14926647819
 30
0.0
 11
354.431220614029
 21
279.89926647819
 31
0.0
  0
LINE
  5
101
330
1F
100
AcDbEntity
  8
1
  6
Continuous
 62
     4
100
AcDbLine
 10
349.431220614029
 20
280.14926647819
 30
0.0
 11
353.181220614029
 21
280.14926647819
 31
0.0
  0
LINE
  5
102
330
1F
100
AcDbEntity
  8
1
  6
Continuous
 62
     4
100
AcDbLine
 10
349.431220614029
 20
270.14926647819
 30
0.0
 11
349.431220614029
 21
275.64926647819
 31
0.0
  0
LINE
  5
103
330
1F
100
AcDbEntity
  8
1
  6
Continuous
 62
     4
100
AcDbLine
 10
353.931220614029
 20
270.14926647819
 30
0.0
 11
349.431220614029
 21
270.14926647819
 31
0.0
  0
LINE
  5
104
330
1F
100
AcDbEntity
  8
1
  6
Continuous
 62
     4
100
AcDbLine
 10
354.931220614029
 20
270.64926647819
 30
0.0
 11
353.931220614029
 21
270.14926647819
 31
0.0
  0
LINE
  5
105
330
1F
100
AcDbEntity
  8
1
  6
Continuous
 62
     4
100
AcDbLine
 10
355.431220614029
 20
271.14926647819
 30
0.0
 11
354.931220614029
 21
270.64926647819
 31
0.0
  0
LINE
  5
106
330
1F
100
AcDbEntity
  8
1
  6
Continuous
 62
     4
100
AcDbLine
 10
355.931220614029
 20
272.14926647819
 30
0.0
 11
355.431220614029
 21
271.14926647819
 31
0.0
  0
LINE
  5
107
330
1F
100
AcDbEntity
  8
1
  6
Continuous
 62
     4
100
AcDbLine
 10
355.931220614029
 20
273.39926647819
 30
0.0
 11
355.931220614029
 21
272.14926647819
 31
0.0
  0
LINE
  5
108
330
1F
100
AcDbEntity
  8
1
  6
Continuous
 62
     4
100
AcDbLine
 10
355.431220614029
 20
274.64926647819
 30
0.0
 11
355.931220614029
 21
273.39926647819
 31
0.0
  0
LINE
  5
109
330
1F
100
AcDbEntity
  8
1
  6
Continuous
 62
     4
100
AcDbLine
 10
354.931220614029
 20
275.14926647819
 30
0.0
 11
355.431220614029
 21
274.64926647819
 31
0.0
  0
LINE
  5
10A
330
1F
100
AcDbEntity
  8
1
  6
Continuous
 62
     4
100
AcDbLine
 10
353.931220614029
 20
275.64926647819
 30
0.0
 11
354.931220614029
 21
275.14926647819
 31
0.0
  0
LINE
  5
10B
330
1F
100
AcDbEntity
  8
1
  6
Continuous
 62
     4
100
AcDbLine
 10
353.431220614029
 20
275.64926647819
 30
0.0
 11
353.931220614029
 21
275.64926647819
 31
0.0
  0
LINE
  5
10C
330
1F
100
AcDbEntity
  8
1
  6
Continuous
 62
     4
100
AcDbLine
 10
349.431220614029
 20
275.64926647819
 30
0.0
 11
353.431220614029
 21
275.64926647819
 31
0.0
  0
LINE
  5
10D
330
1F
100
AcDbEntity
  8
1
  6
Continuous
 62
     4
100
AcDbLine
 10
341.431220614029
 20
273.64926647819
 30
0.0
 11
346.431220614029
 21
273.64926647819
 31
0.0
  0
LINE
  5
10E
330
1F
100
AcDbEntity
  8
1
  6
Continuous
 62
     4
100
AcDbLine
 10
331.431220614029
 20
273.14926647819
 30
0.0
 11
331.431220614029
 21
280.14926647819
 31
0.0
  0
LINE
  5
10F
330
1F
100
AcDbEntity
  8
1
  6
Continuous
 62
     4
100
AcDbLine
 10
331.431220614029
 20
270.14926647819
 30
0.0
 11
331.431220614029
 21
273.14926647819
 31
0.0
  0
LINE
  5
110
330
1F
100
AcDbEntity
  8
1
  6
Continuous
 62
     4
100
AcDbLine
 10
333.431220614029
 20
275.14926647819
 30
0.0
 11
338.431220614029
 21
270.14926647819
 31
0.0
  0
LINE
  5
111
330
1F
100
AcDbEntity
  8
1
  6
Continuous
 62
     4
100
AcDbLine
 10
338.431220614029
 20
280.14926647819
 30
0.0
 11
333.431220614029
 21
275.14926647819
 31
0.0
  0
LINE
  5
112
330
1F
100
AcDbEntity
  8
1
  6
Continuous
 62
     4
100
AcDbLine
 10
333.431220614029
 20
275.14926647819
 30
0.0
 11
331.431220614029
 21
273.14926647819
 31
0.0
  0
LINE
  5
113
330
1F
100
AcDbEntity
  8
1
  6
Continuous
 62
     4
100
AcDbLine
 10
324.931220614029
 20
280.14926647819
 30
0.0
 11
324.931220614029
 21
270.14926647819
 31
0.0
  0
LINE
  5
114
330
1F
100
AcDbEntity
  8
1
  6
Continuous
 62
     4
100
AcDbLine
 10
321.431220614029
 20
280.14926647819
 30
0.0
 11
324.931220614029
 21
280.14926647819
 31
0.0
  0
LINE
  5
115
330
1F
100
AcDbEntity
  8
1
  6
Continuous
 62
     4
100
AcDbLine
 10
324.931220614029
 20
280.14926647819
 30
0.0
 11
328.431220614029
 21
280.14926647819
 31
0.0
  0
LINE
  5
116
330
1F
100
AcDbEntity
  8
1
  6
Continuous
 62
     3
100
AcDbLine
 10
178.2543862326108
 20
61.1605834960938
 30
0.0
 11
178.2543862326108
 21
58.6605834960938
 31
0.0
  0
LINE
  5
117
330
1F
100
AcDbEntity
  8
1
  6
Continuous
 62
     3
100
AcDbLine
 10
178.0533628407979
 20
62.6605834960938
 30
0.0
 11
178.2543862326108
 21
61.1605834960938
 31
0.0
  0
LINE
  5
118
330
1F
100
AcDbEntity
  8
1
  6
Continuous
 62
     3
100
AcDbLine
 10
177.6513160571722
 20
63.6605834960938
 30
0.0
 11
178.0533628407979
 21
62.6605834960938
 31
0.0
  0
LINE
  5
119
330
1F
100
AcDbEntity
  8
1
  6
Continuous
 62
     3
100
AcDbLine
 10
177.2492692735465
 20
64.1605834960938
 30
0.0
 11
177.6513160571722
 21
63.6605834960938
 31
0.0
  0
LINE
  5
11A
330
1F
100
AcDbEntity
  8
1
  6
Continuous
 62
     3
100
AcDbLine
 10
176.6461990981078
 20
64.6605834960938
 30
0.0
 11
177.2492692735465
 21
64.1605834960938
 31
0.0
  0
LINE
  5
11B
330
1F
100
AcDbEntity
  8
1
  6
Continuous
 62
     3
100
AcDbLine
 10
176.0431289226693
 20
64.9105834960938
 30
0.0
 11
176.6461990981078
 21
64.6605834960938
 31
0.0
  0
LINE
  5
11C
330
1F
100
AcDbEntity
  8
1
  6
Continuous
 62
     3
100
AcDbLine
 10
175.6410821390435
 20
64.9105834960938
 30
0.0
 11
176.0431289226693
 21
64.9105834960938
 31
0.0
  0
LINE
  5
11D
330
1F
100
AcDbEntity
  8
1
  6
Continuous
 62
     3
100
AcDbLine
 10
175.0380119636049
 20
64.6605834960938
 30
0.0
 11
175.6410821390435
 21
64.9105834960938
 31
0.0
  0
LINE
  5
11E
330
1F
100
AcDbEntity
  8
1
  6
Continuous
 62
     3
100
AcDbLine
 10
174.4349417881663
 20
64.1605834960938
 30
0.0
 11
175.0380119636049
 21
64.6605834960938
 31
0.0
  0
LINE
  5
11F
330
1F
100
AcDbEntity
  8
1
  6
Continuous
 62
     3
100
AcDbLine
 10
174.0328950045406
 20
63.6605834960938
 30
0.0
 11
174.4349417881663
 21
64.1605834960938
 31
0.0
  0
LINE
  5
120
330
1F
100
AcDbEntity
  8
1
  6
Continuous
 62
     3
100
AcDbLine
 10
173.6308482209149
 20
62.6605834960938
 30
0.0
 11
174.0328950045406
 21
63.6605834960938
 31
0.0
  0
LINE
  5
121
330
1F
100
AcDbEntity
  8
1
  6
Continuous
 62
     3
100
AcDbLine
 10
173.429824829102
 20
61.1605834960938
 30
0.0
 11
173.6308482209149
 21
62.6605834960938
 31
0.0
  0
LINE
  5
122
330
1F
100
AcDbEntity
  8
1
  6
Continuous
 62
     3
100
AcDbLine
 10
173.429824829102
 20
58.6605834960938
 30
0.0
 11
173.429824829102
 21
61.1605834960938
 31
0.0
  0
LINE
  5
123
330
1F
100
AcDbEntity
  8
1
  6
Continuous
 62
     3
100
AcDbLine
 10
173.6308482209149
 20
57.1605834960938
 30
0.0
 11
173.429824829102
 21
58.6605834960938
 31
0.0
  0
LINE
  5
124
330
1F
100
AcDbEntity
  8
1
  6
Continuous
 62
     3
100
AcDbLine
 10
174.0328950045406
 20
56.1605834960938
 30
0.0
 11
173.6308482209149
 21
57.1605834960938
 31
0.0
  0
LINE
  5
125
330
1F
100
AcDbEntity
  8
1
  6
Continuous
 62
     3
100
AcDbLine
 10
174.4349417881663
 20
55.6605834960938
 30
0.0
 11
174.0328950045406
 21
56.1605834960938
 31
0.0
  0
LINE
  5
126
330
1F
100
AcDbEntity
  8
1
  6
Continuous
 62
     3
100
AcDbLine
 10
175.0380119636049
 20
55.1605834960938
 30
0.0
 11
174.4349417881663
 21
55.6605834960938
 31
0.0
  0
LINE
  5
127
330
1F
100
AcDbEntity
  8
1
  6
Continuous
 62
     3
100
AcDbLine
 10
175.6410821390435
 20
54.9105834960938
 30
0.0
 11
175.0380119636049
 21
55.1605834960938
 31
0.0
  0
LINE
  5
128
330
1F
100
AcDbEntity
  8
1
  6
Continuous
 62
     3
100
AcDbLine
 10
176.0431289226693
 20
54.9105834960938
 30
0.0
 11
175.6410821390435
 21
54.9105834960938
 31
0.0
  0
LINE
  5
129
330
1F
100
AcDbEntity
  8
1
  6
Continuous
 62
     3
100
AcDbLine
 10
176.6461990981078
 20
55.1605834960938
 30
0.0
 11
176.0431289226693
 21
54.9105834960938
 31
0.0
  0
LINE
  5
12A
330
1F
100
AcDbEntity
  8
1
  6
Continuous
 62
     3
100
AcDbLine
 10
177.2492692735465
 20
55.6605834960938
 30
0.0
 11
176.6461990981078
 21
55.1605834960938
 31
0.0
  0
LINE
  5
12B
330
1F
100
AcDbEntity
  8
1
  6
Continuous
 62
     3
100
AcDbLine
 10
177.6513160571722
 20
56.1605834960938
 30
0.0
 11
177.2492692735465
 21
55.6605834960938
 31
0.0
  0
LINE
  5
12C
330
1F
100
AcDbEntity
  8
1
  6
Continuous
 62
     3
100
AcDbLine
 10
178.0533628407979
 20
57.1605834960938
 30
0.0
 11
177.6513160571722
 21
56.1605834960938
 31
0.0
  0
LINE
  5
12D
330
1F
100
AcDbEntity
  8
1
  6
Continuous
 62
     3
100
AcDbLine
 10
178.2543862326108
 20
58.6605834960938
 30
0.0
 11
178.0533628407979
 21
57.1605834960938
 31
0.0
  0
LINE
  5
12E
330
1F
100
AcDbEntity
  8
1
  6
Continuous
 62
     3
100
AcDbLine
 10
170.1732458817336
 20
58.9105834960938
 30
0.0
 11
170.1732458817336
 21
54.9105834960938
 31
0.0
  0
LINE
  5
12F
330
1F
100
AcDbEntity
  8
1
  6
Continuous
 62
     3
100
AcDbLine
 10
166.554824829102
 20
56.9105834960938
 30
0.0
 11
171.3793862326108
 21
56.9105834960938
 31
0.0
  0
LINE
  5
130
330
1F
100
AcDbEntity
  8
1
  6
Continuous
 62
     3
100
AcDbLine
 10
170.1732458817336
 20
64.9105834960938
 30
0.0
 11
166.554824829102
 21
56.9105834960938
 31
0.0
  0
LINE
  5
14F
330
1F
100
AcDbEntity
  8
100
  6
Continuous
 62
     3
100
AcDbLine
 10
129.637838997907
 20
277.073306931236
 30
0.0
 11
117.137838478976
 21
277.073306931236
 31
0.0
  0
LINE
  5
150
330
1F
100
AcDbEntity
  8
100
  6
Continuous
 62
     3
100
AcDbLine
 10
214.637837960044
 20
277.073306931236
 30
0.0
 11
227.137838478976
 21
277.073306931236
 31
0.0
  0
LINE
  5
151
330
1F
100
AcDbEntity
  8
100
  6
Continuous
 62
     3
100
AcDbLine
 10
117.137838478976
 20
307.073306931236
 30
0.0
 11
135.817330403287
 21
307.073306931236
 31
0.0
  0
LINE
  5
152
330
1F
100
AcDbEntity
  8
100
  6
Continuous
 62
     3
100
AcDbLine
 10
142.058776512517
 20
249.573306931236
 30
0.0
 11
138.99275688383
 21
249.573306931236
 31
0.0
  0
LINE
  5
153
330
1F
100
AcDbEntity
  8
100
  6
Continuous
 62
     3
100
AcDbLine
 10
117.137838478976
 20
247.073306931236
 30
0.0
 11
135.817330403287
 21
247.073306931236
 31
0.0
  0
LINE
  5
154
330
1F
100
AcDbEntity
  8
100
  6
Continuous
 62
     3
100
AcDbLine
 10
136.394680672476
 20
248.073306931236
 30
0.0
 11
135.817330403287
 21
247.073306931236
 31
0.0
  0
LINE
  5
155
330
1F
100
AcDbEntity
  8
100
  6
Continuous
 62
     3
100
AcDbLine
 10
136.394680672476
 20
306.073306931236
 30
0.0
 11
135.817330403287
 21
307.073306931236
 31
0.0
  0
LINE
  5
156
330
1F
100
AcDbEntity
  8
100
  6
Continuous
 62
     3
100
AcDbLine
 10
142.058776512517
 20
304.573306931236
 30
0.0
 11
138.99275688383
 21
304.573306931236
 31
0.0
  0
LINE
  5
157
330
1F
100
AcDbEntity
  8
100
  6
Continuous
 62
     3
100
AcDbLine
 10
207.880996285475
 20
306.073306931236
 30
0.0
 11
208.458346554664
 21
307.073306931236
 31
0.0
  0
LINE
  5
158
330
1F
100
AcDbEntity
  8
100
  6
Continuous
 62
     3
100
AcDbLine
 10
202.216901483297
 20
304.573306931236
 30
0.0
 11
205.282920074121
 21
304.573306931236
 31
0.0
  0
LINE
  5
159
330
1F
100
AcDbEntity
  8
100
  6
Continuous
 62
     3
100
AcDbLine
 10
202.216901483297
 20
249.573306931236
 30
0.0
 11
205.282920074121
 21
249.573306931236
 31
0.0
  0
LINE
  5
15A
330
1F
100
AcDbEntity
  8
100
  6
Continuous
 62
     3
100
AcDbLine
 10
207.880996285475
 20
248.073306931236
 30
0.0
 11
208.458346554664
 21
247.073306931236
 31
0.0
  0
LINE
  5
15B
330
1F
100
AcDbEntity
  8
100
  6
Continuous
 62
     3
100
AcDbLine
 10
227.137838478976
 20
247.073306931236
 30
0.0
 11
208.458346554664
 21
247.073306931236
 31
0.0
  0
LINE
  5
15C
330
1F
100
AcDbEntity
  8
100
  6
Continuous
 62
     3
100
AcDbLine
 10
227.137838478976
 20
307.073306931236
 30
0.0
 11
208.458346554664
 21
307.073306931236
 31
0.0
  0
LINE
  5
15D
330
1F
100
AcDbEntity
  8
100
  6
Continuous
 62
     3
100
AcDbLine
 10
117.137838478976
 20
247.073306931236
 30
0.0
 11
117.137838478976
 21
307.073306931236
 31
0.0
  0
LINE
  5
15E
330
1F
100
AcDbEntity
  8
100
  6
Continuous
 62
     3
100
AcDbLine
 10
227.137838478976
 20
247.073306931236
 30
0.0
 11
227.137838478976
 21
307.073306931236
 31
0.0
  0
LINE
  5
15F
330
1F
100
AcDbEntity
  8
1
  6
CENTER
 62
     1
100
AcDbLine
 10
149.637838997907
 20
238.102163760936
 30
0.0
 11
194.637838997907
 21
316.044450101536
 31
0.0
  0
LINE
  5
160
330
1F
100
AcDbEntity
  8
100
  6
Continuous
 62
     3
100
AcDbLine
 10
193.491917750091
 20
300.842710444752
 30
0.0
 11
189.297249727882
 21
300.451814655212
 31
0.0
  0
LINE
  5
161
330
1F
100
AcDbEntity
  8
100
  6
Continuous
 62
     3
100
AcDbLine
 10
195.28270199279
 20
304.212462808044
 30
0.0
 11
193.491917750091
 21
300.842710444752
 31
0.0
  0
LINE
  5
162
330
1F
100
AcDbEntity
  8
100
  6
Continuous
 62
     3
100
AcDbLine
 10
203.399785649507
 20
283.681779848282
 30
0.0
 11
200.963925954429
 21
280.244538675377
 31
0.0
  0
LINE
  5
163
330
1F
100
AcDbEntity
  8
100
  6
Continuous
 62
     3
100
AcDbLine
 10
207.21346892193
 20
283.547768313511
 30
0.0
 11
203.399785649507
 21
283.681779848282
 31
0.0
  0
LINE
  5
164
330
1F
100
AcDbEntity
  8
100
  6
Continuous
 62
     3
100
AcDbLine
 10
203.399785649507
 20
283.681779848282
 30
0.0
 11
193.491917750091
 21
300.842710444752
 31
0.0
  0
LINE
  5
165
330
1F
100
AcDbEntity
  8
100
  6
Continuous
 62
     3
100
AcDbLine
 10
182.045706897323
 20
246.695430500673
 30
0.0
 11
183.804515224454
 21
250.523567463118
 31
0.0
  0
LINE
  5
166
330
1F
100
AcDbEntity
  8
100
  6
Continuous
 62
     3
100
AcDbLine
 10
184.068605927047
 20
243.459689672152
 30
0.0
 11
182.045706897323
 21
246.695430500673
 31
0.0
  0
LINE
  5
167
330
1F
100
AcDbEntity
  8
100
  6
Continuous
 62
     3
100
AcDbLine
 10
182.045706897323
 20
246.695430500673
 30
0.0
 11
162.229971098491
 21
246.695430500673
 31
0.0
  0
LINE
  5
168
330
1F
100
AcDbEntity
  8
100
  6
Continuous
 62
     3
100
AcDbLine
 10
162.229971098491
 20
246.695430500673
 30
0.0
 11
160.47116277136
 21
250.523567463118
 31
0.0
  0
LINE
  5
169
330
1F
100
AcDbEntity
  8
100
  6
Continuous
 62
     3
100
AcDbLine
 10
160.207072068767
 20
243.459689672153
 30
0.0
 11
162.229971098491
 21
246.695430500673
 31
0.0
  0
LINE
  5
16A
330
1F
100
AcDbEntity
  8
100
  6
Continuous
 62
     3
100
AcDbLine
 10
150.783760245723
 20
300.842710444752
 30
0.0
 11
154.978428267933
 21
300.451814655212
 31
0.0
  0
LINE
  5
16B
330
1F
100
AcDbEntity
  8
100
  6
Continuous
 62
     3
100
AcDbLine
 10
148.992976003024
 20
304.212462808044
 30
0.0
 11
150.783760245723
 21
300.842710444752
 31
0.0
  0
LINE
  5
16C
330
1F
100
AcDbEntity
  8
100
  6
Continuous
 62
     3
100
AcDbLine
 10
140.875892346307
 20
283.681779848282
 30
0.0
 11
143.311752041385
 21
280.244538675377
 31
0.0
  0
LINE
  5
16D
330
1F
100
AcDbEntity
  8
100
  6
Continuous
 62
     3
100
AcDbLine
 10
137.062209073884
 20
283.547768313511
 30
0.0
 11
140.875892346307
 21
283.681779848282
 31
0.0
  0
LINE
  5
16E
330
1F
100
AcDbEntity
  8
100
  6
Continuous
 62
     3
100
AcDbLine
 10
150.783760245723
 20
300.842710444752
 30
0.0
 11
140.875892346307
 21
283.681779848282
 31
0.0
  0
LINE
  5
16F
330
1F
100
AcDbEntity
  8
1
  6
CENTER
 62
     1
100
AcDbLine
 10
229.797402567728
 20
277.073306931236
 30
0.0
 11
111.634876812864
 21
277.073306931236
 31
0.0
  0
LINE
  5
170
330
1F
100
AcDbEntity
  8
1
  6
CENTER
 62
     1
100
AcDbLine
 10
194.637837960044
 20
238.102163760936
 30
0.0
 11
149.637837960044
 21
316.044450101536
 31
0.0
  0
LINE
  5
171
330
1F
100
AcDbEntity
  8
100
  6
Continuous
 62
     3
100
AcDbLine
 10
133.137838478976
 20
42.1146267942638
 30
0.0
 11
117.137838478976
 21
42.1146267942638
 31
0.0
  0
LINE
  5
172
330
1F
100
AcDbEntity
  8
100
  6
Continuous
 62
     3
100
AcDbLine
 10
133.137838478976
 20
76.7556429456413
 30
0.0
 11
117.137838478976
 21
76.7556429456413
 31
0.0
  0
LINE
  5
173
330
1F
100
AcDbEntity
  8
100
  6
Continuous
 62
     3
100
AcDbLine
 10
211.137838478976
 20
42.1146267942638
 30
0.0
 11
227.137838478976
 21
42.1146267942638
 31
0.0
  0
LINE
  5
174
330
1F
100
AcDbEntity
  8
100
  6
Continuous
 62
     3
100
AcDbLine
 10
211.137838478976
 20
76.7556429456413
 30
0.0
 11
227.137838478976
 21
76.7556429456413
 31
0.0
  0
LINE
  5
175
330
1F
100
AcDbEntity
  8
100
  6
Continuous
 62
     3
100
AcDbLine
 10
364.43081333344
 20
192.435134869953
 30
0.0
 11
368.079225949257
 21
193.372254333835
 31
0.0
  0
LINE
  5
176
330
1F
100
AcDbEntity
  8
100
  6
Continuous
 62
     3
100
AcDbLine
 10
369.836397892508
 20
187.239018734814
 30
0.0
 11
371.075621119535
 21
193.435134869952
 31
0.0
  0
LINE
  5
177
330
1F
100
AcDbEntity
  8
100
  6
Continuous
 62
     3
100
AcDbLine
 10
390.601380701801
 20
192.646280487953
 30
0.0
 11
389.445963173802
 21
193.223989251953
 31
0.0
  0
LINE
  5
178
330
1F
100
AcDbEntity
  8
100
  6
Continuous
 62
     3
100
AcDbLine
 10
392.68205801318
 20
192.435134869953
 30
0.0
 11
391.495807892801
 21
192.435134869953
 31
0.0
  0
LINE
  5
179
330
1F
100
AcDbEntity
  8
100
  6
Continuous
 62
     3
100
AcDbLine
 10
382.465190377913
 20
206.435134869953
 30
0.0
 11
392.68205801318
 21
206.435134869953
 31
0.0
  0
LINE
  5
17A
330
1F
100
AcDbEntity
  8
100
  6
Continuous
 62
     3
100
AcDbLine
 10
364.175621119535
 20
186.435134869953
 30
0.0
 11
364.175621119535
 21
161.290734869953
 31
0.0
  0
LINE
  5
17B
330
1F
100
AcDbEntity
  8
100
  6
Continuous
 62
     3
100
AcDbLine
 10
324.74986153727
 20
192.646280487953
 30
0.0
 11
325.905279065269
 21
193.223989251953
 31
0.0
  0
LINE
  5
17C
330
1F
100
AcDbEntity
  8
100
  6
Continuous
 62
     3
100
AcDbLine
 10
322.66918422589
 20
192.435134869953
 30
0.0
 11
323.85543434627
 21
192.435134869953
 31
0.0
  0
LINE
  5
17D
330
1F
100
AcDbEntity
  8
100
  6
Continuous
 62
     3
100
AcDbLine
 10
332.886051861157
 20
206.435134869953
 30
0.0
 11
322.66918422589
 21
206.435134869953
 31
0.0
  0
LINE
  5
17E
330
1F
100
AcDbEntity
  8
100
  6
Continuous
 62
     3
100
AcDbLine
 10
350.422866665658
 20
192.435134869953
 30
0.0
 11
364.43081333344
 21
192.435134869953
 31
0.0
  0
LINE
  5
17F
330
1F
100
AcDbEntity
  8
100
  6
Continuous
 62
     3
100
AcDbLine
 10
344.275621119536
 20
193.435134869953
 30
0.0
 11
345.514844346563
 21
187.239018734815
 31
0.0
  0
LINE
  5
180
330
1F
100
AcDbEntity
  8
100
  6
Continuous
 62
     3
100
AcDbLine
 10
368.324033735351
 20
193.435134869952
 30
0.0
 11
388.551535982802
 21
193.435134869952
 31
0.0
  0
LINE
  5
181
330
1F
100
AcDbEntity
  8
100
  6
Continuous
 62
     3
100
AcDbLine
 10
326.799706256269
 20
193.435134869953
 30
0.0
 11
346.529646263746
 21
193.435134869953
 31
0.0
  0
LINE
  5
182
330
1F
100
AcDbEntity
  8
100
  6
Continuous
 62
     3
100
AcDbLine
 10
346.495425022254
 20
186.435134869952
 30
0.0
 11
368.855817216817
 21
186.435134869953
 31
0.0
  0
LINE
  5
183
330
1F
100
AcDbEntity
  8
100
  6
Continuous
 62
     3
100
AcDbLine
 10
351.675621119535
 20
206.435134869953
 30
0.0
 11
363.675621119535
 21
206.435134869953
 31
0.0
  0
LINE
  5
184
330
1F
100
AcDbEntity
  8
100
  6
Continuous
 62
     3
100
AcDbLine
 10
350.422866665658
 20
192.435134869953
 30
0.0
 11
346.774454049841
 21
193.372254333835
 31
0.0
  0
LINE
  5
185
330
1F
100
AcDbEntity
  8
100
  6
Continuous
 62
     3
100
AcDbLine
 10
364.675621119535
 20
205.435134869953
 30
0.0
 11
380.733139570345
 21
205.435134869953
 31
0.0
  0
LINE
  5
186
330
1F
100
AcDbEntity
  8
100
  6
Continuous
 62
     3
100
AcDbLine
 10
334.618102668726
 20
205.435134869953
 30
0.0
 11
350.675621119535
 21
205.435134869953
 31
0.0
  0
LINE
  5
187
330
1F
100
AcDbEntity
  8
100
  6
Continuous
 62
     3
100
AcDbLine
 10
351.175621119535
 20
186.435134869953
 30
0.0
 11
351.175621119535
 21
161.290734869953
 31
0.0
  0
LINE
  5
188
330
1F
100
AcDbEntity
  8
100
  6
Continuous
 62
     3
100
AcDbLine
 10
349.825621119535
 20
132.433437076539
 30
0.0
 11
365.525621119535
 21
132.433437076539
 31
0.0
  0
LINE
  5
189
330
1F
100
AcDbEntity
  8
100
  6
Continuous
 62
     3
100
AcDbLine
 10
349.825621119535
 20
130.935134869953
 30
0.0
 11
349.825621119535
 21
132.433437076539
 31
0.0
  0
LINE
  5
18A
330
1F
100
AcDbEntity
  8
100
  6
Continuous
 62
     3
100
AcDbLine
 10
365.525621119535
 20
130.935134869953
 30
0.0
 11
365.525621119535
 21
132.433437076539
 31
0.0
  0
LINE
  5
18B
330
1F
100
AcDbEntity
  8
100
  6
Continuous
 62
     3
100
AcDbLine
 10
327.175621119535
 20
104.435134869953
 30
0.0
 11
388.175621119535
 21
104.435134869953
 31
0.0
  0
LINE
  5
18C
330
1F
100
AcDbEntity
  8
100
  6
Continuous
 62
     3
100
AcDbLine
 10
327.175621119535
 20
104.435134869953
 30
0.0
 11
327.175621119535
 21
107.435134869953
 31
0.0
  0
LINE
  5
18D
330
1F
100
AcDbEntity
  8
100
  6
Continuous
 62
     3
100
AcDbLine
 10
388.175621119535
 20
104.435134869953
 30
0.0
 11
388.175621119535
 21
107.435134869953
 31
0.0
  0
LINE
  5
18E
330
1F
100
AcDbEntity
  8
100
  6
Continuous
 62
     3
100
AcDbLine
 10
327.175621119535
 20
107.435134869953
 30
0.0
 11
388.175621119535
 21
107.435134869953
 31
0.0
  0
LINE
  5
18F
330
1F
100
AcDbEntity
  8
100
  6
Continuous
 62
     3
100
AcDbLine
 10
387.675621119535
 20
80.1474500471605
 30
0.0
 11
387.675621119535
 21
103.935134869953
 31
0.0
  0
LINE
  5
190
330
1F
100
AcDbEntity
  8
100
  6
Continuous
 62
     3
100
AcDbLine
 10
327.675621119535
 20
80.1474500471605
 30
0.0
 11
327.675621119535
 21
103.935134869953
 31
0.0
  0
LINE
  5
191
330
1F
100
AcDbEntity
  8
100
  6
Continuous
 62
     3
100
AcDbLine
 10
389.175621119535
 20
113.435134869953
 30
0.0
 11
390.175621119535
 21
112.435134869953
 31
0.0
  0
LINE
  5
192
330
1F
100
AcDbEntity
  8
100
  6
Continuous
 62
     3
100
AcDbLine
 10
390.175621119535
 20
112.435134869953
 30
0.0
 11
390.175621119535
 21
107.435134869953
 31
0.0
  0
LINE
  5
193
330
1F
100
AcDbEntity
  8
100
  6
Continuous
 62
     3
100
AcDbLine
 10
390.175621119535
 20
107.435134869953
 30
0.0
 11
385.175621119535
 21
107.435134869953
 31
0.0
  0
LINE
  5
194
330
1F
100
AcDbEntity
  8
100
  6
Continuous
 62
     3
100
AcDbLine
 10
326.175621119535
 20
113.435134869953
 30
0.0
 11
325.175621119535
 21
112.435134869953
 31
0.0
  0
LINE
  5
195
330
1F
100
AcDbEntity
  8
100
  6
Continuous
 62
     3
100
AcDbLine
 10
325.175621119535
 20
112.435134869953
 30
0.0
 11
325.175621119535
 21
107.435134869953
 31
0.0
  0
LINE
  5
196
330
1F
100
AcDbEntity
  8
100
  6
Continuous
 62
     3
100
AcDbLine
 10
370.175621119535
 20
130.935134869953
 30
0.0
 11
345.175621119535
 21
130.935134869953
 31
0.0
  0
LINE
  5
197
330
1F
100
AcDbEntity
  8
100
  6
Continuous
 62
     3
100
AcDbLine
 10
389.175621119535
 20
113.435134869953
 30
0.0
 11
326.175621119535
 21
113.435134869953
 31
0.0
  0
LINE
  5
198
330
1F
100
AcDbEntity
  8
100
  6
Continuous
 62
     3
100
AcDbLine
 10
325.175621119535
 20
107.435134869953
 30
0.0
 11
330.175621119535
 21
107.435134869953
 31
0.0
  0
LINE
  5
199
330
1F
100
AcDbEntity
  8
100
  6
Continuous
 62
     3
100
AcDbLine
 10
369.175621119535
 20
161.290734869953
 30
0.0
 11
346.175621119535
 21
161.290734869953
 31
0.0
  0
LINE
  5
19A
330
1F
100
AcDbEntity
  8
100
  6
Continuous
 62
     3
100
AcDbLine
 10
346.175621119535
 20
161.290734869953
 30
0.0
 11
345.675621119535
 21
160.790734869953
 31
0.0
  0
LINE
  5
19B
330
1F
100
AcDbEntity
  8
100
  6
Continuous
 62
     3
100
AcDbLine
 10
346.675621119535
 20
157.790734869953
 30
0.0
 11
345.675621119535
 21
158.790734869953
 31
0.0
  0
LINE
  5
19C
330
1F
100
AcDbEntity
  8
100
  6
Continuous
 62
     3
100
AcDbLine
 10
348.425621119535
 20
156.491696764276
 30
0.0
 11
349.175621119535
 21
156.491696764276
 31
0.0
  0
LINE
  5
19D
330
1F
100
AcDbEntity
  8
1
  6
Continuous
 62
     3
100
AcDbLine
 10
348.425621119535
 20
157.790734869953
 30
0.0
 11
349.175621119535
 21
156.491696764276
 31
0.0
  0
LINE
  5
19E
330
1F
100
AcDbEntity
  8
1
  6
Continuous
 62
     3
100
AcDbLine
 10
348.425621119535
 20
157.790734869953
 30
0.0
 11
349.175621119535
 21
156.491696764276
 31
0.0
  0
LINE
  5
19F
330
1F
100
AcDbEntity
  8
100
  6
Continuous
 62
     3
100
AcDbLine
 10
346.675621119535
 20
157.790734869953
 30
0.0
 11
368.675621119535
 21
157.790734869953
 31
0.0
  0
LINE
  5
1A0
330
1F
100
AcDbEntity
  8
1
  6
Continuous
 62
     3
100
AcDbLine
 10
349.175621119535
 20
154.935134869953
 30
0.0
 11
349.175621119535
 21
156.491696764276
 31
0.0
  0
LINE
  5
1A1
330
1F
100
AcDbEntity
  8
100
  6
Continuous
 62
     3
100
AcDbLine
 10
348.425621119535
 20
157.790734869953
 30
0.0
 11
348.425621119535
 21
154.935134869953
 31
0.0
  0
LINE
  5
1A2
330
1F
100
AcDbEntity
  8
100
  6
Continuous
 62
     3
100
AcDbLine
 10
345.675621119535
 20
160.790734869953
 30
0.0
 11
345.675621119535
 21
158.790734869953
 31
0.0
  0
LINE
  5
1A3
330
1F
100
AcDbEntity
  8
100
  6
Continuous
 62
     3
100
AcDbLine
 10
369.175621119535
 20
161.290734869953
 30
0.0
 11
369.675621119535
 21
160.790734869953
 31
0.0
  0
LINE
  5
1A4
330
1F
100
AcDbEntity
  8
100
  6
Continuous
 62
     3
100
AcDbLine
 10
368.675621119535
 20
157.790734869953
 30
0.0
 11
369.675621119535
 21
158.790734869953
 31
0.0
  0
LINE
  5
1A5
330
1F
100
AcDbEntity
  8
100
  6
Continuous
 62
     3
100
AcDbLine
 10
366.925621119535
 20
156.491696764276
 30
0.0
 11
366.175621119535
 21
156.491696764276
 31
0.0
  0
LINE
  5
1A6
330
1F
100
AcDbEntity
  8
1
  6
Continuous
 62
     3
100
AcDbLine
 10
366.925621119535
 20
157.790734869953
 30
0.0
 11
366.175621119535
 21
156.491696764276
 31
0.0
  0
LINE
  5
1A7
330
1F
100
AcDbEntity
  8
1
  6
Continuous
 62
     3
100
AcDbLine
 10
366.925621119535
 20
157.790734869953
 30
0.0
 11
366.175621119535
 21
156.491696764276
 31
0.0
  0
LINE
  5
1A8
330
1F
100
AcDbEntity
  8
1
  6
Continuous
 62
     3
100
AcDbLine
 10
366.175621119535
 20
154.935134869953
 30
0.0
 11
366.175621119535
 21
156.491696764276
 31
0.0
  0
LINE
  5
1A9
330
1F
100
AcDbEntity
  8
100
  6
Continuous
 62
     3
100
AcDbLine
 10
366.925621119535
 20
157.790734869953
 30
0.0
 11
366.925621119535
 21
154.935134869953
 31
0.0
  0
LINE
  5
1AA
330
1F
100
AcDbEntity
  8
100
  6
Continuous
 62
     3
100
AcDbLine
 10
369.675621119535
 20
160.790734869953
 30
0.0
 11
369.675621119535
 21
158.790734869953
 31
0.0
  0
LINE
  5
1AB
330
1F
100
AcDbEntity
  8
100
  6
Continuous
 62
     3
100
AcDbLine
 10
370.175621119535
 20
153.935134869953
 30
0.0
 11
370.175621119535
 21
113.435134869953
 31
0.0
  0
LINE
  5
1AC
330
1F
100
AcDbEntity
  8
100
  6
Continuous
 62
     3
100
AcDbLine
 10
369.175621119535
 20
154.935134869953
 30
0.0
 11
370.175621119535
 21
153.935134869953
 31
0.0
  0
LINE
  5
1AD
330
1F
100
AcDbEntity
  8
100
  6
Continuous
 62
     3
100
AcDbLine
 10
345.175621119535
 20
153.935134869953
 30
0.0
 11
346.175621119535
 21
154.935134869953
 31
0.0
  0
LINE
  5
1AE
330
1F
100
AcDbEntity
  8
100
  6
Continuous
 62
     3
100
AcDbLine
 10
345.175621119535
 20
153.935134869953
 30
0.0
 11
345.175621119535
 21
113.435134869953
 31
0.0
  0
LINE
  5
1AF
330
1F
100
AcDbEntity
  8
100
  6
Continuous
 62
     3
100
AcDbLine
 10
346.175621119535
 20
154.935134869953
 30
0.0
 11
369.175621119535
 21
154.935134869953
 31
0.0
  0
LINE
  5
1B0
330
1F
100
AcDbEntity
  8
1
  6
CENTER
 62
     1
100
AcDbLine
 10
357.675621119535
 20
20.4272825463697
 30
0.0
 11
357.675621119535
 21
219.029585946573
 31
0.0
  0
LINE
  5
1B1
330
1F
100
AcDbEntity
  8
1
  6
CENTER
 62
     1
100
AcDbLine
 10
319.044234992978
 20
59.4351348699525
 30
0.0
 11
402.251057232071
 21
59.4351348699525
 31
0.0
  0
LINE
  5
1B2
330
1F
100
AcDbEntity
  8
2
  6
DOTTED
 62
     6
100
AcDbLine
 10
158.171915254905
 20
180.82512142214
 30
0.0
 11
155.244618077064
 21
182.435134869953
 31
0.0
  0
LINE
  5
1B3
330
1F
100
AcDbEntity
  8
2
  6
DOTTED
 62
     6
100
AcDbLine
 10
159.977061706003
 20
177.239018734814
 30
0.0
 11
159.667901032661
 21
178.784822101525
 31
0.0
  0
LINE
  5
1B4
330
1F
100
AcDbEntity
  8
2
  6
DOTTED
 62
     6
100
AcDbLine
 10
160.957642381694
 20
176.435134869952
 30
0.0
 11
183.318034576257
 21
176.435134869953
 31
0.0
  0
LINE
  5
1B5
330
1F
100
AcDbEntity
  8
2
  6
DOTTED
 62
     6
100
AcDbLine
 10
184.298615251948
 20
177.239018734814
 30
0.0
 11
184.60777592529
 21
178.784822101525
 31
0.0
  0
LINE
  5
1B6
330
1F
100
AcDbEntity
  8
2
  6
DOTTED
 62
     6
100
AcDbLine
 10
186.103761703046
 20
180.82512142214
 30
0.0
 11
189.031058880887
 21
182.435134869953
 31
0.0
  0
LINE
  5
1B7
330
1F
100
AcDbEntity
  8
2
  6
DOTTED
 62
     6
100
AcDbLine
 10
196.137838478975
 20
195.435134869953
 30
0.0
 11
199.847306111519
 21
195.435134869953
 31
0.0
  0
LINE
  5
1B8
330
1F
100
AcDbEntity
  8
2
  6
DOTTED
 62
     6
100
AcDbLine
 10
162.137838478976
 20
195.435134869953
 30
0.0
 11
182.137838478975
 21
195.435134869953
 31
0.0
  0
LINE
  5
1B9
330
1F
100
AcDbEntity
  8
2
  6
DOTTED
 62
     6
100
AcDbLine
 10
144.428370846432
 20
195.435134869953
 30
0.0
 11
148.137838478976
 21
195.435134869953
 31
0.0
  0
LINE
  5
1BA
330
1F
100
AcDbEntity
  8
2
  6
DOTTED
 62
     6
100
AcDbLine
 10
183.137838478975
 20
196.435134869953
 30
0.0
 11
195.137838478975
 21
196.435134869953
 31
0.0
  0
LINE
  5
1BB
330
1F
100
AcDbEntity
  8
2
  6
DOTTED
 62
     6
100
AcDbLine
 10
161.137838478976
 20
196.435134869953
 30
0.0
 11
149.137838478976
 21
196.435134869953
 31
0.0
  0
LINE
  5
1BC
330
1F
100
AcDbEntity
  8
2
  6
DOTTED
 62
     6
100
AcDbLine
 10
142.696320038863
 20
196.435134869953
 30
0.0
 11
132.479452403597
 21
196.435134869953
 31
0.0
  0
LINE
  5
1BD
330
1F
100
AcDbEntity
  8
2
  6
DOTTED
 62
     6
100
AcDbLine
 10
134.560129714976
 20
182.646280487953
 30
0.0
 11
135.715547242975
 21
183.223989251953
 31
0.0
  0
LINE
  5
1BE
330
1F
100
AcDbEntity
  8
2
  6
DOTTED
 62
     6
100
AcDbLine
 10
132.479452403597
 20
182.435134869953
 30
0.0
 11
133.665702523976
 21
182.435134869953
 31
0.0
  0
LINE
  5
1BF
330
1F
100
AcDbEntity
  8
2
  6
DOTTED
 62
     6
100
AcDbLine
 10
147.560129714976
 20
183.223989251952
 30
0.0
 11
148.715547242975
 21
182.646280487953
 31
0.0
  0
LINE
  5
1C0
330
1F
100
AcDbEntity
  8
2
  6
DOTTED
 62
     6
100
AcDbLine
 10
197.609974433975
 20
183.435134869953
 30
0.0
 11
207.665702523976
 21
183.435134869953
 31
0.0
  0
LINE
  5
1C1
330
1F
100
AcDbEntity
  8
2
  6
DOTTED
 62
     6
100
AcDbLine
 10
136.609974433975
 20
183.435134869953
 30
0.0
 11
147.137838478976
 21
183.435134869953
 31
0.0
  0
LINE
  5
1C2
330
1F
100
AcDbEntity
  8
2
  6
DOTTED
 62
     6
100
AcDbLine
 10
189.031058880887
 20
182.435134869953
 30
0.0
 11
194.665702523976
 21
182.435134869953
 31
0.0
  0
LINE
  5
1C3
330
1F
100
AcDbEntity
  8
2
  6
DOTTED
 62
     6
100
AcDbLine
 10
149.609974433975
 20
182.435134869953
 30
0.0
 11
155.244618077064
 21
182.435134869953
 31
0.0
  0
LINE
  5
1C4
330
1F
100
AcDbEntity
  8
2
  6
DOTTED
 62
     6
100
AcDbLine
 10
196.715547242975
 20
183.223989251952
 30
0.0
 11
195.560129714976
 21
182.646280487953
 31
0.0
  0
LINE
  5
1C5
330
1F
100
AcDbEntity
  8
2
  6
DOTTED
 62
     6
100
AcDbLine
 10
209.715547242975
 20
182.646280487953
 30
0.0
 11
208.560129714976
 21
183.223989251953
 31
0.0
  0
LINE
  5
1C6
330
1F
100
AcDbEntity
  8
2
  6
DOTTED
 62
     6
100
AcDbLine
 10
211.796224554355
 20
182.435134869953
 30
0.0
 11
210.609974433975
 21
182.435134869953
 31
0.0
  0
LINE
  5
1C7
330
1F
100
AcDbEntity
  8
2
  6
DOTTED
 62
     6
100
AcDbLine
 10
201.579356919088
 20
196.435134869953
 30
0.0
 11
211.796224554354
 21
196.435134869953
 31
0.0
  0
LINE
  5
1C8
330
1F
100
AcDbEntity
  8
100
  6
Continuous
 62
     3
100
AcDbLine
 10
148.137838478976
 20
205.435134869953
 30
0.0
 11
134.637838478976
 21
205.435134869953
 31
0.0
  0
LINE
  5
1C9
330
1F
100
AcDbEntity
  8
100
  6
Continuous
 62
     3
100
AcDbLine
 10
161.137838478976
 20
206.435134869953
 30
0.0
 11
149.137838478976
 21
206.435134869953
 31
0.0
  0
LINE
  5
1CA
330
1F
100
AcDbEntity
  8
100
  6
Continuous
 62
     3
100
AcDbLine
 10
142.696320038863
 20
206.435134869953
 30
0.0
 11
132.479452403597
 21
206.435134869953
 31
0.0
  0
LINE
  5
1CB
330
1F
100
AcDbEntity
  8
100
  6
Continuous
 62
     3
100
AcDbLine
 10
159.977061706003
 20
187.239018734814
 30
0.0
 11
159.667901032661
 21
188.784822101525
 31
0.0
  0
LINE
  5
1CC
330
1F
100
AcDbEntity
  8
5
  6
Continuous
 62
     3
100
AcDbLine
 10
172.081009033912
 20
190.152807655288
 30
0.0
 11
160.302587624483
 21
190.152807655288
 31
0.0
  0
LINE
  5
1CD
330
1F
100
AcDbEntity
  8
100
  6
Continuous
 62
     3
100
AcDbLine
 10
158.171915254905
 20
190.82512142214
 30
0.0
 11
155.244618077064
 21
192.435134869953
 31
0.0
  0
LINE
  5
1CE
330
1F
100
AcDbEntity
  8
100
  6
Continuous
 62
     3
100
AcDbLine
 10
149.609974433975
 20
192.435134869953
 30
0.0
 11
154.991863623186
 21
192.435134869953
 31
0.0
  0
LINE
  5
1CF
330
1F
100
AcDbEntity
  8
100
  6
Continuous
 62
     3
100
AcDbLine
 10
134.560129714976
 20
192.646280487953
 30
0.0
 11
135.715547242975
 21
193.223989251953
 31
0.0
  0
LINE
  5
1D0
330
1F
100
AcDbEntity
  8
100
  6
Continuous
 62
     3
100
AcDbLine
 10
132.479452403597
 20
192.435134869953
 30
0.0
 11
133.665702523976
 21
192.435134869953
 31
0.0
  0
LINE
  5
1D1
330
1F
100
AcDbEntity
  8
100
  6
Continuous
 62
     3
100
AcDbLine
 10
159.390592932853
 20
193.435134869953
 30
0.0
 11
172.137838478976
 21
193.435134869952
 31
0.0
  0
LINE
  5
1D2
330
1F
100
AcDbEntity
  8
100
  6
Continuous
 62
     3
100
AcDbLine
 10
155.489425863159
 20
192.49801540607
 30
0.0
 11
158.893030692881
 21
193.372254333835
 31
0.0
  0
LINE
  5
1D3
330
1F
100
AcDbEntity
  8
100
  6
Continuous
 62
     3
100
AcDbLine
 10
147.560129714976
 20
193.223989251952
 30
0.0
 11
148.715547242975
 21
192.646280487953
 31
0.0
  0
LINE
  5
1D4
330
1F
100
AcDbEntity
  8
100
  6
Continuous
 62
     3
100
AcDbLine
 10
136.609974433975
 20
193.435134869953
 30
0.0
 11
146.665702523976
 21
193.435134869953
 31
0.0
  0
LINE
  5
1D5
330
1F
100
AcDbEntity
  8
100
  6
Continuous
 62
     3
100
AcDbLine
 10
160.957642381694
 20
186.435134869952
 30
0.0
 11
183.318034576257
 21
186.435134869953
 31
0.0
  0
LINE
  5
1D6
330
1F
100
AcDbEntity
  8
100
  6
Continuous
 62
     3
100
AcDbLine
 10
184.298615251948
 20
187.239018734814
 30
0.0
 11
184.60777592529
 21
188.784822101525
 31
0.0
  0
LINE
  5
1D7
330
1F
100
AcDbEntity
  8
5
  6
Continuous
 62
     3
100
AcDbLine
 10
172.194667924039
 20
190.152807655288
 30
0.0
 11
183.973089333468
 21
190.152807655288
 31
0.0
  0
LINE
  5
1D8
330
1F
100
AcDbEntity
  8
100
  6
Continuous
 62
     3
100
AcDbLine
 10
186.103761703046
 20
190.82512142214
 30
0.0
 11
189.031058880887
 21
192.435134869953
 31
0.0
  0
LINE
  5
1D9
330
1F
100
AcDbEntity
  8
100
  6
Continuous
 62
     3
100
AcDbLine
 10
194.665702523976
 20
192.435134869953
 30
0.0
 11
189.283813334765
 21
192.435134869953
 31
0.0
  0
LINE
  5
1DA
330
1F
100
AcDbEntity
  8
100
  6
Continuous
 62
     3
100
AcDbLine
 10
209.715547242975
 20
192.646280487953
 30
0.0
 11
208.560129714976
 21
193.223989251953
 31
0.0
  0
LINE
  5
1DB
330
1F
100
AcDbEntity
  8
100
  6
Continuous
 62
     3
100
AcDbLine
 10
211.796224554355
 20
192.435134869953
 30
0.0
 11
210.609974433975
 21
192.435134869953
 31
0.0
  0
LINE
  5
1DC
330
1F
100
AcDbEntity
  8
100
  6
Continuous
 62
     3
100
AcDbLine
 10
196.137838478975
 20
205.435134869953
 30
0.0
 11
209.637838478975
 21
205.435134869953
 31
0.0
  0
LINE
  5
1DD
330
1F
100
AcDbEntity
  8
100
  6
Continuous
 62
     3
100
AcDbLine
 10
183.137838478975
 20
206.435134869953
 30
0.0
 11
195.137838478975
 21
206.435134869953
 31
0.0
  0
LINE
  5
1DE
330
1F
100
AcDbEntity
  8
100
  6
Continuous
 62
     3
100
AcDbLine
 10
184.885084025098
 20
193.435134869953
 30
0.0
 11
172.137838478976
 21
193.435134869952
 31
0.0
  0
LINE
  5
1DF
330
1F
100
AcDbEntity
  8
100
  6
Continuous
 62
     3
100
AcDbLine
 10
188.786251094792
 20
192.49801540607
 30
0.0
 11
185.38264626507
 21
193.372254333835
 31
0.0
  0
LINE
  5
1E0
330
1F
100
AcDbEntity
  8
100
  6
Continuous
 62
     3
100
AcDbLine
 10
196.715547242975
 20
193.223989251952
 30
0.0
 11
195.560129714976
 21
192.646280487953
 31
0.0
  0
LINE
  5
1E1
330
1F
100
AcDbEntity
  8
100
  6
Continuous
 62
     3
100
AcDbLine
 10
207.665702523976
 20
193.435134869953
 30
0.0
 11
197.609974433975
 21
193.435134869953
 31
0.0
  0
LINE
  5
1E2
330
1F
100
AcDbEntity
  8
100
  6
Continuous
 62
     3
100
AcDbLine
 10
201.579356919088
 20
206.435134869953
 30
0.0
 11
211.796224554354
 21
206.435134869953
 31
0.0
  0
LINE
  5
1E3
330
1F
100
AcDbEntity
  8
100
  6
Continuous
 62
     3
100
AcDbLine
 10
159.137838478975
 20
205.435134869952
 30
0.0
 11
189.637838478975
 21
205.435134869953
 31
0.0
  0
LINE
  5
1E4
330
1F
100
AcDbEntity
  8
100
  6
Continuous
 62
     3
100
AcDbLine
 10
144.428370846432
 20
205.435134869952
 30
0.0
 11
155.137838478975
 21
205.435134869952
 31
0.0
  0
LINE
  5
1E5
330
1F
100
AcDbEntity
  8
100
  6
Continuous
 62
     3
100
AcDbLine
 10
165.637838478976
 20
186.435134869953
 30
0.0
 11
165.637838478976
 21
161.290734869953
 31
0.0
  0
LINE
  5
1E6
330
1F
100
AcDbEntity
  8
100
  6
Continuous
 62
     3
100
AcDbLine
 10
178.637838478976
 20
186.435134869953
 30
0.0
 11
178.637838478976
 21
161.290734869953
 31
0.0
  0
LINE
  5
1E7
330
1F
100
AcDbEntity
  8
100
  6
Continuous
 62
     3
100
AcDbLine
 10
187.985264986778
 20
133.058428669088
 30
0.0
 11
187.884155758247
 21
130.935134869953
 31
0.0
  0
LINE
  5
1E8
330
1F
100
AcDbEntity
  8
100
  6
Continuous
 62
     3
100
AcDbLine
 10
141.637838478976
 20
104.435134869953
 30
0.0
 11
202.637838478976
 21
104.435134869953
 31
0.0
  0
LINE
  5
1E9
330
1F
100
AcDbEntity
  8
100
  6
Continuous
 62
     3
100
AcDbLine
 10
183.637838478976
 20
161.290734869953
 30
0.0
 11
160.637838478976
 21
161.290734869953
 31
0.0
  0
LINE
  5
1EA
330
1F
100
AcDbEntity
  8
100
  6
Continuous
 62
     3
100
AcDbLine
 10
160.637838478976
 20
161.290734869953
 30
0.0
 11
160.137838478976
 21
160.790734869953
 31
0.0
  0
LINE
  5
1EB
330
1F
100
AcDbEntity
  8
100
  6
Continuous
 62
     3
100
AcDbLine
 10
161.137838478976
 20
157.790734869953
 30
0.0
 11
160.137838478976
 21
158.790734869953
 31
0.0
  0
LINE
  5
1EC
330
1F
100
AcDbEntity
  8
100
  6
Continuous
 62
     3
100
AcDbLine
 10
162.887838478976
 20
156.491696764276
 30
0.0
 11
163.637838478976
 21
156.491696764276
 31
0.0
  0
LINE
  5
1ED
330
1F
100
AcDbEntity
  8
1
  6
Continuous
 62
     3
100
AcDbLine
 10
162.887838478976
 20
157.790734869953
 30
0.0
 11
163.637838478976
 21
156.491696764276
 31
0.0
  0
LINE
  5
1EE
330
1F
100
AcDbEntity
  8
1
  6
Continuous
 62
     3
100
AcDbLine
 10
162.887838478976
 20
157.790734869953
 30
0.0
 11
163.637838478976
 21
156.491696764276
 31
0.0
  0
LINE
  5
1EF
330
1F
100
AcDbEntity
  8
100
  6
Continuous
 62
     3
100
AcDbLine
 10
161.137838478976
 20
157.790734869953
 30
0.0
 11
183.137838478976
 21
157.790734869953
 31
0.0
  0
LINE
  5
1F0
330
1F
100
AcDbEntity
  8
1
  6
Continuous
 62
     3
100
AcDbLine
 10
163.637838478976
 20
154.935134869953
 30
0.0
 11
163.637838478976
 21
156.491696764276
 31
0.0
  0
LINE
  5
1F1
330
1F
100
AcDbEntity
  8
100
  6
Continuous
 62
     3
100
AcDbLine
 10
162.887838478976
 20
157.790734869953
 30
0.0
 11
162.887838478976
 21
154.935134869953
 31
0.0
  0
LINE
  5
1F2
330
1F
100
AcDbEntity
  8
100
  6
Continuous
 62
     3
100
AcDbLine
 10
160.137838478976
 20
160.790734869953
 30
0.0
 11
160.137838478976
 21
158.790734869953
 31
0.0
  0
LINE
  5
1F3
330
1F
100
AcDbEntity
  8
100
  6
Continuous
 62
     3
100
AcDbLine
 10
183.637838478976
 20
161.290734869953
 30
0.0
 11
184.137838478976
 21
160.790734869953
 31
0.0
  0
LINE
  5
1F4
330
1F
100
AcDbEntity
  8
100
  6
Continuous
 62
     3
100
AcDbLine
 10
183.137838478976
 20
157.790734869953
 30
0.0
 11
184.137838478976
 21
158.790734869953
 31
0.0
  0
LINE
  5
1F5
330
1F
100
AcDbEntity
  8
100
  6
Continuous
 62
     3
100
AcDbLine
 10
181.387838478976
 20
156.491696764276
 30
0.0
 11
180.637838478976
 21
156.491696764276
 31
0.0
  0
LINE
  5
1F6
330
1F
100
AcDbEntity
  8
1
  6
Continuous
 62
     3
100
AcDbLine
 10
181.387838478976
 20
157.790734869953
 30
0.0
 11
180.637838478976
 21
156.491696764276
 31
0.0
  0
LINE
  5
1F7
330
1F
100
AcDbEntity
  8
1
  6
Continuous
 62
     3
100
AcDbLine
 10
181.387838478976
 20
157.790734869953
 30
0.0
 11
180.637838478976
 21
156.491696764276
 31
0.0
  0
LINE
  5
1F8
330
1F
100
AcDbEntity
  8
1
  6
Continuous
 62
     3
100
AcDbLine
 10
180.637838478976
 20
154.935134869953
 30
0.0
 11
180.637838478976
 21
156.491696764276
 31
0.0
  0
LINE
  5
1F9
330
1F
100
AcDbEntity
  8
100
  6
Continuous
 62
     3
100
AcDbLine
 10
181.387838478976
 20
157.790734869953
 30
0.0
 11
181.387838478976
 21
154.935134869953
 31
0.0
  0
LINE
  5
1FA
330
1F
100
AcDbEntity
  8
100
  6
Continuous
 62
     3
100
AcDbLine
 10
184.137838478976
 20
160.790734869953
 30
0.0
 11
184.137838478976
 21
158.790734869953
 31
0.0
  0
LINE
  5
1FB
330
1F
100
AcDbEntity
  8
100
  6
Continuous
 62
     3
100
AcDbLine
 10
138.99275688383
 20
86.9351348699525
 30
0.0
 11
139.137838478976
 21
86.9351348699525
 31
0.0
  0
LINE
  5
1FC
330
1F
100
AcDbEntity
  8
1
  6
CENTER
 62
     1
100
AcDbLine
 10
112.137838478976
 20
59.4351348699525
 30
0.0
 11
232.137838478976
 21
59.4351348699525
 31
0.0
  0
LINE
  5
1FD
330
1F
100
AcDbEntity
  8
100
  6
Continuous
 62
     3
100
AcDbLine
 10
141.51513448341
 20
31.9351348699525
 30
0.0
 11
138.99275688383
 21
31.9351348699525
 31
0.0
  0
LINE
  5
1FE
330
1F
100
AcDbEntity
  8
100
  6
Continuous
 62
     3
100
AcDbLine
 10
136.394680672476
 20
30.4351348699525
 30
0.0
 11
133.137838478976
 21
24.794118718575
 31
0.0
  0
LINE
  5
1FF
330
1F
100
AcDbEntity
  8
100
  6
Continuous
 62
     3
100
AcDbLine
 10
133.137838478976
 20
24.794118718575
 30
0.0
 11
117.137838478976
 21
24.794118718575
 31
0.0
  0
LINE
  5
200
330
1F
100
AcDbEntity
  8
100
  6
Continuous
 62
     3
100
AcDbLine
 10
117.137838478976
 20
24.794118718575
 30
0.0
 11
117.137838478976
 21
94.0761510213301
 31
0.0
  0
LINE
  5
201
330
1F
100
AcDbEntity
  8
100
  6
Continuous
 62
     3
100
AcDbLine
 10
133.137838478976
 20
94.0761510213301
 30
0.0
 11
117.137838478976
 21
94.0761510213301
 31
0.0
  0
LINE
  5
202
330
1F
100
AcDbEntity
  8
100
  6
Continuous
 62
     3
100
AcDbLine
 10
136.394680672476
 20
88.4351348699525
 30
0.0
 11
133.137838478976
 21
94.0761510213301
 31
0.0
  0
LINE
  5
203
330
1F
100
AcDbEntity
  8
100
  6
Continuous
 62
     3
100
AcDbLine
 10
202.760542474541
 20
31.9351348699525
 30
0.0
 11
205.282920074121
 21
31.9351348699525
 31
0.0
  0
LINE
  5
204
330
1F
100
AcDbEntity
  8
100
  6
Continuous
 62
     3
100
AcDbLine
 10
207.880996285475
 20
30.4351348699525
 30
0.0
 11
211.137838478976
 21
24.794118718575
 31
0.0
  0
LINE
  5
205
330
1F
100
AcDbEntity
  8
100
  6
Continuous
 62
     3
100
AcDbLine
 10
207.880996285475
 20
88.4351348699525
 30
0.0
 11
211.137838478976
 21
94.0761510213301
 31
0.0
  0
LINE
  5
206
330
1F
100
AcDbEntity
  8
100
  6
Continuous
 62
     3
100
AcDbLine
 10
211.137838478976
 20
24.794118718575
 30
0.0
 11
227.137838478976
 21
24.794118718575
 31
0.0
  0
LINE
  5
207
330
1F
100
AcDbEntity
  8
100
  6
Continuous
 62
     3
100
AcDbLine
 10
211.137838478976
 20
94.0761510213301
 30
0.0
 11
227.137838478976
 21
94.07615102133
 31
0.0
  0
LINE
  5
208
330
1F
100
AcDbEntity
  8
100
  6
Continuous
 62
     3
100
AcDbLine
 10
141.637838478976
 20
104.435134869953
 30
0.0
 11
141.637838478976
 21
107.435134869953
 31
0.0
  0
LINE
  5
209
330
1F
100
AcDbEntity
  8
100
  6
Continuous
 62
     3
100
AcDbLine
 10
202.637838478976
 20
104.435134869953
 30
0.0
 11
202.637838478976
 21
107.435134869953
 31
0.0
  0
LINE
  5
20A
330
1F
100
AcDbEntity
  8
100
  6
Continuous
 62
     3
100
AcDbLine
 10
141.637838478976
 20
107.435134869953
 30
0.0
 11
202.637838478976
 21
107.435134869953
 31
0.0
  0
LINE
  5
20B
330
1F
100
AcDbEntity
  8
100
  6
Continuous
 62
     3
100
AcDbLine
 10
202.137838478976
 20
89.9351348699525
 30
0.0
 11
202.137838478976
 21
103.935134869953
 31
0.0
  0
LINE
  5
20C
330
1F
100
AcDbEntity
  8
100
  6
Continuous
 62
     3
100
AcDbLine
 10
142.137838478976
 20
89.9351348699525
 30
0.0
 11
142.137838478976
 21
103.935134869953
 31
0.0
  0
LINE
  5
20D
330
1F
100
AcDbEntity
  8
100
  6
Continuous
 62
     3
100
AcDbLine
 10
227.137838478976
 20
24.794118718575
 30
0.0
 11
227.137838478976
 21
94.07615102133
 31
0.0
  0
LINE
  5
20E
330
1F
100
AcDbEntity
  8
100
  6
Continuous
 62
     3
100
AcDbLine
 10
195.81439866936
 20
132.433437076539
 30
0.0
 11
195.743050945237
 21
130.935134869953
 31
0.0
  0
LINE
  5
20F
330
1F
100
AcDbEntity
  8
100
  6
Continuous
 62
     3
100
AcDbLine
 10
187.973283788223
 20
132.806823499451
 30
0.0
 11
195.81439866936
 21
132.433437076539
 31
0.0
  0
LINE
  5
210
330
1F
100
AcDbEntity
  8
100
  6
Continuous
 62
     3
100
AcDbLine
 10
203.637838478976
 20
113.435134869953
 30
0.0
 11
204.637838478976
 21
112.435134869953
 31
0.0
  0
LINE
  5
211
330
1F
100
AcDbEntity
  8
100
  6
Continuous
 62
     3
100
AcDbLine
 10
204.637838478976
 20
112.435134869953
 30
0.0
 11
204.637838478976
 21
107.435134869953
 31
0.0
  0
LINE
  5
212
330
1F
100
AcDbEntity
  8
100
  6
Continuous
 62
     3
100
AcDbLine
 10
197.137838478976
 20
130.935134869953
 30
0.0
 11
197.137838478976
 21
114.935134869953
 31
0.0
  0
LINE
  5
213
330
1F
100
AcDbEntity
  8
100
  6
Continuous
 62
     3
100
AcDbLine
 10
204.637838478976
 20
107.435134869953
 30
0.0
 11
199.637838478976
 21
107.435134869953
 31
0.0
  0
LINE
  5
214
330
1F
100
AcDbEntity
  8
100
  6
Continuous
 62
     3
100
AcDbLine
 10
184.637838478976
 20
153.935134869953
 30
0.0
 11
184.637838478976
 21
130.935134869953
 31
0.0
  0
LINE
  5
215
330
1F
100
AcDbEntity
  8
1
  6
CENTER
 62
     1
100
AcDbLine
 10
172.137838478976
 20
23.4351348699525
 30
0.0
 11
172.137838478976
 21
212.774191062203
 31
0.0
  0
LINE
  5
216
330
1F
100
AcDbEntity
  8
100
  6
Continuous
 62
     3
100
AcDbLine
 10
148.461278288591
 20
132.433437076539
 30
0.0
 11
148.532626012714
 21
130.935134869953
 31
0.0
  0
LINE
  5
217
330
1F
100
AcDbEntity
  8
100
  6
Continuous
 62
     3
100
AcDbLine
 10
156.302393169728
 20
132.806823499451
 30
0.0
 11
148.461278288591
 21
132.433437076539
 31
0.0
  0
LINE
  5
218
330
1F
100
AcDbEntity
  8
100
  6
Continuous
 62
     3
100
AcDbLine
 10
156.290411971174
 20
133.058428669088
 30
0.0
 11
156.391521199704
 21
130.935134869953
 31
0.0
  0
LINE
  5
219
330
1F
100
AcDbEntity
  8
100
  6
Continuous
 62
     3
100
AcDbLine
 10
183.637838478976
 20
154.935134869953
 30
0.0
 11
184.637838478976
 21
153.935134869953
 31
0.0
  0
LINE
  5
21A
330
1F
100
AcDbEntity
  8
100
  6
Continuous
 62
     3
100
AcDbLine
 10
159.637838478976
 20
153.935134869953
 30
0.0
 11
160.637838478976
 21
154.935134869953
 31
0.0
  0
LINE
  5
21B
330
1F
100
AcDbEntity
  8
100
  6
Continuous
 62
     3
100
AcDbLine
 10
140.637838478976
 20
113.435134869953
 30
0.0
 11
139.637838478976
 21
112.435134869953
 31
0.0
  0
LINE
  5
21C
330
1F
100
AcDbEntity
  8
100
  6
Continuous
 62
     3
100
AcDbLine
 10
139.637838478976
 20
112.435134869953
 30
0.0
 11
139.637838478976
 21
107.435134869953
 31
0.0
  0
LINE
  5
21D
330
1F
100
AcDbEntity
  8
100
  6
Continuous
 62
     3
100
AcDbLine
 10
147.137838478976
 20
130.935134869953
 30
0.0
 11
147.137838478976
 21
114.935134869953
 31
0.0
  0
LINE
  5
21E
330
1F
100
AcDbEntity
  8
100
  6
Continuous
 62
     3
100
AcDbLine
 10
159.637838478976
 20
130.935134869953
 30
0.0
 11
147.137838478976
 21
130.935134869953
 31
0.0
  0
LINE
  5
21F
330
1F
100
AcDbEntity
  8
100
  6
Continuous
 62
     3
100
AcDbLine
 10
197.137838478976
 20
130.935134869953
 30
0.0
 11
184.637838478976
 21
130.935134869953
 31
0.0
  0
LINE
  5
220
330
1F
100
AcDbEntity
  8
100
  6
Continuous
 62
     3
100
AcDbLine
 10
203.637838478976
 20
113.435134869953
 30
0.0
 11
140.637838478976
 21
113.435134869953
 31
0.0
  0
LINE
  5
221
330
1F
100
AcDbEntity
  8
100
  6
Continuous
 62
     3
100
AcDbLine
 10
139.637838478976
 20
107.435134869953
 30
0.0
 11
144.637838478976
 21
107.435134869953
 31
0.0
  0
LINE
  5
222
330
1F
100
AcDbEntity
  8
100
  6
Continuous
 62
     3
100
AcDbLine
 10
159.637838478976
 20
153.935134869953
 30
0.0
 11
159.637838478976
 21
130.935134869953
 31
0.0
  0
LINE
  5
223
330
1F
100
AcDbEntity
  8
100
  6
Continuous
 62
     3
100
AcDbLine
 10
160.637838478976
 20
154.935134869953
 30
0.0
 11
183.637838478976
 21
154.935134869953
 31
0.0
  0
LINE
  5
224
330
1F
100
AcDbEntity
  8
1
  6
Continuous
 62
     4
100
AcDbLine
 10
117.137838478976
 20
59.4351348699525
 30
0.0
 11
114.994244939527
 21
51.4351348699525
 31
0.0
  0
LINE
  5
225
330
1F
100
AcDbEntity
  8
1
  6
Continuous
 62
     4
100
AcDbLine
 10
117.137838478976
 20
59.4351348699525
 30
0.0
 11
111.281432018425
 21
53.5787284094015
 31
0.0
  0
LINE
  5
226
330
1F
100
AcDbEntity
  8
1
  6
Continuous
 62
     4
100
AcDbLine
 10
227.137838478976
 20
59.4351348699525
 30
0.0
 11
232.994244939527
 21
53.5787284094015
 31
0.0
  0
LINE
  5
227
330
1F
100
AcDbEntity
  8
1
  6
Continuous
 62
     4
100
AcDbLine
 10
227.137838478976
 20
59.4351348699525
 30
0.0
 11
229.281432018425
 21
51.4351348699525
 31
0.0
  0
ARC
  5
258
330
1F
100
AcDbEntity
  8
100
  6
Continuous
 62
     3
100
AcDbCircle
 10
172.137838997907
 20
225.073306931236
 30
0.0
 40
84.99999999999997
100
AcDbArc
 50
69.27571375109179
 51
72.38698031227595
  0
ARC
  5
259
330
1F
100
AcDbEntity
  8
100
  6
Continuous
 62
     3
100
AcDbCircle
 10
172.137838997907
 20
225.073306931236
 30
0.0
 40
84.99999999999936
100
AcDbArc
 50
107.613021300581
 51
110.7242862489082
  0
ARC
  5
25A
330
1F
100
AcDbEntity
  8
100
  6
Continuous
 62
     3
100
AcDbCircle
 10
138.99275688383
 20
246.573306931236
 30
0.0
 40
3.0
100
AcDbArc
 50
90.0
 51
150.0000000000065
  0
ARC
  5
25B
330
1F
100
AcDbEntity
  8
100
  6
Continuous
 62
     3
100
AcDbCircle
 10
138.99275688383
 20
307.573306931236
 30
0.0
 40
3.000000000000591
100
AcDbArc
 50
209.9999999999935
 51
270.0
  0
ARC
  5
25C
330
1F
100
AcDbEntity
  8
100
  6
Continuous
 62
     3
100
AcDbCircle
 10
205.282920074121
 20
307.573306931236
 30
0.0
 40
3.0
100
AcDbArc
 50
270.0
 51
330.0000000000065
  0
ARC
  5
25D
330
1F
100
AcDbEntity
  8
100
  6
Continuous
 62
     3
100
AcDbCircle
 10
205.282920074121
 20
246.573306931236
 30
0.0
 40
3.000000000000591
100
AcDbArc
 50
29.99999999999348
 51
90.0
  0
ARC
  5
25E
330
1F
100
AcDbEntity
  8
100
  6
Continuous
 62
     3
100
AcDbCircle
 10
172.137838997907
 20
329.073306931236
 30
0.0
 40
85.00000000000021
100
AcDbArc
 50
287.613019687724
 51
290.7242862489082
  0
ARC
  5
25F
330
1F
100
AcDbEntity
  8
100
  6
Continuous
 62
     3
100
AcDbCircle
 10
172.137838997907
 20
329.073306931236
 30
0.0
 40
84.99999999999997
100
AcDbArc
 50
249.2757137510918
 51
252.3869786994192
  0
ARC
  5
260
330
1F
100
AcDbEntity
  8
100
  6
Continuous
 62
     3
100
AcDbCircle
 10
245.96936227681
 20
319.699956770991
 30
0.0
 40
52.99999999999969
100
AcDbArc
 50
196.9907233384298
 51
223.0092766615707
  0
ARC
  5
261
330
1F
100
AcDbEntity
  8
100
  6
Continuous
 62
     3
100
AcDbCircle
 10
172.137838997907
 20
277.073306931236
 30
0.0
 40
29.00000000000024
100
AcDbArc
 50
6.27800976222508
 51
53.72199023777355
  0
ARC
  5
262
330
1F
100
AcDbEntity
  8
100
  6
Continuous
 62
     3
100
AcDbCircle
 10
172.137838997907
 20
277.073306931236
 30
0.0
 40
29.00000000000033
100
AcDbArc
 50
246.2780097622257
 51
293.7219902377742
  0
ARC
  5
263
330
1F
100
AcDbEntity
  8
100
  6
Continuous
 62
     3
100
AcDbCircle
 10
172.137838997907
 20
191.820007251726
 30
0.0
 40
52.99999999999919
100
AcDbArc
 50
76.99072333842943
 51
103.0092766615704
  0
ARC
  5
264
330
1F
100
AcDbEntity
  8
100
  6
Continuous
 62
     3
100
AcDbCircle
 10
98.3063157190037
 20
319.699956770991
 30
0.0
 40
53.00000000000001
100
AcDbArc
 50
316.9907233384296
 51
343.0092766615703
  0
ARC
  5
265
330
1F
100
AcDbEntity
  8
100
  6
Continuous
 62
     3
100
AcDbCircle
 10
172.137838997907
 20
277.073306931236
 30
0.0
 40
28.99999999999918
100
AcDbArc
 50
126.2780097622249
 51
173.7219902377749
  0
ARC
  5
266
330
1F
100
AcDbEntity
  8
100
  6
Continuous
 62
     3
100
AcDbCircle
 10
167.393435196929
 20
254.567959957209
 30
0.0
 40
2.999999999999638
100
AcDbArc
 50
147.8779855696654
 51
258.0956555031656
  0
ARC
  5
267
330
1F
100
AcDbEntity
  8
100
  6
Continuous
 62
     3
100
AcDbCircle
 10
176.882240723159
 20
254.567959957209
 30
0.0
 40
3.000000000000535
100
AcDbArc
 50
281.9043444968308
 51
32.12201443032426
  0
ARC
  5
268
330
1F
100
AcDbEntity
  8
100
  6
Continuous
 62
     3
100
AcDbCircle
 10
189.255838778977
 20
261.71186012558
 30
0.0
 40
3.000000000000238
100
AcDbArc
 50
207.8779855696639
 51
318.095655503164
  0
ARC
  5
269
330
1F
100
AcDbEntity
  8
100
  6
Continuous
 62
     3
100
AcDbCircle
 10
194.000241542092
 20
269.929406762865
 30
0.0
 40
3.000000000000089
100
AcDbArc
 50
341.9043444968256
 51
92.12201443034532
  0
ARC
  5
26A
330
1F
100
AcDbEntity
  8
100
  6
Continuous
 62
     3
100
AcDbCircle
 10
194.000241542092
 20
284.217207099607
 30
0.0
 40
3.00000000000087
100
AcDbArc
 50
267.8779855696554
 51
18.09565550314979
  0
ARC
  5
26B
330
1F
100
AcDbEntity
  8
100
  6
Continuous
 62
     3
100
AcDbCircle
 10
189.255838778977
 20
292.434753736892
 30
0.0
 40
3.000000000000131
100
AcDbArc
 50
41.90434449683604
 51
152.122014430336
  0
ARC
  5
26C
330
1F
100
AcDbEntity
  8
100
  6
Continuous
 62
     3
100
AcDbCircle
 10
155.019837141111
 20
261.71186012558
 30
0.0
 40
3.000000000000131
100
AcDbArc
 50
221.904344496836
 51
332.1220144303361
  0
ARC
  5
26D
330
1F
100
AcDbEntity
  8
100
  6
Continuous
 62
     3
100
AcDbCircle
 10
150.275434377996
 20
269.929406762865
 30
0.0
 40
2.999999999999847
100
AcDbArc
 50
87.87798556965471
 51
198.0956555031744
  0
ARC
  5
26E
330
1F
100
AcDbEntity
  8
100
  6
Continuous
 62
     3
100
AcDbCircle
 10
150.275434377996
 20
284.217207099607
 30
0.0
 40
2.999999999999771
100
AcDbArc
 50
161.9043444968441
 51
272.1220144303452
  0
ARC
  5
26F
330
1F
100
AcDbEntity
  8
100
  6
Continuous
 62
     3
100
AcDbCircle
 10
155.019837141111
 20
292.434753736892
 30
0.0
 40
3.000000000000238
100
AcDbArc
 50
27.87798556966396
 51
138.095655503164
  0
ARC
  5
270
330
1F
100
AcDbEntity
  8
100
  6
Continuous
 62
     3
100
AcDbCircle
 10
176.882240723159
 20
299.578653905263
 30
0.0
 40
3.000000000000191
100
AcDbArc
 50
327.8779855696496
 51
78.09565550316891
  0
ARC
  5
271
330
1F
100
AcDbEntity
  8
100
  6
Continuous
 62
     3
100
AcDbCircle
 10
167.393435196929
 20
299.578653905263
 30
0.0
 40
2.999999999999527
100
AcDbArc
 50
101.9043444968344
 51
212.1220144303608
  0
ARC
  5
272
330
1F
100
AcDbEntity
  8
100
  6
Continuous
 62
     3
100
AcDbCircle
 10
154.887837960044
 20
247.195430500673
 30
0.0
 40
7.999999999999574
100
AcDbArc
 50
239.9999999999982
 51
287.3023355693627
  0
ARC
  5
273
330
1F
100
AcDbEntity
  8
100
  6
Continuous
 62
     3
100
AcDbCircle
 10
172.137837960044
 20
191.820007251726
 30
0.0
 40
51.50000000000016
100
AcDbArc
 50
72.6976644306393
 51
107.3023355693607
  0
ARC
  5
274
330
1F
100
AcDbEntity
  8
100
  6
Continuous
 62
     3
100
AcDbCircle
 10
172.137837960044
 20
191.820007251726
 30
0.0
 40
49.99999999999991
100
AcDbArc
 50
72.6976644306402
 51
107.3023355693598
  0
ARC
  5
275
330
1F
100
AcDbEntity
  8
100
  6
Continuous
 62
     3
100
AcDbCircle
 10
189.387837960044
 20
247.195430500673
 30
0.0
 40
8.000000000000282
100
AcDbArc
 50
252.6976644306371
 51
299.9999999999982
  0
ARC
  5
276
330
1F
100
AcDbEntity
  8
100
  6
Continuous
 62
     3
100
AcDbCircle
 10
189.387837960044
 20
247.195430500673
 30
0.0
 40
8.000000000000435
100
AcDbArc
 50
299.9999999999982
 51
347.3023355693533
  0
ARC
  5
277
330
1F
100
AcDbEntity
  8
100
  6
Continuous
 62
     3
100
AcDbCircle
 10
206.637837960044
 20
277.073306931236
 30
0.0
 40
8.0
100
AcDbArc
 50
0.0
 51
47.30233556935603
  0
ARC
  5
278
330
1F
100
AcDbEntity
  8
100
  6
Continuous
 62
     3
100
AcDbCircle
 10
206.637837960044
 20
277.073306931236
 30
0.0
 40
8.000000000000295
100
AcDbArc
 50
312.6976644306393
 51
0.0
  0
ARC
  5
279
330
1F
100
AcDbEntity
  8
100
  6
Continuous
 62
     3
100
AcDbCircle
 10
245.969361238947
 20
234.446657091481
 30
0.0
 40
49.99999999999946
100
AcDbArc
 50
132.6976644306395
 51
167.3023355693611
  0
ARC
  5
27A
330
1F
100
AcDbEntity
  8
100
  6
Continuous
 62
     3
100
AcDbCircle
 10
245.969361238947
 20
234.446657091481
 30
0.0
 40
51.49999999999979
100
AcDbArc
 50
132.6976644306394
 51
167.3023355693603
  0
ARC
  5
27B
330
1F
100
AcDbEntity
  8
100
  6
Continuous
 62
     3
100
AcDbCircle
 10
245.969361238947
 20
319.699956770991
 30
0.0
 40
51.50000000000004
100
AcDbArc
 50
192.6976644306397
 51
227.3023355693606
  0
ARC
  5
27C
330
1F
100
AcDbEntity
  8
100
  6
Continuous
 62
     3
100
AcDbCircle
 10
189.387837960044
 20
306.951183361799
 30
0.0
 40
7.999999999999542
100
AcDbArc
 50
12.69766443063955
 51
59.99999999999824
  0
ARC
  5
27D
330
1F
100
AcDbEntity
  8
100
  6
Continuous
 62
     3
100
AcDbCircle
 10
245.969361238947
 20
319.699956770991
 30
0.0
 40
50.00000000000012
100
AcDbArc
 50
192.69766443064
 51
227.3023355693613
  0
ARC
  5
27E
330
1F
100
AcDbEntity
  8
100
  6
Continuous
 62
     3
100
AcDbCircle
 10
98.3063146811406
 20
234.446657091481
 30
0.0
 40
51.50000000000043
100
AcDbArc
 50
12.69766443063961
 51
47.30233556936031
  0
ARC
  5
27F
330
1F
100
AcDbEntity
  8
100
  6
Continuous
 62
     3
100
AcDbCircle
 10
137.637837960044
 20
277.073306931236
 30
0.0
 40
8.0
100
AcDbArc
 50
180.0
 51
227.3023355693607
  0
ARC
  5
280
330
1F
100
AcDbEntity
  8
100
  6
Continuous
 62
     3
100
AcDbCircle
 10
98.3063146811406
 20
234.446657091481
 30
0.0
 40
50.00000000000028
100
AcDbArc
 50
12.69766443063878
 51
47.3023355693602
  0
ARC
  5
281
330
1F
100
AcDbEntity
  8
100
  6
Continuous
 62
     3
100
AcDbCircle
 10
154.887837960044
 20
247.195430500673
 30
0.0
 40
7.999999999999794
100
AcDbArc
 50
192.6976644306466
 51
239.9999999999982
  0
ARC
  5
282
330
1F
100
AcDbEntity
  8
100
  6
Continuous
 62
     3
100
AcDbCircle
 10
137.637837960044
 20
277.073306931236
 30
0.0
 40
7.999999999999584
100
AcDbArc
 50
132.697664430644
 51
180.0
  0
ARC
  5
283
330
1F
100
AcDbEntity
  8
100
  6
Continuous
 62
     3
100
AcDbCircle
 10
98.3063146811406
 20
319.699956770991
 30
0.0
 40
51.50000000000006
100
AcDbArc
 50
312.6976644306397
 51
347.3023355693604
  0
ARC
  5
284
330
1F
100
AcDbEntity
  8
100
  6
Continuous
 62
     3
100
AcDbCircle
 10
154.887837960044
 20
306.951183361799
 30
0.0
 40
8.00000000000041
100
AcDbArc
 50
119.9999999999983
 51
167.3023355693605
  0
ARC
  5
285
330
1F
100
AcDbEntity
  8
100
  6
Continuous
 62
     3
100
AcDbCircle
 10
98.3063146811406
 20
319.699956770991
 30
0.0
 40
50.00000000000045
100
AcDbArc
 50
312.6976644306391
 51
347.3023355693601
  0
ARC
  5
286
330
1F
100
AcDbEntity
  8
100
  6
Continuous
 62
     3
100
AcDbCircle
 10
172.137837960044
 20
362.326606610746
 30
0.0
 40
51.50000000000017
100
AcDbArc
 50
252.6976644306393
 51
287.3023355693607
  0
ARC
  5
287
330
1F
100
AcDbEntity
  8
100
  6
Continuous
 62
     3
100
AcDbCircle
 10
172.137837960044
 20
362.326606610746
 30
0.0
 40
49.99999999999989
100
AcDbArc
 50
252.6976644306402
 51
287.3023355693595
  0
ARC
  5
288
330
1F
100
AcDbEntity
  8
100
  6
Continuous
 62
     3
100
AcDbCircle
 10
154.887837960044
 20
306.951183361799
 30
0.0
 40
8.0000000000003
100
AcDbArc
 50
72.6976644306374
 51
119.9999999999983
  0
ARC
  5
289
330
1F
100
AcDbEntity
  8
100
  6
Continuous
 62
     3
100
AcDbCircle
 10
189.387837960044
 20
306.951183361799
 30
0.0
 40
7.999999999999574
100
AcDbArc
 50
59.99999999999824
 51
107.302335569365
  0
ARC
  5
28A
330
1F
100
AcDbEntity
  8
100
  6
Continuous
 62
     3
100
AcDbCircle
 10
368.855817216817
 20
187.435134869953
 30
0.0
 40
1.0
100
AcDbArc
 50
270.0
 51
348.6900675259351
  0
ARC
  5
28B
330
1F
100
AcDbEntity
  8
100
  6
Continuous
 62
     3
100
AcDbCircle
 10
392.68205801318
 20
204.435134869953
 30
0.0
 40
1.999999999999313
100
AcDbArc
 50
19.77327485028286
 51
90.0
  0
ARC
  5
28C
330
1F
100
AcDbEntity
  8
100
  6
Continuous
 62
     3
100
AcDbCircle
 10
388.551535982802
 20
191.435134869953
 30
0.0
 40
2.000000000000162
100
AcDbArc
 50
63.43494882292237
 51
90.0
  0
ARC
  5
28D
330
1F
100
AcDbEntity
  8
100
  6
Continuous
 62
     3
100
AcDbCircle
 10
391.495807892801
 20
194.435134869953
 30
0.0
 40
2.000000000000187
100
AcDbArc
 50
243.4349488229228
 51
270.0
  0
ARC
  5
28E
330
1F
100
AcDbEntity
  8
100
  6
Continuous
 62
     3
100
AcDbCircle
 10
392.68205801318
 20
194.435134869953
 30
0.0
 40
2.0
100
AcDbArc
 50
270.0
 51
340.2267251496904
  0
ARC
  5
28F
330
1F
100
AcDbEntity
  8
100
  6
Continuous
 62
     3
100
AcDbCircle
 10
378.773671937801
 20
199.435134869953
 30
0.0
 40
16.77982419454933
100
AcDbArc
 50
340.2267251497064
 51
19.77327485029044
  0
ARC
  5
290
330
1F
100
AcDbEntity
  8
100
  6
Continuous
 62
     3
100
AcDbCircle
 10
363.675621119535
 20
205.435134869953
 30
0.0
 40
1.0
100
AcDbArc
 50
0.0
 51
90.0
  0
ARC
  5
291
330
1F
100
AcDbEntity
  8
100
  6
Continuous
 62
     3
100
AcDbCircle
 10
382.465190377913
 20
204.435134869953
 30
0.0
 40
2.0
100
AcDbArc
 50
90.0
 51
149.9999999999881
  0
ARC
  5
292
330
1F
100
AcDbEntity
  8
100
  6
Continuous
 62
     3
100
AcDbCircle
 10
326.799706256269
 20
191.435134869953
 30
0.0
 40
2.0
100
AcDbArc
 50
90.0
 51
116.5650511770791
  0
ARC
  5
293
330
1F
100
AcDbEntity
  8
100
  6
Continuous
 62
     3
100
AcDbCircle
 10
323.85543434627
 20
194.435134869953
 30
0.0
 40
2.0
100
AcDbArc
 50
270.0
 51
296.5650511770787
  0
ARC
  5
294
330
1F
100
AcDbEntity
  8
100
  6
Continuous
 62
     3
100
AcDbCircle
 10
322.66918422589
 20
194.435134869953
 30
0.0
 40
2.000000000000559
100
AcDbArc
 50
199.7732748503003
 51
270.0
  0
ARC
  5
295
330
1F
100
AcDbEntity
  8
100
  6
Continuous
 62
     3
100
AcDbCircle
 10
336.577570301269
 20
199.435134869953
 30
0.0
 40
16.77982419454996
100
AcDbArc
 50
160.2267251497107
 51
199.7732748502924
  0
ARC
  5
296
330
1F
100
AcDbEntity
  8
100
  6
Continuous
 62
     3
100
AcDbCircle
 10
322.66918422589
 20
204.435134869953
 30
0.0
 40
2.0
100
AcDbArc
 50
90.0
 51
160.2267251497265
  0
ARC
  5
297
330
1F
100
AcDbEntity
  8
100
  6
Continuous
 62
     3
100
AcDbCircle
 10
332.886051861157
 20
204.435134869953
 30
0.0
 40
2.000000000000115
100
AcDbArc
 50
29.9999999999981
 51
90.0
  0
ARC
  5
298
330
1F
100
AcDbEntity
  8
100
  6
Continuous
 62
     3
100
AcDbCircle
 10
346.495425022254
 20
187.435134869953
 30
0.0
 40
1.00000000000003
100
AcDbArc
 50
191.309932474009
 51
270.0
  0
ARC
  5
299
330
1F
100
AcDbEntity
  8
100
  6
Continuous
 62
     3
100
AcDbCircle
 10
351.675621119535
 20
205.435134869953
 30
0.0
 40
1.0
100
AcDbArc
 50
90.0
 51
180.0
  0
ARC
  5
29A
330
1F
100
AcDbEntity
  8
100
  6
Continuous
 62
     3
100
AcDbCircle
 10
357.675621119535
 20
90.524976427112
 30
0.0
 40
42.63732606536875
100
AcDbArc
 50
79.39069482873387
 51
100.6093051712661
  0
ARC
  5
29B
330
1F
100
AcDbEntity
  8
100
  6
Continuous
 62
     3
100
AcDbCircle
 10
388.175621119535
 20
103.935134869953
 30
0.0
 40
0.5
100
AcDbArc
 50
90.0
 51
180.0
  0
ARC
  5
29C
330
1F
100
AcDbEntity
  8
100
  6
Continuous
 62
     3
100
AcDbCircle
 10
327.175621119535
 20
103.935134869953
 30
0.0
 40
0.5
100
AcDbArc
 50
0.0
 51
90.0
  0
ARC
  5
29D
330
1F
100
AcDbEntity
  8
100
  6
Continuous
 62
     3
100
AcDbCircle
 10
287.675621119535
 20
80.1474500471605
 30
0.0
 40
40.00000000000041
100
AcDbArc
 50
343.5170298619793
 51
0.0
  0
ARC
  5
29E
330
1F
100
AcDbEntity
  8
100
  6
Continuous
 62
     3
100
AcDbCircle
 10
427.675621119535
 20
80.1474500471605
 30
0.0
 40
40.0
100
AcDbArc
 50
180.0
 51
196.4829701380202
  0
ARC
  5
29F
330
1F
100
AcDbEntity
  8
100
  6
Continuous
 62
     3
100
AcDbCircle
 10
357.675621119535
 20
59.4351348699525
 30
0.0
 40
32.99999999999999
100
AcDbArc
 50
335.3800226713429
 51
0.0
  0
ARC
  5
2A0
330
1F
100
AcDbEntity
  8
100
  6
Continuous
 62
     3
100
AcDbCircle
 10
357.675621119535
 20
59.4351348699525
 30
0.0
 40
33.00000000000004
100
AcDbArc
 50
275.3800226713441
 51
324.6199773286579
  0
ARC
  5
2A1
330
1F
100
AcDbEntity
  8
100
  6
Continuous
 62
     3
100
AcDbCircle
 10
357.675621119535
 20
59.4351348699525
 30
0.0
 40
32.99999999999937
100
AcDbArc
 50
215.3800226713435
 51
270.0
  0
ARC
  5
2A2
330
1F
100
AcDbEntity
  8
100
  6
Continuous
 62
     3
100
AcDbCircle
 10
357.675621119535
 20
59.4351348699525
 30
0.0
 40
32.9999999999996
100
AcDbArc
 50
163.5170298619793
 51
204.6199773286565
  0
ARC
  5
2A3
330
1F
100
AcDbEntity
  8
100
  6
Continuous
 62
     3
100
AcDbCircle
 10
357.675621119535
 20
59.4351348699525
 30
0.0
 40
33.0
100
AcDbArc
 50
0.0
 51
16.48297013802121
  0
ARC
  5
2A4
330
1F
100
AcDbEntity
  8
2
  6
DOTTED
 62
     6
100
AcDbCircle
 10
156.726159005588
 20
178.19647369611
 30
0.0
 40
3.000000000000345
100
AcDbArc
 50
11.30993247402798
 51
61.18920625701843
  0
ARC
  5
2A5
330
1F
100
AcDbEntity
  8
2
  6
DOTTED
 62
     6
100
AcDbCircle
 10
160.957642381694
 20
177.435134869953
 30
0.0
 40
1.000000000000224
100
AcDbArc
 50
191.3099324740649
 51
270.0
  0
ARC
  5
2A6
330
1F
100
AcDbEntity
  8
2
  6
DOTTED
 62
     6
100
AcDbCircle
 10
183.318034576257
 20
177.435134869953
 30
0.0
 40
1.0
100
AcDbArc
 50
270.0
 51
348.6900675259354
  0
ARC
  5
2A7
330
1F
100
AcDbEntity
  8
2
  6
DOTTED
 62
     6
100
AcDbCircle
 10
187.549517952363
 20
178.19647369611
 30
0.0
 40
3.000000000000324
100
AcDbArc
 50
118.8107937429816
 51
168.6900675259719
  0
ARC
  5
2A8
330
1F
100
AcDbEntity
  8
2
  6
DOTTED
 62
     6
100
AcDbCircle
 10
201.579356919088
 20
194.435134869953
 30
0.0
 40
2.0
100
AcDbArc
 50
90.0
 51
150.0000000000019
  0
ARC
  5
2A9
330
1F
100
AcDbEntity
  8
2
  6
DOTTED
 62
     6
100
AcDbCircle
 10
183.137838478975
 20
195.435134869953
 30
0.0
 40
1.0
100
AcDbArc
 50
90.0
 51
180.0
  0
ARC
  5
2AA
330
1F
100
AcDbEntity
  8
2
  6
DOTTED
 62
     6
100
AcDbCircle
 10
195.137838478975
 20
195.435134869953
 30
0.0
 40
1.0
100
AcDbArc
 50
0.0
 51
90.0
  0
ARC
  5
2AB
330
1F
100
AcDbEntity
  8
2
  6
DOTTED
 62
     6
100
AcDbCircle
 10
161.137838478976
 20
195.435134869953
 30
0.0
 40
1.0
100
AcDbArc
 50
0.0
 51
90.0
  0
ARC
  5
2AC
330
1F
100
AcDbEntity
  8
2
  6
DOTTED
 62
     6
100
AcDbCircle
 10
149.137838478976
 20
195.435134869953
 30
0.0
 40
1.0
100
AcDbArc
 50
90.0
 51
180.0
  0
ARC
  5
2AD
330
1F
100
AcDbEntity
  8
2
  6
DOTTED
 62
     6
100
AcDbCircle
 10
132.479452403597
 20
194.435134869953
 30
0.0
 40
2.0
100
AcDbArc
 50
90.0
 51
160.2267251497271
  0
ARC
  5
2AE
330
1F
100
AcDbEntity
  8
2
  6
DOTTED
 62
     6
100
AcDbCircle
 10
142.696320038863
 20
194.435134869953
 30
0.0
 40
2.00000000000009
100
AcDbArc
 50
29.99999999999851
 51
90.0
  0
ARC
  5
2AF
330
1F
100
AcDbEntity
  8
2
  6
DOTTED
 62
     6
100
AcDbCircle
 10
146.387838478976
 20
189.435134869953
 30
0.0
 40
16.77982419454996
100
AcDbArc
 50
160.2267251497107
 51
199.7732748502924
  0
ARC
  5
2B0
330
1F
100
AcDbEntity
  8
2
  6
DOTTED
 62
     6
100
AcDbCircle
 10
136.609974433975
 20
181.435134869953
 30
0.0
 40
2.0
100
AcDbArc
 50
90.0
 51
116.5650511770783
  0
ARC
  5
2B1
330
1F
100
AcDbEntity
  8
2
  6
DOTTED
 62
     6
100
AcDbCircle
 10
133.665702523976
 20
184.435134869953
 30
0.0
 40
2.0
100
AcDbArc
 50
270.0
 51
296.565051177078
  0
ARC
  5
2B2
330
1F
100
AcDbEntity
  8
2
  6
DOTTED
 62
     6
100
AcDbCircle
 10
132.479452403597
 20
184.435134869953
 30
0.0
 40
2.000000000000613
100
AcDbArc
 50
199.7732748502998
 51
270.0
  0
ARC
  5
2B3
330
1F
100
AcDbEntity
  8
2
  6
DOTTED
 62
     6
100
AcDbCircle
 10
149.609974433975
 20
184.435134869953
 30
0.0
 40
2.0000000000002
100
AcDbArc
 50
243.434948822922
 51
270.0
  0
ARC
  5
2B4
330
1F
100
AcDbEntity
  8
2
  6
DOTTED
 62
     6
100
AcDbCircle
 10
146.665702523976
 20
181.435134869953
 30
0.0
 40
1.999999999999285
100
AcDbArc
 50
63.4349488229089
 51
90.0
  0
ARC
  5
2B5
330
1F
100
AcDbEntity
  8
2
  6
DOTTED
 62
     6
100
AcDbCircle
 10
197.609974433975
 20
181.435134869953
 30
0.0
 40
2.0
100
AcDbArc
 50
90.0
 51
116.5650511770911
  0
ARC
  5
2B6
330
1F
100
AcDbEntity
  8
2
  6
DOTTED
 62
     6
100
AcDbCircle
 10
194.665702523976
 20
184.435134869953
 30
0.0
 40
2.0
100
AcDbArc
 50
270.0
 51
296.565051177078
  0
ARC
  5
2B7
330
1F
100
AcDbEntity
  8
2
  6
DOTTED
 62
     6
100
AcDbCircle
 10
207.665702523976
 20
181.435134869953
 30
0.0
 40
2.000000000000175
100
AcDbArc
 50
63.43494882292165
 51
90.0
  0
ARC
  5
2B8
330
1F
100
AcDbEntity
  8
2
  6
DOTTED
 62
     6
100
AcDbCircle
 10
210.609974433975
 20
184.435134869953
 30
0.0
 40
2.0000000000002
100
AcDbArc
 50
243.434948822922
 51
270.0
  0
ARC
  5
2B9
330
1F
100
AcDbEntity
  8
2
  6
DOTTED
 62
     6
100
AcDbCircle
 10
211.796224554355
 20
184.435134869953
 30
0.0
 40
2.0
100
AcDbArc
 50
270.0
 51
340.2267251496904
  0
ARC
  5
2BA
330
1F
100
AcDbEntity
  8
2
  6
DOTTED
 62
     6
100
AcDbCircle
 10
211.796224554355
 20
194.435134869953
 30
0.0
 40
1.999999999999313
100
AcDbArc
 50
19.77327485028286
 51
90.00000000002849
  0
ARC
  5
2BB
330
1F
100
AcDbEntity
  8
2
  6
DOTTED
 62
     6
100
AcDbCircle
 10
197.887838478976
 20
189.435134869953
 30
0.0
 40
16.77982419454936
100
AcDbArc
 50
340.2267251497064
 51
19.77327485029041
  0
ARC
  5
2BC
330
1F
100
AcDbEntity
  8
100
  6
Continuous
 62
     3
100
AcDbCircle
 10
161.137838478976
 20
205.435134869953
 30
0.0
 40
1.0
100
AcDbArc
 50
0.0
 51
90.0
  0
ARC
  5
2BD
330
1F
100
AcDbEntity
  8
100
  6
Continuous
 62
     3
100
AcDbCircle
 10
132.479452403597
 20
204.435134869953
 30
0.0
 40
2.0
100
AcDbArc
 50
90.0
 51
160.2267251497271
  0
ARC
  5
2BE
330
1F
100
AcDbEntity
  8
100
  6
Continuous
 62
     3
100
AcDbCircle
 10
149.137838478976
 20
205.435134869953
 30
0.0
 40
1.0
100
AcDbArc
 50
90.0
 51
180.0
  0
ARC
  5
2BF
330
1F
100
AcDbEntity
  8
100
  6
Continuous
 62
     3
100
AcDbCircle
 10
142.696320038863
 20
204.435134869953
 30
0.0
 40
1.999999999999593
100
AcDbArc
 50
29.99999999997383
 51
90.0
  0
ARC
  5
2C0
330
1F
100
AcDbEntity
  8
100
  6
Continuous
 62
     3
100
AcDbCircle
 10
160.957642381694
 20
187.435134869953
 30
0.0
 40
1.000000000000224
100
AcDbArc
 50
191.3099324740649
 51
270.0
  0
ARC
  5
2C1
330
1F
100
AcDbEntity
  8
100
  6
Continuous
 62
     3
100
AcDbCircle
 10
156.726159005588
 20
188.19647369611
 30
0.0
 40
3.000000000000345
100
AcDbArc
 50
11.30993247402798
 51
61.18920625701843
  0
ARC
  5
2C2
330
1F
100
AcDbEntity
  8
100
  6
Continuous
 62
     3
100
AcDbCircle
 10
154.991863623186
 20
194.435134869953
 30
0.0
 40
2.0
100
AcDbArc
 50
270.0
 51
284.4053968714916
  0
ARC
  5
2C3
330
1F
100
AcDbEntity
  8
100
  6
Continuous
 62
     3
100
AcDbCircle
 10
149.609974433975
 20
194.435134869953
 30
0.0
 40
2.0000000000002
100
AcDbArc
 50
243.434948822922
 51
270.0
  0
ARC
  5
2C4
330
1F
100
AcDbEntity
  8
100
  6
Continuous
 62
     3
100
AcDbCircle
 10
136.609974433975
 20
191.435134869953
 30
0.0
 40
2.0
100
AcDbArc
 50
90.0
 51
116.5650511770783
  0
ARC
  5
2C5
330
1F
100
AcDbEntity
  8
100
  6
Continuous
 62
     3
100
AcDbCircle
 10
133.665702523976
 20
194.435134869953
 30
0.0
 40
2.0
100
AcDbArc
 50
270.0
 51
296.565051177078
  0
ARC
  5
2C6
330
1F
100
AcDbEntity
  8
100
  6
Continuous
 62
     3
100
AcDbCircle
 10
132.479452403597
 20
194.435134869953
 30
0.0
 40
2.000000000000613
100
AcDbArc
 50
199.7732748502998
 51
270.0
  0
ARC
  5
2C7
330
1F
100
AcDbEntity
  8
100
  6
Continuous
 62
     3
100
AcDbCircle
 10
146.387838478976
 20
199.435134869953
 30
0.0
 40
16.77982419454996
100
AcDbArc
 50
160.2267251497107
 51
199.7732748502924
  0
ARC
  5
2C8
330
1F
100
AcDbEntity
  8
100
  6
Continuous
 62
     3
100
AcDbCircle
 10
159.390592932853
 20
191.435134869953
 30
0.0
 40
2.0
100
AcDbArc
 50
90.0
 51
104.4053968714703
  0
ARC
  5
2C9
330
1F
100
AcDbEntity
  8
100
  6
Continuous
 62
     3
100
AcDbCircle
 10
146.665702523976
 20
191.435134869953
 30
0.0
 40
1.999999999999285
100
AcDbArc
 50
63.4349488229089
 51
90.0
  0
ARC
  5
2CA
330
1F
100
AcDbEntity
  8
5
  6
Continuous
 62
     3
100
AcDbCircle
 10
163.637838478976
 20
199.435134869953
 30
0.0
 40
16.77982419455026
100
AcDbArc
 50
161.2972207919406
 51
198.5230634625885
  0
ARC
  5
2CB
330
1F
100
AcDbEntity
  8
100
  6
Continuous
 62
     3
100
AcDbCircle
 10
183.318034576257
 20
187.435134869953
 30
0.0
 40
1.0
100
AcDbArc
 50
270.0
 51
348.6900675259354
  0
ARC
  5
2CC
330
1F
100
AcDbEntity
  8
100
  6
Continuous
 62
     3
100
AcDbCircle
 10
183.137838478975
 20
205.435134869953
 30
0.0
 40
1.0
100
AcDbArc
 50
90.0
 51
180.0
  0
ARC
  5
2CD
330
1F
100
AcDbEntity
  8
100
  6
Continuous
 62
     3
100
AcDbCircle
 10
187.549517952363
 20
188.19647369611
 30
0.0
 40
3.000000000000324
100
AcDbArc
 50
118.8107937429816
 51
168.6900675259719
  0
ARC
  5
2CE
330
1F
100
AcDbEntity
  8
100
  6
Continuous
 62
     3
100
AcDbCircle
 10
189.283813334765
 20
194.435134869953
 30
0.0
 40
2.000000000000323
100
AcDbArc
 50
255.5946031285084
 51
270.0
  0
ARC
  5
2CF
330
1F
100
AcDbEntity
  8
100
  6
Continuous
 62
     3
100
AcDbCircle
 10
194.665702523976
 20
194.435134869953
 30
0.0
 40
2.0
100
AcDbArc
 50
270.0
 51
296.565051177078
  0
ARC
  5
2D0
330
1F
100
AcDbEntity
  8
100
  6
Continuous
 62
     3
100
AcDbCircle
 10
211.796224554354
 20
204.435134869953
 30
0.0
 40
2.000000000000249
100
AcDbArc
 50
19.77327485027322
 51
90.0
  0
ARC
  5
2D1
330
1F
100
AcDbEntity
  8
100
  6
Continuous
 62
     3
100
AcDbCircle
 10
207.665702523976
 20
191.435134869953
 30
0.0
 40
2.000000000000175
100
AcDbArc
 50
63.43494882292165
 51
90.0
  0
ARC
  5
2D2
330
1F
100
AcDbEntity
  8
100
  6
Continuous
 62
     3
100
AcDbCircle
 10
210.609974433975
 20
194.435134869953
 30
0.0
 40
2.0000000000002
100
AcDbArc
 50
243.434948822922
 51
270.0
  0
ARC
  5
2D3
330
1F
100
AcDbEntity
  8
100
  6
Continuous
 62
     3
100
AcDbCircle
 10
211.796224554355
 20
194.435134869953
 30
0.0
 40
2.0
100
AcDbArc
 50
270.0
 51
340.2267251496904
  0
ARC
  5
2D4
330
1F
100
AcDbEntity
  8
100
  6
Continuous
 62
     3
100
AcDbCircle
 10
197.887838478976
 20
199.435134869953
 30
0.0
 40
16.77982419454936
100
AcDbArc
 50
340.2267251497064
 51
19.77327485029041
  0
ARC
  5
2D5
330
1F
100
AcDbEntity
  8
100
  6
Continuous
 62
     3
100
AcDbCircle
 10
195.137838478975
 20
205.435134869953
 30
0.0
 40
1.0
100
AcDbArc
 50
0.0
 51
90.0
  0
ARC
  5
2D6
330
1F
100
AcDbEntity
  8
100
  6
Continuous
 62
     3
100
AcDbCircle
 10
184.885084025098
 20
191.435134869953
 30
0.0
 40
1.999999999999112
100
AcDbArc
 50
75.59460312852893
 51
90.0
  0
ARC
  5
2D7
330
1F
100
AcDbEntity
  8
100
  6
Continuous
 62
     3
100
AcDbCircle
 10
197.609974433975
 20
191.435134869953
 30
0.0
 40
2.0
100
AcDbArc
 50
90.0
 51
116.5650511770911
  0
ARC
  5
2D8
330
1F
100
AcDbEntity
  8
100
  6
Continuous
 62
     3
100
AcDbCircle
 10
201.579356919088
 20
204.435134869953
 30
0.0
 40
2.0
100
AcDbArc
 50
90.0
 51
150.0000000000019
  0
ARC
  5
2D9
330
1F
100
AcDbEntity
  8
5
  6
Continuous
 62
     3
100
AcDbCircle
 10
180.637838478975
 20
199.435134869953
 30
0.0
 40
16.77982419455082
100
AcDbArc
 50
341.4769365374127
 51
18.70277920805827
  0
ARC
  5
2DA
330
1F
100
AcDbEntity
  8
100
  6
Continuous
 62
     3
100
AcDbCircle
 10
205.137838478976
 20
89.9351348699525
 30
0.0
 40
3.0
100
AcDbArc
 50
180.0
 51
270.0
  0
ARC
  5
2DB
330
1F
100
AcDbEntity
  8
100
  6
Continuous
 62
     3
100
AcDbCircle
 10
141.51513448341
 20
28.9351348699525
 30
0.0
 40
3.000000000000122
100
AcDbArc
 50
69.63586519367591
 51
90.0
  0
ARC
  5
2DC
330
1F
100
AcDbEntity
  8
100
  6
Continuous
 62
     3
100
AcDbCircle
 10
139.137838478976
 20
89.9351348699525
 30
0.0
 40
3.0
100
AcDbArc
 50
270.0
 51
0.0
  0
ARC
  5
2DD
330
1F
100
AcDbEntity
  8
100
  6
Continuous
 62
     3
100
AcDbCircle
 10
138.99275688383
 20
28.9351348699525
 30
0.0
 40
3.0
100
AcDbArc
 50
90.0
 51
150.0000000000065
  0
ARC
  5
2DE
330
1F
100
AcDbEntity
  8
100
  6
Continuous
 62
     3
100
AcDbCircle
 10
138.99275688383
 20
89.9351348699525
 30
0.0
 40
3.000000000000591
100
AcDbArc
 50
209.9999999999935
 51
270.0
  0
ARC
  5
2DF
330
1F
100
AcDbEntity
  8
100
  6
Continuous
 62
     3
100
AcDbCircle
 10
205.282920074121
 20
89.9351348699525
 30
0.0
 40
3.0
100
AcDbArc
 50
270.0
 51
330.0000000000065
  0
ARC
  5
2E0
330
1F
100
AcDbEntity
  8
100
  6
Continuous
 62
     3
100
AcDbCircle
 10
202.760542474541
 20
28.9351348699525
 30
0.0
 40
3.0
100
AcDbArc
 50
90.0
 51
110.3641348063273
  0
ARC
  5
2E1
330
1F
100
AcDbEntity
  8
100
  6
Continuous
 62
     3
100
AcDbCircle
 10
205.282920074121
 20
28.9351348699525
 30
0.0
 40
3.000000000000591
100
AcDbArc
 50
29.99999999999348
 51
90.0
  0
ARC
  5
2E2
330
1F
100
AcDbEntity
  8
100
  6
Continuous
 62
     3
100
AcDbCircle
 10
202.637838478976
 20
103.935134869953
 30
0.0
 40
0.5
100
AcDbArc
 50
90.0
 51
180.0
  0
ARC
  5
2E3
330
1F
100
AcDbEntity
  8
100
  6
Continuous
 62
     3
100
AcDbCircle
 10
141.637838478976
 20
103.935134869953
 30
0.0
 40
0.5
100
AcDbArc
 50
0.0
 51
90.0
  0
ARC
  5
2E4
330
1F
100
AcDbEntity
  8
100
  6
Continuous
 62
     3
100
AcDbCircle
 10
172.137838478976
 20
111.435134869953
 30
0.0
 40
85.00000000000065
100
AcDbArc
 50
249.635865193682
 51
290.3641348063173
  0
ARC
  5
2E5
330
1F
100
AcDbEntity
  8
100
  6
Continuous
 62
     3
100
AcDbCircle
 10
190.225017961551
 20
111.765904004033
 30
0.0
 40
21.40999999999899
100
AcDbArc
 50
74.86679320271062
 51
96.00483974399658
  0
ARC
  5
2E6
330
1F
100
AcDbEntity
  8
100
  6
Continuous
 62
     3
100
AcDbCircle
 10
198.637838478976
 20
114.935134869953
 30
0.0
 40
1.5
100
AcDbArc
 50
180.0
 51
270.0
  0
ARC
  5
2E7
330
1F
100
AcDbEntity
  8
100
  6
Continuous
 62
     3
100
AcDbCircle
 10
154.0506589964
 20
111.765904004033
 30
0.0
 40
21.40999999999962
100
AcDbArc
 50
83.99516025600077
 51
105.1332067972894
  0
ARC
  5
2E8
330
1F
100
AcDbEntity
  8
100
  6
Continuous
 62
     3
100
AcDbCircle
 10
145.637838478976
 20
114.935134869953
 30
0.0
 40
1.5
100
AcDbArc
 50
270.0
 51
0.0
  0
CIRCLE
  5
2E9
330
1F
100
AcDbEntity
  8
100
  6
Continuous
 62
     3
100
AcDbCircle
 10
206.637837960044
 20
277.073306931236
 30
0.0
 40
6.5
  0
CIRCLE
  5
2EA
330
1F
100
AcDbEntity
  8
100
  6
Continuous
 62
     3
100
AcDbCircle
 10
189.387837960044
 20
247.195430500673
 30
0.0
 40
6.5
  0
CIRCLE
  5
2EB
330
1F
100
AcDbEntity
  8
100
  6
Continuous
 62
     3
100
AcDbCircle
 10
154.887837960044
 20
247.195430500673
 30
0.0
 40
6.5
  0
CIRCLE
  5
2EC
330
1F
100
AcDbEntity
  8
100
  6
Continuous
 62
     3
100
AcDbCircle
 10
137.637837960044
 20
277.073306931236
 30
0.0
 40
6.5
  0
CIRCLE
  5
2ED
330
1F
100
AcDbEntity
  8
100
  6
Continuous
 62
     3
100
AcDbCircle
 10
154.887837960044
 20
306.951183361799
 30
0.0
 40
6.5
  0
CIRCLE
  5
2EE
330
1F
100
AcDbEntity
  8
100
  6
Continuous
 62
     3
100
AcDbCircle
 10
172.137837960044
 20
277.073306931236
 30
0.0
 40
12.0
  0
CIRCLE
  5
2EF
330
1F
100
AcDbEntity
  8
100
  6
Continuous
 62
     3
100
AcDbCircle
 10
172.137837960044
 20
277.073306931236
 30
0.0
 40
28.0
  0
CIRCLE
  5
2F0
330
1F
100
AcDbEntity
  8
100
  6
Continuous
 62
     3
100
AcDbCircle
 10
189.387837960044
 20
306.951183361799
 30
0.0
 40
6.5
  0
CIRCLE
  5
2F1
330
1F
100
AcDbEntity
  8
1
  6
Continuous
 62
     3
100
AcDbCircle
 10
357.675621119535
 20
59.4351348699525
 30
0.0
 40
23.9015
  0
CIRCLE
  5
2F2
330
1F
100
AcDbEntity
  8
100
  6
Continuous
 62
     3
100
AcDbCircle
 10
357.675621119535
 20
59.4351348699525
 30
0.0
 40
22.42250000000001
  0
LWPOLYLINE
  5
2F3
330
1F
100
AcDbEntity
  8
100
  6
Continuous
 62
     3
100
AcDbPolyline
 90
        4
 70
     0
 43
0.0
 10
182.040535337751
 20
252.821321303915
 42
0.23133765090647
 10
181.6028416802698
 20
252.8573265757744
 42
-0.1884858894166
 10
162.672834239818
 20
252.857326575774
 42
0.23133765090645
 10
162.2351405823372
 20
252.8213213039146
  0
LWPOLYLINE
  5
2F4
330
1F
100
AcDbEntity
  8
100
  6
Continuous
 62
     3
100
AcDbPolyline
 90
        8
 70
     0
 43
0.0
 10
161.886420107274
 20
252.636481605349
 42
0.14401283997078
 10
163.5774164714457
 20
254.1319184679182
 10
168.945300933367
 20
262.681760217355
 42
-0.26894396973047
 10
171.608263477241
 20
264.084097915011
 42
0.02037670644275
 10
172.667412442847
 20
264.084097915011
 42
-0.26894396973055
 10
175.330374986721
 20
262.681760217355
 10
180.698259448642
 20
254.131918467918
 42
0.1440128399708
 10
182.389255812814
 20
252.636481605349
  0
LWPOLYLINE
  5
2F5
330
1F
100
AcDbEntity
  8
100
  6
Continuous
 62
     3
100
AcDbPolyline
 90
        4
 70
     0
 43
0.0
 10
198.092022294372
 20
273.523301612659
 42
0.23133765090616
 10
197.8419939855317
 20
273.1622504221351
 42
-0.18848588941661
 10
188.376990265306
 20
256.768383084875
 42
0.23133765090625
 10
188.1893249166658
 20
256.371326622492
  0
LWPOLYLINE
  5
2F6
330
1F
100
AcDbEntity
  8
100
  6
Continuous
 62
     3
100
AcDbPolyline
 90
        8
 70
     0
 43
0.0
 10
188.17504055372
 20
255.976905982984
 42
0.14401283997079
 10
187.7254524230657
 20
258.1890702233488
 10
183.005014500677
 20
267.11271540667
 42
-0.26894396973062
 10
183.122035701759
 20
270.12007746782
 42
0.02037670644276
 10
183.6516101845621
 20
271.0373273784269
 42
-0.2689439697305
 10
186.197551527354
 20
272.64235174192
 10
196.285873911664
 20
273.016155175805
 42
0.14401283997071
 10
198.4264584064899
 20
273.7328825536002
  0
LWPOLYLINE
  5
2F7
330
1F
100
AcDbEntity
  8
100
  6
Continuous
 62
     3
100
AcDbPolyline
 90
        4
 70
     0
 43
0.0
 10
188.189324916666
 20
297.77528723998
 42
0.23133765090687
 10
188.3769902653058
 20
297.3782307775968
 42
-0.18848588941662
 10
197.841993985532
 20
280.984363440336
 42
0.23133765090564
 10
198.092022294372
 20
280.6233122498131
  0
LWPOLYLINE
  5
2F8
330
1F
100
AcDbEntity
  8
100
  6
Continuous
 62
     3
100
AcDbPolyline
 90
        8
 70
     0
 43
0.0
 10
198.42645840649
 20
280.413731308871
 42
0.14401283997081
 10
196.285873911663
 20
281.1304586866664
 10
186.197551527354
 20
281.504262120551
 42
-0.26894396973057
 10
183.651610184562
 20
283.109286484045
 42
0.02037670644274
 10
183.1220357017594
 20
284.0265363946512
 42
-0.26894396973058
 10
183.005014500676
 20
287.033898455801
 10
187.725452423066
 20
295.957543639123
 42
0.14401283997069
 10
188.1750405537204
 20
298.1697078794871
  0
LWPOLYLINE
  5
2F9
330
1F
100
AcDbEntity
  8
100
  6
Continuous
 62
     3
100
AcDbPolyline
 90
        4
 70
     0
 43
0.0
 10
156.086351003422
 20
256.371326622492
 42
0.23133765090668
 10
155.8986856547817
 20
256.7683830848746
 42
-0.1884858894166
 10
146.433681934556
 20
273.162250422135
 42
0.23133765090617
 10
146.1836536257159
 20
273.5233016126587
  0
LWPOLYLINE
  5
2FA
330
1F
100
AcDbEntity
  8
100
  6
Continuous
 62
     3
100
AcDbPolyline
 90
        8
 70
     0
 43
0.0
 10
145.849217513598
 20
273.7328825536
 42
0.14401283997077
 10
147.989802008425
 20
273.0161551758043
 10
158.078124392734
 20
272.64235174192
 42
-0.2689439697305
 10
160.624065735526
 20
271.037327378427
 42
0.02037670644276
 10
161.1536402183291
 20
270.1200774678201
 42
-0.26894396973058
 10
161.270661419412
 20
267.11271540667
 10
156.550223497022
 20
258.189070223349
 42
0.14401283997075
 10
156.1006353663677
 20
255.976905982984
  0
LWPOLYLINE
  5
2FB
330
1F
100
AcDbEntity
  8
100
  6
Continuous
 62
     3
100
AcDbPolyline
 90
        4
 70
     0
 43
0.0
 10
146.183653625716
 20
280.623312249813
 42
0.23133765090629
 10
146.4336819345559
 20
280.984363440336
 42
-0.18848588941661
 10
155.898685654782
 20
297.378230777597
 42
0.23133765090687
 10
156.0863510034217
 20
297.77528723998
  0
LWPOLYLINE
  5
2FC
330
1F
100
AcDbEntity
  8
100
  6
Continuous
 62
     3
100
AcDbPolyline
 90
        8
 70
     0
 43
0.0
 10
156.100635366368
 20
298.169707879487
 42
0.14401283997069
 10
156.5502234970223
 20
295.9575436391232
 10
161.270661419412
 20
287.033898455801
 42
-0.26894396973058
 10
161.153640218329
 20
284.026536394651
 42
0.02037670644274
 10
160.6240657355264
 20
283.1092864840448
 42
-0.26894396973057
 10
158.078124392734
 20
281.504262120551
 10
147.989802008425
 20
281.130458686667
 42
0.1440128399708
 10
145.8492175135979
 20
280.413731308871
  0
LWPOLYLINE
  5
2FD
330
1F
100
AcDbEntity
  8
100
  6
Continuous
 62
     3
100
AcDbPolyline
 90
        8
 70
     0
 43
0.0
 10
182.389255812814
 20
301.510132257123
 42
0.14401283997078
 10
180.6982594486416
 20
300.0146953945542
 10
175.330374986721
 20
291.464853645116
 42
-0.26894396973047
 10
172.667412442847
 20
290.06251594746
 42
0.02037670644276
 10
171.608263477241
 20
290.06251594746
 42
-0.26894396973047
 10
168.945300933367
 20
291.464853645116
 10
163.577416471446
 20
300.014695394554
 42
0.14401283997078
 10
161.8864201072738
 20
301.5101322571226
  0
LWPOLYLINE
  5
2FE
330
1F
100
AcDbEntity
  8
100
  6
Continuous
 62
     3
100
AcDbPolyline
 90
        4
 70
     0
 43
0.0
 10
162.235140582337
 20
301.325292558557
 42
0.23133765090673
 10
162.6728342398179
 20
301.2892872866974
 42
-0.18848588941661
 10
181.60284168027
 20
301.289287286697
 42
0.23133765090673
 10
182.0405353377512
 20
301.3252925585567
  0
LWPOLYLINE
  5
2FF
330
1F
100
AcDbEntity
  8
100
  6
Continuous
 62
     3
100
AcDbPolyline
 90
        8
 70
     1
 43
0.0
 10
357.675621119535
 20
94.0761510213301
 10
357.675621119535
 20
94.0761510213301
 10
327.675621119535
 20
76.7556429456413
 10
327.675621119535
 20
42.1146267942638
 10
357.675621119535
 20
24.794118718575
 10
387.675621119535
 20
42.1146267942638
 10
387.675621119535
 20
76.7556429456413
 10
357.675621119535
 20
94.0761510213301
  0
LWPOLYLINE
  5
300
330
1F
100
AcDbEntity
  8
100
  6
Continuous
 62
     3
100
AcDbPolyline
 90
        6
 70
     1
 43
0.0
 10
150.638335305147
 20
54.4351348699525
 10
150.638335305147
 20
54.4351348699525
 10
152.458186476478
 20
59.4351348699525
 10
164.575099586267
 20
59.4351348699525
 10
162.755248414936
 20
54.4351348699525
 10
150.638335305147
 20
54.4351348699525
  0
LWPOLYLINE
  5
301
330
1F
100
AcDbEntity
  8
100
  6
Continuous
 62
     3
100
AcDbPolyline
 90
        7
 70
     1
 43
0.0
 10
180.137838478976
 20
59.4351348699525
 10
180.137838478976
 20
59.4351348699525
 10
180.137838478976
 20
58.2351348699525
 10
187.656045410214
 20
58.2351348699525
 10
186.637838478976
 20
54.4351348699525
 10
191.637838478976
 20
59.4351348699525
 10
180.137838478976
 20
59.4351348699525
  0
LEADER
  5
302
330
1F
100
AcDbEntity
  8
1
  6
Continuous
 62
     4
100
AcDbLeader
  3
Standard
 71
     0
 76
     3
 10
117.137838478976
 20
59.4351348699525
 30
0.0
 10
96.5857750043214
 20
23.8379167314702
 30
0.0
 10
40.2818969387003
 20
23.8379167314702
 30
0.0
  0
LEADER
  5
303
330
1F
100
AcDbEntity
  8
1
  6
Continuous
 62
     4
100
AcDbLeader
  3
Standard
 71
     0
 76
     3
 10
227.137838478976
 20
59.4351348699525
 30
0.0
 10
246.601990511427
 20
25.7222346235028
 30
0.0
 10
301.992469230491
 20
25.7222346235028
 30
0.0
  0
DIMENSION
  5
339
330
1F
100
AcDbEntity
  8
1
100
AcDbDimension
  2
*D1
 10
117.137838478976
 20
-11.92400124818956
 30
0.0
 11
173.207823934533
 21
-5.92400124818956
 31
0.0
 70
    32
  1
110
 71
     5
 42
-1.0
 53
0.00013888888889
  3
ME10_DIM_10
100
AcDbAlignedDimension
 13
227.137838478976
 23
24.794118718575
 33
0.0
 14
117.137838478976
 24
24.794118718575
 34
0.0
100
AcDbRotatedDimension
  0
DIMENSION
  5
346
330
1F
100
AcDbEntity
  8
1
100
AcDbDimension
  2
*D3
 10
256.716154236243
 20
59.43513486995249
 30
0.0
 11
250.716154236243
 21
138.264855224711
 31
0.0
 70
    32
  1
147
 71
     5
 42
-1.0
 53
90.0
  3
ME10_DIM_11
100
AcDbAlignedDimension
 13
211.796224554354
 23
206.435134869953
 33
0.0
 14
232.137838478976
 24
59.4351348699525
 34
0.0
 50
90.0
100
AcDbRotatedDimension
  0
ENDSEC
  0
SECTION
  2
OBJECTS
  0
DICTIONARY
  5
C
330
0
100
AcDbDictionary
281
     1
  3
ACAD_GROUP
350
D
  3
ACAD_LAYOUT
350
1A
  3
ACAD_MATERIAL
350
3B
  3
ACAD_MLEADERSTYLE
350
349
  3
ACAD_MLINESTYLE
350
17
  3
ACAD_PLOTSETTINGS
350
19
  3
ACAD_PLOTSTYLENAME
350
E
  3
ACAD_SCALELIST
350
30D
  3
ACAD_VISUALSTYLE
350
2A
  3
AcDbVariableDictionary
350
347
  0
DICTIONARY
  5
D
102
{ACAD_REACTORS
330
C
102
}
330
C
100
AcDbDictionary
281
     1
  0
DICTIONARY
  5
1A
102
{ACAD_REACTORS
330
C
102
}
330
C
100
AcDbDictionary
281
     1
  3
Layout1
350
1E
  3
Layout2
350
26
  3
Model
350
22
  0
DICTIONARY
  5
3B
102
{ACAD_REACTORS
330
C
102
}
330
C
100
AcDbDictionary
281
     1
  3
ByBlock
350
3D
  3
ByLayer
350
3C
  3
Global
350
3E
  0
DICTIONARY
  5
349
102
{ACAD_REACTORS
330
C
102
}
330
C
100
AcDbDictionary
281
     1
  0
DICTIONARY
  5
17
102
{ACAD_REACTORS
330
C
102
}
330
C
100
AcDbDictionary
281
     1
  3
Standard
350
18
  0
DICTIONARY
  5
19
102
{ACAD_REACTORS
330
C
102
}
330
C
100
AcDbDictionary
281
     1
  0
ACDBDICTIONARYWDFLT
  5
E
102
{ACAD_REACTORS
330
C
102
}
330
C
100
AcDbDictionary
281
     1
  3
Normal
350
F
100
AcDbDictionaryWithDefault
340
F
  0
DICTIONARY
  5
30D
102
{ACAD_REACTORS
330
C
102
}
330
C
100
AcDbDictionary
281
     1
  3
A0
350
30E
  3
A1
350
30F
  3
A2
350
310
  3
A3
350
311
  3
A4
350
312
  3
A5
350
313
  3
A6
350
314
  3
A7
350
315
  3
A8
350
316
  3
A9
350
317
  3
B0
350
318
  3
B1
350
319
  3
B2
350
31A
  3
B3
350
31B
  3
B4
350
31C
  3
B5
350
31D
  3
B6
350
31E
  3
B7
350
31F
  3
B8
350
320
  3
B9
350
321
  3
C0
350
322
  3
C1
350
323
  3
C2
350
324
  3
C3
350
325
  3
C4
350
326
  3
C5
350
327
  3
C6
350
328
  3
C7
350
329
  3
C8
350
32A
  3
C9
350
32B
  3
D0
350
32C
  3
D1
350
32D
  3
D2
350
32E
  0
DICTIONARY
  5
2A
102
{ACAD_REACTORS
330
C
102
}
330
C
100
AcDbDictionary
281
     1
  3
2dWireframe
350
2F
  3
3D Hidden
350
31
  3
3dWireframe
350
30
  3
Basic
350
32
  3
Brighten
350
36
  3
ColorChange
350
3A
  3
Conceptual
350
34
  3
Dim
350
35
  3
Facepattern
350
39
  3
Flat
350
2B
  3
FlatWithEdges
350
2C
  3
Gouraud
350
2D
  3
GouraudWithEdges
350
2E
  3
Linepattern
350
38
  3
Realistic
350
33
  3
Thicken
350
37
  0
DICTIONARY
  5
347
102
{ACAD_REACTORS
330
C
102
}
330
C
100
AcDbDictionary
281
     1
  3
CANNOSCALE
350
34A
  3
DIMASSOC
350
34B
  3
HIDETEXT
350
34C
  0
LAYOUT
  5
1E
102
{ACAD_REACTORS
330
1A
102
}
330
1A
100
AcDbPlotSettings
  1

  2
none_device
  4

  6

 40
0.0
 41
0.0
 42
0.0
 43
0.0
 44
0.0
 45
0.0
 46
0.0
 47
0.0
 48
0.0
 49
0.0
140
0.0
141
0.0
142
1.0
143
1.0
 70
   688
 72
     0
 73
     0
 74
     5
  7

 75
    16
147
1.0
148
0.0
149
0.0
100
AcDbLayout
  1
Layout1
 70
     1
 71
     1
 10
0.0
 20
0.0
 11
12.0
 21
9.0
 12
0.0
 22
0.0
 32
0.0
 14
1.00000000000000E+20
 24
1.00000000000000E+20
 34
1.00000000000000E+20
 15
-1.00000000000000E+20
 25
-1.00000000000000E+20
 35
-1.00000000000000E+20
146
0.0
 13
0.0
 23
0.0
 33
0.0
 16
1.0
 26
0.0
 36
0.0
 17
0.0
 27
1.0
 37
0.0
 76
     0
330
1B
  0
LAYOUT
  5
26
102
{ACAD_REACTORS
330
1A
102
}
330
1A
100
AcDbPlotSettings
  1

  2
none_device
  4

  6

 40
0.0
 41
0.0
 42
0.0
 43
0.0
 44
0.0
 45
0.0
 46
0.0
 47
0.0
 48
0.0
 49
0.0
140
0.0
141
0.0
142
1.0
143
1.0
 70
   688
 72
     0
 73
     0
 74
     5
  7

 75
    16
147
1.0
148
0.0
149
0.0
100
AcDbLayout
  1
Layout2
 70
     1
 71
     2
 10
0.0
 20
0.0
 11
0.0
 21
0.0
 12
0.0
 22
0.0
 32
0.0
 14
0.0
 24
0.0
 34
0.0
 15
0.0
 25
0.0
 35
0.0
146
0.0
 13
0.0
 23
0.0
 33
0.0
 16
1.0
 26
0.0
 36
0.0
 17
0.0
 27
1.0
 37
0.0
 76
     0
330
23
  0
LAYOUT
  5
22
102
{ACAD_REACTORS
330
1A
102
}
330
1A
100
AcDbPlotSettings
  1

  2
none_device
  4

  6

 40
0.0
 41
0.0
 42
0.0
 43
0.0
 44
0.0
 45
0.0
 46
0.0
 47
0.0
 48
0.0
 49
0.0
140
0.0
141
0.0
142
1.0
143
1.0
 70
  1712
 72
     0
 73
     0
 74
     0
  7

 75
     0
147
1.0
148
0.0
149
0.0
100
AcDbLayout
  1
Model
 70
     1
 71
     0
 10
0.0
 20
0.0
 11
12.0
 21
9.0
 12
0.0
 22
0.0
 32
0.0
 14
40.2818969387003
 24
-14.06759478763854
 34
0.0
 15
402.251057232071
 25
316.044450101536
 35
0.0
146
0.0
 13
0.0
 23
0.0
 33
0.0
 16
1.0
 26
0.0
 36
0.0
 17
0.0
 27
1.0
 37
0.0
 76
     0
330
1F
331
29
  0
MATERIAL
  5
3D
102
{ACAD_REACTORS
330
3B
102
}
102
{ACAD_XDICTIONARY
360
36F
102
}
330
3B
100
AcDbMaterial
  1
ByBlock
  0
MATERIAL
  5
3C
102
{ACAD_REACTORS
330
3B
102
}
102
{ACAD_XDICTIONARY
360
36D
102
}
330
3B
100
AcDbMaterial
  1
ByLayer
  0
MATERIAL
  5
3E
102
{ACAD_REACTORS
330
3B
102
}
102
{ACAD_XDICTIONARY
360
371
102
}
330
3B
100
AcDbMaterial
  1
Global
  0
MLINESTYLE
  5
18
102
{ACAD_REACTORS
330
17
102
}
330
17
100
AcDbMlineStyle
  2
Standard
 70
     0
  3

 62
   256
 51
90.0
 52
90.0
 71
     2
 49
0.5
 62
   256
  6
BYLAYER
 49
-0.5
 62
   256
  6
BYLAYER
  0
ACDBPLACEHOLDER
  5
F
102
{ACAD_REACTORS
330
E
102
}
330
E
  0
SCALE
  5
30E
102
{ACAD_REACTORS
330
30D
102
}
330
30D
100
AcDbScale
 70
     0
300
1:1
140
1.0
141
1.0
290
     1
  0
SCALE
  5
30F
102
{ACAD_REACTORS
330
30D
102
}
330
30D
100
AcDbScale
 70
     0
300
1:2
140
1.0
141
2.0
290
     0
  0
SCALE
  5
310
102
{ACAD_REACTORS
330
30D
102
}
330
30D
100
AcDbScale
 70
     0
300
1:4
140
1.0
141
4.0
290
     0
  0
SCALE
  5
311
102
{ACAD_REACTORS
330
30D
102
}
330
30D
100
AcDbScale
 70
     0
300
1:5
140
1.0
141
5.0
290
     0
  0
SCALE
  5
312
102
{ACAD_REACTORS
330
30D
102
}
330
30D
100
AcDbScale
 70
     0
300
1:8
140
1.0
141
8.0
290
     0
  0
SCALE
  5
313
102
{ACAD_REACTORS
330
30D
102
}
330
30D
100
AcDbScale
 70
     0
300
1:10
140
1.0
141
10.0
290
     0
  0
SCALE
  5
314
102
{ACAD_REACTORS
330
30D
102
}
330
30D
100
AcDbScale
 70
     0
300
1:16
140
1.0
141
16.0
290
     0
  0
SCALE
  5
315
102
{ACAD_REACTORS
330
30D
102
}
330
30D
100
AcDbScale
 70
     0
300
1:20
140
1.0
141
20.0
290
     0
  0
SCALE
  5
316
102
{ACAD_REACTORS
330
30D
102
}
330
30D
100
AcDbScale
 70
     0
300
1:30
140
1.0
141
30.0
290
     0
  0
SCALE
  5
317
102
{ACAD_REACTORS
330
30D
102
}
330
30D
100
AcDbScale
 70
     0
300
1:40
140
1.0
141
40.0
290
     0
  0
SCALE
  5
318
102
{ACAD_REACTORS
330
30D
102
}
330
30D
100
AcDbScale
 70
     0
300
1:50
140
1.0
141
50.0
290
     0
  0
SCALE
  5
319
102
{ACAD_REACTORS
330
30D
102
}
330
30D
100
AcDbScale
 70
     0
300
1:100
140
1.0
141
100.0
290
     0
  0
SCALE
  5
31A
102
{ACAD_REACTORS
330
30D
102
}
330
30D
100
AcDbScale
 70
     0
300
2:1
140
2.0
141
1.0
290
     0
  0
SCALE
  5
31B
102
{ACAD_REACTORS
330
30D
102
}
330
30D
100
AcDbScale
 70
     0
300
4:1
140
4.0
141
1.0
290
     0
  0
SCALE
  5
31C
102
{ACAD_REACTORS
330
30D
102
}
330
30D
100
AcDbScale
 70
     0
300
8:1
140
8.0
141
1.0
290
     0
  0
SCALE
  5
31D
102
{ACAD_REACTORS
330
30D
102
}
330
30D
100
AcDbScale
 70
     0
300
10:1
140
10.0
141
1.0
290
     0
  0
SCALE
  5
31E
102
{ACAD_REACTORS
330
30D
102
}
330
30D
100
AcDbScale
 70
     0
300
100:1
140
100.0
141
1.0
290
     0
  0
SCALE
  5
31F
102
{ACAD_REACTORS
330
30D
102
}
330
30D
100
AcDbScale
 70
     0
300
1/128" = 1'-0"
140
0.0078125
141
12.0
290
     0
  0
SCALE
  5
320
102
{ACAD_REACTORS
330
30D
102
}
330
30D
100
AcDbScale
 70
     0
300
1/64" = 1'-0"
140
0.015625
141
12.0
290
     0
  0
SCALE
  5
321
102
{ACAD_REACTORS
330
30D
102
}
330
30D
100
AcDbScale
 70
     0
300
1/32" = 1'-0"
140
0.03125
141
12.0
290
     0
  0
SCALE
  5
322
102
{ACAD_REACTORS
330
30D
102
}
330
30D
100
AcDbScale
 70
     0
300
1/16" = 1'-0"
140
0.0625
141
12.0
290
     0
  0
SCALE
  5
323
102
{ACAD_REACTORS
330
30D
102
}
330
30D
100
AcDbScale
 70
     0
300
3/32" = 1'-0"
140
0.09375
141
12.0
290
     0
  0
SCALE
  5
324
102
{ACAD_REACTORS
330
30D
102
}
330
30D
100
AcDbScale
 70
     0
300
1/8" = 1'-0"
140
0.125
141
12.0
290
     0
  0
SCALE
  5
325
102
{ACAD_REACTORS
330
30D
102
}
330
30D
100
AcDbScale
 70
     0
300
3/16" = 1'-0"
140
0.1875
141
12.0
290
     0
  0
SCALE
  5
326
102
{ACAD_REACTORS
330
30D
102
}
330
30D
100
AcDbScale
 70
     0
300
1/4" = 1'-0"
140
0.25
141
12.0
290
     0
  0
SCALE
  5
327
102
{ACAD_REACTORS
330
30D
102
}
330
30D
100
AcDbScale
 70
     0
300
3/8" = 1'-0"
140
0.375
141
12.0
290
     0
  0
SCALE
  5
328
102
{ACAD_REACTORS
330
30D
102
}
330
30D
100
AcDbScale
 70
     0
300
1/2" = 1'-0"
140
0.5
141
12.0
290
     0
  0
SCALE
  5
329
102
{ACAD_REACTORS
330
30D
102
}
330
30D
100
AcDbScale
 70
     0
300
3/4" = 1'-0"
140
0.75
141
12.0
290
     0
  0
SCALE
  5
32A
102
{ACAD_REACTORS
330
30D
102
}
330
30D
100
AcDbScale
 70
     0
300
1" = 1'-0"
140
1.0
141
12.0
290
     0
  0
SCALE
  5
32B
102
{ACAD_REACTORS
330
30D
102
}
330
30D
100
AcDbScale
 70
     0
300
1-1/2" = 1'-0"
140
1.5
141
12.0
290
     0
  0
SCALE
  5
32C
102
{ACAD_REACTORS
330
30D
102
}
330
30D
100
AcDbScale
 70
     0
300
3" = 1'-0"
140
3.0
141
12.0
290
     0
  0
SCALE
  5
32D
102
{ACAD_REACTORS
330
30D
102
}
330
30D
100
AcDbScale
 70
     0
300
6" = 1'-0"
140
6.0
141
12.0
290
     0
  0
SCALE
  5
32E
102
{ACAD_REACTORS
330
30D
102
}
330
30D
100
AcDbScale
 70
     0
300
1'-0" = 1'-0"
140
12.0
141
12.0
290
     0
  0
VISUALSTYLE
  5
2F
102
{ACAD_REACTORS
330
2A
102
}
102
{ACAD_XDICTIONARY
360
355
102
}
330
2A
100
AcDbVisualStyle
  2
2dWireframe
 70
     4
 71
     0
 72
     2
 73
     0
 90
        0
 40
-0.6
 41
-30.0
 62
     5
 63
     7
 74
     1
 91
        4
 64
     7
 65
   257
 75
     1
175
     1
 42
1.0
 92
        0
 66
   257
 43
1.0
 76
     1
 77
     6
 78
     2
 67
     7
 79
     5
170
     0
171
     0
290
     0
174
     0
 93
        1
 44
0.0
173
     0
291
     0
 45
0.0
1001
ACAD
1000
AcDbSavedByObjectVersion
1070
     0
  0
VISUALSTYLE
  5
31
102
{ACAD_REACTORS
330
2A
102
}
102
{ACAD_XDICTIONARY
360
359
102
}
330
2A
100
AcDbVisualStyle
  2
3D Hidden
 70
     6
 71
     1
 72
     2
 73
     2
 90
        0
 40
-0.6
 41
-30.0
 62
     5
 63
     7
 74
     2
 91
        2
 64
     7
 65
   257
 75
     2
175
     1
 42
40.0
 92
        0
 66
   257
 43
1.0
 76
     1
 77
     6
 78
     2
 67
     7
 79
     3
170
     0
171
     0
290
     0
174
     0
 93
        1
 44
0.0
173
     0
291
     0
 45
0.0
1001
ACAD
1000
AcDbSavedByObjectVersion
1070
     0
  0
VISUALSTYLE
  5
30
102
{ACAD_REACTORS
330
2A
102
}
102
{ACAD_XDICTIONARY
360
357
102
}
330
2A
100
AcDbVisualStyle
  2
3dWireframe
 70
     5
 71
     0
 72
     2
 73
     0
 90
        0
 40
-0.6
 41
-30.0
 62
     5
 63
     7
 74
     1
 91
        4
 64
     7
 65
   257
 75
     1
175
     1
 42
1.0
 92
        0
 66
   257
 43
1.0
 76
     1
 77
     6
 78
     2
 67
     7
 79
     5
170
     0
171
     0
290
     0
174
     0
 93
        1
 44
0.0
173
     0
291
     0
 45
0.0
1001
ACAD
1000
AcDbSavedByObjectVersion
1070
     0
  0
VISUALSTYLE
  5
32
102
{ACAD_REACTORS
330
2A
102
}
102
{ACAD_XDICTIONARY
360
35B
102
}
330
2A
100
AcDbVisualStyle
  2
Basic
 70
     7
 71
     1
 72
     0
 73
     1
 90
        0
 40
-0.6
 41
-30.0
 62
     5
 63
     7
 74
     0
 91
        4
 64
     7
 65
   257
 75
     1
175
     1
 42
1.0
 92
        8
 66
     7
 43
1.0
 76
     1
 77
     6
 78
     2
 67
     7
 79
     5
170
     0
171
     0
290
     0
174
     0
 93
        1
 44
0.0
173
     0
291
     1
 45
0.0
1001
ACAD
1000
AcDbSavedByObjectVersion
1070
     0
  0
VISUALSTYLE
  5
36
102
{ACAD_REACTORS
330
2A
102
}
102
{ACAD_XDICTIONARY
360
363
102
}
330
2A
100
AcDbVisualStyle
  2
Brighten
 70
    12
 71
     2
 72
     2
 73
     0
 90
        0
 40
-0.6
 41
-30.0
 62
     5
 63
     7
 74
     1
 91
        4
 64
     7
 65
   257
 75
     1
175
     1
 42
1.0
 92
        8
 66
     7
 43
1.0
 76
     1
 77
     6
 78
     2
 67
     7
 79
     5
170
     0
171
     0
290
     0
174
     0
 93
        1
 44
50.0
173
     0
291
     1
 45
0.0
1001
ACAD
1000
AcDbSavedByObjectVersion
1070
     0
  0
VISUALSTYLE
  5
3A
102
{ACAD_REACTORS
330
2A
102
}
102
{ACAD_XDICTIONARY
360
36B
102
}
330
2A
100
AcDbVisualStyle
  2
ColorChange
 70
    16
 71
     2
 72
     2
 73
     3
 90
        0
 40
-0.6
 41
-30.0
 62
     5
 63
     8
 74
     1
 91
        4
 64
     7
 65
   257
 75
     1
175
     1
 42
1.0
 92
        8
 66
     8
 43
1.0
 76
     1
 77
     6
 78
     2
 67
     7
 79
     5
170
     0
171
     0
290
     0
174
     0
 93
        1
 44
0.0
173
     0
291
     1
 45
0.0
1001
ACAD
1000
AcDbSavedByObjectVersion
1070
     0
  0
VISUALSTYLE
  5
34
102
{ACAD_REACTORS
330
2A
102
}
102
{ACAD_XDICTIONARY
360
35F
102
}
330
2A
100
AcDbVisualStyle
  2
Conceptual
 70
     9
 71
     3
 72
     2
 73
     0
 90
        0
 40
-0.6
 41
-30.0
 62
     5
 63
     7
 74
     2
 91
        2
 64
     7
 65
   257
 75
     1
175
     1
 42
40.0
 92
        8
 66
     7
 43
1.0
 76
     1
 77
     6
 78
     2
 67
     7
 79
     3
170
     0
171
     0
290
     0
174
     0
 93
        1
 44
0.0
173
     0
291
     0
 45
0.0
1001
ACAD
1000
AcDbSavedByObjectVersion
1070
     0
  0
VISUALSTYLE
  5
35
102
{ACAD_REACTORS
330
2A
102
}
102
{ACAD_XDICTIONARY
360
361
102
}
330
2A
100
AcDbVisualStyle
  2
Dim
 70
    11
 71
     2
 72
     2
 73
     0
 90
        0
 40
-0.6
 41
-30.0
 62
     5
 63
     7
 74
     1
 91
        4
 64
     7
 65
   257
 75
     1
175
     1
 42
1.0
 92
        8
 66
     7
 43
1.0
 76
     1
 77
     6
 78
     2
 67
     7
 79
     5
170
     0
171
     0
290
     0
174
     0
 93
        1
 44
-50.0
173
     0
291
     1
 45
0.0
1001
ACAD
1000
AcDbSavedByObjectVersion
1070
     0
  0
VISUALSTYLE
  5
39
102
{ACAD_REACTORS
330
2A
102
}
102
{ACAD_XDICTIONARY
360
369
102
}
330
2A
100
AcDbVisualStyle
  2
Facepattern
 70
    15
 71
     2
 72
     2
 73
     0
 90
        0
 40
-0.6
 41
-30.0
 62
     5
 63
     7
 74
     1
 91
        4
 64
     7
 65
   257
 75
     1
175
     1
 42
1.0
 92
        8
 66
     7
 43
1.0
 76
     1
 77
     6
 78
     2
 67
     7
 79
     5
170
     0
171
     0
290
     0
174
     0
 93
        1
 44
0.0
173
     0
291
     1
 45
0.0
1001
ACAD
1000
AcDbSavedByObjectVersion
1070
     0
  0
VISUALSTYLE
  5
2B
102
{ACAD_REACTORS
330
2A
102
}
102
{ACAD_XDICTIONARY
360
34D
102
}
330
2A
100
AcDbVisualStyle
  2
Flat
 70
     0
 71
     2
 72
     1
 73
     1
 90
        2
 40
-0.6
 41
30.0
 62
     5
 63
     7
 74
     0
 91
        4
 64
     7
 65
   257
 75
     1
175
     1
 42
1.0
 92
        8
 66
     7
 43
1.0
 76
     1
 77
     6
 78
     2
 67
     7
 79
     5
170
     0
171
     0
290
     0
174
     0
 93
       13
 44
0.0
173
     0
291
     1
 45
0.0
1001
ACAD
1000
AcDbSavedByObjectVersion
1070
     0
  0
VISUALSTYLE
  5
2C
102
{ACAD_REACTORS
330
2A
102
}
102
{ACAD_XDICTIONARY
360
34F
102
}
330
2A
100
AcDbVisualStyle
  2
FlatWithEdges
 70
     1
 71
     2
 72
     1
 73
     1
 90
        2
 40
-0.6
 41
30.0
 62
     5
 63
     7
 74
     1
 91
        4
 64
     7
 65
   257
 75
     1
175
     1
 42
1.0
 92
        0
 66
   257
 43
1.0
 76
     1
 77
     6
 78
     2
 67
     7
 79
     5
170
     0
171
     0
290
     0
174
     0
 93
       13
 44
0.0
173
     0
291
     1
 45
0.0
1001
ACAD
1000
AcDbSavedByObjectVersion
1070
     0
  0
VISUALSTYLE
  5
2D
102
{ACAD_REACTORS
330
2A
102
}
102
{ACAD_XDICTIONARY
360
351
102
}
330
2A
100
AcDbVisualStyle
  2
Gouraud
 70
     2
 71
     2
 72
     2
 73
     1
 90
        2
 40
-0.6
 41
30.0
 62
     5
 63
     7
 74
     0
 91
        4
 64
     7
 65
   257
 75
     1
175
     1
 42
1.0
 92
        0
 66
     7
 43
1.0
 76
     1
 77
     6
 78
     2
 67
     7
 79
     5
170
     0
171
     0
290
     0
174
     0
 93
       13
 44
0.0
173
     0
291
     1
 45
0.0
1001
ACAD
1000
AcDbSavedByObjectVersion
1070
     0
  0
VISUALSTYLE
  5
2E
102
{ACAD_REACTORS
330
2A
102
}
102
{ACAD_XDICTIONARY
360
353
102
}
330
2A
100
AcDbVisualStyle
  2
GouraudWithEdges
 70
     3
 71
     2
 72
     2
 73
     1
 90
        2
 40
-0.6
 41
30.0
 62
     5
 63
     7
 74
     1
 91
        4
 64
     7
 65
   257
 75
     1
175
     1
 42
1.0
 92
        0
 66
   257
 43
1.0
 76
     1
 77
     6
 78
     2
 67
     7
 79
     5
170
     0
171
     0
290
     0
174
     0
 93
       13
 44
0.0
173
     0
291
     1
 45
0.0
1001
ACAD
1000
AcDbSavedByObjectVersion
1070
     0
  0
VISUALSTYLE
  5
38
102
{ACAD_REACTORS
330
2A
102
}
102
{ACAD_XDICTIONARY
360
367
102
}
330
2A
100
AcDbVisualStyle
  2
Linepattern
 70
    14
 71
     2
 72
     2
 73
     0
 90
        0
 40
-0.6
 41
-30.0
 62
     5
 63
     7
 74
     1
 91
        4
 64
     7
 65
   257
 75
     7
175
     7
 42
1.0
 92
        8
 66
     7
 43
1.0
 76
     1
 77
     6
 78
     2
 67
     7
 79
     5
170
     0
171
     0
290
     0
174
     0
 93
        1
 44
0.0
173
     0
291
     1
 45
0.0
1001
ACAD
1000
AcDbSavedByObjectVersion
1070
     0
  0
VISUALSTYLE
  5
33
102
{ACAD_REACTORS
330
2A
102
}
102
{ACAD_XDICTIONARY
360
35D
102
}
330
2A
100
AcDbVisualStyle
  2
Realistic
 70
     8
 71
     2
 72
     2
 73
     0
 90
        0
 40
-0.6
 41
-30.0
 62
     5
 63
     7
 74
     1
 91
        0
 64
     7
 65
   257
 75
     1
175
     1
 42
1.0
 92
        8
 66
     8
 43
1.0
 76
     1
 77
     6
 78
     2
 67
     7
 79
     5
170
     0
171
     0
290
     0
174
     0
 93
       13
 44
0.0
173
     0
291
     0
 45
0.0
1001
ACAD
1000
AcDbSavedByObjectVersion
1070
     0
  0
VISUALSTYLE
  5
37
102
{ACAD_REACTORS
330
2A
102
}
102
{ACAD_XDICTIONARY
360
365
102
}
330
2A
100
AcDbVisualStyle
  2
Thicken
 70
    13
 71
     2
 72
     2
 73
     0
 90
        0
 40
-0.6
 41
-30.0
 62
     5
 63
     7
 74
     1
 91
        4
 64
     7
 65
   257
 75
     1
175
     1
 42
1.0
 92
       12
 66
     7
 43
1.0
 76
     1
 77
     6
 78
     2
 67
     7
 79
     5
170
     0
171
     0
290
     0
174
     0
 93
        1
 44
0.0
173
     0
291
     1
 45
0.0
1001
ACAD
1000
AcDbSavedByObjectVersion
1070
     0
  0
DICTIONARYVAR
  5
34A
102
{ACAD_REACTORS
330
347
102
}
330
347
100
DictionaryVariables
280
     0
  1
1:1
  0
DICTIONARYVAR
  5
34B
102
{ACAD_REACTORS
330
347
102
}
330
347
100
DictionaryVariables
280
     0
  1
2
  0
DICTIONARYVAR
  5
34C
102
{ACAD_REACTORS
330
347
102
}
330
347
100
DictionaryVariables
280
     0
  1
1
  0
DICTIONARY
  5
36F
330
3D
100
AcDbDictionary
280
     1
281
     1
  3
ACAD_XREC_ROUNDTRIP
360
370
  0
DICTIONARY
  5
36D
330
3C
100
AcDbDictionary
280
     1
281
     1
  3
ACAD_XREC_ROUNDTRIP
360
36E
  0
DICTIONARY
  5
371
330
3E
100
AcDbDictionary
280
     1
281
     1
  3
ACAD_XREC_ROUNDTRIP
360
372
  0
DICTIONARY
  5
355
330
2F
100
AcDbDictionary
280
     1
281
     1
  3
ACAD_XREC_ROUNDTRIP
360
356
  0
DICTIONARY
  5
359
330
31
100
AcDbDictionary
280
     1
281
     1
  3
ACAD_XREC_ROUNDTRIP
360
35A
  0
DICTIONARY
  5
357
330
30
100
AcDbDictionary
280
     1
281
     1
  3
ACAD_XREC_ROUNDTRIP
360
358
  0
DICTIONARY
  5
35B
330
32
100
AcDbDictionary
280
     1
281
     1
  3
ACAD_XREC_ROUNDTRIP
360
35C
  0
DICTIONARY
  5
363
330
36
100
AcDbDictionary
280
     1
281
     1
  3
ACAD_XREC_ROUNDTRIP
360
364
  0
DICTIONARY
  5
36B
330
3A
100
AcDbDictionary
280
     1
281
     1
  3
ACAD_XREC_ROUNDTRIP
360
36C
  0
DICTIONARY
  5
35F
330
34
100
AcDbDictionary
280
     1
281
     1
  3
ACAD_XREC_ROUNDTRIP
360
360
  0
DICTIONARY
  5
361
330
35
100
AcDbDictionary
280
     1
281
     1
  3
ACAD_XREC_ROUNDTRIP
360
362
  0
DICTIONARY
  5
369
330
39
100
AcDbDictionary
280
     1
281
     1
  3
ACAD_XREC_ROUNDTRIP
360
36A
  0
DICTIONARY
  5
34D
330
2B
100
AcDbDictionary
280
     1
281
     1
  3
ACAD_XREC_ROUNDTRIP
360
34E
  0
DICTIONARY
  5
34F
330
2C
100
AcDbDictionary
280
     1
281
     1
  3
ACAD_XREC_ROUNDTRIP
360
350
  0
DICTIONARY
  5
351
330
2D
100
AcDbDictionary
280
     1
281
     1
  3
ACAD_XREC_ROUNDTRIP
360
352
  0
DICTIONARY
  5
353
330
2E
100
AcDbDictionary
280
     1
281
     1
  3
ACAD_XREC_ROUNDTRIP
360
354
  0
DICTIONARY
  5
367
330
38
100
AcDbDictionary
280
     1
281
     1
  3
ACAD_XREC_ROUNDTRIP
360
368
  0
DICTIONARY
  5
35D
330
33
100
AcDbDictionary
280
     1
281
     1
  3
ACAD_XREC_ROUNDTRIP
360
35E
  0
DICTIONARY
  5
365
330
37
100
AcDbDictionary
280
     1
281
     1
  3
ACAD_XREC_ROUNDTRIP
360
366
  0
XRECORD
  5
370
102
{ACAD_REACTORS
330
36F
102
}
330
36F
100
AcDbXrecord
280
     1
102
MATERIAL
148
0.0
149
0.0
149
0.0
 93
        0
 94
      127
282
     0
 72
     1
 77
     1
171
     1
175
     1
179
     1
273
     0
  0
XRECORD
  5
36E
102
{ACAD_REACTORS
330
36D
102
}
330
36D
100
AcDbXrecord
280
     1
102
MATERIAL
148
0.0
149
0.0
149
0.0
 93
        0
 94
      127
282
     0
 72
     1
 77
     1
171
     1
175
     1
179
     1
273
     0
  0
XRECORD
  5
372
102
{ACAD_REACTORS
330
371
102
}
330
371
100
AcDbXrecord
280
     1
102
MATERIAL
148
0.0
149
0.0
149
0.0
 93
        0
 94
      127
282
     0
 72
     1
 77
     1
171
     1
175
     1
179
     1
273
     0
  0
XRECORD
  5
356
102
{ACAD_REACTORS
330
355
102
}
330
355
100
AcDbXrecord
280
     1
102
RTVSPropertyOp0
 70
     1
102
RTVSPropertyOp1
 70
     1
102
RTVSPropertyOp2
 70
     1
102
RTVSPropertyOp3
 70
     1
102
RTVSPropertyOp4
 70
     1
102
RTVSPropertyOp5
 70
     1
102
RTVSPropertyOp6
 70
     1
102
RTVSPropertyOp7
 70
     1
102
RTVSPropertyOp8
 70
     1
102
RTVSPropertyOp9
 70
     1
102
RTVSPropertyOp10
 70
     1
102
RTVSPropertyOp11
 70
     1
102
RTVSPropertyOp12
 70
     1
102
RTVSPropertyOp13
 70
     1
102
RTVSPropertyOp14
 70
     1
102
RTVSPropertyOp15
 70
     1
102
RTVSPropertyOp16
 70
     1
102
RTVSPropertyOp17
 70
     1
102
RTVSPropertyOp18
 70
     1
102
RTVSPropertyOp19
 70
     1
102
RTVSPropertyOp20
 70
     1
102
RTVSPropertyOp21
 70
     1
102
RTVSPropertyOp22
 70
     1
102
RTVSPropertyOp23
 70
     1
102
RTVSPropertyOp24
 70
     1
102
RTVSPropertyOp25
 70
     1
102
RTVSPropertyOp26
 70
     1
102
RTVSPropertyOp27
 70
     1
  0
XRECORD
  5
35A
102
{ACAD_REACTORS
330
359
102
}
330
359
100
AcDbXrecord
280
     1
102
RTVSPropertyOp0
 70
     1
102
RTVSPropertyOp1
 70
     1
102
RTVSPropertyOp2
 70
     1
102
RTVSPropertyOp3
 70
     1
102
RTVSPropertyOp4
 70
     1
102
RTVSPropertyOp5
 70
     1
102
RTVSPropertyOp6
 70
     1
102
RTVSPropertyOp7
 70
     1
102
RTVSPropertyOp8
 70
     1
102
RTVSPropertyOp9
 70
     1
102
RTVSPropertyOp10
 70
     1
102
RTVSPropertyOp11
 70
     1
102
RTVSPropertyOp12
 70
     1
102
RTVSPropertyOp13
 70
     1
102
RTVSPropertyOp14
 70
     1
102
RTVSPropertyOp15
 70
     1
102
RTVSPropertyOp16
 70
     1
102
RTVSPropertyOp17
 70
     1
102
RTVSPropertyOp18
 70
     1
102
RTVSPropertyOp19
 70
     1
102
RTVSPropertyOp20
 70
     1
102
RTVSPropertyOp21
 70
     1
102
RTVSPropertyOp22
 70
     1
102
RTVSPropertyOp23
 70
     1
102
RTVSPropertyOp24
 70
     1
102
RTVSPropertyOp25
 70
     1
102
RTVSPropertyOp26
 70
     1
102
RTVSPropertyOp27
 70
     1
  0
XRECORD
  5
358
102
{ACAD_REACTORS
330
357
102
}
330
357
100
AcDbXrecord
280
     1
102
RTVSPropertyOp0
 70
     1
102
RTVSPropertyOp1
 70
     1
102
RTVSPropertyOp2
 70
     1
102
RTVSPropertyOp3
 70
     1
102
RTVSPropertyOp4
 70
     1
102
RTVSPropertyOp5
 70
     1
102
RTVSPropertyOp6
 70
     1
102
RTVSPropertyOp7
 70
     1
102
RTVSPropertyOp8
 70
     1
102
RTVSPropertyOp9
 70
     1
102
RTVSPropertyOp10
 70
     1
102
RTVSPropertyOp11
 70
     1
102
RTVSPropertyOp12
 70
     1
102
RTVSPropertyOp13
 70
     1
102
RTVSPropertyOp14
 70
     1
102
RTVSPropertyOp15
 70
     1
102
RTVSPropertyOp16
 70
     1
102
RTVSPropertyOp17
 70
     1
102
RTVSPropertyOp18
 70
     1
102
RTVSPropertyOp19
 70
     1
102
RTVSPropertyOp20
 70
     1
102
RTVSPropertyOp21
 70
     1
102
RTVSPropertyOp22
 70
     1
102
RTVSPropertyOp23
 70
     1
102
RTVSPropertyOp24
 70
     1
102
RTVSPropertyOp25
 70
     1
102
RTVSPropertyOp26
 70
     1
102
RTVSPropertyOp27
 70
     1
  0
XRECORD
  5
35C
102
{ACAD_REACTORS
330
35B
102
}
330
35B
100
AcDbXrecord
280
     1
102
RTVSPropertyOp0
 70
     1
102
RTVSPropertyOp1
 70
     1
102
RTVSPropertyOp2
 70
     1
102
RTVSPropertyOp3
 70
     1
102
RTVSPropertyOp4
 70
     1
102
RTVSPropertyOp5
 70
     1
102
RTVSPropertyOp6
 70
     1
102
RTVSPropertyOp7
 70
     1
102
RTVSPropertyOp8
 70
     1
102
RTVSPropertyOp9
 70
     1
102
RTVSPropertyOp10
 70
     1
102
RTVSPropertyOp11
 70
     1
102
RTVSPropertyOp12
 70
     1
102
RTVSPropertyOp13
 70
     1
102
RTVSPropertyOp14
 70
     1
102
RTVSPropertyOp15
 70
     1
102
RTVSPropertyOp16
 70
     1
102
RTVSPropertyOp17
 70
     1
102
RTVSPropertyOp18
 70
     1
102
RTVSPropertyOp19
 70
     1
102
RTVSPropertyOp20
 70
     1
102
RTVSPropertyOp21
 70
     1
102
RTVSPropertyOp22
 70
     1
102
RTVSPropertyOp23
 70
     1
102
RTVSPropertyOp24
 70
     1
102
RTVSPropertyOp25
 70
     1
102
RTVSPropertyOp26
 70
     1
102
RTVSPropertyOp27
 70
     1
  0
XRECORD
  5
364
102
{ACAD_REACTORS
330
363
102
}
330
363
100
AcDbXrecord
280
     1
102
RTVSPropertyOp0
 70
     1
102
RTVSPropertyOp1
 70
     1
102
RTVSPropertyOp2
 70
     1
102
RTVSPropertyOp3
 70
     1
102
RTVSPropertyOp4
 70
     1
102
RTVSPropertyOp5
 70
     1
102
RTVSPropertyOp6
 70
     1
102
RTVSPropertyOp7
 70
     1
102
RTVSPropertyOp8
 70
     1
102
RTVSPropertyOp9
 70
     1
102
RTVSPropertyOp10
 70
     1
102
RTVSPropertyOp11
 70
     1
102
RTVSPropertyOp12
 70
     1
102
RTVSPropertyOp13
 70
     1
102
RTVSPropertyOp14
 70
     1
102
RTVSPropertyOp15
 70
     1
102
RTVSPropertyOp16
 70
     1
102
RTVSPropertyOp17
 70
     1
102
RTVSPropertyOp18
 70
     1
102
RTVSPropertyOp19
 70
     1
102
RTVSPropertyOp20
 70
     1
102
RTVSPropertyOp21
 70
     1
102
RTVSPropertyOp22
 70
     1
102
RTVSPropertyOp23
 70
     1
102
RTVSPropertyOp24
 70
     1
102
RTVSPropertyOp25
 70
     1
102
RTVSPropertyOp26
 70
     1
102
RTVSPropertyOp27
 70
     1
  0
XRECORD
  5
36C
102
{ACAD_REACTORS
330
36B
102
}
330
36B
100
AcDbXrecord
280
     1
102
RTVSPropertyOp0
 70
     1
102
RTVSPropertyOp1
 70
     1
102
RTVSPropertyOp2
 70
     1
102
RTVSPropertyOp3
 70
     1
102
RTVSPropertyOp4
 70
     1
102
RTVSPropertyOp5
 70
     1
102
RTVSPropertyOp6
 70
     1
102
RTVSPropertyOp7
 70
     1
102
RTVSPropertyOp8
 70
     1
102
RTVSPropertyOp9
 70
     1
102
RTVSPropertyOp10
 70
     1
102
RTVSPropertyOp11
 70
     1
102
RTVSPropertyOp12
 70
     1
102
RTVSPropertyOp13
 70
     1
102
RTVSPropertyOp14
 70
     1
102
RTVSPropertyOp15
 70
     1
102
RTVSPropertyOp16
 70
     1
102
RTVSPropertyOp17
 70
     1
102
RTVSPropertyOp18
 70
     1
102
RTVSPropertyOp19
 70
     1
102
RTVSPropertyOp20
 70
     1
102
RTVSPropertyOp21
 70
     1
102
RTVSPropertyOp22
 70
     1
102
RTVSPropertyOp23
 70
     1
102
RTVSPropertyOp24
 70
     1
102
RTVSPropertyOp25
 70
     1
102
RTVSPropertyOp26
 70
     1
102
RTVSPropertyOp27
 70
     1
  0
XRECORD
  5
360
102
{ACAD_REACTORS
330
35F
102
}
330
35F
100
AcDbXrecord
280
     1
102
RTVSPropertyOp0
 70
     1
102
RTVSPropertyOp1
 70
     1
102
RTVSPropertyOp2
 70
     1
102
RTVSPropertyOp3
 70
     1
102
RTVSPropertyOp4
 70
     1
102
RTVSPropertyOp5
 70
     1
102
RTVSPropertyOp6
 70
     1
102
RTVSPropertyOp7
 70
     1
102
RTVSPropertyOp8
 70
     1
102
RTVSPropertyOp9
 70
     1
102
RTVSPropertyOp10
 70
     1
102
RTVSPropertyOp11
 70
     1
102
RTVSPropertyOp12
 70
     1
102
RTVSPropertyOp13
 70
     1
102
RTVSPropertyOp14
 70
     1
102
RTVSPropertyOp15
 70
     1
102
RTVSPropertyOp16
 70
     1
102
RTVSPropertyOp17
 70
     1
102
RTVSPropertyOp18
 70
     1
102
RTVSPropertyOp19
 70
     1
102
RTVSPropertyOp20
 70
     1
102
RTVSPropertyOp21
 70
     1
102
RTVSPropertyOp22
 70
     1
102
RTVSPropertyOp23
 70
     1
102
RTVSPropertyOp24
 70
     1
102
RTVSPropertyOp25
 70
     1
102
RTVSPropertyOp26
 70
     1
102
RTVSPropertyOp27
 70
     1
  0
XRECORD
  5
362
102
{ACAD_REACTORS
330
361
102
}
330
361
100
AcDbXrecord
280
     1
102
RTVSPropertyOp0
 70
     1
102
RTVSPropertyOp1
 70
     1
102
RTVSPropertyOp2
 70
     1
102
RTVSPropertyOp3
 70
     1
102
RTVSPropertyOp4
 70
     1
102
RTVSPropertyOp5
 70
     1
102
RTVSPropertyOp6
 70
     1
102
RTVSPropertyOp7
 70
     1
102
RTVSPropertyOp8
 70
     1
102
RTVSPropertyOp9
 70
     1
102
RTVSPropertyOp10
 70
     1
102
RTVSPropertyOp11
 70
     1
102
RTVSPropertyOp12
 70
     1
102
RTVSPropertyOp13
 70
     1
102
RTVSPropertyOp14
 70
     1
102
RTVSPropertyOp15
 70
     1
102
RTVSPropertyOp16
 70
     1
102
RTVSPropertyOp17
 70
     1
102
RTVSPropertyOp18
 70
     1
102
RTVSPropertyOp19
 70
     1
102
RTVSPropertyOp20
 70
     1
102
RTVSPropertyOp21
 70
     1
102
RTVSPropertyOp22
 70
     1
102
RTVSPropertyOp23
 70
     1
102
RTVSPropertyOp24
 70
     1
102
RTVSPropertyOp25
 70
     1
102
RTVSPropertyOp26
 70
     1
102
RTVSPropertyOp27
 70
     1
  0
XRECORD
  5
36A
102
{ACAD_REACTORS
330
369
102
}
330
369
100
AcDbXrecord
280
     1
102
RTVSPropertyOp0
 70
     1
102
RTVSPropertyOp1
 70
     1
102
RTVSPropertyOp2
 70
     1
102
RTVSPropertyOp3
 70
     1
102
RTVSPropertyOp4
 70
     1
102
RTVSPropertyOp5
 70
     1
102
RTVSPropertyOp6
 70
     1
102
RTVSPropertyOp7
 70
     1
102
RTVSPropertyOp8
 70
     1
102
RTVSPropertyOp9
 70
     1
102
RTVSPropertyOp10
 70
     1
102
RTVSPropertyOp11
 70
     1
102
RTVSPropertyOp12
 70
     1
102
RTVSPropertyOp13
 70
     1
102
RTVSPropertyOp14
 70
     1
102
RTVSPropertyOp15
 70
     1
102
RTVSPropertyOp16
 70
     1
102
RTVSPropertyOp17
 70
     1
102
RTVSPropertyOp18
 70
     1
102
RTVSPropertyOp19
 70
     1
102
RTVSPropertyOp20
 70
     1
102
RTVSPropertyOp21
 70
     1
102
RTVSPropertyOp22
 70
     1
102
RTVSPropertyOp23
 70
     1
102
RTVSPropertyOp24
 70
     1
102
RTVSPropertyOp25
 70
     1
102
RTVSPropertyOp26
 70
     1
102
RTVSPropertyOp27
 70
     1
  0
XRECORD
  5
34E
102
{ACAD_REACTORS
330
34D
102
}
330
34D
100
AcDbXrecord
280
     1
102
RTVSPropertyOp0
 70
     1
102
RTVSPropertyOp1
 70
     1
102
RTVSPropertyOp2
 70
     1
102
RTVSPropertyOp3
 70
     1
102
RTVSPropertyOp4
 70
     1
102
RTVSPropertyOp5
 70
     1
102
RTVSPropertyOp6
 70
     1
102
RTVSPropertyOp7
 70
     1
102
RTVSPropertyOp8
 70
     1
102
RTVSPropertyOp9
 70
     1
102
RTVSPropertyOp10
 70
     1
102
RTVSPropertyOp11
 70
     1
102
RTVSPropertyOp12
 70
     1
102
RTVSPropertyOp13
 70
     1
102
RTVSPropertyOp14
 70
     1
102
RTVSPropertyOp15
 70
     1
102
RTVSPropertyOp16
 70
     1
102
RTVSPropertyOp17
 70
     1
102
RTVSPropertyOp18
 70
     1
102
RTVSPropertyOp19
 70
     1
102
RTVSPropertyOp20
 70
     1
102
RTVSPropertyOp21
 70
     1
102
RTVSPropertyOp22
 70
     1
102
RTVSPropertyOp23
 70
     1
102
RTVSPropertyOp24
 70
     1
102
RTVSPropertyOp25
 70
     1
102
RTVSPropertyOp26
 70
     1
102
RTVSPropertyOp27
 70
     1
  0
XRECORD
  5
350
102
{ACAD_REACTORS
330
34F
102
}
330
34F
100
AcDbXrecord
280
     1
102
RTVSPropertyOp0
 70
     1
102
RTVSPropertyOp1
 70
     1
102
RTVSPropertyOp2
 70
     1
102
RTVSPropertyOp3
 70
     1
102
RTVSPropertyOp4
 70
     1
102
RTVSPropertyOp5
 70
     1
102
RTVSPropertyOp6
 70
     1
102
RTVSPropertyOp7
 70
     1
102
RTVSPropertyOp8
 70
     1
102
RTVSPropertyOp9
 70
     1
102
RTVSPropertyOp10
 70
     1
102
RTVSPropertyOp11
 70
     1
102
RTVSPropertyOp12
 70
     1
102
RTVSPropertyOp13
 70
     1
102
RTVSPropertyOp14
 70
     1
102
RTVSPropertyOp15
 70
     1
102
RTVSPropertyOp16
 70
     1
102
RTVSPropertyOp17
 70
     1
102
RTVSPropertyOp18
 70
     1
102
RTVSPropertyOp19
 70
     1
102
RTVSPropertyOp20
 70
     1
102
RTVSPropertyOp21
 70
     1
102
RTVSPropertyOp22
 70
     1
102
RTVSPropertyOp23
 70
     1
102
RTVSPropertyOp24
 70
     1
102
RTVSPropertyOp25
 70
     1
102
RTVSPropertyOp26
 70
     1
102
RTVSPropertyOp27
 70
     1
  0
XRECORD
  5
352
102
{ACAD_REACTORS
330
351
102
}
330
351
100
AcDbXrecord
280
     1
102
RTVSPropertyOp0
 70
     1
102
RTVSPropertyOp1
 70
     1
102
RTVSPropertyOp2
 70
     1
102
RTVSPropertyOp3
 70
     1
102
RTVSPropertyOp4
 70
     1
102
RTVSPropertyOp5
 70
     1
102
RTVSPropertyOp6
 70
     1
102
RTVSPropertyOp7
 70
     1
102
RTVSPropertyOp8
 70
     1
102
RTVSPropertyOp9
 70
     1
102
RTVSPropertyOp10
 70
     1
102
RTVSPropertyOp11
 70
     1
102
RTVSPropertyOp12
 70
     1
102
RTVSPropertyOp13
 70
     1
102
RTVSPropertyOp14
 70
     1
102
RTVSPropertyOp15
 70
     1
102
RTVSPropertyOp16
 70
     1
102
RTVSPropertyOp17
 70
     1
102
RTVSPropertyOp18
 70
     1
102
RTVSPropertyOp19
 70
     1
102
RTVSPropertyOp20
 70
     1
102
RTVSPropertyOp21
 70
     1
102
RTVSPropertyOp22
 70
     1
102
RTVSPropertyOp23
 70
     1
102
RTVSPropertyOp24
 70
     1
102
RTVSPropertyOp25
 70
     1
102
RTVSPropertyOp26
 70
     1
102
RTVSPropertyOp27
 70
     1
  0
XRECORD
  5
354
102
{ACAD_REACTORS
330
353
102
}
330
353
100
AcDbXrecord
280
     1
102
RTVSPropertyOp0
 70
     1
102
RTVSPropertyOp1
 70
     1
102
RTVSPropertyOp2
 70
     1
102
RTVSPropertyOp3
 70
     1
102
RTVSPropertyOp4
 70
     1
102
RTVSPropertyOp5
 70
     1
102
RTVSPropertyOp6
 70
     1
102
RTVSPropertyOp7
 70
     1
102
RTVSPropertyOp8
 70
     1
102
RTVSPropertyOp9
 70
     1
102
RTVSPropertyOp10
 70
     1
102
RTVSPropertyOp11
 70
     1
102
RTVSPropertyOp12
 70
     1
102
RTVSPropertyOp13
 70
     1
102
RTVSPropertyOp14
 70
     1
102
RTVSPropertyOp15
 70
     1
102
RTVSPropertyOp16
 70
     1
102
RTVSPropertyOp17
 70
     1
102
RTVSPropertyOp18
 70
     1
102
RTVSPropertyOp19
 70
     1
102
RTVSPropertyOp20
 70
     1
102
RTVSPropertyOp21
 70
     1
102
RTVSPropertyOp22
 70
     1
102
RTVSPropertyOp23
 70
     1
102
RTVSPropertyOp24
 70
     1
102
RTVSPropertyOp25
 70
     1
102
RTVSPropertyOp26
 70
     1
102
RTVSPropertyOp27
 70
     1
  0
XRECORD
  5
368
102
{ACAD_REACTORS
330
367
102
}
330
367
100
AcDbXrecord
280
     1
102
RTVSPropertyOp0
 70
     1
102
RTVSPropertyOp1
 70
     1
102
RTVSPropertyOp2
 70
     1
102
RTVSPropertyOp3
 70
     1
102
RTVSPropertyOp4
 70
     1
102
RTVSPropertyOp5
 70
     1
102
RTVSPropertyOp6
 70
     1
102
RTVSPropertyOp7
 70
     1
102
RTVSPropertyOp8
 70
     1
102
RTVSPropertyOp9
 70
     1
102
RTVSPropertyOp10
 70
     1
102
RTVSPropertyOp11
 70
     1
102
RTVSPropertyOp12
 70
     1
102
RTVSPropertyOp13
 70
     1
102
RTVSPropertyOp14
 70
     1
102
RTVSPropertyOp15
 70
     1
102
RTVSPropertyOp16
 70
     1
102
RTVSPropertyOp17
 70
     1
102
RTVSPropertyOp18
 70
     1
102
RTVSPropertyOp19
 70
     1
102
RTVSPropertyOp20
 70
     1
102
RTVSPropertyOp21
 70
     1
102
RTVSPropertyOp22
 70
     1
102
RTVSPropertyOp23
 70
     1
102
RTVSPropertyOp24
 70
     1
102
RTVSPropertyOp25
 70
     1
102
RTVSPropertyOp26
 70
     1
102
RTVSPropertyOp27
 70
     1
  0
XRECORD
  5
35E
102
{ACAD_REACTORS
330
35D
102
}
330
35D
100
AcDbXrecord
280
     1
102
RTVSPropertyOp0
 70
     1
102
RTVSPropertyOp1
 70
     1
102
RTVSPropertyOp2
 70
     1
102
RTVSPropertyOp3
 70
     1
102
RTVSPropertyOp4
 70
     1
102
RTVSPropertyOp5
 70
     1
102
RTVSPropertyOp6
 70
     1
102
RTVSPropertyOp7
 70
     1
102
RTVSPropertyOp8
 70
     1
102
RTVSPropertyOp9
 70
     1
102
RTVSPropertyOp10
 70
     1
102
RTVSPropertyOp11
 70
     1
102
RTVSPropertyOp12
 70
     1
102
RTVSPropertyOp13
 70
     1
102
RTVSPropertyOp14
 70
     1
102
RTVSPropertyOp15
 70
     1
102
RTVSPropertyOp16
 70
     1
102
RTVSPropertyOp17
 70
     1
102
RTVSPropertyOp18
 70
     1
102
RTVSPropertyOp19
 70
     1
102
RTVSPropertyOp20
 70
     1
102
RTVSPropertyOp21
 70
     1
102
RTVSPropertyOp22
 70
     1
102
RTVSPropertyOp23
 70
     1
102
RTVSPropertyOp24
 70
     1
102
RTVSPropertyOp25
 70
     1
102
RTVSPropertyOp26
 70
     1
102
RTVSPropertyOp27
 70
     1
  0
XRECORD
  5
366
102
{ACAD_REACTORS
330
365
102
}
330
365
100
AcDbXrecord
280
     1
102
RTVSPropertyOp0
 70
     1
102
RTVSPropertyOp1
 70
     1
102
RTVSPropertyOp2
 70
     1
102
RTVSPropertyOp3
 70
     1
102
RTVSPropertyOp4
 70
     1
102
RTVSPropertyOp5
 70
     1
102
RTVSPropertyOp6
 70
     1
102
RTVSPropertyOp7
 70
     1
102
RTVSPropertyOp8
 70
     1
102
RTVSPropertyOp9
 70
     1
102
RTVSPropertyOp10
 70
     1
102
RTVSPropertyOp11
 70
     1
102
RTVSPropertyOp12
 70
     1
102
RTVSPropertyOp13
 70
     1
102
RTVSPropertyOp14
 70
     1
102
RTVSPropertyOp15
 70
     1
102
RTVSPropertyOp16
 70
     1
102
RTVSPropertyOp17
 70
     1
102
RTVSPropertyOp18
 70
     1
102
RTVSPropertyOp19
 70
     1
102
RTVSPropertyOp20
 70
     1
102
RTVSPropertyOp21
 70
     1
102
RTVSPropertyOp22
 70
     1
102
RTVSPropertyOp23
 70
     1
102
RTVSPropertyOp24
 70
     1
102
RTVSPropertyOp25
 70
     1
102
RTVSPropertyOp26
 70
     1
102
RTVSPropertyOp27
 70
     1
  0
ENDSEC
  0
EOF
