  0
SECTION
  2
HEADER
  9
$ACADVER
  1
AC1015
  9
$ACADMAINTVER
 70
     6
  9
$DWGCODEPAGE
  3
ANSI_932
  9
$INSBASE
 10
0.0
 20
0.0
 30
0.0
  9
$EXTMIN
 10
-47.2196573057154
 20
-25.92171579046278
 30
0.0
  9
$EXTMAX
 10
298.1653598101133
 20
303.955062442273
 30
0.0
  9
$LIMMIN
 10
0.0
 20
0.0
  9
$LIMMAX
 10
12.0
 20
9.0
  9
$ORTHOMODE
 70
     0
  9
$REGENMODE
 70
     1
  9
$FILLMODE
 70
     1
  9
$QTEXTMODE
 70
     0
  9
$MIRRTEXT
 70
     1
  9
$LTSCALE
 40
1.0
  9
$ATTMODE
 70
     1
  9
$TEXTSIZE
 40
0.2
  9
$TRACEWID
 40
0.05
  9
$TEXTSTYLE
  7
Standard
  9
$CLAYER
  8
0
  9
$CELTYPE
  6
ByLayer
  9
$CECOLOR
 62
   256
  9
$CELTSCALE
 40
1.0
  9
$DISPSILH
 70
     0
  9
$DIMSCALE
 40
1.0
  9
$DIMASZ
 40
0.18
  9
$DIMEXO
 40
0.0625
  9
$DIMDLI
 40
0.38
  9
$DIMRND
 40
0.0
  9
$DIMDLE
 40
0.0
  9
$DIMEXE
 40
0.18
  9
$DIMTP
 40
0.0
  9
$DIMTM
 40
0.0
  9
$DIMTXT
 40
0.18
  9
$DIMCEN
 40
0.09
  9
$DIMTSZ
 40
0.0
  9
$DIMTOL
 70
     0
  9
$DIMLIM
 70
     0
  9
$DIMTIH
 70
     1
  9
$DIMTOH
 70
     1
  9
$DIMSE1
 70
     0
  9
$DIMSE2
 70
     0
  9
$DIMTAD
 70
     0
  9
$DIMZIN
 70
     0
  9
$DIMBLK
  1

  9
$DIMASO
 70
     1
  9
$DIMSHO
 70
     1
  9
$DIMPOST
  1

  9
$DIMAPOST
  1

  9
$DIMALT
 70
     0
  9
$DIMALTD
 70
     2
  9
$DIMALTF
 40
25.4
  9
$DIMLFAC
 40
1.0
  9
$DIMTOFL
 70
     0
  9
$DIMTVP
 40
0.0
  9
$DIMTIX
 70
     0
  9
$DIMSOXD
 70
     0
  9
$DIMSAH
 70
     0
  9
$DIMBLK1
  1

  9
$DIMBLK2
  1

  9
$DIMSTYLE
  2
Standard
  9
$DIMCLRD
 70
     0
  9
$DIMCLRE
 70
     0
  9
$DIMCLRT
 70
     0
  9
$DIMTFAC
 40
1.0
  9
$DIMGAP
 40
0.09
  9
$DIMJUST
 70
     0
  9
$DIMSD1
 70
     0
  9
$DIMSD2
 70
     0
  9
$DIMTOLJ
 70
     1
  9
$DIMTZIN
 70
     0
  9
$DIMALTZ
 70
     0
  9
$DIMALTTZ
 70
     0
  9
$DIMUPT
 70
     0
  9
$DIMDEC
 70
     4
  9
$DIMTDEC
 70
     4
  9
$DIMALTU
 70
     2
  9
$DIMALTTD
 70
     2
  9
$DIMTXSTY
  7
Standard
  9
$DIMAUNIT
 70
     0
  9
$DIMADEC
 70
     0
  9
$DIMALTRND
 40
0.0
  9
$DIMAZIN
 70
     0
  9
$DIMDSEP
 70
    46
  9
$DIMATFIT
 70
     3
  9
$DIMFRAC
 70
     0
  9
$DIMLDRBLK
  1

  9
$DIMLUNIT
 70
     2
  9
$DIMLWD
 70
    -2
  9
$DIMLWE
 70
    -2
  9
$DIMTMOVE
 70
     0
  9
$LUNITS
 70
     2
  9
$LUPREC
 70
     4
  9
$SKETCHINC
 40
0.1
  9
$FILLETRAD
 40
0.5
  9
$AUNITS
 70
     0
  9
$AUPREC
 70
     0
  9
$MENU
  1
.
  9
$ELEVATION
 40
0.0
  9
$PELEVATION
 40
0.0
  9
$THICKNESS
 40
0.0
  9
$LIMCHECK
 70
     0
  9
$CHAMFERA
 40
0.5
  9
$CHAMFERB
 40
0.5
  9
$CHAMFERC
 40
1.0
  9
$CHAMFERD
 40
0.0
  9
$SKPOLY
 70
     0
  9
$TDCREATE
 40
2457624.39761875
  9
$TDUCREATE
 40
2457624.02261875
  9
$TDUPDATE
 40
2457624.397618762
  9
$TDUUPDATE
 40
2457624.022618762
  9
$TDINDWG
 40
0.0000000116
  9
$TDUSRTIMER
 40
0.0000000116
  9
$USRTIMER
 70
     1
  9
$ANGBASE
 50
0.0
  9
$ANGDIR
 70
     0
  9
$PDMODE
 70
     0
  9
$PDSIZE
 40
0.0
  9
$PLINEWID
 40
0.0
  9
$SPLFRAME
 70
     0
  9
$SPLINETYPE
 70
     6
  9
$SPLINESEGS
 70
     8
  9
$HANDSEED
  5
377
  9
$SURFTAB1
 70
     6
  9
$SURFTAB2
 70
     6
  9
$SURFTYPE
 70
     6
  9
$SURFU
 70
     6
  9
$SURFV
 70
     6
  9
$UCSBASE
  2

  9
$UCSNAME
  2

  9
$UCSORG
 10
0.0
 20
0.0
 30
0.0
  9
$UCSXDIR
 10
1.0
 20
0.0
 30
0.0
  9
$UCSYDIR
 10
0.0
 20
1.0
 30
0.0
  9
$UCSORTHOREF
  2

  9
$UCSORTHOVIEW
 70
     0
  9
$UCSORGTOP
 10
0.0
 20
0.0
 30
0.0
  9
$UCSORGBOTTOM
 10
0.0
 20
0.0
 30
0.0
  9
$UCSORGLEFT
 10
0.0
 20
0.0
 30
0.0
  9
$UCSORGRIGHT
 10
0.0
 20
0.0
 30
0.0
  9
$UCSORGFRONT
 10
0.0
 20
0.0
 30
0.0
  9
$UCSORGBACK
 10
0.0
 20
0.0
 30
0.0
  9
$PUCSBASE
  2

  9
$PUCSNAME
  2

  9
$PUCSORG
 10
0.0
 20
0.0
 30
0.0
  9
$PUCSXDIR
 10
1.0
 20
0.0
 30
0.0
  9
$PUCSYDIR
 10
0.0
 20
1.0
 30
0.0
  9
$PUCSORTHOREF
  2

  9
$PUCSORTHOVIEW
 70
     0
  9
$PUCSORGTOP
 10
0.0
 20
0.0
 30
0.0
  9
$PUCSORGBOTTOM
 10
0.0
 20
0.0
 30
0.0
  9
$PUCSORGLEFT
 10
0.0
 20
0.0
 30
0.0
  9
$PUCSORGRIGHT
 10
0.0
 20
0.0
 30
0.0
  9
$PUCSORGFRONT
 10
0.0
 20
0.0
 30
0.0
  9
$PUCSORGBACK
 10
0.0
 20
0.0
 30
0.0
  9
$USERI1
 70
     0
  9
$USERI2
 70
     0
  9
$USERI3
 70
     0
  9
$USERI4
 70
     0
  9
$USERI5
 70
     0
  9
$USERR1
 40
18.0
  9
$USERR2
 40
0.0
  9
$USERR3
 40
0.0
  9
$USERR4
 40
0.0
  9
$USERR5
 40
0.0
  9
$WORLDVIEW
 70
     1
  9
$SHADEDGE
 70
     3
  9
$SHADEDIF
 70
    70
  9
$TILEMODE
 70
     1
  9
$MAXACTVP
 70
    64
  9
$PINSBASE
 10
0.0
 20
0.0
 30
0.0
  9
$PLIMCHECK
 70
     0
  9
$PEXTMIN
 10
1.00000000000000E+20
 20
1.00000000000000E+20
 30
1.00000000000000E+20
  9
$PEXTMAX
 10
-1.00000000000000E+20
 20
-1.00000000000000E+20
 30
-1.00000000000000E+20
  9
$PLIMMIN
 10
0.0
 20
0.0
  9
$PLIMMAX
 10
12.0
 20
9.0
  9
$UNITMODE
 70
     0
  9
$VISRETAIN
 70
     1
  9
$PLINEGEN
 70
     0
  9
$PSLTSCALE
 70
     1
  9
$TREEDEPTH
 70
  3020
  9
$CMLSTYLE
  2
Standard
  9
$CMLJUST
 70
     0
  9
$CMLSCALE
 40
1.0
  9
$PROXYGRAPHICS
 70
     1
  9
$MEASUREMENT
 70
     1
  9
$CELWEIGHT
370
    -1
  9
$ENDCAPS
280
     0
  9
$JOINSTYLE
280
     0
  9
$LWDISPLAY
290
     0
  9
$INSUNITS
 70
     1
  9
$HYPERLINKBASE
  1

  9
$STYLESHEET
  1

  9
$XEDIT
290
     1
  9
$CEPSNTYPE
380
     0
  9
$PSTYLEMODE
290
     1
  9
$FINGERPRINTGUID
  2
{1312B686-33E8-454B-8134-6753BBA05B3C}
  9
$VERSIONGUID
  2
{FAEB1C32-E019-11D5-929B-00C0DF256EC4}
  9
$EXTNAMES
290
     1
  9
$PSVPSCALE
 40
0.0
  9
$OLESTARTUP
290
     0
  0
ENDSEC
  0
SECTION
  2
CLASSES
  0
CLASS
  1
ACDBDICTIONARYWDFLT
  2
AcDbDictionaryWithDefault
  3
ObjectDBX Classes
 90
        0
280
     0
281
     0
  0
CLASS
  1
VISUALSTYLE
  2
AcDbVisualStyle
  3
ObjectDBX Classes
 90
     4095
280
     0
281
     0
  0
CLASS
  1
MATERIAL
  2
AcDbMaterial
  3
ObjectDBX Classes
 90
     1153
280
     0
281
     0
  0
CLASS
  1

  2
exOdDbCircle
  3

 90
        0
280
     0
281
     1
  0
CLASS
  1

  2
exOdDbPolyline
  3

 90
        0
280
     0
281
     1
  0
CLASS
  1
SCALE
  2
AcDbScale
  3
ObjectDBX Classes
 90
     1153
280
     0
281
     0
  0
CLASS
  1
DICTIONARYVAR
  2
AcDbDictionaryVar
  3
ObjectDBX Classes
 90
        0
280
     0
281
     0
  0
CLASS
  1
ACDBPLACEHOLDER
  2
AcDbPlaceHolder
  3
ObjectDBX Classes
 90
        0
280
     0
281
     0
  0
CLASS
  1
LAYOUT
  2
AcDbLayout
  3
ObjectDBX Classes
 90
        0
280
     0
281
     0
  0
ENDSEC
  0
SECTION
  2
TABLES
  0
TABLE
  2
VPORT
  5
8
330
0
100
AcDbSymbolTable
 70
     1
  0
VPORT
  5
29
330
8
100
AcDbSymbolTableRecord
100
AcDbViewportTableRecord
  2
*Active
 70
     0
 10
0.0
 20
0.0
 11
1.0
 21
1.0
 12
125.4728512521989
 22
139.0166733259051
 13
0.0
 23
0.0
 14
0.5
 24
0.5
 15
0.5
 25
0.5
 16
0.0
 26
0.0
 36
1.0
 17
0.0
 27
0.0
 37
0.0
 40
362.8644560560094
 41
1.60267857142857
 42
50.0
 43
0.0
 44
0.0
 50
0.0
 51
0.0
 71
     0
 72
   100
 73
     1
 74
     3
 75
     0
 76
     0
 77
     0
 78
     0
281
     0
 65
     1
110
0.0
120
0.0
130
0.0
111
1.0
121
0.0
131
0.0
112
0.0
122
1.0
132
0.0
 79
     0
146
0.0
  0
ENDTAB
  0
TABLE
  2
LTYPE
  5
5
330
0
100
AcDbSymbolTable
 70
     9
  0
LTYPE
  5
14
330
5
100
AcDbSymbolTableRecord
100
AcDbLinetypeTableRecord
  2
ByBlock
 70
     0
  3

 72
    65
 73
     0
 40
0.0
  0
LTYPE
  5
15
330
5
100
AcDbSymbolTableRecord
100
AcDbLinetypeTableRecord
  2
ByLayer
 70
     0
  3

 72
    65
 73
     0
 40
0.0
  0
LTYPE
  5
16
330
5
100
AcDbSymbolTableRecord
100
AcDbLinetypeTableRecord
  2
Continuous
 70
     0
  3
Solid line
 72
    65
 73
     0
 40
0.0
  0
LTYPE
  5
3F
330
5
100
AcDbSymbolTableRecord
100
AcDbLinetypeTableRecord
  2
DASHED
 70
     0
  3
Dashed
 72
    65
 73
     2
 40
15.0
 49
7.0
 74
     0
 49
-8.0
 74
     0
  0
LTYPE
  5
40
330
5
100
AcDbSymbolTableRecord
100
AcDbLinetypeTableRecord
  2
DOTTED
 70
     0
  3
Dotted
 72
    65
 73
     2
 40
1.0
 49
0.0
 74
     0
 49
-1.0
 74
     0
  0
LTYPE
  5
41
330
5
100
AcDbSymbolTableRecord
100
AcDbLinetypeTableRecord
  2
DOT_CENTER
 70
     0
  3
Dot_Center
 72
    65
 73
     4
 40
14.0
 49
12.0
 74
     0
 49
-1.0
 74
     0
 49
0.0
 74
     0
 49
-1.0
 74
     0
  0
LTYPE
  5
42
330
5
100
AcDbSymbolTableRecord
100
AcDbLinetypeTableRecord
  2
LONG_DASHED
 70
     0
  3
Long_Dashed
 72
    65
 73
     2
 40
15.0
 49
10.0
 74
     0
 49
-5.0
 74
     0
  0
LTYPE
  5
43
330
5
100
AcDbSymbolTableRecord
100
AcDbLinetypeTableRecord
  2
DASH_CENTER
 70
     0
  3
Dash_Center
 72
    65
 73
     4
 40
14.0
 49
11.0
 74
     0
 49
-1.0
 74
     0
 49
1.0
 74
     0
 49
-1.0
 74
     0
  0
LTYPE
  5
44
330
5
100
AcDbSymbolTableRecord
100
AcDbLinetypeTableRecord
  2
PHANTOM
 70
     0
  3
Phantom
 72
    65
 73
     6
 40
13.0
 49
10.0
 74
     0
 49
-1.0
 74
     0
 49
0.0
 74
     0
 49
-1.0
 74
     0
 49
0.0
 74
     0
 49
-1.0
 74
     0
  0
LTYPE
  5
45
330
5
100
AcDbSymbolTableRecord
100
AcDbLinetypeTableRecord
  2
CENTER_DASH_DASH
 70
     0
  3
Center_Dash_Dash
 72
    65
 73
     6
 40
14.0
 49
9.0
 74
     0
 49
-1.0
 74
     0
 49
1.0
 74
     0
 49
-1.0
 74
     0
 49
1.0
 74
     0
 49
-1.0
 74
     0
  0
LTYPE
  5
46
330
5
100
AcDbSymbolTableRecord
100
AcDbLinetypeTableRecord
  2
CENTER
 70
     0
  3
CENTER
 72
    65
 73
     4
 40
6.0
 49
3.0
 74
     0
 49
-1.0
 74
     0
 49
1.0
 74
     0
 49
-1.0
 74
     0
  0
ENDTAB
  0
TABLE
  2
LAYER
  5
2
330
0
100
AcDbSymbolTable
 70
     5
  0
LAYER
  5
10
330
2
100
AcDbSymbolTableRecord
100
AcDbLayerTableRecord
  2
0
 70
     0
 62
     7
  6
Continuous
370
    -3
390
F
  0
LAYER
  5
47
330
2
100
AcDbSymbolTableRecord
100
AcDbLayerTableRecord
  2
1
 70
     0
 62
     7
  6
Continuous
370
    -3
390
F
  0
LAYER
  5
48
330
2
100
AcDbSymbolTableRecord
100
AcDbLayerTableRecord
  2
100
 70
     0
 62
     7
  6
Continuous
370
    -3
390
F
  0
LAYER
  5
49
330
2
100
AcDbSymbolTableRecord
100
AcDbLayerTableRecord
  2
2
 70
     0
 62
     7
  6
Continuous
370
    -3
390
F
  0
LAYER
  5
4A
330
2
100
AcDbSymbolTableRecord
100
AcDbLayerTableRecord
  2
5
 70
     0
 62
     7
  6
Continuous
370
    -3
390
F
  0
ENDTAB
  0
TABLE
  2
STYLE
  5
3
330
0
100
AcDbSymbolTable
 70
     2
  0
STYLE
  5
11
330
3
100
AcDbSymbolTableRecord
100
AcDbTextStyleTableRecord
  2
Standard
 70
     0
 40
0.0
 41
1.0
 50
0.0
 71
     0
 42
0.2
  3
txt
  4

  0
STYLE
  5
310
330
3
100
AcDbSymbolTableRecord
100
AcDbTextStyleTableRecord
  2
CONVERTER_11
 70
     0
 40
0.0
 41
0.9
 50
0.0
 71
     0
 42
0.2
  3
txt.shx
  4

  0
ENDTAB
  0
TABLE
  2
VIEW
  5
6
330
0
100
AcDbSymbolTable
 70
     0
  0
ENDTAB
  0
TABLE
  2
UCS
  5
7
330
0
100
AcDbSymbolTable
 70
     0
  0
ENDTAB
  0
TABLE
  2
APPID
  5
9
330
0
100
AcDbSymbolTable
 70
     1
  0
APPID
  5
12
330
9
100
AcDbSymbolTableRecord
100
AcDbRegAppTableRecord
  2
ACAD
 70
     0
  0
ENDTAB
  0
TABLE
  2
DIMSTYLE
  5
A
330
0
100
AcDbSymbolTable
 70
     3
100
AcDbDimStyleTable
  0
DIMSTYLE
105
27
330
A
100
AcDbSymbolTableRecord
100
AcDbDimStyleTableRecord
  2
Standard
 70
     0
340
11
  0
DIMSTYLE
105
33C
102
{ACAD_REACTORS
330
33D
102
}
330
A
100
AcDbSymbolTableRecord
100
AcDbDimStyleTableRecord
  2
ME10_DIM_10
 70
     0
 41
8.0
 42
1.0
 44
1.0
 73
     0
 74
     0
 77
     1
 78
    12
140
10.0
147
1.0
172
     1
173
     1
174
     1
175
     1
176
     2
177
     2
178
     2
271
     3
340
310
343
336
344
336
  0
DIMSTYLE
105
349
102
{ACAD_REACTORS
330
34A
102
}
330
A
100
AcDbSymbolTableRecord
100
AcDbDimStyleTableRecord
  2
ME10_DIM_11
 70
     0
 41
8.0
 42
1.0
 44
1.0
 73
     0
 74
     0
 77
     1
 78
    12
140
10.0
147
1.0
172
     1
173
     1
174
     1
175
     1
176
     2
177
     2
178
     2
271
     3
340
310
343
336
344
336
  0
ENDTAB
  0
TABLE
  2
BLOCK_RECORD
  5
1
330
0
100
AcDbSymbolTable
 70
     4
  0
BLOCK_RECORD
  5
1F
330
1
100
AcDbSymbolTableRecord
100
AcDbBlockTableRecord
  2
*Model_Space
340
22
  0
BLOCK_RECORD
  5
1B
330
1
100
AcDbSymbolTableRecord
100
AcDbBlockTableRecord
  2
*Paper_Space
340
1E
  0
BLOCK_RECORD
  5
23
330
1
100
AcDbSymbolTableRecord
100
AcDbBlockTableRecord
  2
*Paper_Space0
340
26
  0
BLOCK_RECORD
  5
308
330
1
100
AcDbSymbolTableRecord
100
AcDbBlockTableRecord
  2
*D1
340
0
  0
BLOCK_RECORD
  5
336
330
1
100
AcDbSymbolTableRecord
100
AcDbBlockTableRecord
  2
_OPEN30
340
0
  0
BLOCK_RECORD
  5
33E
330
1
100
AcDbSymbolTableRecord
100
AcDbBlockTableRecord
  2
*D3
340
0
  0
ENDTAB
  0
ENDSEC
  0
SECTION
  2
BLOCKS
  0
BLOCK
  5
20
330
1F
100
AcDbEntity
  8
0
100
AcDbBlockBegin
  2
*Model_Space
 70
     0
 10
0.0
 20
0.0
 30
0.0
  3
*Model_Space
  1

  0
ENDBLK
  5
21
330
1F
100
AcDbEntity
  8
0
100
AcDbBlockEnd
  0
BLOCK
  5
1C
330
1B
100
AcDbEntity
 67
     1
  8
0
100
AcDbBlockBegin
  2
*Paper_Space
 70
     0
 10
0.0
 20
0.0
 30
0.0
  3
*Paper_Space
  1

  0
ENDBLK
  5
1D
330
1B
100
AcDbEntity
 67
     1
  8
0
100
AcDbBlockEnd
  0
BLOCK
  5
24
330
23
100
AcDbEntity
  8
0
100
AcDbBlockBegin
  2
*Paper_Space0
 70
     0
 10
0.0
 20
0.0
 30
0.0
  3
*Paper_Space0
  1

  0
ENDBLK
  5
25
330
23
100
AcDbEntity
  8
0
100
AcDbBlockEnd
  0
BLOCK
  5
334
330
308
100
AcDbEntity
  8
0
100
AcDbBlockBegin
  2
*D1
 70
     1
 10
0.0
 20
0.0
 30
0.0
  3
*D1
  1

  0
LINE
  5
309
330
308
100
AcDbEntity
  8
1
  6
Continuous
 62
     2
100
AcDbLine
 10
126.0
 20
-23.7781222510138
 30
0.0
 11
26.0
 21
-23.7781222510138
 31
0.0
  0
LINE
  5
30A
330
308
100
AcDbEntity
  8
1
  6
Continuous
 62
     2
100
AcDbLine
 10
126.0
 20
12.3230854637602
 30
0.0
 11
126.0
 21
-24.7781222510138
 31
0.0
  0
LINE
  5
30B
330
308
100
AcDbEntity
  8
1
  6
Continuous
 62
     2
100
AcDbLine
 10
26.0
 20
12.3230854637602
 30
0.0
 11
26.0
 21
-24.7781222510138
 31
0.0
  0
LINE
  5
30C
330
308
100
AcDbEntity
  8
1
 62
     2
100
AcDbLine
 10
26.0
 20
-23.7781222510138
 30
0.0
 11
34.0
 21
-21.63452871156482
 31
0.0
  0
LINE
  5
30D
330
308
100
AcDbEntity
  8
1
 62
     2
100
AcDbLine
 10
26.0
 20
-23.7781222510138
 30
0.0
 11
34.0
 21
-25.92171579046278
 31
0.0
  0
LINE
  5
30E
330
308
100
AcDbEntity
  8
1
 62
     2
100
AcDbLine
 10
126.0
 20
-23.7781222510138
 30
0.0
 11
118.0
 21
-25.92171579046278
 31
0.0
  0
LINE
  5
30F
330
308
100
AcDbEntity
  8
1
 62
     2
100
AcDbLine
 10
126.0
 20
-23.7781222510138
 30
0.0
 11
118.0
 21
-21.63452871156482
 31
0.0
  0
MTEXT
  5
333
330
308
100
AcDbEntity
  8
1
 62
     2
100
AcDbMText
 10
64.9300121203746
 20
-22.77814908543636
 30
0.0
 40
10.0
 41
0.0
 71
     7
 72
     1
  1
100
  7
CONVERTER_11
 11
0.9999999999882478
 21
4.848136811095759E-6
 31
0.0
 73
     1
 44
0.60024009603842
  0
ENDBLK
  5
335
330
308
100
AcDbEntity
  8
0
100
AcDbBlockEnd
  0
BLOCK
  5
337
330
336
100
AcDbEntity
  8
0
100
AcDbBlockBegin
  2
_OPEN30
 70
     0
 10
0.0
 20
0.0
 30
0.0
  3
_OPEN30
  1

  0
LINE
  5
339
330
336
100
AcDbEntity
  8
0
  6
ByBlock
 62
     0
370
    -2
100
AcDbLine
 10
-1.0
 20
0.267949
 30
0.0
 11
0.0
 21
0.0
 31
0.0
  0
LINE
  5
33A
330
336
100
AcDbEntity
  8
0
  6
ByBlock
 62
     0
370
    -2
100
AcDbLine
 10
0.0
 20
0.0
 30
0.0
 11
-1.0
 21
-0.267949
 31
0.0
  0
LINE
  5
33B
330
336
100
AcDbEntity
  8
0
  6
ByBlock
 62
     0
370
    -2
100
AcDbLine
 10
0.0
 20
0.0
 30
0.0
 11
-1.0
 21
0.0
 31
0.0
  0
ENDBLK
  5
338
330
336
100
AcDbEntity
  8
0
100
AcDbBlockEnd
  0
BLOCK
  5
347
330
33E
100
AcDbEntity
  8
0
100
AcDbBlockBegin
  2
*D3
 70
     1
 10
0.0
 20
0.0
 30
0.0
  3
*D3
  1

  0
LINE
  5
33F
330
33E
100
AcDbEntity
  8
1
  6
Continuous
 62
     2
100
AcDbLine
 10
161.613699882191
 20
182.5
 30
0.0
 11
161.613699882191
 21
44.5
 31
0.0
  0
LINE
  5
340
330
33E
100
AcDbEntity
  8
1
  6
Continuous
 62
     2
100
AcDbLine
 10
116.658386075379
 20
182.5
 30
0.0
 11
162.613699882191
 21
182.5
 31
0.0
  0
LINE
  5
341
330
33E
100
AcDbEntity
  8
1
  6
Continuous
 62
     2
100
AcDbLine
 10
135.0
 20
44.5
 30
0.0
 11
162.613699882191
 21
44.5
 31
0.0
  0
LINE
  5
342
330
33E
100
AcDbEntity
  8
1
 62
     2
100
AcDbLine
 10
161.613699882191
 20
44.5
 30
0.0
 11
159.470106342742
 21
52.5
 31
0.0
  0
LINE
  5
343
330
33E
100
AcDbEntity
  8
1
 62
     2
100
AcDbLine
 10
161.613699882191
 20
44.5
 30
0.0
 11
163.75729342164
 21
52.5
 31
0.0
  0
LINE
  5
344
330
33E
100
AcDbEntity
  8
1
 62
     2
100
AcDbLine
 10
161.613699882191
 20
182.5
 30
0.0
 11
163.75729342164
 21
174.5
 31
0.0
  0
LINE
  5
345
330
33E
100
AcDbEntity
  8
1
 62
     2
100
AcDbLine
 10
161.613699882191
 20
182.5
 30
0.0
 11
159.470106342742
 21
174.5
 31
0.0
  0
MTEXT
  5
346
330
33E
100
AcDbEntity
  8
1
 62
     2
100
AcDbMText
 10
160.613699882191
 20
105.526819337516
 30
0.0
 40
10.0
 41
0.0
 71
     7
 72
     1
  1
138
  7
CONVERTER_11
 11
0.0
 21
1.0
 31
0.0
 73
     1
 44
0.60024009603842
  0
ENDBLK
  5
348
330
33E
100
AcDbEntity
  8
0
100
AcDbBlockEnd
  0
ENDSEC
  0
SECTION
  2
ENTITIES
  0
POINT
  5
4B
330
1F
100
AcDbEntity
  8
1
 62
     7
100
AcDbPoint
 10
126.0
 20
13.3230854637602
 30
0.0
  0
POINT
  5
4C
330
1F
100
AcDbEntity
  8
1
 62
     7
100
AcDbPoint
 10
26.0
 20
13.3230854637602
 30
0.0
  0
POINT
  5
4D
330
1F
100
AcDbEntity
  8
1
 62
     7
100
AcDbPoint
 10
115.658386075379
 20
182.5
 30
0.0
  0
POINT
  5
4E
330
1F
100
AcDbEntity
  8
1
 62
     7
100
AcDbPoint
 10
134.0
 20
44.5
 30
0.0
  0
POINT
  5
4F
330
1F
100
AcDbEntity
  8
1
 62
     7
100
AcDbPoint
 10
126.0
 20
13.3230854637602
 30
0.0
  0
POINT
  5
50
330
1F
100
AcDbEntity
  8
1
 62
     7
100
AcDbPoint
 10
26.0
 20
13.3230854637602
 30
0.0
  0
POINT
  5
51
330
1F
100
AcDbEntity
  8
1
 62
     7
100
AcDbPoint
 10
115.658386075379
 20
182.5
 30
0.0
  0
POINT
  5
52
330
1F
100
AcDbEntity
  8
1
 62
     7
100
AcDbPoint
 10
134.0
 20
44.5
 30
0.0
  0
LINE
  5
53
330
1F
100
AcDbEntity
  8
1
  6
Continuous
 62
     4
100
AcDbLine
 10
98.4465812168526
 20
-0.1666666666667
 30
0.0
 11
97.65448121685262
 21
-1.4166666666667
 31
0.0
  0
LINE
  5
54
330
1F
100
AcDbEntity
  8
1
  6
Continuous
 62
     4
100
AcDbLine
 10
97.65448121685262
 20
1.0833333333333
 30
0.0
 11
98.4465812168526
 21
-0.1666666666667
 31
0.0
  0
LINE
  5
55
330
1F
100
AcDbEntity
  8
1
  6
Continuous
 62
     4
100
AcDbLine
 10
92.50583121685261
 20
-0.1666666666667
 30
0.0
 11
98.4465812168526
 21
-0.1666666666667
 31
0.0
  0
LINE
  5
56
330
1F
100
AcDbEntity
  8
1
  6
Continuous
 62
     4
100
AcDbLine
 10
85.9710062168526
 20
2.7083333333333
 30
0.0
 11
90.5255812168526
 21
2.7083333333333
 31
0.0
  0
LINE
  5
57
330
1F
100
AcDbEntity
  8
1
  6
Continuous
 62
     4
100
AcDbLine
 10
85.9710062168526
 20
2.7083333333333
 30
0.0
 11
87.06014371685261
 21
4.5833333333333
 31
0.0
  0
LINE
  5
58
330
1F
100
AcDbEntity
  8
1
  6
Continuous
 62
     4
100
AcDbLine
 10
88.5453312168526
 20
-2.0416666666667
 30
0.0
 11
86.8621187168526
 21
-2.0416666666667
 31
0.0
  0
LINE
  5
59
330
1F
100
AcDbEntity
  8
1
  6
Continuous
 62
     4
100
AcDbLine
 10
88.5453312168526
 20
0.4583333333333
 30
0.0
 11
88.5453312168526
 21
-2.0416666666667
 31
0.0
  0
LINE
  5
5A
330
1F
100
AcDbEntity
  8
1
  6
Continuous
 62
     4
100
AcDbLine
 10
86.8621187168526
 20
0.4583333333333
 30
0.0
 11
88.5453312168526
 21
0.4583333333333
 31
0.0
  0
LINE
  5
5B
330
1F
100
AcDbEntity
  8
1
  6
Continuous
 62
     4
100
AcDbLine
 10
86.8621187168526
 20
-2.0416666666667
 30
0.0
 11
86.8621187168526
 21
0.4583333333333
 31
0.0
  0
LINE
  5
5C
330
1F
100
AcDbEntity
  8
1
  6
Continuous
 62
     4
100
AcDbLine
 10
90.5255812168526
 20
-4.7916666666667
 30
0.0
 11
89.43644371685261
 21
-4.7916666666667
 31
0.0
  0
LINE
  5
5D
330
1F
100
AcDbEntity
  8
1
  6
Continuous
 62
     4
100
AcDbLine
 10
90.5255812168526
 20
2.7083333333333
 30
0.0
 11
90.5255812168526
 21
-4.7916666666667
 31
0.0
  0
LINE
  5
5E
330
1F
100
AcDbEntity
  8
1
  6
Continuous
 62
     4
100
AcDbLine
 10
84.88186871685261
 20
2.7083333333333
 30
0.0
 11
85.9710062168526
 21
2.7083333333333
 31
0.0
  0
LINE
  5
5F
330
1F
100
AcDbEntity
  8
1
  6
Continuous
 62
     4
100
AcDbLine
 10
84.88186871685261
 20
-4.7916666666667
 30
0.0
 11
84.88186871685261
 21
2.7083333333333
 31
0.0
  0
LINE
  5
60
330
1F
100
AcDbEntity
  8
1
  6
Continuous
 62
     4
100
AcDbLine
 10
80.6243312168526
 20
-5.1666666666667
 30
0.0
 11
79.83223121685259
 21
-4.5416666666667
 31
0.0
  0
LINE
  5
61
330
1F
100
AcDbEntity
  8
1
  6
Continuous
 62
     4
100
AcDbLine
 10
81.1193937168526
 20
-4.1666666666667
 30
0.0
 11
80.6243312168526
 21
-5.1666666666667
 31
0.0
  0
LINE
  5
62
330
1F
100
AcDbEntity
  8
1
  6
Continuous
 62
     4
100
AcDbLine
 10
81.5154437168526
 20
-2.6666666666667
 30
0.0
 11
81.1193937168526
 21
-4.1666666666667
 31
0.0
  0
LINE
  5
63
330
1F
100
AcDbEntity
  8
1
  6
Continuous
 62
     4
100
AcDbLine
 10
82.0105062168526
 20
-0.4166666666667
 30
0.0
 11
81.5154437168526
 21
-2.6666666666667
 31
0.0
  0
LINE
  5
64
330
1F
100
AcDbEntity
  8
1
  6
Continuous
 62
     4
100
AcDbLine
 10
82.0105062168526
 20
0.4583333333333
 30
0.0
 11
82.0105062168526
 21
-0.4166666666667
 31
0.0
  0
LINE
  5
65
330
1F
100
AcDbEntity
  8
1
  6
Continuous
 62
     4
100
AcDbLine
 10
79.1391437168526
 20
0.4583333333333
 30
0.0
 11
82.0105062168526
 21
0.4583333333333
 31
0.0
  0
LINE
  5
66
330
1F
100
AcDbEntity
  8
1
  6
Continuous
 62
     4
100
AcDbLine
 10
76.4658062168526
 20
2.9583333333333
 30
0.0
 11
83.0996437168526
 21
2.9583333333333
 31
0.0
  0
LINE
  5
67
330
1F
100
AcDbEntity
  8
1
  6
Continuous
 62
     4
100
AcDbLine
 10
79.3371687168526
 20
2.0833333333333
 30
0.0
 11
79.5351937168526
 21
4.5833333333333
 31
0.0
  0
LINE
  5
68
330
1F
100
AcDbEntity
  8
1
  6
Continuous
 62
     4
100
AcDbLine
 10
78.9411187168526
 20
-0.4166666666667
 30
0.0
 11
79.3371687168526
 21
2.0833333333333
 31
0.0
  0
LINE
  5
69
330
1F
100
AcDbEntity
  8
1
  6
Continuous
 62
     4
100
AcDbLine
 10
78.4460562168526
 20
-2.0416666666667
 30
0.0
 11
78.9411187168526
 21
-0.4166666666667
 31
0.0
  0
LINE
  5
6A
330
1F
100
AcDbEntity
  8
1
  6
Continuous
 62
     4
100
AcDbLine
 10
77.8519812168526
 20
-3.5416666666667
 30
0.0
 11
78.4460562168526
 21
-2.0416666666667
 31
0.0
  0
LINE
  5
6B
330
1F
100
AcDbEntity
  8
1
  6
Continuous
 62
     4
100
AcDbLine
 10
76.9608687168526
 20
-4.7916666666667
 30
0.0
 11
77.8519812168526
 21
-3.5416666666667
 31
0.0
  0
LINE
  5
6C
330
1F
100
AcDbEntity
  8
1
  6
Continuous
 62
     4
100
AcDbLine
 10
74.2875312168526
 20
-2.0416666666667
 30
0.0
 11
75.3766687168526
 21
-3.5416666666667
 31
0.0
  0
LINE
  5
6D
330
1F
100
AcDbEntity
  8
1
  6
Continuous
 62
     4
100
AcDbLine
 10
73.39641871685261
 20
-0.1666666666667
 30
0.0
 11
74.2875312168526
 21
-2.0416666666667
 31
0.0
  0
LINE
  5
6E
330
1F
100
AcDbEntity
  8
1
  6
Continuous
 62
     4
100
AcDbLine
 10
72.7033312168526
 20
2.0833333333333
 30
0.0
 11
73.39641871685261
 21
-0.1666666666667
 31
0.0
  0
LINE
  5
6F
330
1F
100
AcDbEntity
  8
1
  6
Continuous
 62
     4
100
AcDbLine
 10
74.6835812168526
 20
2.3333333333333
 30
0.0
 11
73.1983937168526
 21
0.8333333333333
 31
0.0
  0
LINE
  5
70
330
1F
100
AcDbEntity
  8
1
  6
Continuous
 62
     4
100
AcDbLine
 10
72.1092562168526
 20
-5.1666666666667
 30
0.0
 11
71.41616871685261
 21
-4.7916666666667
 31
0.0
  0
LINE
  5
71
330
1F
100
AcDbEntity
  8
1
  6
Continuous
 62
     4
100
AcDbLine
 10
72.1092562168526
 20
4.5833333333333
 30
0.0
 11
72.1092562168526
 21
-5.1666666666667
 31
0.0
  0
LINE
  5
72
330
1F
100
AcDbEntity
  8
1
  6
Continuous
 62
     4
100
AcDbLine
 10
71.02011871685261
 20
1.4583333333333
 30
0.0
 11
68.74283121685261
 21
1.4583333333333
 31
0.0
  0
LINE
  5
73
330
1F
100
AcDbEntity
  8
1
  6
Continuous
 62
     4
100
AcDbLine
 10
70.5250562168526
 20
-0.4166666666667
 30
0.0
 11
71.02011871685261
 21
1.4583333333333
 31
0.0
  0
LINE
  5
74
330
1F
100
AcDbEntity
  8
1
  6
Continuous
 62
     4
100
AcDbLine
 10
69.6339437168526
 20
-2.2916666666667
 30
0.0
 11
70.5250562168526
 21
-0.4166666666667
 31
0.0
  0
LINE
  5
75
330
1F
100
AcDbEntity
  8
1
  6
Continuous
 62
     4
100
AcDbLine
 10
68.74283121685261
 20
-3.5416666666667
 30
0.0
 11
69.6339437168526
 21
-2.2916666666667
 31
0.0
  0
LINE
  5
76
330
1F
100
AcDbEntity
  8
1
  6
Continuous
 62
     4
100
AcDbLine
 10
64.3862812168526
 20
3.3333333333333
 30
0.0
 11
67.0596187168526
 21
3.3333333333333
 31
0.0
  0
LINE
  5
77
330
1F
100
AcDbEntity
  8
1
  6
Continuous
 62
     4
100
AcDbLine
 10
67.4556687168526
 20
-4.1666666666667
 30
0.0
 11
67.4556687168526
 21
-3.5416666666667
 31
0.0
  0
LINE
  5
78
330
1F
100
AcDbEntity
  8
1
  6
Continuous
 62
     4
100
AcDbLine
 10
67.0596187168526
 20
-4.7916666666667
 30
0.0
 11
67.4556687168526
 21
-4.1666666666667
 31
0.0
  0
LINE
  5
79
330
1F
100
AcDbEntity
  8
1
  6
Continuous
 62
     4
100
AcDbLine
 10
66.16850621685259
 20
-4.7916666666667
 30
0.0
 11
67.0596187168526
 21
-4.7916666666667
 31
0.0
  0
LINE
  5
7A
330
1F
100
AcDbEntity
  8
1
  6
Continuous
 62
     4
100
AcDbLine
 10
65.6734437168526
 20
-3.9166666666667
 30
0.0
 11
66.16850621685259
 21
-4.7916666666667
 31
0.0
  0
LINE
  5
7B
330
1F
100
AcDbEntity
  8
1
  6
Continuous
 62
     4
100
AcDbLine
 10
65.6734437168526
 20
-0.7916666666667
 30
0.0
 11
65.6734437168526
 21
-3.9166666666667
 31
0.0
  0
LINE
  5
7C
330
1F
100
AcDbEntity
  8
1
  6
Continuous
 62
     4
100
AcDbLine
 10
64.3862812168526
 20
-4.7916666666667
 30
0.0
 11
64.3862812168526
 21
-0.7916666666667
 31
0.0
  0
LINE
  5
7D
330
1F
100
AcDbEntity
  8
1
  6
Continuous
 62
     4
100
AcDbLine
 10
62.4060312168526
 20
-4.5416666666667
 30
0.0
 11
61.7129437168526
 21
-5.1666666666667
 31
0.0
  0
LINE
  5
7E
330
1F
100
AcDbEntity
  8
1
  6
Continuous
 62
     4
100
AcDbLine
 10
62.8020812168526
 20
-3.9166666666667
 30
0.0
 11
62.4060312168526
 21
-4.5416666666667
 31
0.0
  0
LINE
  5
7F
330
1F
100
AcDbEntity
  8
1
  6
Continuous
 62
     4
100
AcDbLine
 10
63.0991187168526
 20
-2.9166666666667
 30
0.0
 11
62.8020812168526
 21
-3.9166666666667
 31
0.0
  0
LINE
  5
80
330
1F
100
AcDbEntity
  8
1
  6
Continuous
 62
     4
100
AcDbLine
 10
63.2971437168526
 20
-0.7916666666667
 30
0.0
 11
63.0991187168526
 21
-2.9166666666667
 31
0.0
  0
LINE
  5
81
330
1F
100
AcDbEntity
  8
1
  6
Continuous
 62
     4
100
AcDbLine
 10
65.4754187168526
 20
2.3333333333333
 30
0.0
 11
66.3665312168526
 21
0.2083333333333
 31
0.0
  0
LINE
  5
82
330
1F
100
AcDbEntity
  8
1
  6
Continuous
 62
     4
100
AcDbLine
 10
62.6040562168526
 20
0.8333333333333
 30
0.0
 11
65.9704812168526
 21
1.0833333333333
 31
0.0
  0
LINE
  5
83
330
1F
100
AcDbEntity
  8
1
  6
Continuous
 62
     4
100
AcDbLine
 10
64.3862812168526
 20
3.3333333333333
 30
0.0
 11
63.4951687168526
 21
0.8333333333333
 31
0.0
  0
LINE
  5
84
330
1F
100
AcDbEntity
  8
1
  6
Continuous
 62
     4
100
AcDbLine
 10
64.5843062168526
 20
4.8333333333333
 30
0.0
 11
64.5843062168526
 21
3.3333333333333
 31
0.0
  0
LINE
  5
85
330
1F
100
AcDbEntity
  8
1
  6
Continuous
 62
     4
100
AcDbLine
 10
62.2080062168526
 20
3.3333333333333
 30
0.0
 11
64.3862812168526
 21
3.3333333333333
 31
0.0
  0
LINE
  5
86
330
1F
100
AcDbEntity
  8
1
  6
Continuous
 62
     4
100
AcDbLine
 10
60.6238062168526
 20
-4.7916666666667
 30
0.0
 11
61.5149187168526
 21
-0.7916666666667
 31
0.0
  0
LINE
  5
87
330
1F
100
AcDbEntity
  8
1
  6
Continuous
 62
     4
100
AcDbLine
 10
60.4257812168526
 20
1.7083333333333
 30
0.0
 11
61.1188687168526
 21
0.8333333333333
 31
0.0
  0
LINE
  5
88
330
1F
100
AcDbEntity
  8
1
  6
Continuous
 62
     4
100
AcDbLine
 10
61.1188687168526
 20
4.5833333333333
 30
0.0
 11
61.5149187168526
 21
3.5833333333333
 31
0.0
  0
LINE
  5
89
330
1F
100
AcDbEntity
  8
1
  6
Continuous
 62
     4
100
AcDbLine
 10
6.4094856952109
 20
31.616458973918
 30
0.0
 11
6.4094856952109
 21
27.616458973918
 31
0.0
  0
LINE
  5
8A
330
1F
100
AcDbEntity
  8
1
  6
Continuous
 62
     4
100
AcDbLine
 10
1.9094856952109
 20
29.616458973918
 30
0.0
 11
7.9094856952109
 21
29.616458973918
 31
0.0
  0
LINE
  5
8B
330
1F
100
AcDbEntity
  8
1
  6
Continuous
 62
     4
100
AcDbLine
 10
6.4094856952109
 20
37.616458973918
 30
0.0
 11
1.9094856952109
 21
29.616458973918
 31
0.0
  0
LINE
  5
8C
330
1F
100
AcDbEntity
  8
1
  6
Continuous
 62
     4
100
AcDbLine
 10
-5.0905143047891
 20
27.616458973918
 30
0.0
 11
-1.0905143047891
 21
37.616458973918
 31
0.0
  0
LINE
  5
8D
330
1F
100
AcDbEntity
  8
1
  6
Continuous
 62
     4
100
AcDbLine
 10
-8.0905143047891
 20
37.616458973918
 30
0.0
 11
-8.0905143047891
 21
27.616458973918
 31
0.0
  0
LINE
  5
8E
330
1F
100
AcDbEntity
  8
1
  6
Continuous
 62
     4
100
AcDbLine
 10
-11.0905143047891
 20
34.616458973918
 30
0.0
 11
-8.0905143047891
 21
37.616458973918
 31
0.0
  0
LINE
  5
8F
330
1F
100
AcDbEntity
  8
1
  6
Continuous
 62
     4
100
AcDbLine
 10
-22.0905143047891
 20
37.616458973918
 30
0.0
 11
-22.0905143047891
 21
27.616458973918
 31
0.0
  0
LINE
  5
90
330
1F
100
AcDbEntity
  8
1
  6
Continuous
 62
     4
100
AcDbLine
 10
-25.0905143047891
 20
34.616458973918
 30
0.0
 11
-22.0905143047891
 21
37.616458973918
 31
0.0
  0
LINE
  5
91
330
1F
100
AcDbEntity
  8
1
  6
Continuous
 62
     4
100
AcDbLine
 10
-31.8405143047891
 20
27.616458973918
 30
0.0
 11
-28.0905143047891
 21
27.616458973918
 31
0.0
  0
LINE
  5
92
330
1F
100
AcDbEntity
  8
1
  6
Continuous
 62
     4
100
AcDbLine
 10
-32.8405143047891
 20
27.866458973918
 30
0.0
 11
-31.8405143047891
 21
27.616458973918
 31
0.0
  0
LINE
  5
93
330
1F
100
AcDbEntity
  8
1
  6
Continuous
 62
     4
100
AcDbLine
 10
-33.3405143047891
 20
28.116458973918
 30
0.0
 11
-32.8405143047891
 21
27.866458973918
 31
0.0
  0
LINE
  5
94
330
1F
100
AcDbEntity
  8
1
  6
Continuous
 62
     4
100
AcDbLine
 10
-33.8405143047891
 20
28.616458973918
 30
0.0
 11
-33.3405143047891
 21
28.116458973918
 31
0.0
  0
LINE
  5
95
330
1F
100
AcDbEntity
  8
1
  6
Continuous
 62
     4
100
AcDbLine
 10
-34.0905143047891
 20
29.616458973918
 30
0.0
 11
-33.8405143047891
 21
28.616458973918
 31
0.0
  0
LINE
  5
96
330
1F
100
AcDbEntity
  8
1
  6
Continuous
 62
     4
100
AcDbLine
 10
-34.0905143047891
 20
32.616458973918
 30
0.0
 11
-34.0905143047891
 21
29.616458973918
 31
0.0
  0
LINE
  5
97
330
1F
100
AcDbEntity
  8
1
  6
Continuous
 62
     4
100
AcDbLine
 10
-33.8405143047891
 20
33.616458973918
 30
0.0
 11
-34.0905143047891
 21
32.616458973918
 31
0.0
  0
LINE
  5
98
330
1F
100
AcDbEntity
  8
1
  6
Continuous
 62
     4
100
AcDbLine
 10
-33.3405143047891
 20
34.116458973918
 30
0.0
 11
-33.8405143047891
 21
33.616458973918
 31
0.0
  0
LINE
  5
99
330
1F
100
AcDbEntity
  8
1
  6
Continuous
 62
     4
100
AcDbLine
 10
-32.8405143047891
 20
34.366458973918
 30
0.0
 11
-33.3405143047891
 21
34.116458973918
 31
0.0
  0
LINE
  5
9A
330
1F
100
AcDbEntity
  8
1
  6
Continuous
 62
     4
100
AcDbLine
 10
-31.8405143047891
 20
34.616458973918
 30
0.0
 11
-32.8405143047891
 21
34.366458973918
 31
0.0
  0
LINE
  5
9B
330
1F
100
AcDbEntity
  8
1
  6
Continuous
 62
     4
100
AcDbLine
 10
-28.0905143047891
 20
34.616458973918
 30
0.0
 11
-31.8405143047891
 21
34.616458973918
 31
0.0
  0
LINE
  5
9C
330
1F
100
AcDbEntity
  8
1
  6
Continuous
 62
     4
100
AcDbLine
 10
-44.0905143047891
 20
27.616458973918
 30
0.0
 11
-44.0905143047891
 21
32.616458973918
 31
0.0
  0
LINE
  5
9D
330
1F
100
AcDbEntity
  8
1
  6
Continuous
 62
     4
100
AcDbLine
 10
-40.0905143047891
 20
32.616458973918
 30
0.0
 11
-37.0905143047891
 21
27.616458973918
 31
0.0
  0
LINE
  5
9E
330
1F
100
AcDbEntity
  8
1
  6
Continuous
 62
     4
100
AcDbLine
 10
-39.3405143047891
 20
32.616458973918
 30
0.0
 11
-40.0905143047891
 21
32.616458973918
 31
0.0
  0
LINE
  5
9F
330
1F
100
AcDbEntity
  8
1
  6
Continuous
 62
     4
100
AcDbLine
 10
-38.3405143047891
 20
32.866458973918
 30
0.0
 11
-39.3405143047891
 21
32.616458973918
 31
0.0
  0
LINE
  5
A0
330
1F
100
AcDbEntity
  8
1
  6
Continuous
 62
     4
100
AcDbLine
 10
-37.5905143047891
 20
33.366458973918
 30
0.0
 11
-38.3405143047891
 21
32.866458973918
 31
0.0
  0
LINE
  5
A1
330
1F
100
AcDbEntity
  8
1
  6
Continuous
 62
     4
100
AcDbLine
 10
-37.3405143047891
 20
33.866458973918
 30
0.0
 11
-37.5905143047891
 21
33.366458973918
 31
0.0
  0
LINE
  5
A2
330
1F
100
AcDbEntity
  8
1
  6
Continuous
 62
     4
100
AcDbLine
 10
-37.0905143047891
 20
34.616458973918
 30
0.0
 11
-37.3405143047891
 21
33.866458973918
 31
0.0
  0
LINE
  5
A3
330
1F
100
AcDbEntity
  8
1
  6
Continuous
 62
     4
100
AcDbLine
 10
-37.0905143047891
 20
35.616458973918
 30
0.0
 11
-37.0905143047891
 21
34.616458973918
 31
0.0
  0
LINE
  5
A4
330
1F
100
AcDbEntity
  8
1
  6
Continuous
 62
     4
100
AcDbLine
 10
-37.3405143047891
 20
36.366458973918
 30
0.0
 11
-37.0905143047891
 21
35.616458973918
 31
0.0
  0
LINE
  5
A5
330
1F
100
AcDbEntity
  8
1
  6
Continuous
 62
     4
100
AcDbLine
 10
-37.5905143047891
 20
36.866458973918
 30
0.0
 11
-37.3405143047891
 21
36.366458973918
 31
0.0
  0
LINE
  5
A6
330
1F
100
AcDbEntity
  8
1
  6
Continuous
 62
     4
100
AcDbLine
 10
-38.3405143047891
 20
37.366458973918
 30
0.0
 11
-37.5905143047891
 21
36.866458973918
 31
0.0
  0
LINE
  5
A7
330
1F
100
AcDbEntity
  8
1
  6
Continuous
 62
     4
100
AcDbLine
 10
-39.3405143047891
 20
37.616458973918
 30
0.0
 11
-38.3405143047891
 21
37.366458973918
 31
0.0
  0
LINE
  5
A8
330
1F
100
AcDbEntity
  8
1
  6
Continuous
 62
     4
100
AcDbLine
 10
-44.0905143047891
 20
37.616458973918
 30
0.0
 11
-39.3405143047891
 21
37.616458973918
 31
0.0
  0
LINE
  5
A9
330
1F
100
AcDbEntity
  8
1
  6
Continuous
 62
     4
100
AcDbLine
 10
-44.0905143047891
 20
32.616458973918
 30
0.0
 11
-44.0905143047891
 21
37.616458973918
 31
0.0
  0
LINE
  5
AA
330
1F
100
AcDbEntity
  8
1
  6
Continuous
 62
     4
100
AcDbLine
 10
-40.0905143047891
 20
32.616458973918
 30
0.0
 11
-44.0905143047891
 21
32.616458973918
 31
0.0
  0
LINE
  5
AB
330
1F
100
AcDbEntity
  8
1
  6
Continuous
 62
     4
100
AcDbLine
 10
196.234182066792
 20
27.2046788456593
 30
0.0
 11
196.234182066792
 21
23.2046788456593
 31
0.0
  0
LINE
  5
AC
330
1F
100
AcDbEntity
  8
1
  6
Continuous
 62
     4
100
AcDbLine
 10
191.734182066792
 20
25.2046788456593
 30
0.0
 11
197.734182066792
 21
25.2046788456593
 31
0.0
  0
LINE
  5
AD
330
1F
100
AcDbEntity
  8
1
  6
Continuous
 62
     4
100
AcDbLine
 10
196.234182066792
 20
33.2046788456593
 30
0.0
 11
191.734182066792
 21
25.2046788456593
 31
0.0
  0
LINE
  5
AE
330
1F
100
AcDbEntity
  8
1
  6
Continuous
 62
     4
100
AcDbLine
 10
184.734182066792
 20
23.2046788456593
 30
0.0
 11
188.734182066792
 21
33.2046788456593
 31
0.0
  0
LINE
  5
AF
330
1F
100
AcDbEntity
  8
1
  6
Continuous
 62
     4
100
AcDbLine
 10
181.734182066792
 20
33.2046788456593
 30
0.0
 11
181.734182066792
 21
23.2046788456593
 31
0.0
  0
LINE
  5
B0
330
1F
100
AcDbEntity
  8
1
  6
Continuous
 62
     4
100
AcDbLine
 10
178.734182066792
 20
30.2046788456593
 30
0.0
 11
181.734182066792
 21
33.2046788456593
 31
0.0
  0
LINE
  5
B1
330
1F
100
AcDbEntity
  8
1
  6
Continuous
 62
     4
100
AcDbLine
 10
167.734182066792
 20
33.2046788456593
 30
0.0
 11
167.734182066792
 21
23.2046788456593
 31
0.0
  0
LINE
  5
B2
330
1F
100
AcDbEntity
  8
1
  6
Continuous
 62
     4
100
AcDbLine
 10
164.734182066792
 20
30.2046788456593
 30
0.0
 11
167.734182066792
 21
33.2046788456593
 31
0.0
  0
LINE
  5
B3
330
1F
100
AcDbEntity
  8
1
  6
Continuous
 62
     4
100
AcDbLine
 10
157.984182066792
 20
23.2046788456593
 30
0.0
 11
161.734182066792
 21
23.2046788456593
 31
0.0
  0
LINE
  5
B4
330
1F
100
AcDbEntity
  8
1
  6
Continuous
 62
     4
100
AcDbLine
 10
156.984182066792
 20
23.4546788456593
 30
0.0
 11
157.984182066792
 21
23.2046788456593
 31
0.0
  0
LINE
  5
B5
330
1F
100
AcDbEntity
  8
1
  6
Continuous
 62
     4
100
AcDbLine
 10
156.484182066792
 20
23.7046788456593
 30
0.0
 11
156.984182066792
 21
23.4546788456593
 31
0.0
  0
LINE
  5
B6
330
1F
100
AcDbEntity
  8
1
  6
Continuous
 62
     4
100
AcDbLine
 10
155.984182066792
 20
24.2046788456593
 30
0.0
 11
156.484182066792
 21
23.7046788456593
 31
0.0
  0
LINE
  5
B7
330
1F
100
AcDbEntity
  8
1
  6
Continuous
 62
     4
100
AcDbLine
 10
155.734182066792
 20
25.2046788456593
 30
0.0
 11
155.984182066792
 21
24.2046788456593
 31
0.0
  0
LINE
  5
B8
330
1F
100
AcDbEntity
  8
1
  6
Continuous
 62
     4
100
AcDbLine
 10
155.734182066792
 20
28.2046788456593
 30
0.0
 11
155.734182066792
 21
25.2046788456593
 31
0.0
  0
LINE
  5
B9
330
1F
100
AcDbEntity
  8
1
  6
Continuous
 62
     4
100
AcDbLine
 10
155.984182066792
 20
29.2046788456593
 30
0.0
 11
155.734182066792
 21
28.2046788456593
 31
0.0
  0
LINE
  5
BA
330
1F
100
AcDbEntity
  8
1
  6
Continuous
 62
     4
100
AcDbLine
 10
156.484182066792
 20
29.7046788456593
 30
0.0
 11
155.984182066792
 21
29.2046788456593
 31
0.0
  0
LINE
  5
BB
330
1F
100
AcDbEntity
  8
1
  6
Continuous
 62
     4
100
AcDbLine
 10
156.984182066792
 20
29.9546788456593
 30
0.0
 11
156.484182066792
 21
29.7046788456593
 31
0.0
  0
LINE
  5
BC
330
1F
100
AcDbEntity
  8
1
  6
Continuous
 62
     4
100
AcDbLine
 10
157.984182066792
 20
30.2046788456593
 30
0.0
 11
156.984182066792
 21
29.9546788456593
 31
0.0
  0
LINE
  5
BD
330
1F
100
AcDbEntity
  8
1
  6
Continuous
 62
     4
100
AcDbLine
 10
161.734182066792
 20
30.2046788456593
 30
0.0
 11
157.984182066792
 21
30.2046788456593
 31
0.0
  0
LINE
  5
BE
330
1F
100
AcDbEntity
  8
1
  6
Continuous
 62
     4
100
AcDbLine
 10
145.734182066792
 20
23.2046788456593
 30
0.0
 11
145.734182066792
 21
28.2046788456593
 31
0.0
  0
LINE
  5
BF
330
1F
100
AcDbEntity
  8
1
  6
Continuous
 62
     4
100
AcDbLine
 10
149.734182066792
 20
28.2046788456593
 30
0.0
 11
152.734182066792
 21
23.2046788456593
 31
0.0
  0
LINE
  5
C0
330
1F
100
AcDbEntity
  8
1
  6
Continuous
 62
     4
100
AcDbLine
 10
150.484182066792
 20
28.2046788456593
 30
0.0
 11
149.734182066792
 21
28.2046788456593
 31
0.0
  0
LINE
  5
C1
330
1F
100
AcDbEntity
  8
1
  6
Continuous
 62
     4
100
AcDbLine
 10
151.484182066792
 20
28.4546788456593
 30
0.0
 11
150.484182066792
 21
28.2046788456593
 31
0.0
  0
LINE
  5
C2
330
1F
100
AcDbEntity
  8
1
  6
Continuous
 62
     4
100
AcDbLine
 10
152.234182066792
 20
28.9546788456593
 30
0.0
 11
151.484182066792
 21
28.4546788456593
 31
0.0
  0
LINE
  5
C3
330
1F
100
AcDbEntity
  8
1
  6
Continuous
 62
     4
100
AcDbLine
 10
152.484182066792
 20
29.4546788456593
 30
0.0
 11
152.234182066792
 21
28.9546788456593
 31
0.0
  0
LINE
  5
C4
330
1F
100
AcDbEntity
  8
1
  6
Continuous
 62
     4
100
AcDbLine
 10
152.734182066792
 20
30.2046788456593
 30
0.0
 11
152.484182066792
 21
29.4546788456593
 31
0.0
  0
LINE
  5
C5
330
1F
100
AcDbEntity
  8
1
  6
Continuous
 62
     4
100
AcDbLine
 10
152.734182066792
 20
31.2046788456593
 30
0.0
 11
152.734182066792
 21
30.2046788456593
 31
0.0
  0
LINE
  5
C6
330
1F
100
AcDbEntity
  8
1
  6
Continuous
 62
     4
100
AcDbLine
 10
152.484182066792
 20
31.9546788456593
 30
0.0
 11
152.734182066792
 21
31.2046788456593
 31
0.0
  0
LINE
  5
C7
330
1F
100
AcDbEntity
  8
1
  6
Continuous
 62
     4
100
AcDbLine
 10
152.234182066792
 20
32.4546788456593
 30
0.0
 11
152.484182066792
 21
31.9546788456593
 31
0.0
  0
LINE
  5
C8
330
1F
100
AcDbEntity
  8
1
  6
Continuous
 62
     4
100
AcDbLine
 10
151.484182066792
 20
32.9546788456593
 30
0.0
 11
152.234182066792
 21
32.4546788456593
 31
0.0
  0
LINE
  5
C9
330
1F
100
AcDbEntity
  8
1
  6
Continuous
 62
     4
100
AcDbLine
 10
150.484182066792
 20
33.2046788456593
 30
0.0
 11
151.484182066792
 21
32.9546788456593
 31
0.0
  0
LINE
  5
CA
330
1F
100
AcDbEntity
  8
1
  6
Continuous
 62
     4
100
AcDbLine
 10
145.734182066792
 20
33.2046788456593
 30
0.0
 11
150.484182066792
 21
33.2046788456593
 31
0.0
  0
LINE
  5
CB
330
1F
100
AcDbEntity
  8
1
  6
Continuous
 62
     4
100
AcDbLine
 10
145.734182066792
 20
28.2046788456593
 30
0.0
 11
145.734182066792
 21
33.2046788456593
 31
0.0
  0
LINE
  5
CC
330
1F
100
AcDbEntity
  8
1
  6
Continuous
 62
     4
100
AcDbLine
 10
149.734182066792
 20
28.2046788456593
 30
0.0
 11
145.734182066792
 21
28.2046788456593
 31
0.0
  0
LINE
  5
CD
330
1F
100
AcDbEntity
  8
1
  6
Continuous
 62
     4
100
AcDbLine
 10
291.701732019923
 20
258.906314060318
 30
0.0
 11
291.701732019923
 21
256.406314060318
 31
0.0
  0
LINE
  5
CE
330
1F
100
AcDbEntity
  8
1
  6
Continuous
 62
     4
100
AcDbLine
 10
291.451732019923
 20
260.406314060318
 30
0.0
 11
291.701732019923
 21
258.906314060318
 31
0.0
  0
LINE
  5
CF
330
1F
100
AcDbEntity
  8
1
  6
Continuous
 62
     4
100
AcDbLine
 10
290.951732019923
 20
261.406314060318
 30
0.0
 11
291.451732019923
 21
260.406314060318
 31
0.0
  0
LINE
  5
D0
330
1F
100
AcDbEntity
  8
1
  6
Continuous
 62
     4
100
AcDbLine
 10
290.451732019923
 20
261.906314060318
 30
0.0
 11
290.951732019923
 21
261.406314060318
 31
0.0
  0
LINE
  5
D1
330
1F
100
AcDbEntity
  8
1
  6
Continuous
 62
     4
100
AcDbLine
 10
289.701732019923
 20
262.406314060318
 30
0.0
 11
290.451732019923
 21
261.906314060318
 31
0.0
  0
LINE
  5
D2
330
1F
100
AcDbEntity
  8
1
  6
Continuous
 62
     4
100
AcDbLine
 10
288.951732019923
 20
262.656314060318
 30
0.0
 11
289.701732019923
 21
262.406314060318
 31
0.0
  0
LINE
  5
D3
330
1F
100
AcDbEntity
  8
1
  6
Continuous
 62
     4
100
AcDbLine
 10
288.451732019923
 20
262.656314060318
 30
0.0
 11
288.951732019923
 21
262.656314060318
 31
0.0
  0
LINE
  5
D4
330
1F
100
AcDbEntity
  8
1
  6
Continuous
 62
     4
100
AcDbLine
 10
287.701732019923
 20
262.406314060318
 30
0.0
 11
288.451732019923
 21
262.656314060318
 31
0.0
  0
LINE
  5
D5
330
1F
100
AcDbEntity
  8
1
  6
Continuous
 62
     4
100
AcDbLine
 10
286.951732019923
 20
261.906314060318
 30
0.0
 11
287.701732019923
 21
262.406314060318
 31
0.0
  0
LINE
  5
D6
330
1F
100
AcDbEntity
  8
1
  6
Continuous
 62
     4
100
AcDbLine
 10
286.451732019923
 20
261.406314060318
 30
0.0
 11
286.951732019923
 21
261.906314060318
 31
0.0
  0
LINE
  5
D7
330
1F
100
AcDbEntity
  8
1
  6
Continuous
 62
     4
100
AcDbLine
 10
285.951732019923
 20
260.406314060318
 30
0.0
 11
286.451732019923
 21
261.406314060318
 31
0.0
  0
LINE
  5
D8
330
1F
100
AcDbEntity
  8
1
  6
Continuous
 62
     4
100
AcDbLine
 10
285.701732019923
 20
258.906314060318
 30
0.0
 11
285.951732019923
 21
260.406314060318
 31
0.0
  0
LINE
  5
D9
330
1F
100
AcDbEntity
  8
1
  6
Continuous
 62
     4
100
AcDbLine
 10
285.701732019923
 20
256.406314060318
 30
0.0
 11
285.701732019923
 21
258.906314060318
 31
0.0
  0
LINE
  5
DA
330
1F
100
AcDbEntity
  8
1
  6
Continuous
 62
     4
100
AcDbLine
 10
285.951732019923
 20
254.906314060318
 30
0.0
 11
285.701732019923
 21
256.406314060318
 31
0.0
  0
LINE
  5
DB
330
1F
100
AcDbEntity
  8
1
  6
Continuous
 62
     4
100
AcDbLine
 10
286.451732019923
 20
253.906314060318
 30
0.0
 11
285.951732019923
 21
254.906314060318
 31
0.0
  0
LINE
  5
DC
330
1F
100
AcDbEntity
  8
1
  6
Continuous
 62
     4
100
AcDbLine
 10
286.951732019923
 20
253.406314060318
 30
0.0
 11
286.451732019923
 21
253.906314060318
 31
0.0
  0
LINE
  5
DD
330
1F
100
AcDbEntity
  8
1
  6
Continuous
 62
     4
100
AcDbLine
 10
287.701732019923
 20
252.906314060318
 30
0.0
 11
286.951732019923
 21
253.406314060318
 31
0.0
  0
LINE
  5
DE
330
1F
100
AcDbEntity
  8
1
  6
Continuous
 62
     4
100
AcDbLine
 10
288.451732019923
 20
252.656314060318
 30
0.0
 11
287.701732019923
 21
252.906314060318
 31
0.0
  0
LINE
  5
DF
330
1F
100
AcDbEntity
  8
1
  6
Continuous
 62
     4
100
AcDbLine
 10
288.951732019923
 20
252.656314060318
 30
0.0
 11
288.451732019923
 21
252.656314060318
 31
0.0
  0
LINE
  5
E0
330
1F
100
AcDbEntity
  8
1
  6
Continuous
 62
     4
100
AcDbLine
 10
289.701732019923
 20
252.906314060318
 30
0.0
 11
288.951732019923
 21
252.656314060318
 31
0.0
  0
LINE
  5
E1
330
1F
100
AcDbEntity
  8
1
  6
Continuous
 62
     4
100
AcDbLine
 10
290.451732019923
 20
253.406314060318
 30
0.0
 11
289.701732019923
 21
252.906314060318
 31
0.0
  0
LINE
  5
E2
330
1F
100
AcDbEntity
  8
1
  6
Continuous
 62
     4
100
AcDbLine
 10
290.951732019923
 20
253.906314060318
 30
0.0
 11
290.451732019923
 21
253.406314060318
 31
0.0
  0
LINE
  5
E3
330
1F
100
AcDbEntity
  8
1
  6
Continuous
 62
     4
100
AcDbLine
 10
291.451732019923
 20
254.906314060318
 30
0.0
 11
290.951732019923
 21
253.906314060318
 31
0.0
  0
LINE
  5
E4
330
1F
100
AcDbEntity
  8
1
  6
Continuous
 62
     4
100
AcDbLine
 10
291.701732019923
 20
256.406314060318
 30
0.0
 11
291.451732019923
 21
254.906314060318
 31
0.0
  0
LINE
  5
E5
330
1F
100
AcDbEntity
  8
1
  6
Continuous
 62
     4
100
AcDbLine
 10
280.451732019923
 20
252.656314060318
 30
0.0
 11
276.701732019923
 21
252.656314060318
 31
0.0
  0
LINE
  5
E6
330
1F
100
AcDbEntity
  8
1
  6
Continuous
 62
     4
100
AcDbLine
 10
281.201732019923
 20
252.906314060318
 30
0.0
 11
280.451732019923
 21
252.656314060318
 31
0.0
  0
LINE
  5
E7
330
1F
100
AcDbEntity
  8
1
  6
Continuous
 62
     4
100
AcDbLine
 10
281.951732019923
 20
253.406314060318
 30
0.0
 11
281.201732019923
 21
252.906314060318
 31
0.0
  0
LINE
  5
E8
330
1F
100
AcDbEntity
  8
1
  6
Continuous
 62
     4
100
AcDbLine
 10
282.451732019923
 20
254.156314060318
 30
0.0
 11
281.951732019923
 21
253.406314060318
 31
0.0
  0
LINE
  5
E9
330
1F
100
AcDbEntity
  8
1
  6
Continuous
 62
     4
100
AcDbLine
 10
282.701732019923
 20
255.156314060318
 30
0.0
 11
282.451732019923
 21
254.156314060318
 31
0.0
  0
LINE
  5
EA
330
1F
100
AcDbEntity
  8
1
  6
Continuous
 62
     4
100
AcDbLine
 10
282.701732019923
 20
256.406314060318
 30
0.0
 11
282.701732019923
 21
255.156314060318
 31
0.0
  0
LINE
  5
EB
330
1F
100
AcDbEntity
  8
1
  6
Continuous
 62
     4
100
AcDbLine
 10
282.451732019923
 20
257.406314060318
 30
0.0
 11
282.701732019923
 21
256.406314060318
 31
0.0
  0
LINE
  5
EC
330
1F
100
AcDbEntity
  8
1
  6
Continuous
 62
     4
100
AcDbLine
 10
282.201732019923
 20
257.906314060318
 30
0.0
 11
282.451732019923
 21
257.406314060318
 31
0.0
  0
LINE
  5
ED
330
1F
100
AcDbEntity
  8
1
  6
Continuous
 62
     4
100
AcDbLine
 10
281.701732019923
 20
258.406314060318
 30
0.0
 11
282.201732019923
 21
257.906314060318
 31
0.0
  0
LINE
  5
EE
330
1F
100
AcDbEntity
  8
1
  6
Continuous
 62
     4
100
AcDbLine
 10
280.701732019923
 20
258.656314060318
 30
0.0
 11
281.701732019923
 21
258.406314060318
 31
0.0
  0
LINE
  5
EF
330
1F
100
AcDbEntity
  8
1
  6
Continuous
 62
     4
100
AcDbLine
 10
281.451732019923
 20
258.906314060318
 30
0.0
 11
280.701732019923
 21
258.656314060318
 31
0.0
  0
LINE
  5
F0
330
1F
100
AcDbEntity
  8
1
  6
Continuous
 62
     4
100
AcDbLine
 10
281.951732019923
 20
259.156314060318
 30
0.0
 11
281.451732019923
 21
258.906314060318
 31
0.0
  0
LINE
  5
F1
330
1F
100
AcDbEntity
  8
1
  6
Continuous
 62
     4
100
AcDbLine
 10
282.451732019923
 20
259.656314060318
 30
0.0
 11
281.951732019923
 21
259.156314060318
 31
0.0
  0
LINE
  5
F2
330
1F
100
AcDbEntity
  8
1
  6
Continuous
 62
     4
100
AcDbLine
 10
282.701732019923
 20
260.406314060318
 30
0.0
 11
282.451732019923
 21
259.656314060318
 31
0.0
  0
LINE
  5
F3
330
1F
100
AcDbEntity
  8
1
  6
Continuous
 62
     4
100
AcDbLine
 10
282.701732019923
 20
261.156314060318
 30
0.0
 11
282.701732019923
 21
260.406314060318
 31
0.0
  0
LINE
  5
F4
330
1F
100
AcDbEntity
  8
1
  6
Continuous
 62
     4
100
AcDbLine
 10
282.451732019923
 20
261.906314060318
 30
0.0
 11
282.701732019923
 21
261.156314060318
 31
0.0
  0
LINE
  5
F5
330
1F
100
AcDbEntity
  8
1
  6
Continuous
 62
     4
100
AcDbLine
 10
281.701732019923
 20
262.406314060318
 30
0.0
 11
282.451732019923
 21
261.906314060318
 31
0.0
  0
LINE
  5
F6
330
1F
100
AcDbEntity
  8
1
  6
Continuous
 62
     4
100
AcDbLine
 10
280.451732019923
 20
262.656314060318
 30
0.0
 11
281.701732019923
 21
262.406314060318
 31
0.0
  0
LINE
  5
F7
330
1F
100
AcDbEntity
  8
1
  6
Continuous
 62
     4
100
AcDbLine
 10
276.701732019923
 20
262.656314060318
 30
0.0
 11
280.451732019923
 21
262.656314060318
 31
0.0
  0
LINE
  5
F8
330
1F
100
AcDbEntity
  8
1
  6
Continuous
 62
     4
100
AcDbLine
 10
278.201732019923
 20
258.656314060318
 30
0.0
 11
280.701732019923
 21
258.656314060318
 31
0.0
  0
LINE
  5
F9
330
1F
100
AcDbEntity
  8
1
  6
Continuous
 62
     4
100
AcDbLine
 10
268.701732019923
 20
256.156314060318
 30
0.0
 11
273.701732019923
 21
256.156314060318
 31
0.0
  0
LINE
  5
FA
330
1F
100
AcDbEntity
  8
1
  6
Continuous
 62
     4
100
AcDbLine
 10
259.201732019923
 20
258.156314060318
 30
0.0
 11
259.201732019923
 21
262.656314060318
 31
0.0
  0
LINE
  5
FB
330
1F
100
AcDbEntity
  8
1
  6
Continuous
 62
     4
100
AcDbLine
 10
263.951732019923
 20
258.406314060318
 30
0.0
 11
263.201732019923
 21
258.156314060318
 31
0.0
  0
LINE
  5
FC
330
1F
100
AcDbEntity
  8
1
  6
Continuous
 62
     4
100
AcDbLine
 10
264.701732019923
 20
258.906314060318
 30
0.0
 11
263.951732019923
 21
258.406314060318
 31
0.0
  0
LINE
  5
FD
330
1F
100
AcDbEntity
  8
1
  6
Continuous
 62
     4
100
AcDbLine
 10
265.201732019923
 20
259.906314060318
 30
0.0
 11
264.701732019923
 21
258.906314060318
 31
0.0
  0
LINE
  5
FE
330
1F
100
AcDbEntity
  8
1
  6
Continuous
 62
     4
100
AcDbLine
 10
265.201732019923
 20
260.656314060318
 30
0.0
 11
265.201732019923
 21
259.906314060318
 31
0.0
  0
LINE
  5
FF
330
1F
100
AcDbEntity
  8
1
  6
Continuous
 62
     4
100
AcDbLine
 10
264.951732019923
 20
261.656314060318
 30
0.0
 11
265.201732019923
 21
260.656314060318
 31
0.0
  0
LINE
  5
100
330
1F
100
AcDbEntity
  8
1
  6
Continuous
 62
     4
100
AcDbLine
 10
264.201732019923
 20
262.406314060318
 30
0.0
 11
264.951732019923
 21
261.656314060318
 31
0.0
  0
LINE
  5
101
330
1F
100
AcDbEntity
  8
1
  6
Continuous
 62
     4
100
AcDbLine
 10
262.951732019923
 20
262.656314060318
 30
0.0
 11
264.201732019923
 21
262.406314060318
 31
0.0
  0
LINE
  5
102
330
1F
100
AcDbEntity
  8
1
  6
Continuous
 62
     4
100
AcDbLine
 10
259.201732019923
 20
262.656314060318
 30
0.0
 11
262.951732019923
 21
262.656314060318
 31
0.0
  0
LINE
  5
103
330
1F
100
AcDbEntity
  8
1
  6
Continuous
 62
     4
100
AcDbLine
 10
259.201732019923
 20
252.656314060318
 30
0.0
 11
259.201732019923
 21
258.156314060318
 31
0.0
  0
LINE
  5
104
330
1F
100
AcDbEntity
  8
1
  6
Continuous
 62
     4
100
AcDbLine
 10
263.701732019923
 20
252.656314060318
 30
0.0
 11
259.201732019923
 21
252.656314060318
 31
0.0
  0
LINE
  5
105
330
1F
100
AcDbEntity
  8
1
  6
Continuous
 62
     4
100
AcDbLine
 10
264.701732019923
 20
253.156314060318
 30
0.0
 11
263.701732019923
 21
252.656314060318
 31
0.0
  0
LINE
  5
106
330
1F
100
AcDbEntity
  8
1
  6
Continuous
 62
     4
100
AcDbLine
 10
265.201732019923
 20
253.656314060318
 30
0.0
 11
264.701732019923
 21
253.156314060318
 31
0.0
  0
LINE
  5
107
330
1F
100
AcDbEntity
  8
1
  6
Continuous
 62
     4
100
AcDbLine
 10
265.701732019923
 20
254.656314060318
 30
0.0
 11
265.201732019923
 21
253.656314060318
 31
0.0
  0
LINE
  5
108
330
1F
100
AcDbEntity
  8
1
  6
Continuous
 62
     4
100
AcDbLine
 10
265.701732019923
 20
255.906314060318
 30
0.0
 11
265.701732019923
 21
254.656314060318
 31
0.0
  0
LINE
  5
109
330
1F
100
AcDbEntity
  8
1
  6
Continuous
 62
     4
100
AcDbLine
 10
265.201732019923
 20
257.156314060318
 30
0.0
 11
265.701732019923
 21
255.906314060318
 31
0.0
  0
LINE
  5
10A
330
1F
100
AcDbEntity
  8
1
  6
Continuous
 62
     4
100
AcDbLine
 10
264.701732019923
 20
257.656314060318
 30
0.0
 11
265.201732019923
 21
257.156314060318
 31
0.0
  0
LINE
  5
10B
330
1F
100
AcDbEntity
  8
1
  6
Continuous
 62
     4
100
AcDbLine
 10
263.701732019923
 20
258.156314060318
 30
0.0
 11
264.701732019923
 21
257.656314060318
 31
0.0
  0
LINE
  5
10C
330
1F
100
AcDbEntity
  8
1
  6
Continuous
 62
     4
100
AcDbLine
 10
263.201732019923
 20
258.156314060318
 30
0.0
 11
263.701732019923
 21
258.156314060318
 31
0.0
  0
LINE
  5
10D
330
1F
100
AcDbEntity
  8
1
  6
Continuous
 62
     4
100
AcDbLine
 10
259.201732019923
 20
258.156314060318
 30
0.0
 11
263.201732019923
 21
258.156314060318
 31
0.0
  0
LINE
  5
10E
330
1F
100
AcDbEntity
  8
1
  6
Continuous
 62
     4
100
AcDbLine
 10
251.201732019923
 20
256.156314060318
 30
0.0
 11
256.201732019923
 21
256.156314060318
 31
0.0
  0
LINE
  5
10F
330
1F
100
AcDbEntity
  8
1
  6
Continuous
 62
     4
100
AcDbLine
 10
241.201732019923
 20
255.656314060318
 30
0.0
 11
241.201732019923
 21
262.656314060318
 31
0.0
  0
LINE
  5
110
330
1F
100
AcDbEntity
  8
1
  6
Continuous
 62
     4
100
AcDbLine
 10
241.201732019923
 20
252.656314060318
 30
0.0
 11
241.201732019923
 21
255.656314060318
 31
0.0
  0
LINE
  5
111
330
1F
100
AcDbEntity
  8
1
  6
Continuous
 62
     4
100
AcDbLine
 10
243.201732019923
 20
257.656314060318
 30
0.0
 11
248.201732019923
 21
252.656314060318
 31
0.0
  0
LINE
  5
112
330
1F
100
AcDbEntity
  8
1
  6
Continuous
 62
     4
100
AcDbLine
 10
248.201732019923
 20
262.656314060318
 30
0.0
 11
243.201732019923
 21
257.656314060318
 31
0.0
  0
LINE
  5
113
330
1F
100
AcDbEntity
  8
1
  6
Continuous
 62
     4
100
AcDbLine
 10
243.201732019923
 20
257.656314060318
 30
0.0
 11
241.201732019923
 21
255.656314060318
 31
0.0
  0
LINE
  5
114
330
1F
100
AcDbEntity
  8
1
  6
Continuous
 62
     4
100
AcDbLine
 10
234.701732019923
 20
262.656314060318
 30
0.0
 11
234.701732019923
 21
252.656314060318
 31
0.0
  0
LINE
  5
115
330
1F
100
AcDbEntity
  8
1
  6
Continuous
 62
     4
100
AcDbLine
 10
231.201732019923
 20
262.656314060318
 30
0.0
 11
234.701732019923
 21
262.656314060318
 31
0.0
  0
LINE
  5
116
330
1F
100
AcDbEntity
  8
1
  6
Continuous
 62
     4
100
AcDbLine
 10
234.701732019923
 20
262.656314060318
 30
0.0
 11
238.201732019923
 21
262.656314060318
 31
0.0
  0
LINE
  5
117
330
1F
100
AcDbEntity
  8
1
  6
Continuous
 62
     3
100
AcDbLine
 10
82.11654596161429
 20
46.2254486083984
 30
0.0
 11
82.11654596161429
 21
43.7254486083984
 31
0.0
  0
LINE
  5
118
330
1F
100
AcDbEntity
  8
1
  6
Continuous
 62
     3
100
AcDbLine
 10
81.91552256980144
 20
47.7254486083984
 30
0.0
 11
82.11654596161429
 21
46.2254486083984
 31
0.0
  0
LINE
  5
119
330
1F
100
AcDbEntity
  8
1
  6
Continuous
 62
     3
100
AcDbLine
 10
81.5134757861757
 20
48.7254486083984
 30
0.0
 11
81.91552256980144
 21
47.7254486083984
 31
0.0
  0
LINE
  5
11A
330
1F
100
AcDbEntity
  8
1
  6
Continuous
 62
     3
100
AcDbLine
 10
81.11142900254997
 20
49.2254486083984
 30
0.0
 11
81.5134757861757
 21
48.7254486083984
 31
0.0
  0
LINE
  5
11B
330
1F
100
AcDbEntity
  8
1
  6
Continuous
 62
     3
100
AcDbLine
 10
80.50835882711137
 20
49.7254486083984
 30
0.0
 11
81.11142900254997
 21
49.2254486083984
 31
0.0
  0
LINE
  5
11C
330
1F
100
AcDbEntity
  8
1
  6
Continuous
 62
     3
100
AcDbLine
 10
79.90528865167276
 20
49.9754486083984
 30
0.0
 11
80.50835882711137
 21
49.7254486083984
 31
0.0
  0
LINE
  5
11D
330
1F
100
AcDbEntity
  8
1
  6
Continuous
 62
     3
100
AcDbLine
 10
79.50324186804703
 20
49.9754486083984
 30
0.0
 11
79.90528865167276
 21
49.9754486083984
 31
0.0
  0
LINE
  5
11E
330
1F
100
AcDbEntity
  8
1
  6
Continuous
 62
     3
100
AcDbLine
 10
78.90017169260844
 20
49.7254486083984
 30
0.0
 11
79.50324186804703
 21
49.9754486083984
 31
0.0
  0
LINE
  5
11F
330
1F
100
AcDbEntity
  8
1
  6
Continuous
 62
     3
100
AcDbLine
 10
78.29710151716984
 20
49.2254486083984
 30
0.0
 11
78.90017169260844
 21
49.7254486083984
 31
0.0
  0
LINE
  5
120
330
1F
100
AcDbEntity
  8
1
  6
Continuous
 62
     3
100
AcDbLine
 10
77.8950547335441
 20
48.7254486083984
 30
0.0
 11
78.29710151716984
 21
49.2254486083984
 31
0.0
  0
LINE
  5
121
330
1F
100
AcDbEntity
  8
1
  6
Continuous
 62
     3
100
AcDbLine
 10
77.49300794991836
 20
47.7254486083984
 30
0.0
 11
77.8950547335441
 21
48.7254486083984
 31
0.0
  0
LINE
  5
122
330
1F
100
AcDbEntity
  8
1
  6
Continuous
 62
     3
100
AcDbLine
 10
77.2919845581055
 20
46.2254486083984
 30
0.0
 11
77.49300794991836
 21
47.7254486083984
 31
0.0
  0
LINE
  5
123
330
1F
100
AcDbEntity
  8
1
  6
Continuous
 62
     3
100
AcDbLine
 10
77.2919845581055
 20
43.7254486083984
 30
0.0
 11
77.2919845581055
 21
46.2254486083984
 31
0.0
  0
LINE
  5
124
330
1F
100
AcDbEntity
  8
1
  6
Continuous
 62
     3
100
AcDbLine
 10
77.49300794991836
 20
42.2254486083984
 30
0.0
 11
77.2919845581055
 21
43.7254486083984
 31
0.0
  0
LINE
  5
125
330
1F
100
AcDbEntity
  8
1
  6
Continuous
 62
     3
100
AcDbLine
 10
77.8950547335441
 20
41.2254486083984
 30
0.0
 11
77.49300794991836
 21
42.2254486083984
 31
0.0
  0
LINE
  5
126
330
1F
100
AcDbEntity
  8
1
  6
Continuous
 62
     3
100
AcDbLine
 10
78.29710151716984
 20
40.7254486083984
 30
0.0
 11
77.8950547335441
 21
41.2254486083984
 31
0.0
  0
LINE
  5
127
330
1F
100
AcDbEntity
  8
1
  6
Continuous
 62
     3
100
AcDbLine
 10
78.90017169260844
 20
40.2254486083984
 30
0.0
 11
78.29710151716984
 21
40.7254486083984
 31
0.0
  0
LINE
  5
128
330
1F
100
AcDbEntity
  8
1
  6
Continuous
 62
     3
100
AcDbLine
 10
79.50324186804703
 20
39.9754486083984
 30
0.0
 11
78.90017169260844
 21
40.2254486083984
 31
0.0
  0
LINE
  5
129
330
1F
100
AcDbEntity
  8
1
  6
Continuous
 62
     3
100
AcDbLine
 10
79.90528865167276
 20
39.9754486083984
 30
0.0
 11
79.50324186804703
 21
39.9754486083984
 31
0.0
  0
LINE
  5
12A
330
1F
100
AcDbEntity
  8
1
  6
Continuous
 62
     3
100
AcDbLine
 10
80.50835882711137
 20
40.2254486083984
 30
0.0
 11
79.90528865167276
 21
39.9754486083984
 31
0.0
  0
LINE
  5
12B
330
1F
100
AcDbEntity
  8
1
  6
Continuous
 62
     3
100
AcDbLine
 10
81.11142900254997
 20
40.7254486083984
 30
0.0
 11
80.50835882711137
 21
40.2254486083984
 31
0.0
  0
LINE
  5
12C
330
1F
100
AcDbEntity
  8
1
  6
Continuous
 62
     3
100
AcDbLine
 10
81.5134757861757
 20
41.2254486083984
 30
0.0
 11
81.11142900254997
 21
40.7254486083984
 31
0.0
  0
LINE
  5
12D
330
1F
100
AcDbEntity
  8
1
  6
Continuous
 62
     3
100
AcDbLine
 10
81.91552256980144
 20
42.2254486083984
 30
0.0
 11
81.5134757861757
 21
41.2254486083984
 31
0.0
  0
LINE
  5
12E
330
1F
100
AcDbEntity
  8
1
  6
Continuous
 62
     3
100
AcDbLine
 10
82.11654596161429
 20
43.7254486083984
 30
0.0
 11
81.91552256980144
 21
42.2254486083984
 31
0.0
  0
LINE
  5
12F
330
1F
100
AcDbEntity
  8
1
  6
Continuous
 62
     3
100
AcDbLine
 10
73.4323354352985
 20
39.9754486083984
 30
0.0
 11
70.4169845581055
 21
39.9754486083984
 31
0.0
  0
LINE
  5
130
330
1F
100
AcDbEntity
  8
1
  6
Continuous
 62
     3
100
AcDbLine
 10
74.0354056107371
 20
40.2254486083984
 30
0.0
 11
73.4323354352985
 21
39.9754486083984
 31
0.0
  0
LINE
  5
131
330
1F
100
AcDbEntity
  8
1
  6
Continuous
 62
     3
100
AcDbLine
 10
74.6384757861757
 20
40.7254486083984
 30
0.0
 11
74.0354056107371
 21
40.2254486083984
 31
0.0
  0
LINE
  5
132
330
1F
100
AcDbEntity
  8
1
  6
Continuous
 62
     3
100
AcDbLine
 10
75.04052256980144
 20
41.4754486083984
 30
0.0
 11
74.6384757861757
 21
40.7254486083984
 31
0.0
  0
LINE
  5
133
330
1F
100
AcDbEntity
  8
1
  6
Continuous
 62
     3
100
AcDbLine
 10
75.24154596161429
 20
42.4754486083984
 30
0.0
 11
75.04052256980144
 21
41.4754486083984
 31
0.0
  0
LINE
  5
134
330
1F
100
AcDbEntity
  8
1
  6
Continuous
 62
     3
100
AcDbLine
 10
75.24154596161429
 20
43.7254486083984
 30
0.0
 11
75.24154596161429
 21
42.4754486083984
 31
0.0
  0
LINE
  5
135
330
1F
100
AcDbEntity
  8
1
  6
Continuous
 62
     3
100
AcDbLine
 10
75.04052256980144
 20
44.7254486083984
 30
0.0
 11
75.24154596161429
 21
43.7254486083984
 31
0.0
  0
LINE
  5
136
330
1F
100
AcDbEntity
  8
1
  6
Continuous
 62
     3
100
AcDbLine
 10
74.83949917798857
 20
45.2254486083984
 30
0.0
 11
75.04052256980144
 21
44.7254486083984
 31
0.0
  0
LINE
  5
137
330
1F
100
AcDbEntity
  8
1
  6
Continuous
 62
     3
100
AcDbLine
 10
74.43745239436284
 20
45.7254486083984
 30
0.0
 11
74.83949917798857
 21
45.2254486083984
 31
0.0
  0
LINE
  5
138
330
1F
100
AcDbEntity
  8
1
  6
Continuous
 62
     3
100
AcDbLine
 10
73.63335882711137
 20
45.9754486083984
 30
0.0
 11
74.43745239436284
 21
45.7254486083984
 31
0.0
  0
LINE
  5
139
330
1F
100
AcDbEntity
  8
1
  6
Continuous
 62
     3
100
AcDbLine
 10
74.23642900254997
 20
46.2254486083984
 30
0.0
 11
73.63335882711137
 21
45.9754486083984
 31
0.0
  0
LINE
  5
13A
330
1F
100
AcDbEntity
  8
1
  6
Continuous
 62
     3
100
AcDbLine
 10
74.6384757861757
 20
46.4754486083984
 30
0.0
 11
74.23642900254997
 21
46.2254486083984
 31
0.0
  0
LINE
  5
13B
330
1F
100
AcDbEntity
  8
1
  6
Continuous
 62
     3
100
AcDbLine
 10
75.04052256980144
 20
46.9754486083984
 30
0.0
 11
74.6384757861757
 21
46.4754486083984
 31
0.0
  0
LINE
  5
13C
330
1F
100
AcDbEntity
  8
1
  6
Continuous
 62
     3
100
AcDbLine
 10
75.24154596161429
 20
47.7254486083984
 30
0.0
 11
75.04052256980144
 21
46.9754486083984
 31
0.0
  0
LINE
  5
13D
330
1F
100
AcDbEntity
  8
1
  6
Continuous
 62
     3
100
AcDbLine
 10
75.24154596161429
 20
48.4754486083984
 30
0.0
 11
75.24154596161429
 21
47.7254486083984
 31
0.0
  0
LINE
  5
13E
330
1F
100
AcDbEntity
  8
1
  6
Continuous
 62
     3
100
AcDbLine
 10
75.04052256980144
 20
49.2254486083984
 30
0.0
 11
75.24154596161429
 21
48.4754486083984
 31
0.0
  0
LINE
  5
13F
330
1F
100
AcDbEntity
  8
1
  6
Continuous
 62
     3
100
AcDbLine
 10
74.43745239436284
 20
49.7254486083984
 30
0.0
 11
75.04052256980144
 21
49.2254486083984
 31
0.0
  0
LINE
  5
140
330
1F
100
AcDbEntity
  8
1
  6
Continuous
 62
     3
100
AcDbLine
 10
73.4323354352985
 20
49.9754486083984
 30
0.0
 11
74.43745239436284
 21
49.7254486083984
 31
0.0
  0
LINE
  5
141
330
1F
100
AcDbEntity
  8
1
  6
Continuous
 62
     3
100
AcDbLine
 10
70.4169845581055
 20
49.9754486083984
 30
0.0
 11
73.4323354352985
 21
49.9754486083984
 31
0.0
  0
LINE
  5
142
330
1F
100
AcDbEntity
  8
1
  6
Continuous
 62
     3
100
AcDbLine
 10
71.6231249089827
 20
45.9754486083984
 30
0.0
 11
73.63335882711137
 21
45.9754486083984
 31
0.0
  0
LINE
  5
161
330
1F
100
AcDbEntity
  8
100
  6
Continuous
 62
     3
100
AcDbLine
 10
33.5000005189315
 20
264.983919271973
 30
0.0
 11
26.0
 21
264.983919271973
 31
0.0
  0
LINE
  5
162
330
1F
100
AcDbEntity
  8
100
  6
Continuous
 62
     3
100
AcDbLine
 10
118.499999481069
 20
264.983919271973
 30
0.0
 11
126.0
 21
264.983919271973
 31
0.0
  0
LINE
  5
163
330
1F
100
AcDbEntity
  8
100
  6
Continuous
 62
     3
100
AcDbLine
 10
47.1830467091725
 20
239.983919271973
 30
0.0
 11
48.9584464153403
 21
239.983919271973
 31
0.0
  0
LINE
  5
164
330
1F
100
AcDbEntity
  8
100
  6
Continuous
 62
     3
100
AcDbLine
 10
26.0
 20
237.983919271973
 30
0.0
 11
45.5048474468178
 21
237.983919271973
 31
0.0
  0
LINE
  5
165
330
1F
100
AcDbEntity
  8
100
  6
Continuous
 62
     3
100
AcDbLine
 10
45.5048474468178
 20
237.983919271973
 30
0.0
 11
47.1830467091725
 21
239.983919271973
 31
0.0
  0
LINE
  5
166
330
1F
100
AcDbEntity
  8
100
  6
Continuous
 62
     3
100
AcDbLine
 10
47.1830467091725
 20
289.983919271973
 30
0.0
 11
48.9584464153403
 21
289.983919271973
 31
0.0
  0
LINE
  5
167
330
1F
100
AcDbEntity
  8
100
  6
Continuous
 62
     3
100
AcDbLine
 10
26.0
 20
291.983919271973
 30
0.0
 11
45.5048474468178
 21
291.983919271973
 31
0.0
  0
LINE
  5
168
330
1F
100
AcDbEntity
  8
100
  6
Continuous
 62
     3
100
AcDbLine
 10
45.5048474468178
 20
291.983919271973
 30
0.0
 11
47.1830467091725
 21
289.983919271973
 31
0.0
  0
LINE
  5
169
330
1F
100
AcDbEntity
  8
100
  6
Continuous
 62
     3
100
AcDbLine
 10
26.0
 20
237.983919271973
 30
0.0
 11
26.0
 21
291.983919271973
 31
0.0
  0
LINE
  5
16A
330
1F
100
AcDbEntity
  8
100
  6
Continuous
 62
     3
100
AcDbLine
 10
104.816953290828
 20
289.983919271973
 30
0.0
 11
103.04155358466
 21
289.983919271973
 31
0.0
  0
LINE
  5
16B
330
1F
100
AcDbEntity
  8
100
  6
Continuous
 62
     3
100
AcDbLine
 10
106.495152553182
 20
291.983919271973
 30
0.0
 11
104.816953290828
 21
289.983919271973
 31
0.0
  0
LINE
  5
16C
330
1F
100
AcDbEntity
  8
100
  6
Continuous
 62
     3
100
AcDbLine
 10
104.816953290828
 20
239.983919271973
 30
0.0
 11
103.04155358466
 21
239.983919271973
 31
0.0
  0
LINE
  5
16D
330
1F
100
AcDbEntity
  8
100
  6
Continuous
 62
     3
100
AcDbLine
 10
106.495152553182
 20
237.983919271973
 30
0.0
 11
104.816953290828
 21
239.983919271973
 31
0.0
  0
LINE
  5
16E
330
1F
100
AcDbEntity
  8
100
  6
Continuous
 62
     3
100
AcDbLine
 10
126.0
 20
237.983919271973
 30
0.0
 11
126.0
 21
291.983919271973
 31
0.0
  0
LINE
  5
16F
330
1F
100
AcDbEntity
  8
100
  6
Continuous
 62
     3
100
AcDbLine
 10
126.0
 20
237.983919271973
 30
0.0
 11
106.495152553182
 21
237.983919271973
 31
0.0
  0
LINE
  5
170
330
1F
100
AcDbEntity
  8
100
  6
Continuous
 62
     3
100
AcDbLine
 10
126.0
 20
291.983919271973
 30
0.0
 11
106.495152553182
 21
291.983919271973
 31
0.0
  0
LINE
  5
171
330
1F
100
AcDbEntity
  8
100
  6
Continuous
 62
     3
100
AcDbLine
 10
227.361725215032
 20
168.711145618
 30
0.0
 11
228.517142743031
 21
169.288854382
 31
0.0
  0
LINE
  5
172
330
1F
100
AcDbEntity
  8
100
  6
Continuous
 62
     3
100
AcDbLine
 10
225.281047903652
 20
168.5
 30
0.0
 11
226.467298024032
 21
168.5
 31
0.0
  0
LINE
  5
173
330
1F
100
AcDbEntity
  8
100
  6
Continuous
 62
     3
100
AcDbLine
 10
235.497915538919
 20
182.5
 30
0.0
 11
225.281047903652
 21
182.5
 31
0.0
  0
LINE
  5
174
330
1F
100
AcDbEntity
  8
100
  6
Continuous
 62
     3
100
AcDbLine
 10
253.03473034342
 20
168.5
 30
0.0
 11
267.042677011202
 21
168.5
 31
0.0
  0
LINE
  5
175
330
1F
100
AcDbEntity
  8
1
  6
CENTER
 62
     1
100
AcDbLine
 10
53.5000005189315
 20
226.012776101673
 30
0.0
 11
98.5000005189316
 21
303.955062442273
 31
0.0
  0
LINE
  5
176
330
1F
100
AcDbEntity
  8
100
  6
Continuous
 62
     3
100
AcDbLine
 10
97.3540792711157
 20
288.753322785489
 30
0.0
 11
93.1594112489061
 21
288.36242699595
 31
0.0
  0
LINE
  5
177
330
1F
100
AcDbEntity
  8
100
  6
Continuous
 62
     3
100
AcDbLine
 10
99.1448635138145
 20
292.123075148781
 30
0.0
 11
97.3540792711157
 21
288.753322785489
 31
0.0
  0
LINE
  5
178
330
1F
100
AcDbEntity
  8
100
  6
Continuous
 62
     3
100
AcDbLine
 10
107.261947170532
 20
271.59239218902
 30
0.0
 11
104.826087475453
 21
268.155151016114
 31
0.0
  0
LINE
  5
179
330
1F
100
AcDbEntity
  8
100
  6
Continuous
 62
     3
100
AcDbLine
 10
111.075630442955
 20
271.458380654248
 30
0.0
 11
107.261947170532
 21
271.59239218902
 31
0.0
  0
LINE
  5
17A
330
1F
100
AcDbEntity
  8
100
  6
Continuous
 62
     3
100
AcDbLine
 10
107.261947170532
 20
271.59239218902
 30
0.0
 11
97.3540792711157
 21
288.753322785489
 31
0.0
  0
LINE
  5
17B
330
1F
100
AcDbEntity
  8
100
  6
Continuous
 62
     3
100
AcDbLine
 10
85.9078684183477
 20
234.60604284141
 30
0.0
 11
87.6666767454788
 21
238.434179803855
 31
0.0
  0
LINE
  5
17C
330
1F
100
AcDbEntity
  8
100
  6
Continuous
 62
     3
100
AcDbLine
 10
87.9307674480718
 20
231.37030201289
 30
0.0
 11
85.9078684183477
 21
234.60604284141
 31
0.0
  0
LINE
  5
17D
330
1F
100
AcDbEntity
  8
100
  6
Continuous
 62
     3
100
AcDbLine
 10
85.9078684183477
 20
234.60604284141
 30
0.0
 11
66.0921326195154
 21
234.60604284141
 31
0.0
  0
LINE
  5
17E
330
1F
100
AcDbEntity
  8
100
  6
Continuous
 62
     3
100
AcDbLine
 10
66.0921326195154
 20
234.60604284141
 30
0.0
 11
64.3333242923844
 21
238.434179803855
 31
0.0
  0
LINE
  5
17F
330
1F
100
AcDbEntity
  8
100
  6
Continuous
 62
     3
100
AcDbLine
 10
64.0692335897913
 20
231.37030201289
 30
0.0
 11
66.0921326195154
 21
234.60604284141
 31
0.0
  0
LINE
  5
180
330
1F
100
AcDbEntity
  8
100
  6
Continuous
 62
     3
100
AcDbLine
 10
54.6459217667474
 20
288.753322785489
 30
0.0
 11
58.840589788957
 21
288.36242699595
 31
0.0
  0
LINE
  5
181
330
1F
100
AcDbEntity
  8
100
  6
Continuous
 62
     3
100
AcDbLine
 10
52.8551375240486
 20
292.123075148781
 30
0.0
 11
54.6459217667474
 21
288.753322785489
 31
0.0
  0
LINE
  5
182
330
1F
100
AcDbEntity
  8
100
  6
Continuous
 62
     3
100
AcDbLine
 10
44.7380538673313
 20
271.59239218902
 30
0.0
 11
47.1739135624098
 21
268.155151016114
 31
0.0
  0
LINE
  5
183
330
1F
100
AcDbEntity
  8
100
  6
Continuous
 62
     3
100
AcDbLine
 10
40.9243705949084
 20
271.458380654248
 30
0.0
 11
44.7380538673313
 21
271.59239218902
 31
0.0
  0
LINE
  5
184
330
1F
100
AcDbEntity
  8
100
  6
Continuous
 62
     3
100
AcDbLine
 10
54.6459217667474
 20
288.753322785489
 30
0.0
 11
44.7380538673313
 21
271.59239218902
 31
0.0
  0
LINE
  5
185
330
1F
100
AcDbEntity
  8
1
  6
CENTER
 62
     1
100
AcDbLine
 10
133.659564088752
 20
264.983919271973
 30
0.0
 11
15.4970383338884
 21
264.983919271973
 31
0.0
  0
LINE
  5
186
330
1F
100
AcDbEntity
  8
1
  6
CENTER
 62
     1
100
AcDbLine
 10
98.4999994810685
 20
226.012776101673
 30
0.0
 11
53.4999994810685
 21
303.955062442273
 31
0.0
  0
LINE
  5
187
330
1F
100
AcDbEntity
  8
100
  6
Continuous
 62
     3
100
AcDbLine
 10
256.287484797297
 20
111.991107537632
 30
0.0
 11
264.287484797297
 21
111.991107537632
 31
0.0
  0
LINE
  5
188
330
1F
100
AcDbEntity
  8
100
  6
Continuous
 62
     3
100
AcDbLine
 10
256.287484797297
 20
110.5
 30
0.0
 11
256.287484797297
 21
111.991107537632
 31
0.0
  0
LINE
  5
189
330
1F
100
AcDbEntity
  8
100
  6
Continuous
 62
     3
100
AcDbLine
 10
264.287484797297
 20
110.5
 30
0.0
 11
264.287484797297
 21
111.991107537632
 31
0.0
  0
LINE
  5
18A
330
1F
100
AcDbEntity
  8
100
  6
Continuous
 62
     3
100
AcDbLine
 10
236.537484797297
 20
84.0
 30
0.0
 11
284.037484797297
 21
84.0
 31
0.0
  0
LINE
  5
18B
330
1F
100
AcDbEntity
  8
100
  6
Continuous
 62
     3
100
AcDbLine
 10
248.287484797297
 20
141.0
 30
0.0
 11
248.287484797297
 21
139.0
 31
0.0
  0
LINE
  5
18C
330
1F
100
AcDbEntity
  8
100
  6
Continuous
 62
     3
100
AcDbLine
 10
246.887484797297
 20
169.5
 30
0.0
 11
248.126708024325
 21
163.303883864862
 31
0.0
  0
LINE
  5
18D
330
1F
100
AcDbEntity
  8
100
  6
Continuous
 62
     3
100
AcDbLine
 10
270.935897413113
 20
169.5
 30
0.0
 11
291.163399660564
 21
169.5
 31
0.0
  0
LINE
  5
18E
330
1F
100
AcDbEntity
  8
100
  6
Continuous
 62
     3
100
AcDbLine
 10
229.411569934031
 20
169.5
 30
0.0
 11
249.141509941508
 21
169.5
 31
0.0
  0
LINE
  5
18F
330
1F
100
AcDbEntity
  8
100
  6
Continuous
 62
     3
100
AcDbLine
 10
267.042677011202
 20
168.5
 30
0.0
 11
270.691089627019
 21
169.437119463883
 31
0.0
  0
LINE
  5
190
330
1F
100
AcDbEntity
  8
100
  6
Continuous
 62
     3
100
AcDbLine
 10
271.787484797297
 20
141.5
 30
0.0
 11
248.787484797297
 21
141.5
 31
0.0
  0
LINE
  5
191
330
1F
100
AcDbEntity
  8
100
  6
Continuous
 62
     3
100
AcDbLine
 10
248.787484797297
 20
141.5
 30
0.0
 11
248.287484797297
 21
141.0
 31
0.0
  0
LINE
  5
192
330
1F
100
AcDbEntity
  8
100
  6
Continuous
 62
     3
100
AcDbLine
 10
249.287484797297
 20
138.0
 30
0.0
 11
248.287484797297
 21
139.0
 31
0.0
  0
LINE
  5
193
330
1F
100
AcDbEntity
  8
100
  6
Continuous
 62
     3
100
AcDbLine
 10
251.037484797297
 20
136.700961894323
 30
0.0
 11
269.537484797297
 21
136.700961894323
 31
0.0
  0
LINE
  5
194
330
1F
100
AcDbEntity
  8
1
  6
Continuous
 62
     3
100
AcDbLine
 10
251.037484797297
 20
138.0
 30
0.0
 11
251.787484797297
 21
136.700961894323
 31
0.0
  0
LINE
  5
195
330
1F
100
AcDbEntity
  8
100
  6
Continuous
 62
     3
100
AcDbLine
 10
249.287484797297
 20
138.0
 30
0.0
 11
271.287484797297
 21
138.0
 31
0.0
  0
LINE
  5
196
330
1F
100
AcDbEntity
  8
1
  6
Continuous
 62
     3
100
AcDbLine
 10
251.787484797297
 20
134.5
 30
0.0
 11
251.787484797297
 21
136.700961894323
 31
0.0
  0
LINE
  5
197
330
1F
100
AcDbEntity
  8
100
  6
Continuous
 62
     3
100
AcDbLine
 10
251.037484797297
 20
138.0
 30
0.0
 11
251.037484797297
 21
134.5
 31
0.0
  0
LINE
  5
198
330
1F
100
AcDbEntity
  8
100
  6
Continuous
 62
     3
100
AcDbLine
 10
271.787484797297
 20
141.5
 30
0.0
 11
272.287484797297
 21
141.0
 31
0.0
  0
LINE
  5
199
330
1F
100
AcDbEntity
  8
100
  6
Continuous
 62
     3
100
AcDbLine
 10
271.287484797297
 20
138.0
 30
0.0
 11
272.287484797297
 21
139.0
 31
0.0
  0
LINE
  5
19A
330
1F
100
AcDbEntity
  8
1
  6
Continuous
 62
     3
100
AcDbLine
 10
269.537484797297
 20
138.0
 30
0.0
 11
268.787484797297
 21
136.700961894323
 31
0.0
  0
LINE
  5
19B
330
1F
100
AcDbEntity
  8
1
  6
Continuous
 62
     3
100
AcDbLine
 10
268.787484797297
 20
134.5
 30
0.0
 11
268.787484797297
 21
136.700961894323
 31
0.0
  0
LINE
  5
19C
330
1F
100
AcDbEntity
  8
100
  6
Continuous
 62
     3
100
AcDbLine
 10
269.537484797297
 20
138.0
 30
0.0
 11
269.537484797297
 21
134.5
 31
0.0
  0
LINE
  5
19D
330
1F
100
AcDbEntity
  8
100
  6
Continuous
 62
     3
100
AcDbLine
 10
272.287484797297
 20
141.0
 30
0.0
 11
272.287484797297
 21
139.0
 31
0.0
  0
LINE
  5
19E
330
1F
100
AcDbEntity
  8
100
  6
Continuous
 62
     3
100
AcDbLine
 10
249.107288700016
 20
162.5
 30
0.0
 11
271.467680894579
 21
162.5
 31
0.0
  0
LINE
  5
19F
330
1F
100
AcDbEntity
  8
100
  6
Continuous
 62
     3
100
AcDbLine
 10
272.448261570269
 20
163.303883864862
 30
0.0
 11
273.687484797297
 21
169.5
 31
0.0
  0
LINE
  5
1A0
330
1F
100
AcDbEntity
  8
100
  6
Continuous
 62
     3
100
AcDbLine
 10
293.213244379563
 20
168.711145618
 30
0.0
 11
292.057826851564
 21
169.288854382
 31
0.0
  0
LINE
  5
1A1
330
1F
100
AcDbEntity
  8
100
  6
Continuous
 62
     3
100
AcDbLine
 10
295.293921690942
 20
168.5
 30
0.0
 11
294.107671570563
 21
168.5
 31
0.0
  0
LINE
  5
1A2
330
1F
100
AcDbEntity
  8
100
  6
Continuous
 62
     3
100
AcDbLine
 10
254.287484797297
 20
182.5
 30
0.0
 11
266.287484797297
 21
182.5
 31
0.0
  0
LINE
  5
1A3
330
1F
100
AcDbEntity
  8
100
  6
Continuous
 62
     3
100
AcDbLine
 10
253.03473034342
 20
168.5
 30
0.0
 11
249.386317727603
 21
169.437119463883
 31
0.0
  0
LINE
  5
1A4
330
1F
100
AcDbEntity
  8
100
  6
Continuous
 62
     3
100
AcDbLine
 10
285.077054055675
 20
182.5
 30
0.0
 11
295.293921690942
 21
182.5
 31
0.0
  0
LINE
  5
1A5
330
1F
100
AcDbEntity
  8
100
  6
Continuous
 62
     3
100
AcDbLine
 10
267.287484797297
 20
181.5
 30
0.0
 11
283.345003248107
 21
181.5
 31
0.0
  0
LINE
  5
1A6
330
1F
100
AcDbEntity
  8
100
  6
Continuous
 62
     3
100
AcDbLine
 10
237.229966346488
 20
181.5
 30
0.0
 11
253.287484797297
 21
181.5
 31
0.0
  0
LINE
  5
1A7
330
1F
100
AcDbEntity
  8
100
  6
Continuous
 62
     3
100
AcDbLine
 10
247.787484797297
 20
110.5
 30
0.0
 11
272.787484797297
 21
110.5
 31
0.0
  0
LINE
  5
1A8
330
1F
100
AcDbEntity
  8
100
  6
Continuous
 62
     3
100
AcDbLine
 10
248.787484797297
 20
134.5
 30
0.0
 11
271.787484797297
 21
134.5
 31
0.0
  0
LINE
  5
1A9
330
1F
100
AcDbEntity
  8
100
  6
Continuous
 62
     3
100
AcDbLine
 10
253.787484797297
 20
162.5
 30
0.0
 11
253.787484797297
 21
141.5
 31
0.0
  0
LINE
  5
1AA
330
1F
100
AcDbEntity
  8
100
  6
Continuous
 62
     3
100
AcDbLine
 10
266.787484797297
 20
162.5
 30
0.0
 11
266.787484797297
 21
141.5
 31
0.0
  0
LINE
  5
1AB
330
1F
100
AcDbEntity
  8
100
  6
Continuous
 62
     3
100
AcDbLine
 10
236.287484797297
 20
92.5
 30
0.0
 11
284.287484797297
 21
92.5
 31
0.0
  0
LINE
  5
1AC
330
1F
100
AcDbEntity
  8
100
  6
Continuous
 62
     3
100
AcDbLine
 10
284.287484797297
 20
92.5
 30
0.0
 11
285.287484797297
 21
91.5
 31
0.0
  0
LINE
  5
1AD
330
1F
100
AcDbEntity
  8
100
  6
Continuous
 62
     3
100
AcDbLine
 10
236.287484797297
 20
92.5
 30
0.0
 11
235.287484797297
 21
91.5
 31
0.0
  0
LINE
  5
1AE
330
1F
100
AcDbEntity
  8
100
  6
Continuous
 62
     3
100
AcDbLine
 10
248.787484797297
 20
134.5
 30
0.0
 11
247.787484797297
 21
133.5
 31
0.0
  0
LINE
  5
1AF
330
1F
100
AcDbEntity
  8
100
  6
Continuous
 62
     3
100
AcDbLine
 10
271.787484797297
 20
134.5
 30
0.0
 11
272.787484797297
 21
133.5
 31
0.0
  0
LINE
  5
1B0
330
1F
100
AcDbEntity
  8
100
  6
Continuous
 62
     3
100
AcDbLine
 10
247.787484797297
 20
133.5
 30
0.0
 11
247.787484797297
 21
92.5
 31
0.0
  0
LINE
  5
1B1
330
1F
100
AcDbEntity
  8
100
  6
Continuous
 62
     3
100
AcDbLine
 10
272.787484797297
 20
133.5
 30
0.0
 11
272.787484797297
 21
92.5
 31
0.0
  0
LINE
  5
1B2
330
1F
100
AcDbEntity
  8
100
  6
Continuous
 62
     3
100
AcDbLine
 10
235.287484797297
 20
87.0
 30
0.0
 11
235.287484797297
 21
91.5
 31
0.0
  0
LINE
  5
1B3
330
1F
100
AcDbEntity
  8
100
  6
Continuous
 62
     3
100
AcDbLine
 10
285.287484797297
 20
91.5
 30
0.0
 11
285.287484797297
 21
87.0
 31
0.0
  0
LINE
  5
1B4
330
1F
100
AcDbEntity
  8
100
  6
Continuous
 62
     3
100
AcDbLine
 10
235.287484797297
 20
87.0
 30
0.0
 11
285.287484797297
 21
87.0
 31
0.0
  0
LINE
  5
1B5
330
1F
100
AcDbEntity
  8
100
  6
Continuous
 62
     3
100
AcDbLine
 10
284.037484797297
 20
84.0
 30
0.0
 11
284.037484797297
 21
87.0
 31
0.0
  0
LINE
  5
1B6
330
1F
100
AcDbEntity
  8
100
  6
Continuous
 62
     3
100
AcDbLine
 10
283.787484797297
 20
67.0554871372799
 30
0.0
 11
283.787484797297
 21
83.75
 31
0.0
  0
LINE
  5
1B7
330
1F
100
AcDbEntity
  8
100
  6
Continuous
 62
     3
100
AcDbLine
 10
236.787484797297
 20
67.0554871372799
 30
0.0
 11
236.787484797297
 21
83.75
 31
0.0
  0
LINE
  5
1B8
330
1F
100
AcDbEntity
  8
100
  6
Continuous
 62
     3
100
AcDbLine
 10
236.537484797297
 20
84.0
 30
0.0
 11
236.537484797297
 21
87.0
 31
0.0
  0
LINE
  5
1B9
330
1F
100
AcDbEntity
  8
1
  6
CENTER
 62
     1
100
AcDbLine
 10
260.287484797297
 20
6.72127871621623
 30
0.0
 11
260.287484797297
 21
186.5
 31
0.0
  0
LINE
  5
1BA
330
1F
100
AcDbEntity
  8
1
  6
CENTER
 62
     1
100
AcDbLine
 10
225.48572231713
 20
44.5
 30
0.0
 11
294.275191830973
 21
44.5
 31
0.0
  0
LINE
  5
1BB
330
1F
100
AcDbEntity
  8
100
  6
Continuous
 62
     3
100
AcDbLine
 10
52.25
 20
84.0
 30
0.0
 11
99.75
 21
84.0
 31
0.0
  0
LINE
  5
1BC
330
1F
100
AcDbEntity
  8
100
  6
Continuous
 62
     3
100
AcDbLine
 10
42.0
 20
28.9115427318801
 30
0.0
 11
26.0
 21
28.9115427318801
 31
0.0
  0
LINE
  5
1BD
330
1F
100
AcDbEntity
  8
100
  6
Continuous
 62
     3
100
AcDbLine
 10
42.0
 20
60.0884572681199
 30
0.0
 11
26.0
 21
60.0884572681199
 31
0.0
  0
LINE
  5
1BE
330
1F
100
AcDbEntity
  8
100
  6
Continuous
 62
     3
100
AcDbLine
 10
110.0
 20
28.9115427318801
 30
0.0
 11
126.0
 21
28.9115427318801
 31
0.0
  0
LINE
  5
1BF
330
1F
100
AcDbEntity
  8
100
  6
Continuous
 62
     3
100
AcDbLine
 10
110.0
 20
60.0884572681199
 30
0.0
 11
126.0
 21
60.0884572681199
 31
0.0
  0
LINE
  5
1C0
330
1F
100
AcDbEntity
  8
2
  6
DOTTED
 62
     6
100
AcDbLine
 10
62.0340767759294
 20
157.889986552187
 30
0.0
 11
59.1067795980885
 21
159.5
 31
0.0
  0
LINE
  5
1C1
330
1F
100
AcDbEntity
  8
2
  6
DOTTED
 62
     6
100
AcDbLine
 10
63.8392232270277
 20
154.303883864862
 30
0.0
 11
63.5300625536857
 21
155.849687231572
 31
0.0
  0
LINE
  5
1C2
330
1F
100
AcDbEntity
  8
2
  6
DOTTED
 62
     6
100
AcDbLine
 10
64.8198039027185
 20
153.5
 30
0.0
 11
87.1801960972813
 21
153.5
 31
0.0
  0
LINE
  5
1C3
330
1F
100
AcDbEntity
  8
2
  6
DOTTED
 62
     6
100
AcDbLine
 10
88.1607767729723
 20
154.303883864862
 30
0.0
 11
88.4699374463143
 21
155.849687231572
 31
0.0
  0
LINE
  5
1C4
330
1F
100
AcDbEntity
  8
2
  6
DOTTED
 62
     6
100
AcDbLine
 10
89.9659232240707
 20
157.889986552188
 30
0.0
 11
92.8932204019115
 21
159.5
 31
0.0
  0
LINE
  5
1C5
330
1F
100
AcDbEntity
  8
2
  6
DOTTED
 62
     6
100
AcDbLine
 10
99.9999999999998
 20
172.5
 30
0.0
 11
103.709467632543
 21
172.5
 31
0.0
  0
LINE
  5
1C6
330
1F
100
AcDbEntity
  8
2
  6
DOTTED
 62
     6
100
AcDbLine
 10
66.0000000000002
 20
172.5
 30
0.0
 11
85.9999999999998
 21
172.5
 31
0.0
  0
LINE
  5
1C7
330
1F
100
AcDbEntity
  8
2
  6
DOTTED
 62
     6
100
AcDbLine
 10
48.2905323674569
 20
172.5
 30
0.0
 11
52.0000000000002
 21
172.5
 31
0.0
  0
LINE
  5
1C8
330
1F
100
AcDbEntity
  8
2
  6
DOTTED
 62
     6
100
AcDbLine
 10
86.9999999999998
 20
173.5
 30
0.0
 11
98.9999999999998
 21
173.5
 31
0.0
  0
LINE
  5
1C9
330
1F
100
AcDbEntity
  8
2
  6
DOTTED
 62
     6
100
AcDbLine
 10
65.0000000000002
 20
173.5
 30
0.0
 11
53.0000000000002
 21
173.5
 31
0.0
  0
LINE
  5
1CA
330
1F
100
AcDbEntity
  8
2
  6
DOTTED
 62
     6
100
AcDbLine
 10
46.558481559888
 20
173.5
 30
0.0
 11
36.3416139246211
 21
173.5
 31
0.0
  0
LINE
  5
1CB
330
1F
100
AcDbEntity
  8
2
  6
DOTTED
 62
     6
100
AcDbLine
 10
38.4222912360004
 20
159.711145618
 30
0.0
 11
39.5777087639997
 21
160.288854382
 31
0.0
  0
LINE
  5
1CC
330
1F
100
AcDbEntity
  8
2
  6
DOTTED
 62
     6
100
AcDbLine
 10
36.341613924621
 20
159.5
 30
0.0
 11
37.5278640450005
 21
159.5
 31
0.0
  0
LINE
  5
1CD
330
1F
100
AcDbEntity
  8
2
  6
DOTTED
 62
     6
100
AcDbLine
 10
51.4222912360004
 20
160.288854382
 30
0.0
 11
52.5777087639997
 21
159.711145618
 31
0.0
  0
LINE
  5
1CE
330
1F
100
AcDbEntity
  8
2
  6
DOTTED
 62
     6
100
AcDbLine
 10
101.472135955
 20
160.5
 30
0.0
 11
111.527864045
 21
160.5
 31
0.0
  0
LINE
  5
1CF
330
1F
100
AcDbEntity
  8
2
  6
DOTTED
 62
     6
100
AcDbLine
 10
40.4721359549997
 20
160.5
 30
0.0
 11
51.0000000000001
 21
160.5
 31
0.0
  0
LINE
  5
1D0
330
1F
100
AcDbEntity
  8
2
  6
DOTTED
 62
     6
100
AcDbLine
 10
92.8932204019115
 20
159.5
 30
0.0
 11
98.5278640450003
 21
159.5
 31
0.0
  0
LINE
  5
1D1
330
1F
100
AcDbEntity
  8
2
  6
DOTTED
 62
     6
100
AcDbLine
 10
53.4721359549997
 20
159.5
 30
0.0
 11
59.1067795980885
 21
159.5
 31
0.0
  0
LINE
  5
1D2
330
1F
100
AcDbEntity
  8
2
  6
DOTTED
 62
     6
100
AcDbLine
 10
100.577708764
 20
160.288854382
 30
0.0
 11
99.4222912360003
 21
159.711145618
 31
0.0
  0
LINE
  5
1D3
330
1F
100
AcDbEntity
  8
2
  6
DOTTED
 62
     6
100
AcDbLine
 10
113.577708764
 20
159.711145618
 30
0.0
 11
112.422291236
 21
160.288854382
 31
0.0
  0
LINE
  5
1D4
330
1F
100
AcDbEntity
  8
2
  6
DOTTED
 62
     6
100
AcDbLine
 10
115.658386075379
 20
159.5
 30
0.0
 11
114.472135955
 21
159.5
 31
0.0
  0
LINE
  5
1D5
330
1F
100
AcDbEntity
  8
2
  6
DOTTED
 62
     6
100
AcDbLine
 10
105.441518440112
 20
173.5
 30
0.0
 11
115.658386075379
 21
173.5
 31
0.0
  0
LINE
  5
1D6
330
1F
100
AcDbEntity
  8
100
  6
Continuous
 62
     3
100
AcDbLine
 10
64.0
 20
141.0
 30
0.0
 11
64.0
 21
139.0
 31
0.0
  0
LINE
  5
1D7
330
1F
100
AcDbEntity
  8
100
  6
Continuous
 62
     3
100
AcDbLine
 10
52.0000000000002
 20
181.5
 30
0.0
 11
38.5000000000002
 21
181.5
 31
0.0
  0
LINE
  5
1D8
330
1F
100
AcDbEntity
  8
100
  6
Continuous
 62
     3
100
AcDbLine
 10
65.0000000000002
 20
182.5
 30
0.0
 11
53.0000000000002
 21
182.5
 31
0.0
  0
LINE
  5
1D9
330
1F
100
AcDbEntity
  8
100
  6
Continuous
 62
     3
100
AcDbLine
 10
46.558481559888
 20
182.5
 30
0.0
 11
36.3416139246211
 21
182.5
 31
0.0
  0
LINE
  5
1DA
330
1F
100
AcDbEntity
  8
100
  6
Continuous
 62
     3
100
AcDbLine
 10
63.8392232270277
 20
163.303883864862
 30
0.0
 11
63.5300625536857
 21
164.849687231572
 31
0.0
  0
LINE
  5
1DB
330
1F
100
AcDbEntity
  8
5
  6
Continuous
 62
     3
100
AcDbLine
 10
75.943170554936
 20
166.217672785336
 30
0.0
 11
64.1647491455079
 21
166.217672785336
 31
0.0
  0
LINE
  5
1DC
330
1F
100
AcDbEntity
  8
100
  6
Continuous
 62
     3
100
AcDbLine
 10
62.0340767759294
 20
166.889986552187
 30
0.0
 11
59.1067795980885
 21
168.5
 31
0.0
  0
LINE
  5
1DD
330
1F
100
AcDbEntity
  8
100
  6
Continuous
 62
     3
100
AcDbLine
 10
53.4721359549997
 20
168.5
 30
0.0
 11
58.8540251442108
 21
168.5
 31
0.0
  0
LINE
  5
1DE
330
1F
100
AcDbEntity
  8
100
  6
Continuous
 62
     3
100
AcDbLine
 10
38.4222912360004
 20
168.711145618
 30
0.0
 11
39.5777087639997
 21
169.288854382
 31
0.0
  0
LINE
  5
1DF
330
1F
100
AcDbEntity
  8
100
  6
Continuous
 62
     3
100
AcDbLine
 10
36.341613924621
 20
168.5
 30
0.0
 11
37.5278640450005
 21
168.5
 31
0.0
  0
LINE
  5
1E0
330
1F
100
AcDbEntity
  8
100
  6
Continuous
 62
     3
100
AcDbLine
 10
63.2527544538778
 20
169.5
 30
0.0
 11
75.9999999999999
 21
169.5
 31
0.0
  0
LINE
  5
1E1
330
1F
100
AcDbEntity
  8
100
  6
Continuous
 62
     3
100
AcDbLine
 10
59.3515873841835
 20
168.562880536117
 30
0.0
 11
62.7551922139051
 21
169.437119463883
 31
0.0
  0
LINE
  5
1E2
330
1F
100
AcDbEntity
  8
100
  6
Continuous
 62
     3
100
AcDbLine
 10
51.4222912360004
 20
169.288854382
 30
0.0
 11
52.5777087639997
 21
168.711145618
 31
0.0
  0
LINE
  5
1E3
330
1F
100
AcDbEntity
  8
100
  6
Continuous
 62
     3
100
AcDbLine
 10
40.4721359549997
 20
169.5
 30
0.0
 11
50.5278640450004
 21
169.5
 31
0.0
  0
LINE
  5
1E4
330
1F
100
AcDbEntity
  8
100
  6
Continuous
 62
     3
100
AcDbLine
 10
87.5
 20
141.5
 30
0.0
 11
64.5
 21
141.5
 31
0.0
  0
LINE
  5
1E5
330
1F
100
AcDbEntity
  8
100
  6
Continuous
 62
     3
100
AcDbLine
 10
64.5
 20
141.5
 30
0.0
 11
64.0
 21
141.0
 31
0.0
  0
LINE
  5
1E6
330
1F
100
AcDbEntity
  8
100
  6
Continuous
 62
     3
100
AcDbLine
 10
65.0
 20
138.0
 30
0.0
 11
64.0
 21
139.0
 31
0.0
  0
LINE
  5
1E7
330
1F
100
AcDbEntity
  8
100
  6
Continuous
 62
     3
100
AcDbLine
 10
66.75
 20
136.700961894323
 30
0.0
 11
85.25
 21
136.700961894323
 31
0.0
  0
LINE
  5
1E8
330
1F
100
AcDbEntity
  8
1
  6
Continuous
 62
     3
100
AcDbLine
 10
66.75
 20
138.0
 30
0.0
 11
67.5
 21
136.700961894323
 31
0.0
  0
LINE
  5
1E9
330
1F
100
AcDbEntity
  8
100
  6
Continuous
 62
     3
100
AcDbLine
 10
65.0
 20
138.0
 30
0.0
 11
87.0
 21
138.0
 31
0.0
  0
LINE
  5
1EA
330
1F
100
AcDbEntity
  8
1
  6
Continuous
 62
     3
100
AcDbLine
 10
67.5
 20
134.5
 30
0.0
 11
67.5
 21
136.700961894323
 31
0.0
  0
LINE
  5
1EB
330
1F
100
AcDbEntity
  8
100
  6
Continuous
 62
     3
100
AcDbLine
 10
66.75
 20
138.0
 30
0.0
 11
66.75
 21
134.5
 31
0.0
  0
LINE
  5
1EC
330
1F
100
AcDbEntity
  8
100
  6
Continuous
 62
     3
100
AcDbLine
 10
87.5
 20
141.5
 30
0.0
 11
88.0
 21
141.0
 31
0.0
  0
LINE
  5
1ED
330
1F
100
AcDbEntity
  8
100
  6
Continuous
 62
     3
100
AcDbLine
 10
87.0
 20
138.0
 30
0.0
 11
88.0
 21
139.0
 31
0.0
  0
LINE
  5
1EE
330
1F
100
AcDbEntity
  8
1
  6
Continuous
 62
     3
100
AcDbLine
 10
85.25
 20
138.0
 30
0.0
 11
84.5
 21
136.700961894323
 31
0.0
  0
LINE
  5
1EF
330
1F
100
AcDbEntity
  8
1
  6
Continuous
 62
     3
100
AcDbLine
 10
84.5
 20
134.5
 30
0.0
 11
84.5
 21
136.700961894323
 31
0.0
  0
LINE
  5
1F0
330
1F
100
AcDbEntity
  8
100
  6
Continuous
 62
     3
100
AcDbLine
 10
85.25
 20
138.0
 30
0.0
 11
85.25
 21
134.5
 31
0.0
  0
LINE
  5
1F1
330
1F
100
AcDbEntity
  8
100
  6
Continuous
 62
     3
100
AcDbLine
 10
88.0
 20
141.0
 30
0.0
 11
88.0
 21
139.0
 31
0.0
  0
LINE
  5
1F2
330
1F
100
AcDbEntity
  8
1
  6
CENTER
 62
     1
100
AcDbLine
 10
18.0
 20
44.5
 30
0.0
 11
134.0
 21
44.5
 31
0.0
  0
LINE
  5
1F3
330
1F
100
AcDbEntity
  8
1
  6
CENTER
 62
     1
100
AcDbLine
 10
76.0
 20
9.5
 30
0.0
 11
76.0
 21
186.5
 31
0.0
  0
LINE
  5
1F4
330
1F
100
AcDbEntity
  8
100
  6
Continuous
 62
     3
100
AcDbLine
 10
64.8198039027185
 20
162.5
 30
0.0
 11
87.1801960972813
 21
162.5
 31
0.0
  0
LINE
  5
1F5
330
1F
100
AcDbEntity
  8
100
  6
Continuous
 62
     3
100
AcDbLine
 10
88.1607767729723
 20
163.303883864862
 30
0.0
 11
88.4699374463143
 21
164.849687231572
 31
0.0
  0
LINE
  5
1F6
330
1F
100
AcDbEntity
  8
5
  6
Continuous
 62
     3
100
AcDbLine
 10
76.056829445064
 20
166.217672785336
 30
0.0
 11
87.8352508544921
 21
166.217672785336
 31
0.0
  0
LINE
  5
1F7
330
1F
100
AcDbEntity
  8
100
  6
Continuous
 62
     3
100
AcDbLine
 10
89.9659232240706
 20
166.889986552187
 30
0.0
 11
92.8932204019115
 21
168.5
 31
0.0
  0
LINE
  5
1F8
330
1F
100
AcDbEntity
  8
100
  6
Continuous
 62
     3
100
AcDbLine
 10
98.5278640450003
 20
168.5
 30
0.0
 11
93.1459748557892
 21
168.5
 31
0.0
  0
LINE
  5
1F9
330
1F
100
AcDbEntity
  8
100
  6
Continuous
 62
     3
100
AcDbLine
 10
113.577708764
 20
168.711145618
 30
0.0
 11
112.422291236
 21
169.288854382
 31
0.0
  0
LINE
  5
1FA
330
1F
100
AcDbEntity
  8
100
  6
Continuous
 62
     3
100
AcDbLine
 10
115.658386075379
 20
168.5
 30
0.0
 11
114.472135955
 21
168.5
 31
0.0
  0
LINE
  5
1FB
330
1F
100
AcDbEntity
  8
100
  6
Continuous
 62
     3
100
AcDbLine
 10
99.9999999999998
 20
181.5
 30
0.0
 11
113.5
 21
181.5
 31
0.0
  0
LINE
  5
1FC
330
1F
100
AcDbEntity
  8
100
  6
Continuous
 62
     3
100
AcDbLine
 10
86.9999999999998
 20
182.5
 30
0.0
 11
98.9999999999998
 21
182.5
 31
0.0
  0
LINE
  5
1FD
330
1F
100
AcDbEntity
  8
100
  6
Continuous
 62
     3
100
AcDbLine
 10
88.7472455461222
 20
169.5
 30
0.0
 11
75.9999999999999
 21
169.5
 31
0.0
  0
LINE
  5
1FE
330
1F
100
AcDbEntity
  8
100
  6
Continuous
 62
     3
100
AcDbLine
 10
92.6484126158165
 20
168.562880536117
 30
0.0
 11
89.2448077860949
 21
169.437119463883
 31
0.0
  0
LINE
  5
1FF
330
1F
100
AcDbEntity
  8
100
  6
Continuous
 62
     3
100
AcDbLine
 10
100.577708764
 20
169.288854382
 30
0.0
 11
99.4222912360003
 21
168.711145618
 31
0.0
  0
LINE
  5
200
330
1F
100
AcDbEntity
  8
100
  6
Continuous
 62
     3
100
AcDbLine
 10
111.527864045
 20
169.5
 30
0.0
 11
101.472135955
 21
169.5
 31
0.0
  0
LINE
  5
201
330
1F
100
AcDbEntity
  8
100
  6
Continuous
 62
     3
100
AcDbLine
 10
105.441518440112
 20
182.5
 30
0.0
 11
115.658386075379
 21
182.5
 31
0.0
  0
LINE
  5
202
330
1F
100
AcDbEntity
  8
100
  6
Continuous
 62
     3
100
AcDbLine
 10
62.9999999999998
 20
181.5
 30
0.0
 11
93.4999999999998
 21
181.5
 31
0.0
  0
LINE
  5
203
330
1F
100
AcDbEntity
  8
100
  6
Continuous
 62
     3
100
AcDbLine
 10
48.2905323674565
 20
181.5
 30
0.0
 11
58.9999999999998
 21
181.5
 31
0.0
  0
LINE
  5
204
330
1F
100
AcDbEntity
  8
100
  6
Continuous
 62
     3
100
AcDbLine
 10
88.5
 20
110.5
 30
0.0
 11
98.5
 21
110.5
 31
0.0
  0
LINE
  5
205
330
1F
100
AcDbEntity
  8
100
  6
Continuous
 62
     3
100
AcDbLine
 10
53.5
 20
110.5
 30
0.0
 11
63.5
 21
110.5
 31
0.0
  0
LINE
  5
206
330
1F
100
AcDbEntity
  8
100
  6
Continuous
 62
     3
100
AcDbLine
 10
62.1760299319611
 20
111.353503741592
 30
0.0
 11
62.2693819036978
 21
110.5
 31
0.0
  0
LINE
  5
207
330
1F
100
AcDbEntity
  8
100
  6
Continuous
 62
     3
100
AcDbLine
 10
55.7145639355577
 20
110.646780898236
 30
0.0
 11
55.7306180963022
 21
110.5
 31
0.0
  0
LINE
  5
208
330
1F
100
AcDbEntity
  8
100
  6
Continuous
 62
     3
100
AcDbLine
 10
62.1372275584445
 20
113.087875608272
 30
0.0
 11
62.3251406857243
 21
111.369812730285
 31
0.0
  0
LINE
  5
209
330
1F
100
AcDbEntity
  8
100
  6
Continuous
 62
     3
100
AcDbLine
 10
62.3251406857243
 20
111.369812730285
 30
0.0
 11
54.3725671516893
 21
110.5
 31
0.0
  0
LINE
  5
20A
330
1F
100
AcDbEntity
  8
100
  6
Continuous
 62
     3
100
AcDbLine
 10
54.2094772647608
 20
111.991107537632
 30
0.0
 11
54.3725671516893
 21
110.5
 31
0.0
  0
LINE
  5
20B
330
1F
100
AcDbEntity
  8
100
  6
Continuous
 62
     3
100
AcDbLine
 10
62.1620507987959
 20
112.860920267917
 30
0.0
 11
54.2094772647608
 21
111.991107537632
 31
0.0
  0
LINE
  5
20C
330
1F
100
AcDbEntity
  8
100
  6
Continuous
 62
     3
100
AcDbLine
 10
89.8379492012041
 20
112.860920267917
 30
0.0
 11
97.7905227352392
 21
111.991107537632
 31
0.0
  0
LINE
  5
20D
330
1F
100
AcDbEntity
  8
100
  6
Continuous
 62
     3
100
AcDbLine
 10
89.6748593142757
 20
111.369812730285
 30
0.0
 11
97.6274328483107
 21
110.5
 31
0.0
  0
LINE
  5
20E
330
1F
100
AcDbEntity
  8
100
  6
Continuous
 62
     3
100
AcDbLine
 10
89.8627724415555
 20
113.087875608272
 30
0.0
 11
89.6748593142757
 21
111.369812730285
 31
0.0
  0
LINE
  5
20F
330
1F
100
AcDbEntity
  8
100
  6
Continuous
 62
     3
100
AcDbLine
 10
89.8239700680389
 20
111.353503741592
 30
0.0
 11
89.7306180963022
 21
110.5
 31
0.0
  0
LINE
  5
210
330
1F
100
AcDbEntity
  8
100
  6
Continuous
 62
     3
100
AcDbLine
 10
96.2854360644423
 20
110.646780898236
 30
0.0
 11
96.2693819036978
 21
110.5
 31
0.0
  0
LINE
  5
211
330
1F
100
AcDbEntity
  8
100
  6
Continuous
 62
     3
100
AcDbLine
 10
97.7905227352392
 20
111.991107537632
 30
0.0
 11
97.6274328483107
 21
110.5
 31
0.0
  0
LINE
  5
212
330
1F
100
AcDbEntity
  8
100
  6
Continuous
 62
     3
100
AcDbLine
 10
64.5
 20
134.5
 30
0.0
 11
87.5
 21
134.5
 31
0.0
  0
LINE
  5
213
330
1F
100
AcDbEntity
  8
100
  6
Continuous
 62
     3
100
AcDbLine
 10
69.5
 20
162.5
 30
0.0
 11
69.5
 21
141.5
 31
0.0
  0
LINE
  5
214
330
1F
100
AcDbEntity
  8
100
  6
Continuous
 62
     3
100
AcDbLine
 10
82.5
 20
162.5
 30
0.0
 11
82.5
 21
141.5
 31
0.0
  0
LINE
  5
215
330
1F
100
AcDbEntity
  8
100
  6
Continuous
 62
     3
100
AcDbLine
 10
52.0
 20
92.5
 30
0.0
 11
100.0
 21
92.5
 31
0.0
  0
LINE
  5
216
330
1F
100
AcDbEntity
  8
100
  6
Continuous
 62
     3
100
AcDbLine
 10
100.0
 20
92.5
 30
0.0
 11
101.0
 21
91.5
 31
0.0
  0
LINE
  5
217
330
1F
100
AcDbEntity
  8
100
  6
Continuous
 62
     3
100
AcDbLine
 10
52.0
 20
92.5
 30
0.0
 11
51.0
 21
91.5
 31
0.0
  0
LINE
  5
218
330
1F
100
AcDbEntity
  8
100
  6
Continuous
 62
     3
100
AcDbLine
 10
53.5
 20
110.5
 30
0.0
 11
53.5
 21
93.5
 31
0.0
  0
LINE
  5
219
330
1F
100
AcDbEntity
  8
100
  6
Continuous
 62
     3
100
AcDbLine
 10
98.5
 20
110.5
 30
0.0
 11
98.5
 21
93.5
 31
0.0
  0
LINE
  5
21A
330
1F
100
AcDbEntity
  8
100
  6
Continuous
 62
     3
100
AcDbLine
 10
64.5
 20
134.5
 30
0.0
 11
63.5
 21
133.5
 31
0.0
  0
LINE
  5
21B
330
1F
100
AcDbEntity
  8
100
  6
Continuous
 62
     3
100
AcDbLine
 10
87.5
 20
134.5
 30
0.0
 11
88.5
 21
133.5
 31
0.0
  0
LINE
  5
21C
330
1F
100
AcDbEntity
  8
100
  6
Continuous
 62
     3
100
AcDbLine
 10
63.5
 20
133.5
 30
0.0
 11
63.5
 21
110.5
 31
0.0
  0
LINE
  5
21D
330
1F
100
AcDbEntity
  8
100
  6
Continuous
 62
     3
100
AcDbLine
 10
88.5
 20
133.5
 30
0.0
 11
88.5
 21
110.5
 31
0.0
  0
LINE
  5
21E
330
1F
100
AcDbEntity
  8
100
  6
Continuous
 62
     3
100
AcDbLine
 10
51.0
 20
87.0
 30
0.0
 11
51.0
 21
91.5
 31
0.0
  0
LINE
  5
21F
330
1F
100
AcDbEntity
  8
100
  6
Continuous
 62
     3
100
AcDbLine
 10
101.0
 20
91.5
 30
0.0
 11
101.0
 21
87.0
 31
0.0
  0
LINE
  5
220
330
1F
100
AcDbEntity
  8
100
  6
Continuous
 62
     3
100
AcDbLine
 10
51.0
 20
87.0
 30
0.0
 11
101.0
 21
87.0
 31
0.0
  0
LINE
  5
221
330
1F
100
AcDbEntity
  8
100
  6
Continuous
 62
     3
100
AcDbLine
 10
99.75
 20
84.0
 30
0.0
 11
99.75
 21
87.0
 31
0.0
  0
LINE
  5
222
330
1F
100
AcDbEntity
  8
100
  6
Continuous
 62
     3
100
AcDbLine
 10
99.5
 20
73.5
 30
0.0
 11
99.5
 21
83.75
 31
0.0
  0
LINE
  5
223
330
1F
100
AcDbEntity
  8
100
  6
Continuous
 62
     3
100
AcDbLine
 10
52.5
 20
73.5
 30
0.0
 11
52.5
 21
83.75
 31
0.0
  0
LINE
  5
224
330
1F
100
AcDbEntity
  8
100
  6
Continuous
 62
     3
100
AcDbLine
 10
42.0
 20
13.3230854637602
 30
0.0
 11
45.9840995693165
 21
18.0711504387462
 31
0.0
  0
LINE
  5
225
330
1F
100
AcDbEntity
  8
100
  6
Continuous
 62
     3
100
AcDbLine
 10
26.0
 20
13.3230854637602
 30
0.0
 11
42.0
 21
13.3230854637602
 31
0.0
  0
LINE
  5
226
330
1F
100
AcDbEntity
  8
100
  6
Continuous
 62
     3
100
AcDbLine
 10
49.0482773417924
 20
19.5000000000001
 30
0.0
 11
52.8483261944196
 21
19.5
 31
0.0
  0
LINE
  5
227
330
1F
100
AcDbEntity
  8
100
  6
Continuous
 62
     3
100
AcDbLine
 10
26.0
 20
13.3230854637602
 30
0.0
 11
26.0
 21
75.6769145362398
 31
0.0
  0
LINE
  5
228
330
1F
100
AcDbEntity
  8
100
  6
Continuous
 62
     3
100
AcDbLine
 10
102.951722658208
 20
19.5000000000001
 30
0.0
 11
99.1516738055805
 21
19.5
 31
0.0
  0
LINE
  5
229
330
1F
100
AcDbEntity
  8
100
  6
Continuous
 62
     3
100
AcDbLine
 10
110.0
 20
13.3230854637602
 30
0.0
 11
106.015900430684
 21
18.0711504387462
 31
0.0
  0
LINE
  5
22A
330
1F
100
AcDbEntity
  8
100
  6
Continuous
 62
     3
100
AcDbLine
 10
126.0
 20
13.3230854637602
 30
0.0
 11
110.0
 21
13.3230854637602
 31
0.0
  0
LINE
  5
22B
330
1F
100
AcDbEntity
  8
100
  6
Continuous
 62
     3
100
AcDbLine
 10
110.0
 20
75.6769145362398
 30
0.0
 11
106.015900430684
 21
70.9288495612539
 31
0.0
  0
LINE
  5
22C
330
1F
100
AcDbEntity
  8
100
  6
Continuous
 62
     3
100
AcDbLine
 10
126.0
 20
75.6769145362398
 30
0.0
 11
110.0
 21
75.6769145362398
 31
0.0
  0
LINE
  5
22D
330
1F
100
AcDbEntity
  8
100
  6
Continuous
 62
     3
100
AcDbLine
 10
126.0
 20
13.3230854637602
 30
0.0
 11
126.0
 21
75.6769145362398
 31
0.0
  0
LINE
  5
22E
330
1F
100
AcDbEntity
  8
100
  6
Continuous
 62
     3
100
AcDbLine
 10
42.0
 20
75.6769145362398
 30
0.0
 11
45.9840995693165
 21
70.9288495612539
 31
0.0
  0
LINE
  5
22F
330
1F
100
AcDbEntity
  8
100
  6
Continuous
 62
     3
100
AcDbLine
 10
26.0
 20
75.6769145362398
 30
0.0
 11
42.0
 21
75.6769145362398
 31
0.0
  0
LINE
  5
230
330
1F
100
AcDbEntity
  8
100
  6
Continuous
 62
     3
100
AcDbLine
 10
52.25
 20
84.0
 30
0.0
 11
52.25
 21
87.0
 31
0.0
  0
LINE
  5
231
330
1F
100
AcDbEntity
  8
1
  6
Continuous
 62
     4
100
AcDbLine
 10
26.0
 20
44.5
 30
0.0
 11
22.2889401881077
 21
37.095742553441
 31
0.0
  0
LINE
  5
232
330
1F
100
AcDbEntity
  8
1
  6
Continuous
 62
     4
100
AcDbLine
 10
26.0
 20
44.5
 30
0.0
 11
19.0839992046582
 21
39.9432548610659
 31
0.0
  0
LINE
  5
233
330
1F
100
AcDbEntity
  8
1
  6
Continuous
 62
     4
100
AcDbLine
 10
126.0
 20
44.5
 30
0.0
 11
132.458886830481
 21
39.3156221035297
 31
0.0
  0
LINE
  5
234
330
1F
100
AcDbEntity
  8
1
  6
Continuous
 62
     4
100
AcDbLine
 10
126.0
 20
44.5
 30
0.0
 11
129.00137112713
 21
36.7807536235978
 31
0.0
  0
ARC
  5
265
330
1F
100
AcDbEntity
  8
100
  6
Continuous
 62
     3
100
AcDbCircle
 10
229.411569934031
 20
167.5
 30
0.0
 40
2.0
100
AcDbArc
 50
90.0
 51
116.565051177078
  0
ARC
  5
266
330
1F
100
AcDbEntity
  8
100
  6
Continuous
 62
     3
100
AcDbCircle
 10
226.467298024032
 20
170.5
 30
0.0
 40
2.0
100
AcDbArc
 50
270.0
 51
296.565051177078
  0
ARC
  5
267
330
1F
100
AcDbEntity
  8
100
  6
Continuous
 62
     3
100
AcDbCircle
 10
225.281047903652
 20
170.5
 30
0.0
 40
1.999999999999313
100
AcDbArc
 50
199.7732748502829
 51
270.0
  0
ARC
  5
268
330
1F
100
AcDbEntity
  8
100
  6
Continuous
 62
     3
100
AcDbCircle
 10
239.189433979031
 20
175.5
 30
0.0
 40
16.77982419454936
100
AcDbArc
 50
160.2267251497064
 51
199.7732748502904
  0
ARC
  5
269
330
1F
100
AcDbEntity
  8
100
  6
Continuous
 62
     3
100
AcDbCircle
 10
225.281047903652
 20
180.5
 30
0.0
 40
2.0
100
AcDbArc
 50
90.0
 51
160.2267251496903
  0
ARC
  5
26A
330
1F
100
AcDbEntity
  8
100
  6
Continuous
 62
     3
100
AcDbCircle
 10
235.497915538919
 20
180.5
 30
0.0
 40
2.000000000000115
100
AcDbArc
 50
29.9999999999981
 51
90.0
  0
ARC
  5
26B
330
1F
100
AcDbEntity
  8
100
  6
Continuous
 62
     3
100
AcDbCircle
 10
149.831523797835
 20
307.610569111728
 30
0.0
 40
53.00000000000018
100
AcDbArc
 50
196.9907233384296
 51
223.0092766615707
  0
ARC
  5
26C
330
1F
100
AcDbEntity
  8
100
  6
Continuous
 62
     3
100
AcDbCircle
 10
76.0000005189316
 20
264.983919271973
 30
0.0
 40
28.99999999999967
100
AcDbArc
 50
6.27800976222532
 51
53.72199023777551
  0
ARC
  5
26D
330
1F
100
AcDbEntity
  8
100
  6
Continuous
 62
     3
100
AcDbCircle
 10
76.0000005189316
 20
264.983919271973
 30
0.0
 40
29.00000000000041
100
AcDbArc
 50
246.2780097622254
 51
293.7219902377746
  0
ARC
  5
26E
330
1F
100
AcDbEntity
  8
100
  6
Continuous
 62
     3
100
AcDbCircle
 10
76.0000005189315
 20
179.730619592463
 30
0.0
 40
53.00000000000023
100
AcDbArc
 50
76.99072333842935
 51
103.0092766615706
  0
ARC
  5
26F
330
1F
100
AcDbEntity
  8
100
  6
Continuous
 62
     3
100
AcDbCircle
 10
2.16847724002822
 20
307.610569111728
 30
0.0
 40
52.99999999999997
100
AcDbArc
 50
316.9907233384295
 51
343.0092766615703
  0
ARC
  5
270
330
1F
100
AcDbEntity
  8
100
  6
Continuous
 62
     3
100
AcDbCircle
 10
76.0000005189316
 20
264.983919271973
 30
0.0
 40
29.00000000000035
100
AcDbArc
 50
126.2780097622247
 51
173.7219902377748
  0
ARC
  5
271
330
1F
100
AcDbEntity
  8
100
  6
Continuous
 62
     3
100
AcDbCircle
 10
71.2555967179536
 20
242.478572297946
 30
0.0
 40
2.999999999999807
100
AcDbArc
 50
147.8779855696674
 51
258.0956555031601
  0
ARC
  5
272
330
1F
100
AcDbEntity
  8
100
  6
Continuous
 62
     3
100
AcDbCircle
 10
80.7444022441834
 20
242.478572297946
 30
0.0
 40
3.000000000000501
100
AcDbArc
 50
281.9043444968304
 51
32.12201443032455
  0
ARC
  5
273
330
1F
100
AcDbEntity
  8
100
  6
Continuous
 62
     3
100
AcDbCircle
 10
93.1180003000017
 20
249.622472466317
 30
0.0
 40
3.000000000000151
100
AcDbArc
 50
207.8779855696648
 51
318.0956555031644
  0
ARC
  5
274
330
1F
100
AcDbEntity
  8
100
  6
Continuous
 62
     3
100
AcDbCircle
 10
97.8624030631166
 20
257.840019103602
 30
0.0
 40
3.000000000000463
100
AcDbArc
 50
341.904344496829
 51
92.12201443033888
  0
ARC
  5
275
330
1F
100
AcDbEntity
  8
100
  6
Continuous
 62
     3
100
AcDbCircle
 10
97.8624030631166
 20
272.127819440344
 30
0.0
 40
2.999999999999893
100
AcDbArc
 50
267.8779855696604
 51
18.09565550315238
  0
ARC
  5
276
330
1F
100
AcDbEntity
  8
100
  6
Continuous
 62
     3
100
AcDbCircle
 10
93.1180003000017
 20
280.345366077629
 30
0.0
 40
3.000000000000093
100
AcDbArc
 50
41.90434449683524
 51
152.1220144303343
  0
ARC
  5
277
330
1F
100
AcDbEntity
  8
100
  6
Continuous
 62
     3
100
AcDbCircle
 10
58.8819986621353
 20
249.622472466317
 30
0.0
 40
3.000000000000117
100
AcDbArc
 50
221.9043444968355
 51
332.1220144303351
  0
ARC
  5
278
330
1F
100
AcDbEntity
  8
100
  6
Continuous
 62
     3
100
AcDbCircle
 10
54.1375958990204
 20
257.840019103602
 30
0.0
 40
2.999999999999893
100
AcDbArc
 50
87.87798556966044
 51
198.0956555031745
  0
ARC
  5
279
330
1F
100
AcDbEntity
  8
100
  6
Continuous
 62
     3
100
AcDbCircle
 10
54.1375958990204
 20
272.127819440344
 30
0.0
 40
2.999999999999855
100
AcDbArc
 50
161.9043444968458
 51
272.1220144303396
  0
ARC
  5
27A
330
1F
100
AcDbEntity
  8
100
  6
Continuous
 62
     3
100
AcDbCircle
 10
58.8819986621353
 20
280.345366077629
 30
0.0
 40
3.000000000000151
100
AcDbArc
 50
27.87798556966485
 51
138.0956555031649
  0
ARC
  5
27B
330
1F
100
AcDbEntity
  8
100
  6
Continuous
 62
     3
100
AcDbCircle
 10
80.7444022441834
 20
287.489266246
 30
0.0
 40
2.999999999999792
100
AcDbArc
 50
327.8779855696678
 51
78.09565550316192
  0
ARC
  5
27C
330
1F
100
AcDbEntity
  8
100
  6
Continuous
 62
     3
100
AcDbCircle
 10
71.2555967179536
 20
287.489266246
 30
0.0
 40
2.999999999999527
100
AcDbArc
 50
101.9043444968344
 51
212.1220144303352
  0
ARC
  5
27D
330
1F
100
AcDbEntity
  8
100
  6
Continuous
 62
     3
100
AcDbCircle
 10
58.7499994810685
 20
235.10604284141
 30
0.0
 40
8.000000000000261
100
AcDbArc
 50
240.0000000000036
 51
287.3023355693607
  0
ARC
  5
27E
330
1F
100
AcDbEntity
  8
100
  6
Continuous
 62
     3
100
AcDbCircle
 10
75.9999994810685
 20
179.730619592463
 30
0.0
 40
51.50000000000001
100
AcDbArc
 50
72.69766443063982
 51
107.3023355693603
  0
ARC
  5
27F
330
1F
100
AcDbEntity
  8
100
  6
Continuous
 62
     3
100
AcDbCircle
 10
75.9999994810685
 20
179.730619592463
 30
0.0
 40
50.0
100
AcDbArc
 50
72.69766443063973
 51
107.3023355693602
  0
ARC
  5
280
330
1F
100
AcDbEntity
  8
100
  6
Continuous
 62
     3
100
AcDbCircle
 10
93.2499994810685
 20
235.10604284141
 30
0.0
 40
8.00000000000016
100
AcDbArc
 50
252.69766443064
 51
299.999999999997
  0
ARC
  5
281
330
1F
100
AcDbEntity
  8
100
  6
Continuous
 62
     3
100
AcDbCircle
 10
93.2499994810685
 20
235.10604284141
 30
0.0
 40
8.00000000000031
100
AcDbArc
 50
299.999999999997
 51
347.3023355693612
  0
ARC
  5
282
330
1F
100
AcDbEntity
  8
100
  6
Continuous
 62
     3
100
AcDbCircle
 10
110.499999481069
 20
264.983919271973
 30
0.0
 40
8.0
100
AcDbArc
 50
0.0
 51
47.30233556936625
  0
ARC
  5
283
330
1F
100
AcDbEntity
  8
100
  6
Continuous
 62
     3
100
AcDbCircle
 10
110.499999481069
 20
264.983919271973
 30
0.0
 40
7.99999999999962
100
AcDbArc
 50
312.6976644306341
 51
0.0
  0
ARC
  5
284
330
1F
100
AcDbEntity
  8
100
  6
Continuous
 62
     3
100
AcDbCircle
 10
149.831522759972
 20
222.357269432218
 30
0.0
 40
50.00000000000013
100
AcDbArc
 50
132.6976644306403
 51
167.30233556936
  0
ARC
  5
285
330
1F
100
AcDbEntity
  8
100
  6
Continuous
 62
     3
100
AcDbCircle
 10
149.831522759972
 20
222.357269432218
 30
0.0
 40
51.49999999999978
100
AcDbArc
 50
132.6976644306394
 51
167.3023355693602
  0
ARC
  5
286
330
1F
100
AcDbEntity
  8
100
  6
Continuous
 62
     3
100
AcDbCircle
 10
149.831522759972
 20
307.610569111728
 30
0.0
 40
51.50000000000014
100
AcDbArc
 50
192.6976644306397
 51
227.3023355693606
  0
ARC
  5
287
330
1F
100
AcDbEntity
  8
100
  6
Continuous
 62
     3
100
AcDbCircle
 10
93.2499994810685
 20
294.861795702536
 30
0.0
 40
8.00000000000004
100
AcDbArc
 50
12.69766443063874
 51
60.00000000000417
  0
ARC
  5
288
330
1F
100
AcDbEntity
  8
100
  6
Continuous
 62
     3
100
AcDbCircle
 10
149.831522759972
 20
307.610569111728
 30
0.0
 40
50.00000000000012
100
AcDbArc
 50
192.69766443064
 51
227.3023355693597
  0
ARC
  5
289
330
1F
100
AcDbEntity
  8
100
  6
Continuous
 62
     3
100
AcDbCircle
 10
2.16847620216511
 20
222.357269432218
 30
0.0
 40
51.50000000000004
100
AcDbArc
 50
12.6976644306397
 51
47.3023355693603
  0
ARC
  5
28A
330
1F
100
AcDbEntity
  8
100
  6
Continuous
 62
     3
100
AcDbCircle
 10
41.4999994810685
 20
264.983919271973
 30
0.0
 40
8.000000000000298
100
AcDbArc
 50
180.0
 51
227.3023355693623
  0
ARC
  5
28B
330
1F
100
AcDbEntity
  8
100
  6
Continuous
 62
     3
100
AcDbCircle
 10
2.16847620216511
 20
222.357269432218
 30
0.0
 40
50.00000000000002
100
AcDbArc
 50
12.69766443064002
 51
47.30233556935994
  0
ARC
  5
28C
330
1F
100
AcDbEntity
  8
100
  6
Continuous
 62
     3
100
AcDbCircle
 10
58.7499994810685
 20
235.10604284141
 30
0.0
 40
8.00000000000004
100
AcDbArc
 50
192.6976644306387
 51
240.0000000000036
  0
ARC
  5
28D
330
1F
100
AcDbEntity
  8
100
  6
Continuous
 62
     3
100
AcDbCircle
 10
41.4999994810685
 20
264.983919271973
 30
0.0
 40
8.000000000000268
100
AcDbArc
 50
132.6976644306385
 51
180.0
  0
ARC
  5
28E
330
1F
100
AcDbEntity
  8
100
  6
Continuous
 62
     3
100
AcDbCircle
 10
2.16847620216511
 20
307.610569111728
 30
0.0
 40
51.50000000000005
100
AcDbArc
 50
312.6976644306397
 51
347.3023355693603
  0
ARC
  5
28F
330
1F
100
AcDbEntity
  8
100
  6
Continuous
 62
     3
100
AcDbCircle
 10
58.7499994810685
 20
294.861795702536
 30
0.0
 40
8.00000000000031
100
AcDbArc
 50
119.9999999999971
 51
167.3023355693616
  0
ARC
  5
290
330
1F
100
AcDbEntity
  8
100
  6
Continuous
 62
     3
100
AcDbCircle
 10
2.16847620216511
 20
307.610569111728
 30
0.0
 40
49.99999999999979
100
AcDbArc
 50
312.6976644306399
 51
347.3023355693599
  0
ARC
  5
291
330
1F
100
AcDbEntity
  8
100
  6
Continuous
 62
     3
100
AcDbCircle
 10
75.9999994810685
 20
350.237218951483
 30
0.0
 40
51.50000000000004
100
AcDbArc
 50
252.6976644306397
 51
287.3023355693603
  0
ARC
  5
292
330
1F
100
AcDbEntity
  8
100
  6
Continuous
 62
     3
100
AcDbCircle
 10
75.9999994810685
 20
350.237218951483
 30
0.0
 40
50.0
100
AcDbArc
 50
252.6976644306397
 51
287.3023355693604
  0
ARC
  5
293
330
1F
100
AcDbEntity
  8
100
  6
Continuous
 62
     3
100
AcDbCircle
 10
58.7499994810685
 20
294.861795702536
 30
0.0
 40
8.000000000000133
100
AcDbArc
 50
72.6976644306399
 51
119.9999999999971
  0
ARC
  5
294
330
1F
100
AcDbEntity
  8
100
  6
Continuous
 62
     3
100
AcDbCircle
 10
93.2499994810685
 20
294.861795702536
 30
0.0
 40
8.000000000000211
100
AcDbArc
 50
60.00000000000417
 51
107.3023355693594
  0
ARC
  5
295
330
1F
100
AcDbEntity
  8
100
  6
Continuous
 62
     3
100
AcDbCircle
 10
216.787484797297
 20
67.0554871372799
 30
0.0
 40
20.00000000000034
100
AcDbArc
 50
344.4238608360944
 51
0.0
  0
ARC
  5
296
330
1F
100
AcDbEntity
  8
100
  6
Continuous
 62
     3
100
AcDbCircle
 10
303.787484797297
 20
67.0554871372799
 30
0.0
 40
20.0
100
AcDbArc
 50
180.0
 51
195.5761391639054
  0
ARC
  5
297
330
1F
100
AcDbEntity
  8
100
  6
Continuous
 62
     3
100
AcDbCircle
 10
260.287484797297
 20
44.5
 30
0.0
 40
29.00000000000001
100
AcDbArc
 50
338.5966503605933
 51
21.40334963940655
  0
ARC
  5
298
330
1F
100
AcDbEntity
  8
100
  6
Continuous
 62
     3
100
AcDbCircle
 10
260.287484797297
 20
44.5
 30
0.0
 40
29.00000000000008
100
AcDbArc
 50
278.5966503605947
 51
321.4033496394073
  0
ARC
  5
299
330
1F
100
AcDbEntity
  8
100
  6
Continuous
 62
     3
100
AcDbCircle
 10
260.287484797297
 20
44.5
 30
0.0
 40
28.99999999999942
100
AcDbArc
 50
218.5966503605941
 51
261.4033496394072
  0
ARC
  5
29A
330
1F
100
AcDbEntity
  8
100
  6
Continuous
 62
     3
100
AcDbCircle
 10
260.287484797297
 20
44.5
 30
0.0
 40
29.00000000000001
100
AcDbArc
 50
158.5966503605933
 51
201.4033496394067
  0
ARC
  5
29B
330
1F
100
AcDbEntity
  8
100
  6
Continuous
 62
     3
100
AcDbCircle
 10
260.287484797297
 20
105.430321630266
 30
0.0
 40
7.684003625864088
100
AcDbArc
 50
58.63004568131871
 51
121.3699543186813
  0
ARC
  5
29C
330
1F
100
AcDbEntity
  8
100
  6
Continuous
 62
     3
100
AcDbCircle
 10
249.107288700016
 20
163.5
 30
0.0
 40
1.00000000000003
100
AcDbArc
 50
191.309932474009
 51
270.0
  0
ARC
  5
29D
330
1F
100
AcDbEntity
  8
100
  6
Continuous
 62
     3
100
AcDbCircle
 10
271.467680894579
 20
163.5
 30
0.0
 40
1.0
100
AcDbArc
 50
270.0
 51
348.6900675259794
  0
ARC
  5
29E
330
1F
100
AcDbEntity
  8
100
  6
Continuous
 62
     3
100
AcDbCircle
 10
254.287484797297
 20
181.5
 30
0.0
 40
1.0
100
AcDbArc
 50
90.0
 51
180.0
  0
ARC
  5
29F
330
1F
100
AcDbEntity
  8
100
  6
Continuous
 62
     3
100
AcDbCircle
 10
295.293921690942
 20
180.5
 30
0.0
 40
2.000000000000613
100
AcDbArc
 50
19.77327485029976
 51
90.0
  0
ARC
  5
2A0
330
1F
100
AcDbEntity
  8
100
  6
Continuous
 62
     3
100
AcDbCircle
 10
291.163399660564
 20
167.5
 30
0.0
 40
2.000000000000213
100
AcDbArc
 50
63.43494882292129
 51
90.0
  0
ARC
  5
2A1
330
1F
100
AcDbEntity
  8
100
  6
Continuous
 62
     3
100
AcDbCircle
 10
294.107671570563
 20
170.5
 30
0.0
 40
2.000000000000213
100
AcDbArc
 50
243.4349488229213
 51
270.0
  0
ARC
  5
2A2
330
1F
100
AcDbEntity
  8
100
  6
Continuous
 62
     3
100
AcDbCircle
 10
295.293921690942
 20
170.5
 30
0.0
 40
2.0
100
AcDbArc
 50
270.0
 51
340.226725149727
  0
ARC
  5
2A3
330
1F
100
AcDbEntity
  8
100
  6
Continuous
 62
     3
100
AcDbCircle
 10
281.385535615563
 20
175.5
 30
0.0
 40
16.77982419454996
100
AcDbArc
 50
340.2267251497108
 51
19.77327485029246
  0
ARC
  5
2A4
330
1F
100
AcDbEntity
  8
100
  6
Continuous
 62
     3
100
AcDbCircle
 10
266.287484797297
 20
181.5
 30
0.0
 40
1.0
100
AcDbArc
 50
0.0
 51
90.0
  0
ARC
  5
2A5
330
1F
100
AcDbEntity
  8
100
  6
Continuous
 62
     3
100
AcDbCircle
 10
285.077054055675
 20
180.5
 30
0.0
 40
2.0
100
AcDbArc
 50
90.0
 51
149.9999999999873
  0
ARC
  5
2A6
330
1F
100
AcDbEntity
  8
100
  6
Continuous
 62
     3
100
AcDbCircle
 10
284.037484797297
 20
83.75
 30
0.0
 40
0.25
100
AcDbArc
 50
90.0
 51
180.0
  0
ARC
  5
2A7
330
1F
100
AcDbEntity
  8
100
  6
Continuous
 62
     3
100
AcDbCircle
 10
236.537484797297
 20
83.75
 30
0.0
 40
0.25
100
AcDbArc
 50
0.0
 51
90.0
  0
ARC
  5
2A8
330
1F
100
AcDbEntity
  8
2
  6
DOTTED
 62
     6
100
AcDbCircle
 10
60.5883205266129
 20
155.261338826158
 30
0.0
 40
2.999999999999936
100
AcDbArc
 50
11.30993247400962
 51
61.18920625701757
  0
ARC
  5
2A9
330
1F
100
AcDbEntity
  8
2
  6
DOTTED
 62
     6
100
AcDbCircle
 10
64.8198039027187
 20
154.5
 30
0.0
 40
1.000000000000043
100
AcDbArc
 50
191.3099324740089
 51
269.9999999999886
  0
ARC
  5
2AA
330
1F
100
AcDbEntity
  8
2
  6
DOTTED
 62
     6
100
AcDbCircle
 10
87.1801960972813
 20
154.5
 30
0.0
 40
1.0
100
AcDbArc
 50
270.0
 51
348.6900675259911
  0
ARC
  5
2AB
330
1F
100
AcDbEntity
  8
2
  6
DOTTED
 62
     6
100
AcDbCircle
 10
91.4116794733871
 20
155.261338826158
 30
0.0
 40
2.999999999999998
100
AcDbArc
 50
118.8107937429714
 51
168.6900675259903
  0
ARC
  5
2AC
330
1F
100
AcDbEntity
  8
2
  6
DOTTED
 62
     6
100
AcDbCircle
 10
105.441518440112
 20
171.5
 30
0.0
 40
2.0
100
AcDbArc
 50
90.0
 51
150.0000000000019
  0
ARC
  5
2AD
330
1F
100
AcDbEntity
  8
2
  6
DOTTED
 62
     6
100
AcDbCircle
 10
86.9999999999998
 20
172.5
 30
0.0
 40
1.0
100
AcDbArc
 50
90.0
 51
180.0
  0
ARC
  5
2AE
330
1F
100
AcDbEntity
  8
2
  6
DOTTED
 62
     6
100
AcDbCircle
 10
98.9999999999998
 20
172.5
 30
0.0
 40
1.0
100
AcDbArc
 50
0.0
 51
90.0
  0
ARC
  5
2AF
330
1F
100
AcDbEntity
  8
2
  6
DOTTED
 62
     6
100
AcDbCircle
 10
65.0000000000002
 20
172.5
 30
0.0
 40
1.0
100
AcDbArc
 50
0.0
 51
90.0
  0
ARC
  5
2B0
330
1F
100
AcDbEntity
  8
2
  6
DOTTED
 62
     6
100
AcDbCircle
 10
53.0000000000002
 20
172.5
 30
0.0
 40
1.0
100
AcDbArc
 50
90.0
 51
180.0
  0
ARC
  5
2B1
330
1F
100
AcDbEntity
  8
2
  6
DOTTED
 62
     6
100
AcDbCircle
 10
36.3416139246211
 20
171.5
 30
0.0
 40
2.0
100
AcDbArc
 50
90.0
 51
160.2267251496943
  0
ARC
  5
2B2
330
1F
100
AcDbEntity
  8
2
  6
DOTTED
 62
     6
100
AcDbCircle
 10
46.558481559888
 20
171.5
 30
0.0
 40
2.000000000000016
100
AcDbArc
 50
29.99999999999973
 51
90.0
  0
ARC
  5
2B3
330
1F
100
AcDbEntity
  8
2
  6
DOTTED
 62
     6
100
AcDbCircle
 10
50.2500000000001
 20
166.5
 30
0.0
 40
16.77982419454972
100
AcDbArc
 50
160.2267251497069
 51
199.7732748502895
  0
ARC
  5
2B4
330
1F
100
AcDbEntity
  8
2
  6
DOTTED
 62
     6
100
AcDbCircle
 10
40.4721359549997
 20
158.5
 30
0.0
 40
2.0
100
AcDbArc
 50
90.0
 51
116.5650511770778
  0
ARC
  5
2B5
330
1F
100
AcDbEntity
  8
2
  6
DOTTED
 62
     6
100
AcDbCircle
 10
37.5278640450005
 20
161.5
 30
0.0
 40
2.0
100
AcDbArc
 50
270.0
 51
296.5650511770752
  0
ARC
  5
2B6
330
1F
100
AcDbEntity
  8
2
  6
DOTTED
 62
     6
100
AcDbCircle
 10
36.341613924621
 20
161.5
 30
0.0
 40
1.999999999999975
100
AcDbArc
 50
199.7732748502761
 51
270.0
  0
ARC
  5
2B7
330
1F
100
AcDbEntity
  8
2
  6
DOTTED
 62
     6
100
AcDbCircle
 10
53.4721359549997
 20
161.5
 30
0.0
 40
2.000000000000197
100
AcDbArc
 50
243.4349488229222
 51
270.0
  0
ARC
  5
2B8
330
1F
100
AcDbEntity
  8
2
  6
DOTTED
 62
     6
100
AcDbCircle
 10
50.5278640450004
 20
158.5
 30
0.0
 40
2.000000000000197
100
AcDbArc
 50
63.4349488229222
 51
90.0
  0
ARC
  5
2B9
330
1F
100
AcDbEntity
  8
2
  6
DOTTED
 62
     6
100
AcDbCircle
 10
101.472135955
 20
158.5
 30
0.0
 40
2.0
100
AcDbArc
 50
90.0
 51
116.565051177078
  0
ARC
  5
2BA
330
1F
100
AcDbEntity
  8
2
  6
DOTTED
 62
     6
100
AcDbCircle
 10
98.5278640450003
 20
161.5
 30
0.0
 40
2.0
100
AcDbArc
 50
270.0
 51
296.565051177078
  0
ARC
  5
2BB
330
1F
100
AcDbEntity
  8
2
  6
DOTTED
 62
     6
100
AcDbCircle
 10
111.527864045
 20
158.5
 30
0.0
 40
2.0000000000002
100
AcDbArc
 50
63.43494882292201
 51
90.0
  0
ARC
  5
2BC
330
1F
100
AcDbEntity
  8
2
  6
DOTTED
 62
     6
100
AcDbCircle
 10
114.472135955
 20
161.5
 30
0.0
 40
2.0000000000002
100
AcDbArc
 50
243.434948822922
 51
270.0
  0
ARC
  5
2BD
330
1F
100
AcDbEntity
  8
2
  6
DOTTED
 62
     6
100
AcDbCircle
 10
115.658386075379
 20
161.5
 30
0.0
 40
2.0
100
AcDbArc
 50
270.0
 51
340.2267251497269
  0
ARC
  5
2BE
330
1F
100
AcDbEntity
  8
2
  6
DOTTED
 62
     6
100
AcDbCircle
 10
115.658386075379
 20
171.5
 30
0.0
 40
2.000000000000599
100
AcDbArc
 50
19.7732748502999
 51
90.0
  0
ARC
  5
2BF
330
1F
100
AcDbEntity
  8
2
  6
DOTTED
 62
     6
100
AcDbCircle
 10
101.75
 20
166.5
 30
0.0
 40
16.77982419454996
100
AcDbArc
 50
340.2267251497108
 51
19.77327485029246
  0
ARC
  5
2C0
330
1F
100
AcDbEntity
  8
100
  6
Continuous
 62
     3
100
AcDbCircle
 10
65.0000000000002
 20
181.5
 30
0.0
 40
1.0
100
AcDbArc
 50
0.0
 51
90.0
  0
ARC
  5
2C1
330
1F
100
AcDbEntity
  8
100
  6
Continuous
 62
     3
100
AcDbCircle
 10
36.3416139246211
 20
180.5
 30
0.0
 40
2.0
100
AcDbArc
 50
90.0
 51
160.2267251496943
  0
ARC
  5
2C2
330
1F
100
AcDbEntity
  8
100
  6
Continuous
 62
     3
100
AcDbCircle
 10
53.0000000000002
 20
181.5
 30
0.0
 40
1.0
100
AcDbArc
 50
90.0
 51
180.0
  0
ARC
  5
2C3
330
1F
100
AcDbEntity
  8
100
  6
Continuous
 62
     3
100
AcDbCircle
 10
46.558481559888
 20
180.5
 30
0.0
 40
1.999999999999672
100
AcDbArc
 50
30.00000000000543
 51
90.0
  0
ARC
  5
2C4
330
1F
100
AcDbEntity
  8
100
  6
Continuous
 62
     3
100
AcDbCircle
 10
64.8198039027187
 20
163.5
 30
0.0
 40
1.000000000000043
100
AcDbArc
 50
191.3099324740089
 51
269.9999999999886
  0
ARC
  5
2C5
330
1F
100
AcDbEntity
  8
100
  6
Continuous
 62
     3
100
AcDbCircle
 10
60.5883205266129
 20
164.261338826158
 30
0.0
 40
2.999999999999936
100
AcDbArc
 50
11.30993247400962
 51
61.18920625701757
  0
ARC
  5
2C6
330
1F
100
AcDbEntity
  8
100
  6
Continuous
 62
     3
100
AcDbCircle
 10
58.8540251442108
 20
170.5
 30
0.0
 40
2.0
100
AcDbArc
 50
270.0
 51
284.4053968714831
  0
ARC
  5
2C7
330
1F
100
AcDbEntity
  8
100
  6
Continuous
 62
     3
100
AcDbCircle
 10
53.4721359549997
 20
170.5
 30
0.0
 40
2.000000000000197
100
AcDbArc
 50
243.4349488229222
 51
270.0
  0
ARC
  5
2C8
330
1F
100
AcDbEntity
  8
100
  6
Continuous
 62
     3
100
AcDbCircle
 10
40.4721359549997
 20
167.5
 30
0.0
 40
2.0
100
AcDbArc
 50
90.0
 51
116.5650511770778
  0
ARC
  5
2C9
330
1F
100
AcDbEntity
  8
100
  6
Continuous
 62
     3
100
AcDbCircle
 10
37.5278640450005
 20
170.5
 30
0.0
 40
2.0
100
AcDbArc
 50
270.0
 51
296.5650511770752
  0
ARC
  5
2CA
330
1F
100
AcDbEntity
  8
100
  6
Continuous
 62
     3
100
AcDbCircle
 10
36.341613924621
 20
170.5
 30
0.0
 40
1.999999999999975
100
AcDbArc
 50
199.7732748502761
 51
270.0
  0
ARC
  5
2CB
330
1F
100
AcDbEntity
  8
100
  6
Continuous
 62
     3
100
AcDbCircle
 10
50.2500000000001
 20
175.5
 30
0.0
 40
16.77982419454972
100
AcDbArc
 50
160.2267251497069
 51
199.7732748502895
  0
ARC
  5
2CC
330
1F
100
AcDbEntity
  8
100
  6
Continuous
 62
     3
100
AcDbCircle
 10
63.2527544538778
 20
167.5
 30
0.0
 40
2.0
100
AcDbArc
 50
90.0
 51
104.4053968714831
  0
ARC
  5
2CD
330
1F
100
AcDbEntity
  8
100
  6
Continuous
 62
     3
100
AcDbCircle
 10
50.5278640450004
 20
167.5
 30
0.0
 40
2.000000000000197
100
AcDbArc
 50
63.4349488229222
 51
90.0
  0
ARC
  5
2CE
330
1F
100
AcDbEntity
  8
5
  6
Continuous
 62
     3
100
AcDbCircle
 10
67.5000000000002
 20
175.5
 30
0.0
 40
16.77982419454989
100
AcDbArc
 50
161.2972207919402
 51
198.5230634625847
  0
ARC
  5
2CF
330
1F
100
AcDbEntity
  8
100
  6
Continuous
 62
     3
100
AcDbCircle
 10
87.1801960972813
 20
163.5
 30
0.0
 40
1.0
100
AcDbArc
 50
270.0
 51
348.6900675259911
  0
ARC
  5
2D0
330
1F
100
AcDbEntity
  8
100
  6
Continuous
 62
     3
100
AcDbCircle
 10
86.9999999999998
 20
181.5
 30
0.0
 40
1.0
100
AcDbArc
 50
90.0
 51
180.0
  0
ARC
  5
2D1
330
1F
100
AcDbEntity
  8
100
  6
Continuous
 62
     3
100
AcDbCircle
 10
91.4116794733871
 20
164.261338826158
 30
0.0
 40
2.999999999999181
100
AcDbArc
 50
118.8107937429824
 51
168.6900675259903
  0
ARC
  5
2D2
330
1F
100
AcDbEntity
  8
100
  6
Continuous
 62
     3
100
AcDbCircle
 10
93.1459748557892
 20
170.5
 30
0.0
 40
2.000000000000249
100
AcDbArc
 50
255.5946031285167
 51
270.0
  0
ARC
  5
2D3
330
1F
100
AcDbEntity
  8
100
  6
Continuous
 62
     3
100
AcDbCircle
 10
98.5278640450003
 20
170.5
 30
0.0
 40
2.0
100
AcDbArc
 50
270.0
 51
296.565051177078
  0
ARC
  5
2D4
330
1F
100
AcDbEntity
  8
100
  6
Continuous
 62
     3
100
AcDbCircle
 10
115.658386075379
 20
180.5
 30
0.0
 40
2.000000000000599
100
AcDbArc
 50
19.7732748502999
 51
90.0
  0
ARC
  5
2D5
330
1F
100
AcDbEntity
  8
100
  6
Continuous
 62
     3
100
AcDbCircle
 10
111.527864045
 20
167.5
 30
0.0
 40
2.0000000000002
100
AcDbArc
 50
63.43494882292201
 51
90.0
  0
ARC
  5
2D6
330
1F
100
AcDbEntity
  8
100
  6
Continuous
 62
     3
100
AcDbCircle
 10
114.472135955
 20
170.5
 30
0.0
 40
2.0000000000002
100
AcDbArc
 50
243.434948822922
 51
270.0
  0
ARC
  5
2D7
330
1F
100
AcDbEntity
  8
100
  6
Continuous
 62
     3
100
AcDbCircle
 10
115.658386075379
 20
170.5
 30
0.0
 40
2.0
100
AcDbArc
 50
270.0
 51
340.2267251497269
  0
ARC
  5
2D8
330
1F
100
AcDbEntity
  8
100
  6
Continuous
 62
     3
100
AcDbCircle
 10
101.75
 20
175.5
 30
0.0
 40
16.77982419454996
100
AcDbArc
 50
340.2267251497108
 51
19.77327485029246
  0
ARC
  5
2D9
330
1F
100
AcDbEntity
  8
100
  6
Continuous
 62
     3
100
AcDbCircle
 10
98.9999999999998
 20
181.5
 30
0.0
 40
1.0
100
AcDbArc
 50
0.0
 51
90.0
  0
ARC
  5
2DA
330
1F
100
AcDbEntity
  8
100
  6
Continuous
 62
     3
100
AcDbCircle
 10
88.7472455461222
 20
167.5
 30
0.0
 40
2.000000000000245
100
AcDbArc
 50
75.59460312851708
 51
90.0
  0
ARC
  5
2DB
330
1F
100
AcDbEntity
  8
100
  6
Continuous
 62
     3
100
AcDbCircle
 10
101.472135955
 20
167.5
 30
0.0
 40
2.0
100
AcDbArc
 50
90.0
 51
116.565051177078
  0
ARC
  5
2DC
330
1F
100
AcDbEntity
  8
100
  6
Continuous
 62
     3
100
AcDbCircle
 10
105.441518440112
 20
180.5
 30
0.0
 40
2.0
100
AcDbArc
 50
90.0
 51
150.0000000000019
  0
ARC
  5
2DD
330
1F
100
AcDbEntity
  8
5
  6
Continuous
 62
     3
100
AcDbCircle
 10
84.4999999999998
 20
175.5
 30
0.0
 40
16.77982419454973
100
AcDbArc
 50
341.476936537415
 51
18.70277920806026
  0
ARC
  5
2DE
330
1F
100
AcDbEntity
  8
100
  6
Continuous
 62
     3
100
AcDbCircle
 10
61.0556800706136
 20
91.7052107829615
 30
0.0
 40
21.4100000000001
100
AcDbArc
 50
87.10441417919293
 51
108.6488101507985
  0
ARC
  5
2DF
330
1F
100
AcDbEntity
  8
100
  6
Continuous
 62
     3
100
AcDbCircle
 10
90.9443199293864
 20
91.7052107829615
 30
0.0
 40
21.41000000000042
100
AcDbArc
 50
71.35118984920153
 51
92.89558582080704
  0
ARC
  5
2E0
330
1F
100
AcDbEntity
  8
100
  6
Continuous
 62
     3
100
AcDbCircle
 10
99.5
 20
93.5
 30
0.0
 40
1.0
100
AcDbArc
 50
180.0
 51
270.0
  0
ARC
  5
2E1
330
1F
100
AcDbEntity
  8
100
  6
Continuous
 62
     3
100
AcDbCircle
 10
52.5
 20
93.5
 30
0.0
 40
1.0
100
AcDbArc
 50
270.0
 51
0.0
  0
ARC
  5
2E2
330
1F
100
AcDbEntity
  8
100
  6
Continuous
 62
     3
100
AcDbCircle
 10
99.75
 20
83.75
 30
0.0
 40
0.25
100
AcDbArc
 50
90.0
 51
180.0
  0
ARC
  5
2E3
330
1F
100
AcDbEntity
  8
100
  6
Continuous
 62
     3
100
AcDbCircle
 10
49.0482773417924
 20
15.5000000000001
 30
0.0
 40
4.0
100
AcDbArc
 50
90.0
 51
140.0000000000005
  0
ARC
  5
2E4
330
1F
100
AcDbEntity
  8
100
  6
Continuous
 62
     3
100
AcDbCircle
 10
52.8483261944196
 20
15.5
 30
0.0
 40
4.000000000000011
100
AcDbArc
 50
70.39513831253619
 51
90.0
  0
ARC
  5
2E5
330
1F
100
AcDbEntity
  8
100
  6
Continuous
 62
     3
100
AcDbCircle
 10
99.1516738055805
 20
15.5
 30
0.0
 40
4.0
100
AcDbArc
 50
90.0
 51
109.6048616874652
  0
ARC
  5
2E6
330
1F
100
AcDbEntity
  8
100
  6
Continuous
 62
     3
100
AcDbCircle
 10
76.0
 20
80.5
 30
0.0
 40
64.99999999999997
100
AcDbArc
 50
250.3951383125361
 51
289.6048616874639
  0
ARC
  5
2E7
330
1F
100
AcDbEntity
  8
100
  6
Continuous
 62
     3
100
AcDbCircle
 10
102.951722658208
 20
15.5000000000001
 30
0.0
 40
4.000000000000032
100
AcDbArc
 50
39.99999999999858
 51
90.0
  0
ARC
  5
2E8
330
1F
100
AcDbEntity
  8
100
  6
Continuous
 62
     3
100
AcDbCircle
 10
103.5
 20
73.5
 30
0.0
 40
4.0
100
AcDbArc
 50
180.0
 51
266.0701722844684
  0
ARC
  5
2E9
330
1F
100
AcDbEntity
  8
100
  6
Continuous
 62
     3
100
AcDbCircle
 10
102.951722658208
 20
73.5
 30
0.0
 40
3.99999999999997
100
AcDbArc
 50
273.9298277155318
 51
320.0000000000014
  0
ARC
  5
2EA
330
1F
100
AcDbEntity
  8
100
  6
Continuous
 62
     3
100
AcDbCircle
 10
49.0482773417924
 20
73.5
 30
0.0
 40
3.999999999999956
100
AcDbArc
 50
219.9999999999995
 51
266.0701722844655
  0
ARC
  5
2EB
330
1F
100
AcDbEntity
  8
100
  6
Continuous
 62
     3
100
AcDbCircle
 10
48.5
 20
73.5
 30
0.0
 40
3.999999999999983
100
AcDbArc
 50
273.9298277155345
 51
0.0
  0
ARC
  5
2EC
330
1F
100
AcDbEntity
  8
100
  6
Continuous
 62
     3
100
AcDbCircle
 10
52.25
 20
83.75
 30
0.0
 40
0.25
100
AcDbArc
 50
0.0
 51
90.0
  0
CIRCLE
  5
2ED
330
1F
100
AcDbEntity
  8
100
  6
Continuous
 62
     3
100
AcDbCircle
 10
110.499999481069
 20
264.983919271973
 30
0.0
 40
6.5
  0
CIRCLE
  5
2EE
330
1F
100
AcDbEntity
  8
100
  6
Continuous
 62
     3
100
AcDbCircle
 10
93.2499994810685
 20
235.10604284141
 30
0.0
 40
6.5
  0
CIRCLE
  5
2EF
330
1F
100
AcDbEntity
  8
100
  6
Continuous
 62
     3
100
AcDbCircle
 10
58.7499994810685
 20
235.10604284141
 30
0.0
 40
6.5
  0
CIRCLE
  5
2F0
330
1F
100
AcDbEntity
  8
100
  6
Continuous
 62
     3
100
AcDbCircle
 10
41.4999994810685
 20
264.983919271973
 30
0.0
 40
6.5
  0
CIRCLE
  5
2F1
330
1F
100
AcDbEntity
  8
100
  6
Continuous
 62
     3
100
AcDbCircle
 10
58.7499994810685
 20
294.861795702536
 30
0.0
 40
6.5
  0
CIRCLE
  5
2F2
330
1F
100
AcDbEntity
  8
100
  6
Continuous
 62
     3
100
AcDbCircle
 10
75.9999994810685
 20
264.983919271973
 30
0.0
 40
12.0
  0
CIRCLE
  5
2F3
330
1F
100
AcDbEntity
  8
100
  6
Continuous
 62
     3
100
AcDbCircle
 10
75.9999994810685
 20
264.983919271973
 30
0.0
 40
27.9999999999995
  0
CIRCLE
  5
2F4
330
1F
100
AcDbEntity
  8
100
  6
Continuous
 62
     3
100
AcDbCircle
 10
93.2499994810685
 20
294.861795702536
 30
0.0
 40
6.5
  0
CIRCLE
  5
2F5
330
1F
100
AcDbEntity
  8
1
  6
Continuous
 62
     3
100
AcDbCircle
 10
260.287484797297
 20
44.5
 30
0.0
 40
20.95499999999998
  0
CIRCLE
  5
2F6
330
1F
100
AcDbEntity
  8
100
  6
Continuous
 62
     3
100
AcDbCircle
 10
260.287484797297
 20
44.5
 30
0.0
 40
19.476
  0
LWPOLYLINE
  5
2F7
330
1F
100
AcDbEntity
  8
100
  6
Continuous
 62
     3
100
AcDbPolyline
 90
        4
 70
     0
 43
0.0
 10
85.9026968587752
 20
240.731933644652
 42
0.23133765090694
 10
85.46500320129414
 20
240.7679389165112
 42
-0.1884858894166
 10
66.53499576084229
 20
240.767938916511
 42
0.23133765090646
 10
66.09730210336235
 20
240.7319336446519
  0
LWPOLYLINE
  5
2F8
330
1F
100
AcDbEntity
  8
100
  6
Continuous
 62
     3
100
AcDbPolyline
 90
        8
 70
     0
 43
0.0
 10
65.7485816282986
 20
240.547093946086
 42
0.14401283997077
 10
67.43957799247079
 20
242.042530808655
 10
72.807462454391
 20
250.592372558092
 42
-0.26894396973057
 10
75.4704249982656
 20
251.994710255749
 42
0.02037670644275
 10
76.52957396387139
 20
251.994710255749
 42
-0.26894396973057
 10
79.192536507746
 20
250.592372558092
 10
84.5604209696663
 20
242.042530808655
 42
0.14401283997077
 10
86.25141733383853
 20
240.5470939460861
  0
LWPOLYLINE
  5
2F9
330
1F
100
AcDbEntity
  8
100
  6
Continuous
 62
     3
100
AcDbPolyline
 90
        4
 70
     0
 43
0.0
 10
101.954183815397
 20
261.433913953396
 42
0.23133765090666
 10
101.7041555065562
 20
261.0728627628719
 42
-0.18848588941661
 10
92.2391517863301
 20
244.678995425612
 42
0.23133765090633
 10
92.05148643768986
 20
244.281938963229
  0
LWPOLYLINE
  5
2FA
330
1F
100
AcDbEntity
  8
100
  6
Continuous
 62
     3
100
AcDbPolyline
 90
        8
 70
     0
 43
0.0
 10
92.0372020747446
 20
243.887518323721
 42
0.1440128399708
 10
91.58761394409018
 20
246.099682564086
 10
86.867176021701
 20
255.023327747407
 42
-0.26894396973057
 10
86.9841972227832
 20
258.030689808557
 42
0.02037670644276
 10
87.51377170558634
 20
258.947939719164
 42
-0.26894396973059
 10
90.0597130483785
 20
260.552964082658
 10
100.148035432688
 20
260.926767516542
 42
0.1440128399708
 10
102.2886199275151
 20
261.6434948943379
  0
LWPOLYLINE
  5
2FB
330
1F
100
AcDbEntity
  8
100
  6
Continuous
 62
     3
100
AcDbPolyline
 90
        4
 70
     0
 43
0.0
 10
92.0514864376901
 20
285.685899580717
 42
0.23133765090663
 10
92.23915178633055
 20
285.2888431183341
 42
-0.1884858894166
 10
101.704155506556
 20
268.894975781074
 42
0.23133765090664
 10
101.9541838153969
 20
268.5339245905498
  0
LWPOLYLINE
  5
2FC
330
1F
100
AcDbEntity
  8
100
  6
Continuous
 62
     3
100
AcDbPolyline
 90
        8
 70
     0
 43
0.0
 10
102.288619927515
 20
268.324343649608
 42
0.1440128399708
 10
100.148035432688
 20
269.0410710274039
 10
90.0597130483785
 20
269.414874461288
 42
-0.2689439697306
 10
87.5137717055861
 20
271.019898824782
 42
0.02037670644274
 10
86.98419722278358
 20
271.937148735388
 42
-0.26894396973056
 10
86.8671760217009
 20
274.944510796538
 10
91.5876139440902
 20
283.86815597986
 42
0.14401283997077
 10
92.03720207474451
 20
286.080320220225
  0
LWPOLYLINE
  5
2FD
330
1F
100
AcDbEntity
  8
100
  6
Continuous
 62
     3
100
AcDbPolyline
 90
        4
 70
     0
 43
0.0
 10
59.9485125244469
 20
244.281938963229
 42
0.23133765090667
 10
59.76084717580638
 20
244.678995425612
 42
-0.1884858894166
 10
50.2958434555807
 20
261.072862762872
 42
0.23133765090646
 10
50.04581514674011
 20
261.433913953396
  0
LWPOLYLINE
  5
2FE
330
1F
100
AcDbEntity
  8
100
  6
Continuous
 62
     3
100
AcDbPolyline
 90
        8
 70
     0
 43
0.0
 10
49.7113790346225
 20
261.643494894337
 42
0.14401283997077
 10
51.85196352944892
 20
260.9267675165415
 10
61.9402859137585
 20
260.552964082658
 42
-0.2689439697306
 10
64.4862272565509
 20
258.947939719164
 42
0.02037670644276
 10
65.01580173935405
 20
258.030689808557
 42
-0.26894396973056
 10
65.132822940436
 20
255.023327747407
 10
60.4123850180468
 20
246.099682564086
 42
0.14401283997072
 10
59.96279688739234
 20
243.887518323722
  0
LWPOLYLINE
  5
2FF
330
1F
100
AcDbEntity
  8
100
  6
Continuous
 62
     3
100
AcDbPolyline
 90
        4
 70
     0
 43
0.0
 10
50.0458151467401
 20
268.53392459055
 42
0.23133765090654
 10
50.29584345558082
 20
268.894975781074
 42
-0.18848588941661
 10
59.7608471758068
 20
285.288843118334
 42
0.23133765090661
 10
59.94851252444634
 20
285.685899580717
  0
LWPOLYLINE
  5
300
330
1F
100
AcDbEntity
  8
100
  6
Continuous
 62
     3
100
AcDbPolyline
 90
        8
 70
     0
 43
0.0
 10
59.9627968873924
 20
286.080320220225
 42
0.14401283997079
 10
60.41238501804678
 20
283.86815597986
 10
65.132822940436
 20
274.944510796539
 42
-0.26894396973064
 10
65.0158017393538
 20
271.937148735388
 42
0.02037670644274
 10
64.48622725655125
 20
271.019898824782
 42
-0.26894396973052
 10
61.9402859137585
 20
269.414874461288
 10
51.8519635294489
 20
269.041071027404
 42
0.14401283997075
 10
49.71137903462203
 20
268.3243436496081
  0
LWPOLYLINE
  5
301
330
1F
100
AcDbEntity
  8
100
  6
Continuous
 62
     3
100
AcDbPolyline
 90
        8
 70
     0
 43
0.0
 10
86.2514173338384
 20
289.42074459786
 42
0.1440128399708
 10
84.56042096966642
 20
287.925307735291
 10
79.192536507746
 20
279.375465985854
 42
-0.26894396973058
 10
76.5295739638714
 20
277.973128288197
 42
0.02037670644275
 10
75.4704249982656
 20
277.973128288197
 42
-0.26894396973058
 10
72.807462454391
 20
279.375465985854
 10
67.4395779924706
 20
287.925307735291
 42
0.1440128399708
 10
65.74858162829862
 20
289.4207445978601
  0
LWPOLYLINE
  5
302
330
1F
100
AcDbEntity
  8
100
  6
Continuous
 62
     3
100
AcDbPolyline
 90
        4
 70
     0
 43
0.0
 10
66.0973021033617
 20
289.235904899294
 42
0.23133765090694
 10
66.53499576084278
 20
289.1998996274348
 42
-0.1884858894166
 10
85.4650032012947
 20
289.199899627435
 42
0.23133765090655
 10
85.90269685877479
 20
289.2359048992942
  0
LWPOLYLINE
  5
303
330
1F
100
AcDbEntity
  8
100
  6
Continuous
 62
     3
100
AcDbPolyline
 90
        8
 70
     1
 43
0.0
 10
260.287484797297
 20
75.6769145362398
 10
260.287484797297
 20
75.6769145362398
 10
233.287484797297
 20
60.0884572681199
 10
233.287484797297
 20
28.9115427318801
 10
260.287484797297
 20
13.3230854637602
 10
287.287484797297
 20
28.9115427318801
 10
287.287484797297
 20
60.0884572681199
 10
260.287484797297
 20
75.6769145362398
  0
LWPOLYLINE
  5
304
330
1F
100
AcDbEntity
  8
100
  6
Continuous
 62
     3
100
AcDbPolyline
 90
        6
 70
     1
 43
0.0
 10
54.5004968261719
 20
39.5
 10
54.5004968261719
 20
39.5
 10
56.320347997503
 20
44.5
 10
68.4372611072913
 20
44.5
 10
66.6174099359604
 20
39.5
 10
54.5004968261719
 20
39.5
  0
LWPOLYLINE
  5
305
330
1F
100
AcDbEntity
  8
100
  6
Continuous
 62
     3
100
AcDbPolyline
 90
        7
 70
     1
 43
0.0
 10
84.0
 20
44.5
 10
84.0
 20
44.5
 10
84.0
 20
43.3
 10
91.5182069312383
 20
43.3
 10
90.5
 20
39.5
 10
95.5
 20
44.5
 10
84.0
 20
44.5
  0
LEADER
  5
306
330
1F
100
AcDbEntity
  8
1
  6
Continuous
 62
     4
100
AcDbLeader
  3
Standard
 71
     0
 76
     3
 10
26.0
 20
44.5
 30
0.0
 10
8.1272771781265
 20
24.383836953305
 30
0.0
 10
-47.2196573057154
 20
24.383836953305
 30
0.0
  0
LEADER
  5
307
330
1F
100
AcDbEntity
  8
1
  6
Continuous
 62
     4
100
AcDbLeader
  3
Standard
 71
     0
 76
     3
 10
126.0
 20
44.5
 30
0.0
 10
143.138912752359
 20
21.1228266086484
 30
0.0
 10
197.719269196259
 20
21.1228266086484
 30
0.0
  0
DIMENSION
  5
33D
330
1F
100
AcDbEntity
  8
1
100
AcDbDimension
  2
*D1
 10
26.0
 20
-23.7781222510138
 30
0.0
 11
76.0
 21
-17.7781222510138
 31
0.0
 70
    32
  1
100
 71
     5
 42
-1.0
 53
0.00013888888889
  3
ME10_DIM_10
100
AcDbAlignedDimension
 13
126.0
 23
13.3230854637602
 33
0.0
 14
26.0
 24
13.3230854637602
 34
0.0
100
AcDbRotatedDimension
  0
DIMENSION
  5
34A
330
1F
100
AcDbEntity
  8
1
100
AcDbDimension
  2
*D3
 10
161.613699882191
 20
44.5
 30
0.0
 11
155.613699882191
 21
116.596819337516
 31
0.0
 70
    32
  1
138
 71
     5
 42
-1.0
 53
90.0
  3
ME10_DIM_11
100
AcDbAlignedDimension
 13
115.658386075379
 23
182.5
 33
0.0
 14
134.0
 24
44.5
 34
0.0
 50
90.0
100
AcDbRotatedDimension
  0
ENDSEC
  0
SECTION
  2
OBJECTS
  0
DICTIONARY
  5
C
330
0
100
AcDbDictionary
281
     1
  3
ACAD_GROUP
350
D
  3
ACAD_LAYOUT
350
1A
  3
ACAD_MATERIAL
350
3B
  3
ACAD_MLEADERSTYLE
350
34D
  3
ACAD_MLINESTYLE
350
17
  3
ACAD_PLOTSETTINGS
350
19
  3
ACAD_PLOTSTYLENAME
350
E
  3
ACAD_SCALELIST
350
311
  3
ACAD_VISUALSTYLE
350
2A
  3
AcDbVariableDictionary
350
34B
  0
DICTIONARY
  5
D
102
{ACAD_REACTORS
330
C
102
}
330
C
100
AcDbDictionary
281
     1
  0
DICTIONARY
  5
1A
102
{ACAD_REACTORS
330
C
102
}
330
C
100
AcDbDictionary
281
     1
  3
Layout1
350
1E
  3
Layout2
350
26
  3
Model
350
22
  0
DICTIONARY
  5
3B
102
{ACAD_REACTORS
330
C
102
}
330
C
100
AcDbDictionary
281
     1
  3
ByBlock
350
3D
  3
ByLayer
350
3C
  3
Global
350
3E
  0
DICTIONARY
  5
34D
102
{ACAD_REACTORS
330
C
102
}
330
C
100
AcDbDictionary
281
     1
  0
DICTIONARY
  5
17
102
{ACAD_REACTORS
330
C
102
}
330
C
100
AcDbDictionary
281
     1
  3
Standard
350
18
  0
DICTIONARY
  5
19
102
{ACAD_REACTORS
330
C
102
}
330
C
100
AcDbDictionary
281
     1
  0
ACDBDICTIONARYWDFLT
  5
E
102
{ACAD_REACTORS
330
C
102
}
330
C
100
AcDbDictionary
281
     1
  3
Normal
350
F
100
AcDbDictionaryWithDefault
340
F
  0
DICTIONARY
  5
311
102
{ACAD_REACTORS
330
C
102
}
330
C
100
AcDbDictionary
281
     1
  3
A0
350
312
  3
A1
350
313
  3
A2
350
314
  3
A3
350
315
  3
A4
350
316
  3
A5
350
317
  3
A6
350
318
  3
A7
350
319
  3
A8
350
31A
  3
A9
350
31B
  3
B0
350
31C
  3
B1
350
31D
  3
B2
350
31E
  3
B3
350
31F
  3
B4
350
320
  3
B5
350
321
  3
B6
350
322
  3
B7
350
323
  3
B8
350
324
  3
B9
350
325
  3
C0
350
326
  3
C1
350
327
  3
C2
350
328
  3
C3
350
329
  3
C4
350
32A
  3
C5
350
32B
  3
C6
350
32C
  3
C7
350
32D
  3
C8
350
32E
  3
C9
350
32F
  3
D0
350
330
  3
D1
350
331
  3
D2
350
332
  0
DICTIONARY
  5
2A
102
{ACAD_REACTORS
330
C
102
}
330
C
100
AcDbDictionary
281
     1
  3
2dWireframe
350
2F
  3
3D Hidden
350
31
  3
3dWireframe
350
30
  3
Basic
350
32
  3
Brighten
350
36
  3
ColorChange
350
3A
  3
Conceptual
350
34
  3
Dim
350
35
  3
Facepattern
350
39
  3
Flat
350
2B
  3
FlatWithEdges
350
2C
  3
Gouraud
350
2D
  3
GouraudWithEdges
350
2E
  3
Linepattern
350
38
  3
Realistic
350
33
  3
Thicken
350
37
  0
DICTIONARY
  5
34B
102
{ACAD_REACTORS
330
C
102
}
330
C
100
AcDbDictionary
281
     1
  3
CANNOSCALE
350
34E
  3
DIMASSOC
350
34F
  3
HIDETEXT
350
350
  0
LAYOUT
  5
1E
102
{ACAD_REACTORS
330
1A
102
}
330
1A
100
AcDbPlotSettings
  1

  2
none_device
  4

  6

 40
0.0
 41
0.0
 42
0.0
 43
0.0
 44
0.0
 45
0.0
 46
0.0
 47
0.0
 48
0.0
 49
0.0
140
0.0
141
0.0
142
1.0
143
1.0
 70
   688
 72
     0
 73
     0
 74
     5
  7

 75
    16
147
1.0
148
0.0
149
0.0
100
AcDbLayout
  1
Layout1
 70
     1
 71
     1
 10
0.0
 20
0.0
 11
12.0
 21
9.0
 12
0.0
 22
0.0
 32
0.0
 14
1.00000000000000E+20
 24
1.00000000000000E+20
 34
1.00000000000000E+20
 15
-1.00000000000000E+20
 25
-1.00000000000000E+20
 35
-1.00000000000000E+20
146
0.0
 13
0.0
 23
0.0
 33
0.0
 16
1.0
 26
0.0
 36
0.0
 17
0.0
 27
1.0
 37
0.0
 76
     0
330
1B
  0
LAYOUT
  5
26
102
{ACAD_REACTORS
330
1A
102
}
330
1A
100
AcDbPlotSettings
  1

  2
none_device
  4

  6

 40
0.0
 41
0.0
 42
0.0
 43
0.0
 44
0.0
 45
0.0
 46
0.0
 47
0.0
 48
0.0
 49
0.0
140
0.0
141
0.0
142
1.0
143
1.0
 70
   688
 72
     0
 73
     0
 74
     5
  7

 75
    16
147
1.0
148
0.0
149
0.0
100
AcDbLayout
  1
Layout2
 70
     1
 71
     2
 10
0.0
 20
0.0
 11
0.0
 21
0.0
 12
0.0
 22
0.0
 32
0.0
 14
0.0
 24
0.0
 34
0.0
 15
0.0
 25
0.0
 35
0.0
146
0.0
 13
0.0
 23
0.0
 33
0.0
 16
1.0
 26
0.0
 36
0.0
 17
0.0
 27
1.0
 37
0.0
 76
     0
330
23
  0
LAYOUT
  5
22
102
{ACAD_REACTORS
330
1A
102
}
330
1A
100
AcDbPlotSettings
  1

  2
none_device
  4

  6

 40
0.0
 41
0.0
 42
0.0
 43
0.0
 44
0.0
 45
0.0
 46
0.0
 47
0.0
 48
0.0
 49
0.0
140
0.0
141
0.0
142
1.0
143
1.0
 70
  1712
 72
     0
 73
     0
 74
     0
  7

 75
     0
147
1.0
148
0.0
149
0.0
100
AcDbLayout
  1
Model
 70
     1
 71
     0
 10
0.0
 20
0.0
 11
12.0
 21
9.0
 12
0.0
 22
0.0
 32
0.0
 14
-47.2196573057154
 24
-25.92171579046278
 34
0.0
 15
298.1653598101133
 25
303.955062442273
 35
0.0
146
0.0
 13
0.0
 23
0.0
 33
0.0
 16
1.0
 26
0.0
 36
0.0
 17
0.0
 27
1.0
 37
0.0
 76
     0
330
1F
331
29
  0
MATERIAL
  5
3D
102
{ACAD_REACTORS
330
3B
102
}
102
{ACAD_XDICTIONARY
360
373
102
}
330
3B
100
AcDbMaterial
  1
ByBlock
  0
MATERIAL
  5
3C
102
{ACAD_REACTORS
330
3B
102
}
102
{ACAD_XDICTIONARY
360
371
102
}
330
3B
100
AcDbMaterial
  1
ByLayer
  0
MATERIAL
  5
3E
102
{ACAD_REACTORS
330
3B
102
}
102
{ACAD_XDICTIONARY
360
375
102
}
330
3B
100
AcDbMaterial
  1
Global
  0
MLINESTYLE
  5
18
102
{ACAD_REACTORS
330
17
102
}
330
17
100
AcDbMlineStyle
  2
Standard
 70
     0
  3

 62
   256
 51
90.0
 52
90.0
 71
     2
 49
0.5
 62
   256
  6
BYLAYER
 49
-0.5
 62
   256
  6
BYLAYER
  0
ACDBPLACEHOLDER
  5
F
102
{ACAD_REACTORS
330
E
102
}
330
E
  0
SCALE
  5
312
102
{ACAD_REACTORS
330
311
102
}
330
311
100
AcDbScale
 70
     0
300
1:1
140
1.0
141
1.0
290
     1
  0
SCALE
  5
313
102
{ACAD_REACTORS
330
311
102
}
330
311
100
AcDbScale
 70
     0
300
1:2
140
1.0
141
2.0
290
     0
  0
SCALE
  5
314
102
{ACAD_REACTORS
330
311
102
}
330
311
100
AcDbScale
 70
     0
300
1:4
140
1.0
141
4.0
290
     0
  0
SCALE
  5
315
102
{ACAD_REACTORS
330
311
102
}
330
311
100
AcDbScale
 70
     0
300
1:5
140
1.0
141
5.0
290
     0
  0
SCALE
  5
316
102
{ACAD_REACTORS
330
311
102
}
330
311
100
AcDbScale
 70
     0
300
1:8
140
1.0
141
8.0
290
     0
  0
SCALE
  5
317
102
{ACAD_REACTORS
330
311
102
}
330
311
100
AcDbScale
 70
     0
300
1:10
140
1.0
141
10.0
290
     0
  0
SCALE
  5
318
102
{ACAD_REACTORS
330
311
102
}
330
311
100
AcDbScale
 70
     0
300
1:16
140
1.0
141
16.0
290
     0
  0
SCALE
  5
319
102
{ACAD_REACTORS
330
311
102
}
330
311
100
AcDbScale
 70
     0
300
1:20
140
1.0
141
20.0
290
     0
  0
SCALE
  5
31A
102
{ACAD_REACTORS
330
311
102
}
330
311
100
AcDbScale
 70
     0
300
1:30
140
1.0
141
30.0
290
     0
  0
SCALE
  5
31B
102
{ACAD_REACTORS
330
311
102
}
330
311
100
AcDbScale
 70
     0
300
1:40
140
1.0
141
40.0
290
     0
  0
SCALE
  5
31C
102
{ACAD_REACTORS
330
311
102
}
330
311
100
AcDbScale
 70
     0
300
1:50
140
1.0
141
50.0
290
     0
  0
SCALE
  5
31D
102
{ACAD_REACTORS
330
311
102
}
330
311
100
AcDbScale
 70
     0
300
1:100
140
1.0
141
100.0
290
     0
  0
SCALE
  5
31E
102
{ACAD_REACTORS
330
311
102
}
330
311
100
AcDbScale
 70
     0
300
2:1
140
2.0
141
1.0
290
     0
  0
SCALE
  5
31F
102
{ACAD_REACTORS
330
311
102
}
330
311
100
AcDbScale
 70
     0
300
4:1
140
4.0
141
1.0
290
     0
  0
SCALE
  5
320
102
{ACAD_REACTORS
330
311
102
}
330
311
100
AcDbScale
 70
     0
300
8:1
140
8.0
141
1.0
290
     0
  0
SCALE
  5
321
102
{ACAD_REACTORS
330
311
102
}
330
311
100
AcDbScale
 70
     0
300
10:1
140
10.0
141
1.0
290
     0
  0
SCALE
  5
322
102
{ACAD_REACTORS
330
311
102
}
330
311
100
AcDbScale
 70
     0
300
100:1
140
100.0
141
1.0
290
     0
  0
SCALE
  5
323
102
{ACAD_REACTORS
330
311
102
}
330
311
100
AcDbScale
 70
     0
300
1/128" = 1'-0"
140
0.0078125
141
12.0
290
     0
  0
SCALE
  5
324
102
{ACAD_REACTORS
330
311
102
}
330
311
100
AcDbScale
 70
     0
300
1/64" = 1'-0"
140
0.015625
141
12.0
290
     0
  0
SCALE
  5
325
102
{ACAD_REACTORS
330
311
102
}
330
311
100
AcDbScale
 70
     0
300
1/32" = 1'-0"
140
0.03125
141
12.0
290
     0
  0
SCALE
  5
326
102
{ACAD_REACTORS
330
311
102
}
330
311
100
AcDbScale
 70
     0
300
1/16" = 1'-0"
140
0.0625
141
12.0
290
     0
  0
SCALE
  5
327
102
{ACAD_REACTORS
330
311
102
}
330
311
100
AcDbScale
 70
     0
300
3/32" = 1'-0"
140
0.09375
141
12.0
290
     0
  0
SCALE
  5
328
102
{ACAD_REACTORS
330
311
102
}
330
311
100
AcDbScale
 70
     0
300
1/8" = 1'-0"
140
0.125
141
12.0
290
     0
  0
SCALE
  5
329
102
{ACAD_REACTORS
330
311
102
}
330
311
100
AcDbScale
 70
     0
300
3/16" = 1'-0"
140
0.1875
141
12.0
290
     0
  0
SCALE
  5
32A
102
{ACAD_REACTORS
330
311
102
}
330
311
100
AcDbScale
 70
     0
300
1/4" = 1'-0"
140
0.25
141
12.0
290
     0
  0
SCALE
  5
32B
102
{ACAD_REACTORS
330
311
102
}
330
311
100
AcDbScale
 70
     0
300
3/8" = 1'-0"
140
0.375
141
12.0
290
     0
  0
SCALE
  5
32C
102
{ACAD_REACTORS
330
311
102
}
330
311
100
AcDbScale
 70
     0
300
1/2" = 1'-0"
140
0.5
141
12.0
290
     0
  0
SCALE
  5
32D
102
{ACAD_REACTORS
330
311
102
}
330
311
100
AcDbScale
 70
     0
300
3/4" = 1'-0"
140
0.75
141
12.0
290
     0
  0
SCALE
  5
32E
102
{ACAD_REACTORS
330
311
102
}
330
311
100
AcDbScale
 70
     0
300
1" = 1'-0"
140
1.0
141
12.0
290
     0
  0
SCALE
  5
32F
102
{ACAD_REACTORS
330
311
102
}
330
311
100
AcDbScale
 70
     0
300
1-1/2" = 1'-0"
140
1.5
141
12.0
290
     0
  0
SCALE
  5
330
102
{ACAD_REACTORS
330
311
102
}
330
311
100
AcDbScale
 70
     0
300
3" = 1'-0"
140
3.0
141
12.0
290
     0
  0
SCALE
  5
331
102
{ACAD_REACTORS
330
311
102
}
330
311
100
AcDbScale
 70
     0
300
6" = 1'-0"
140
6.0
141
12.0
290
     0
  0
SCALE
  5
332
102
{ACAD_REACTORS
330
311
102
}
330
311
100
AcDbScale
 70
     0
300
1'-0" = 1'-0"
140
12.0
141
12.0
290
     0
  0
VISUALSTYLE
  5
2F
102
{ACAD_REACTORS
330
2A
102
}
102
{ACAD_XDICTIONARY
360
359
102
}
330
2A
100
AcDbVisualStyle
  2
2dWireframe
 70
     4
 71
     0
 72
     2
 73
     0
 90
        0
 40
-0.6
 41
-30.0
 62
     5
 63
     7
 74
     1
 91
        4
 64
     7
 65
   257
 75
     1
175
     1
 42
1.0
 92
        0
 66
   257
 43
1.0
 76
     1
 77
     6
 78
     2
 67
     7
 79
     5
170
     0
171
     0
290
     0
174
     0
 93
        1
 44
0.0
173
     0
291
     0
 45
0.0
1001
ACAD
1000
AcDbSavedByObjectVersion
1070
     0
  0
VISUALSTYLE
  5
31
102
{ACAD_REACTORS
330
2A
102
}
102
{ACAD_XDICTIONARY
360
35D
102
}
330
2A
100
AcDbVisualStyle
  2
3D Hidden
 70
     6
 71
     1
 72
     2
 73
     2
 90
        0
 40
-0.6
 41
-30.0
 62
     5
 63
     7
 74
     2
 91
        2
 64
     7
 65
   257
 75
     2
175
     1
 42
40.0
 92
        0
 66
   257
 43
1.0
 76
     1
 77
     6
 78
     2
 67
     7
 79
     3
170
     0
171
     0
290
     0
174
     0
 93
        1
 44
0.0
173
     0
291
     0
 45
0.0
1001
ACAD
1000
AcDbSavedByObjectVersion
1070
     0
  0
VISUALSTYLE
  5
30
102
{ACAD_REACTORS
330
2A
102
}
102
{ACAD_XDICTIONARY
360
35B
102
}
330
2A
100
AcDbVisualStyle
  2
3dWireframe
 70
     5
 71
     0
 72
     2
 73
     0
 90
        0
 40
-0.6
 41
-30.0
 62
     5
 63
     7
 74
     1
 91
        4
 64
     7
 65
   257
 75
     1
175
     1
 42
1.0
 92
        0
 66
   257
 43
1.0
 76
     1
 77
     6
 78
     2
 67
     7
 79
     5
170
     0
171
     0
290
     0
174
     0
 93
        1
 44
0.0
173
     0
291
     0
 45
0.0
1001
ACAD
1000
AcDbSavedByObjectVersion
1070
     0
  0
VISUALSTYLE
  5
32
102
{ACAD_REACTORS
330
2A
102
}
102
{ACAD_XDICTIONARY
360
35F
102
}
330
2A
100
AcDbVisualStyle
  2
Basic
 70
     7
 71
     1
 72
     0
 73
     1
 90
        0
 40
-0.6
 41
-30.0
 62
     5
 63
     7
 74
     0
 91
        4
 64
     7
 65
   257
 75
     1
175
     1
 42
1.0
 92
        8
 66
     7
 43
1.0
 76
     1
 77
     6
 78
     2
 67
     7
 79
     5
170
     0
171
     0
290
     0
174
     0
 93
        1
 44
0.0
173
     0
291
     1
 45
0.0
1001
ACAD
1000
AcDbSavedByObjectVersion
1070
     0
  0
VISUALSTYLE
  5
36
102
{ACAD_REACTORS
330
2A
102
}
102
{ACAD_XDICTIONARY
360
367
102
}
330
2A
100
AcDbVisualStyle
  2
Brighten
 70
    12
 71
     2
 72
     2
 73
     0
 90
        0
 40
-0.6
 41
-30.0
 62
     5
 63
     7
 74
     1
 91
        4
 64
     7
 65
   257
 75
     1
175
     1
 42
1.0
 92
        8
 66
     7
 43
1.0
 76
     1
 77
     6
 78
     2
 67
     7
 79
     5
170
     0
171
     0
290
     0
174
     0
 93
        1
 44
50.0
173
     0
291
     1
 45
0.0
1001
ACAD
1000
AcDbSavedByObjectVersion
1070
     0
  0
VISUALSTYLE
  5
3A
102
{ACAD_REACTORS
330
2A
102
}
102
{ACAD_XDICTIONARY
360
36F
102
}
330
2A
100
AcDbVisualStyle
  2
ColorChange
 70
    16
 71
     2
 72
     2
 73
     3
 90
        0
 40
-0.6
 41
-30.0
 62
     5
 63
     8
 74
     1
 91
        4
 64
     7
 65
   257
 75
     1
175
     1
 42
1.0
 92
        8
 66
     8
 43
1.0
 76
     1
 77
     6
 78
     2
 67
     7
 79
     5
170
     0
171
     0
290
     0
174
     0
 93
        1
 44
0.0
173
     0
291
     1
 45
0.0
1001
ACAD
1000
AcDbSavedByObjectVersion
1070
     0
  0
VISUALSTYLE
  5
34
102
{ACAD_REACTORS
330
2A
102
}
102
{ACAD_XDICTIONARY
360
363
102
}
330
2A
100
AcDbVisualStyle
  2
Conceptual
 70
     9
 71
     3
 72
     2
 73
     0
 90
        0
 40
-0.6
 41
-30.0
 62
     5
 63
     7
 74
     2
 91
        2
 64
     7
 65
   257
 75
     1
175
     1
 42
40.0
 92
        8
 66
     7
 43
1.0
 76
     1
 77
     6
 78
     2
 67
     7
 79
     3
170
     0
171
     0
290
     0
174
     0
 93
        1
 44
0.0
173
     0
291
     0
 45
0.0
1001
ACAD
1000
AcDbSavedByObjectVersion
1070
     0
  0
VISUALSTYLE
  5
35
102
{ACAD_REACTORS
330
2A
102
}
102
{ACAD_XDICTIONARY
360
365
102
}
330
2A
100
AcDbVisualStyle
  2
Dim
 70
    11
 71
     2
 72
     2
 73
     0
 90
        0
 40
-0.6
 41
-30.0
 62
     5
 63
     7
 74
     1
 91
        4
 64
     7
 65
   257
 75
     1
175
     1
 42
1.0
 92
        8
 66
     7
 43
1.0
 76
     1
 77
     6
 78
     2
 67
     7
 79
     5
170
     0
171
     0
290
     0
174
     0
 93
        1
 44
-50.0
173
     0
291
     1
 45
0.0
1001
ACAD
1000
AcDbSavedByObjectVersion
1070
     0
  0
VISUALSTYLE
  5
39
102
{ACAD_REACTORS
330
2A
102
}
102
{ACAD_XDICTIONARY
360
36D
102
}
330
2A
100
AcDbVisualStyle
  2
Facepattern
 70
    15
 71
     2
 72
     2
 73
     0
 90
        0
 40
-0.6
 41
-30.0
 62
     5
 63
     7
 74
     1
 91
        4
 64
     7
 65
   257
 75
     1
175
     1
 42
1.0
 92
        8
 66
     7
 43
1.0
 76
     1
 77
     6
 78
     2
 67
     7
 79
     5
170
     0
171
     0
290
     0
174
     0
 93
        1
 44
0.0
173
     0
291
     1
 45
0.0
1001
ACAD
1000
AcDbSavedByObjectVersion
1070
     0
  0
VISUALSTYLE
  5
2B
102
{ACAD_REACTORS
330
2A
102
}
102
{ACAD_XDICTIONARY
360
351
102
}
330
2A
100
AcDbVisualStyle
  2
Flat
 70
     0
 71
     2
 72
     1
 73
     1
 90
        2
 40
-0.6
 41
30.0
 62
     5
 63
     7
 74
     0
 91
        4
 64
     7
 65
   257
 75
     1
175
     1
 42
1.0
 92
        8
 66
     7
 43
1.0
 76
     1
 77
     6
 78
     2
 67
     7
 79
     5
170
     0
171
     0
290
     0
174
     0
 93
       13
 44
0.0
173
     0
291
     1
 45
0.0
1001
ACAD
1000
AcDbSavedByObjectVersion
1070
     0
  0
VISUALSTYLE
  5
2C
102
{ACAD_REACTORS
330
2A
102
}
102
{ACAD_XDICTIONARY
360
353
102
}
330
2A
100
AcDbVisualStyle
  2
FlatWithEdges
 70
     1
 71
     2
 72
     1
 73
     1
 90
        2
 40
-0.6
 41
30.0
 62
     5
 63
     7
 74
     1
 91
        4
 64
     7
 65
   257
 75
     1
175
     1
 42
1.0
 92
        0
 66
   257
 43
1.0
 76
     1
 77
     6
 78
     2
 67
     7
 79
     5
170
     0
171
     0
290
     0
174
     0
 93
       13
 44
0.0
173
     0
291
     1
 45
0.0
1001
ACAD
1000
AcDbSavedByObjectVersion
1070
     0
  0
VISUALSTYLE
  5
2D
102
{ACAD_REACTORS
330
2A
102
}
102
{ACAD_XDICTIONARY
360
355
102
}
330
2A
100
AcDbVisualStyle
  2
Gouraud
 70
     2
 71
     2
 72
     2
 73
     1
 90
        2
 40
-0.6
 41
30.0
 62
     5
 63
     7
 74
     0
 91
        4
 64
     7
 65
   257
 75
     1
175
     1
 42
1.0
 92
        0
 66
     7
 43
1.0
 76
     1
 77
     6
 78
     2
 67
     7
 79
     5
170
     0
171
     0
290
     0
174
     0
 93
       13
 44
0.0
173
     0
291
     1
 45
0.0
1001
ACAD
1000
AcDbSavedByObjectVersion
1070
     0
  0
VISUALSTYLE
  5
2E
102
{ACAD_REACTORS
330
2A
102
}
102
{ACAD_XDICTIONARY
360
357
102
}
330
2A
100
AcDbVisualStyle
  2
GouraudWithEdges
 70
     3
 71
     2
 72
     2
 73
     1
 90
        2
 40
-0.6
 41
30.0
 62
     5
 63
     7
 74
     1
 91
        4
 64
     7
 65
   257
 75
     1
175
     1
 42
1.0
 92
        0
 66
   257
 43
1.0
 76
     1
 77
     6
 78
     2
 67
     7
 79
     5
170
     0
171
     0
290
     0
174
     0
 93
       13
 44
0.0
173
     0
291
     1
 45
0.0
1001
ACAD
1000
AcDbSavedByObjectVersion
1070
     0
  0
VISUALSTYLE
  5
38
102
{ACAD_REACTORS
330
2A
102
}
102
{ACAD_XDICTIONARY
360
36B
102
}
330
2A
100
AcDbVisualStyle
  2
Linepattern
 70
    14
 71
     2
 72
     2
 73
     0
 90
        0
 40
-0.6
 41
-30.0
 62
     5
 63
     7
 74
     1
 91
        4
 64
     7
 65
   257
 75
     7
175
     7
 42
1.0
 92
        8
 66
     7
 43
1.0
 76
     1
 77
     6
 78
     2
 67
     7
 79
     5
170
     0
171
     0
290
     0
174
     0
 93
        1
 44
0.0
173
     0
291
     1
 45
0.0
1001
ACAD
1000
AcDbSavedByObjectVersion
1070
     0
  0
VISUALSTYLE
  5
33
102
{ACAD_REACTORS
330
2A
102
}
102
{ACAD_XDICTIONARY
360
361
102
}
330
2A
100
AcDbVisualStyle
  2
Realistic
 70
     8
 71
     2
 72
     2
 73
     0
 90
        0
 40
-0.6
 41
-30.0
 62
     5
 63
     7
 74
     1
 91
        0
 64
     7
 65
   257
 75
     1
175
     1
 42
1.0
 92
        8
 66
     8
 43
1.0
 76
     1
 77
     6
 78
     2
 67
     7
 79
     5
170
     0
171
     0
290
     0
174
     0
 93
       13
 44
0.0
173
     0
291
     0
 45
0.0
1001
ACAD
1000
AcDbSavedByObjectVersion
1070
     0
  0
VISUALSTYLE
  5
37
102
{ACAD_REACTORS
330
2A
102
}
102
{ACAD_XDICTIONARY
360
369
102
}
330
2A
100
AcDbVisualStyle
  2
Thicken
 70
    13
 71
     2
 72
     2
 73
     0
 90
        0
 40
-0.6
 41
-30.0
 62
     5
 63
     7
 74
     1
 91
        4
 64
     7
 65
   257
 75
     1
175
     1
 42
1.0
 92
       12
 66
     7
 43
1.0
 76
     1
 77
     6
 78
     2
 67
     7
 79
     5
170
     0
171
     0
290
     0
174
     0
 93
        1
 44
0.0
173
     0
291
     1
 45
0.0
1001
ACAD
1000
AcDbSavedByObjectVersion
1070
     0
  0
DICTIONARYVAR
  5
34E
102
{ACAD_REACTORS
330
34B
102
}
330
34B
100
DictionaryVariables
280
     0
  1
1:1
  0
DICTIONARYVAR
  5
34F
102
{ACAD_REACTORS
330
34B
102
}
330
34B
100
DictionaryVariables
280
     0
  1
2
  0
DICTIONARYVAR
  5
350
102
{ACAD_REACTORS
330
34B
102
}
330
34B
100
DictionaryVariables
280
     0
  1
1
  0
DICTIONARY
  5
373
330
3D
100
AcDbDictionary
280
     1
281
     1
  3
ACAD_XREC_ROUNDTRIP
360
374
  0
DICTIONARY
  5
371
330
3C
100
AcDbDictionary
280
     1
281
     1
  3
ACAD_XREC_ROUNDTRIP
360
372
  0
DICTIONARY
  5
375
330
3E
100
AcDbDictionary
280
     1
281
     1
  3
ACAD_XREC_ROUNDTRIP
360
376
  0
DICTIONARY
  5
359
330
2F
100
AcDbDictionary
280
     1
281
     1
  3
ACAD_XREC_ROUNDTRIP
360
35A
  0
DICTIONARY
  5
35D
330
31
100
AcDbDictionary
280
     1
281
     1
  3
ACAD_XREC_ROUNDTRIP
360
35E
  0
DICTIONARY
  5
35B
330
30
100
AcDbDictionary
280
     1
281
     1
  3
ACAD_XREC_ROUNDTRIP
360
35C
  0
DICTIONARY
  5
35F
330
32
100
AcDbDictionary
280
     1
281
     1
  3
ACAD_XREC_ROUNDTRIP
360
360
  0
DICTIONARY
  5
367
330
36
100
AcDbDictionary
280
     1
281
     1
  3
ACAD_XREC_ROUNDTRIP
360
368
  0
DICTIONARY
  5
36F
330
3A
100
AcDbDictionary
280
     1
281
     1
  3
ACAD_XREC_ROUNDTRIP
360
370
  0
DICTIONARY
  5
363
330
34
100
AcDbDictionary
280
     1
281
     1
  3
ACAD_XREC_ROUNDTRIP
360
364
  0
DICTIONARY
  5
365
330
35
100
AcDbDictionary
280
     1
281
     1
  3
ACAD_XREC_ROUNDTRIP
360
366
  0
DICTIONARY
  5
36D
330
39
100
AcDbDictionary
280
     1
281
     1
  3
ACAD_XREC_ROUNDTRIP
360
36E
  0
DICTIONARY
  5
351
330
2B
100
AcDbDictionary
280
     1
281
     1
  3
ACAD_XREC_ROUNDTRIP
360
352
  0
DICTIONARY
  5
353
330
2C
100
AcDbDictionary
280
     1
281
     1
  3
ACAD_XREC_ROUNDTRIP
360
354
  0
DICTIONARY
  5
355
330
2D
100
AcDbDictionary
280
     1
281
     1
  3
ACAD_XREC_ROUNDTRIP
360
356
  0
DICTIONARY
  5
357
330
2E
100
AcDbDictionary
280
     1
281
     1
  3
ACAD_XREC_ROUNDTRIP
360
358
  0
DICTIONARY
  5
36B
330
38
100
AcDbDictionary
280
     1
281
     1
  3
ACAD_XREC_ROUNDTRIP
360
36C
  0
DICTIONARY
  5
361
330
33
100
AcDbDictionary
280
     1
281
     1
  3
ACAD_XREC_ROUNDTRIP
360
362
  0
DICTIONARY
  5
369
330
37
100
AcDbDictionary
280
     1
281
     1
  3
ACAD_XREC_ROUNDTRIP
360
36A
  0
XRECORD
  5
374
102
{ACAD_REACTORS
330
373
102
}
330
373
100
AcDbXrecord
280
     1
102
MATERIAL
148
0.0
149
0.0
149
0.0
 93
        0
 94
      127
282
     0
 72
     1
 77
     1
171
     1
175
     1
179
     1
273
     0
  0
XRECORD
  5
372
102
{ACAD_REACTORS
330
371
102
}
330
371
100
AcDbXrecord
280
     1
102
MATERIAL
148
0.0
149
0.0
149
0.0
 93
        0
 94
      127
282
     0
 72
     1
 77
     1
171
     1
175
     1
179
     1
273
     0
  0
XRECORD
  5
376
102
{ACAD_REACTORS
330
375
102
}
330
375
100
AcDbXrecord
280
     1
102
MATERIAL
148
0.0
149
0.0
149
0.0
 93
        0
 94
      127
282
     0
 72
     1
 77
     1
171
     1
175
     1
179
     1
273
     0
  0
XRECORD
  5
35A
102
{ACAD_REACTORS
330
359
102
}
330
359
100
AcDbXrecord
280
     1
102
RTVSPropertyOp0
 70
     1
102
RTVSPropertyOp1
 70
     1
102
RTVSPropertyOp2
 70
     1
102
RTVSPropertyOp3
 70
     1
102
RTVSPropertyOp4
 70
     1
102
RTVSPropertyOp5
 70
     1
102
RTVSPropertyOp6
 70
     1
102
RTVSPropertyOp7
 70
     1
102
RTVSPropertyOp8
 70
     1
102
RTVSPropertyOp9
 70
     1
102
RTVSPropertyOp10
 70
     1
102
RTVSPropertyOp11
 70
     1
102
RTVSPropertyOp12
 70
     1
102
RTVSPropertyOp13
 70
     1
102
RTVSPropertyOp14
 70
     1
102
RTVSPropertyOp15
 70
     1
102
RTVSPropertyOp16
 70
     1
102
RTVSPropertyOp17
 70
     1
102
RTVSPropertyOp18
 70
     1
102
RTVSPropertyOp19
 70
     1
102
RTVSPropertyOp20
 70
     1
102
RTVSPropertyOp21
 70
     1
102
RTVSPropertyOp22
 70
     1
102
RTVSPropertyOp23
 70
     1
102
RTVSPropertyOp24
 70
     1
102
RTVSPropertyOp25
 70
     1
102
RTVSPropertyOp26
 70
     1
102
RTVSPropertyOp27
 70
     1
  0
XRECORD
  5
35E
102
{ACAD_REACTORS
330
35D
102
}
330
35D
100
AcDbXrecord
280
     1
102
RTVSPropertyOp0
 70
     1
102
RTVSPropertyOp1
 70
     1
102
RTVSPropertyOp2
 70
     1
102
RTVSPropertyOp3
 70
     1
102
RTVSPropertyOp4
 70
     1
102
RTVSPropertyOp5
 70
     1
102
RTVSPropertyOp6
 70
     1
102
RTVSPropertyOp7
 70
     1
102
RTVSPropertyOp8
 70
     1
102
RTVSPropertyOp9
 70
     1
102
RTVSPropertyOp10
 70
     1
102
RTVSPropertyOp11
 70
     1
102
RTVSPropertyOp12
 70
     1
102
RTVSPropertyOp13
 70
     1
102
RTVSPropertyOp14
 70
     1
102
RTVSPropertyOp15
 70
     1
102
RTVSPropertyOp16
 70
     1
102
RTVSPropertyOp17
 70
     1
102
RTVSPropertyOp18
 70
     1
102
RTVSPropertyOp19
 70
     1
102
RTVSPropertyOp20
 70
     1
102
RTVSPropertyOp21
 70
     1
102
RTVSPropertyOp22
 70
     1
102
RTVSPropertyOp23
 70
     1
102
RTVSPropertyOp24
 70
     1
102
RTVSPropertyOp25
 70
     1
102
RTVSPropertyOp26
 70
     1
102
RTVSPropertyOp27
 70
     1
  0
XRECORD
  5
35C
102
{ACAD_REACTORS
330
35B
102
}
330
35B
100
AcDbXrecord
280
     1
102
RTVSPropertyOp0
 70
     1
102
RTVSPropertyOp1
 70
     1
102
RTVSPropertyOp2
 70
     1
102
RTVSPropertyOp3
 70
     1
102
RTVSPropertyOp4
 70
     1
102
RTVSPropertyOp5
 70
     1
102
RTVSPropertyOp6
 70
     1
102
RTVSPropertyOp7
 70
     1
102
RTVSPropertyOp8
 70
     1
102
RTVSPropertyOp9
 70
     1
102
RTVSPropertyOp10
 70
     1
102
RTVSPropertyOp11
 70
     1
102
RTVSPropertyOp12
 70
     1
102
RTVSPropertyOp13
 70
     1
102
RTVSPropertyOp14
 70
     1
102
RTVSPropertyOp15
 70
     1
102
RTVSPropertyOp16
 70
     1
102
RTVSPropertyOp17
 70
     1
102
RTVSPropertyOp18
 70
     1
102
RTVSPropertyOp19
 70
     1
102
RTVSPropertyOp20
 70
     1
102
RTVSPropertyOp21
 70
     1
102
RTVSPropertyOp22
 70
     1
102
RTVSPropertyOp23
 70
     1
102
RTVSPropertyOp24
 70
     1
102
RTVSPropertyOp25
 70
     1
102
RTVSPropertyOp26
 70
     1
102
RTVSPropertyOp27
 70
     1
  0
XRECORD
  5
360
102
{ACAD_REACTORS
330
35F
102
}
330
35F
100
AcDbXrecord
280
     1
102
RTVSPropertyOp0
 70
     1
102
RTVSPropertyOp1
 70
     1
102
RTVSPropertyOp2
 70
     1
102
RTVSPropertyOp3
 70
     1
102
RTVSPropertyOp4
 70
     1
102
RTVSPropertyOp5
 70
     1
102
RTVSPropertyOp6
 70
     1
102
RTVSPropertyOp7
 70
     1
102
RTVSPropertyOp8
 70
     1
102
RTVSPropertyOp9
 70
     1
102
RTVSPropertyOp10
 70
     1
102
RTVSPropertyOp11
 70
     1
102
RTVSPropertyOp12
 70
     1
102
RTVSPropertyOp13
 70
     1
102
RTVSPropertyOp14
 70
     1
102
RTVSPropertyOp15
 70
     1
102
RTVSPropertyOp16
 70
     1
102
RTVSPropertyOp17
 70
     1
102
RTVSPropertyOp18
 70
     1
102
RTVSPropertyOp19
 70
     1
102
RTVSPropertyOp20
 70
     1
102
RTVSPropertyOp21
 70
     1
102
RTVSPropertyOp22
 70
     1
102
RTVSPropertyOp23
 70
     1
102
RTVSPropertyOp24
 70
     1
102
RTVSPropertyOp25
 70
     1
102
RTVSPropertyOp26
 70
     1
102
RTVSPropertyOp27
 70
     1
  0
XRECORD
  5
368
102
{ACAD_REACTORS
330
367
102
}
330
367
100
AcDbXrecord
280
     1
102
RTVSPropertyOp0
 70
     1
102
RTVSPropertyOp1
 70
     1
102
RTVSPropertyOp2
 70
     1
102
RTVSPropertyOp3
 70
     1
102
RTVSPropertyOp4
 70
     1
102
RTVSPropertyOp5
 70
     1
102
RTVSPropertyOp6
 70
     1
102
RTVSPropertyOp7
 70
     1
102
RTVSPropertyOp8
 70
     1
102
RTVSPropertyOp9
 70
     1
102
RTVSPropertyOp10
 70
     1
102
RTVSPropertyOp11
 70
     1
102
RTVSPropertyOp12
 70
     1
102
RTVSPropertyOp13
 70
     1
102
RTVSPropertyOp14
 70
     1
102
RTVSPropertyOp15
 70
     1
102
RTVSPropertyOp16
 70
     1
102
RTVSPropertyOp17
 70
     1
102
RTVSPropertyOp18
 70
     1
102
RTVSPropertyOp19
 70
     1
102
RTVSPropertyOp20
 70
     1
102
RTVSPropertyOp21
 70
     1
102
RTVSPropertyOp22
 70
     1
102
RTVSPropertyOp23
 70
     1
102
RTVSPropertyOp24
 70
     1
102
RTVSPropertyOp25
 70
     1
102
RTVSPropertyOp26
 70
     1
102
RTVSPropertyOp27
 70
     1
  0
XRECORD
  5
370
102
{ACAD_REACTORS
330
36F
102
}
330
36F
100
AcDbXrecord
280
     1
102
RTVSPropertyOp0
 70
     1
102
RTVSPropertyOp1
 70
     1
102
RTVSPropertyOp2
 70
     1
102
RTVSPropertyOp3
 70
     1
102
RTVSPropertyOp4
 70
     1
102
RTVSPropertyOp5
 70
     1
102
RTVSPropertyOp6
 70
     1
102
RTVSPropertyOp7
 70
     1
102
RTVSPropertyOp8
 70
     1
102
RTVSPropertyOp9
 70
     1
102
RTVSPropertyOp10
 70
     1
102
RTVSPropertyOp11
 70
     1
102
RTVSPropertyOp12
 70
     1
102
RTVSPropertyOp13
 70
     1
102
RTVSPropertyOp14
 70
     1
102
RTVSPropertyOp15
 70
     1
102
RTVSPropertyOp16
 70
     1
102
RTVSPropertyOp17
 70
     1
102
RTVSPropertyOp18
 70
     1
102
RTVSPropertyOp19
 70
     1
102
RTVSPropertyOp20
 70
     1
102
RTVSPropertyOp21
 70
     1
102
RTVSPropertyOp22
 70
     1
102
RTVSPropertyOp23
 70
     1
102
RTVSPropertyOp24
 70
     1
102
RTVSPropertyOp25
 70
     1
102
RTVSPropertyOp26
 70
     1
102
RTVSPropertyOp27
 70
     1
  0
XRECORD
  5
364
102
{ACAD_REACTORS
330
363
102
}
330
363
100
AcDbXrecord
280
     1
102
RTVSPropertyOp0
 70
     1
102
RTVSPropertyOp1
 70
     1
102
RTVSPropertyOp2
 70
     1
102
RTVSPropertyOp3
 70
     1
102
RTVSPropertyOp4
 70
     1
102
RTVSPropertyOp5
 70
     1
102
RTVSPropertyOp6
 70
     1
102
RTVSPropertyOp7
 70
     1
102
RTVSPropertyOp8
 70
     1
102
RTVSPropertyOp9
 70
     1
102
RTVSPropertyOp10
 70
     1
102
RTVSPropertyOp11
 70
     1
102
RTVSPropertyOp12
 70
     1
102
RTVSPropertyOp13
 70
     1
102
RTVSPropertyOp14
 70
     1
102
RTVSPropertyOp15
 70
     1
102
RTVSPropertyOp16
 70
     1
102
RTVSPropertyOp17
 70
     1
102
RTVSPropertyOp18
 70
     1
102
RTVSPropertyOp19
 70
     1
102
RTVSPropertyOp20
 70
     1
102
RTVSPropertyOp21
 70
     1
102
RTVSPropertyOp22
 70
     1
102
RTVSPropertyOp23
 70
     1
102
RTVSPropertyOp24
 70
     1
102
RTVSPropertyOp25
 70
     1
102
RTVSPropertyOp26
 70
     1
102
RTVSPropertyOp27
 70
     1
  0
XRECORD
  5
366
102
{ACAD_REACTORS
330
365
102
}
330
365
100
AcDbXrecord
280
     1
102
RTVSPropertyOp0
 70
     1
102
RTVSPropertyOp1
 70
     1
102
RTVSPropertyOp2
 70
     1
102
RTVSPropertyOp3
 70
     1
102
RTVSPropertyOp4
 70
     1
102
RTVSPropertyOp5
 70
     1
102
RTVSPropertyOp6
 70
     1
102
RTVSPropertyOp7
 70
     1
102
RTVSPropertyOp8
 70
     1
102
RTVSPropertyOp9
 70
     1
102
RTVSPropertyOp10
 70
     1
102
RTVSPropertyOp11
 70
     1
102
RTVSPropertyOp12
 70
     1
102
RTVSPropertyOp13
 70
     1
102
RTVSPropertyOp14
 70
     1
102
RTVSPropertyOp15
 70
     1
102
RTVSPropertyOp16
 70
     1
102
RTVSPropertyOp17
 70
     1
102
RTVSPropertyOp18
 70
     1
102
RTVSPropertyOp19
 70
     1
102
RTVSPropertyOp20
 70
     1
102
RTVSPropertyOp21
 70
     1
102
RTVSPropertyOp22
 70
     1
102
RTVSPropertyOp23
 70
     1
102
RTVSPropertyOp24
 70
     1
102
RTVSPropertyOp25
 70
     1
102
RTVSPropertyOp26
 70
     1
102
RTVSPropertyOp27
 70
     1
  0
XRECORD
  5
36E
102
{ACAD_REACTORS
330
36D
102
}
330
36D
100
AcDbXrecord
280
     1
102
RTVSPropertyOp0
 70
     1
102
RTVSPropertyOp1
 70
     1
102
RTVSPropertyOp2
 70
     1
102
RTVSPropertyOp3
 70
     1
102
RTVSPropertyOp4
 70
     1
102
RTVSPropertyOp5
 70
     1
102
RTVSPropertyOp6
 70
     1
102
RTVSPropertyOp7
 70
     1
102
RTVSPropertyOp8
 70
     1
102
RTVSPropertyOp9
 70
     1
102
RTVSPropertyOp10
 70
     1
102
RTVSPropertyOp11
 70
     1
102
RTVSPropertyOp12
 70
     1
102
RTVSPropertyOp13
 70
     1
102
RTVSPropertyOp14
 70
     1
102
RTVSPropertyOp15
 70
     1
102
RTVSPropertyOp16
 70
     1
102
RTVSPropertyOp17
 70
     1
102
RTVSPropertyOp18
 70
     1
102
RTVSPropertyOp19
 70
     1
102
RTVSPropertyOp20
 70
     1
102
RTVSPropertyOp21
 70
     1
102
RTVSPropertyOp22
 70
     1
102
RTVSPropertyOp23
 70
     1
102
RTVSPropertyOp24
 70
     1
102
RTVSPropertyOp25
 70
     1
102
RTVSPropertyOp26
 70
     1
102
RTVSPropertyOp27
 70
     1
  0
XRECORD
  5
352
102
{ACAD_REACTORS
330
351
102
}
330
351
100
AcDbXrecord
280
     1
102
RTVSPropertyOp0
 70
     1
102
RTVSPropertyOp1
 70
     1
102
RTVSPropertyOp2
 70
     1
102
RTVSPropertyOp3
 70
     1
102
RTVSPropertyOp4
 70
     1
102
RTVSPropertyOp5
 70
     1
102
RTVSPropertyOp6
 70
     1
102
RTVSPropertyOp7
 70
     1
102
RTVSPropertyOp8
 70
     1
102
RTVSPropertyOp9
 70
     1
102
RTVSPropertyOp10
 70
     1
102
RTVSPropertyOp11
 70
     1
102
RTVSPropertyOp12
 70
     1
102
RTVSPropertyOp13
 70
     1
102
RTVSPropertyOp14
 70
     1
102
RTVSPropertyOp15
 70
     1
102
RTVSPropertyOp16
 70
     1
102
RTVSPropertyOp17
 70
     1
102
RTVSPropertyOp18
 70
     1
102
RTVSPropertyOp19
 70
     1
102
RTVSPropertyOp20
 70
     1
102
RTVSPropertyOp21
 70
     1
102
RTVSPropertyOp22
 70
     1
102
RTVSPropertyOp23
 70
     1
102
RTVSPropertyOp24
 70
     1
102
RTVSPropertyOp25
 70
     1
102
RTVSPropertyOp26
 70
     1
102
RTVSPropertyOp27
 70
     1
  0
XRECORD
  5
354
102
{ACAD_REACTORS
330
353
102
}
330
353
100
AcDbXrecord
280
     1
102
RTVSPropertyOp0
 70
     1
102
RTVSPropertyOp1
 70
     1
102
RTVSPropertyOp2
 70
     1
102
RTVSPropertyOp3
 70
     1
102
RTVSPropertyOp4
 70
     1
102
RTVSPropertyOp5
 70
     1
102
RTVSPropertyOp6
 70
     1
102
RTVSPropertyOp7
 70
     1
102
RTVSPropertyOp8
 70
     1
102
RTVSPropertyOp9
 70
     1
102
RTVSPropertyOp10
 70
     1
102
RTVSPropertyOp11
 70
     1
102
RTVSPropertyOp12
 70
     1
102
RTVSPropertyOp13
 70
     1
102
RTVSPropertyOp14
 70
     1
102
RTVSPropertyOp15
 70
     1
102
RTVSPropertyOp16
 70
     1
102
RTVSPropertyOp17
 70
     1
102
RTVSPropertyOp18
 70
     1
102
RTVSPropertyOp19
 70
     1
102
RTVSPropertyOp20
 70
     1
102
RTVSPropertyOp21
 70
     1
102
RTVSPropertyOp22
 70
     1
102
RTVSPropertyOp23
 70
     1
102
RTVSPropertyOp24
 70
     1
102
RTVSPropertyOp25
 70
     1
102
RTVSPropertyOp26
 70
     1
102
RTVSPropertyOp27
 70
     1
  0
XRECORD
  5
356
102
{ACAD_REACTORS
330
355
102
}
330
355
100
AcDbXrecord
280
     1
102
RTVSPropertyOp0
 70
     1
102
RTVSPropertyOp1
 70
     1
102
RTVSPropertyOp2
 70
     1
102
RTVSPropertyOp3
 70
     1
102
RTVSPropertyOp4
 70
     1
102
RTVSPropertyOp5
 70
     1
102
RTVSPropertyOp6
 70
     1
102
RTVSPropertyOp7
 70
     1
102
RTVSPropertyOp8
 70
     1
102
RTVSPropertyOp9
 70
     1
102
RTVSPropertyOp10
 70
     1
102
RTVSPropertyOp11
 70
     1
102
RTVSPropertyOp12
 70
     1
102
RTVSPropertyOp13
 70
     1
102
RTVSPropertyOp14
 70
     1
102
RTVSPropertyOp15
 70
     1
102
RTVSPropertyOp16
 70
     1
102
RTVSPropertyOp17
 70
     1
102
RTVSPropertyOp18
 70
     1
102
RTVSPropertyOp19
 70
     1
102
RTVSPropertyOp20
 70
     1
102
RTVSPropertyOp21
 70
     1
102
RTVSPropertyOp22
 70
     1
102
RTVSPropertyOp23
 70
     1
102
RTVSPropertyOp24
 70
     1
102
RTVSPropertyOp25
 70
     1
102
RTVSPropertyOp26
 70
     1
102
RTVSPropertyOp27
 70
     1
  0
XRECORD
  5
358
102
{ACAD_REACTORS
330
357
102
}
330
357
100
AcDbXrecord
280
     1
102
RTVSPropertyOp0
 70
     1
102
RTVSPropertyOp1
 70
     1
102
RTVSPropertyOp2
 70
     1
102
RTVSPropertyOp3
 70
     1
102
RTVSPropertyOp4
 70
     1
102
RTVSPropertyOp5
 70
     1
102
RTVSPropertyOp6
 70
     1
102
RTVSPropertyOp7
 70
     1
102
RTVSPropertyOp8
 70
     1
102
RTVSPropertyOp9
 70
     1
102
RTVSPropertyOp10
 70
     1
102
RTVSPropertyOp11
 70
     1
102
RTVSPropertyOp12
 70
     1
102
RTVSPropertyOp13
 70
     1
102
RTVSPropertyOp14
 70
     1
102
RTVSPropertyOp15
 70
     1
102
RTVSPropertyOp16
 70
     1
102
RTVSPropertyOp17
 70
     1
102
RTVSPropertyOp18
 70
     1
102
RTVSPropertyOp19
 70
     1
102
RTVSPropertyOp20
 70
     1
102
RTVSPropertyOp21
 70
     1
102
RTVSPropertyOp22
 70
     1
102
RTVSPropertyOp23
 70
     1
102
RTVSPropertyOp24
 70
     1
102
RTVSPropertyOp25
 70
     1
102
RTVSPropertyOp26
 70
     1
102
RTVSPropertyOp27
 70
     1
  0
XRECORD
  5
36C
102
{ACAD_REACTORS
330
36B
102
}
330
36B
100
AcDbXrecord
280
     1
102
RTVSPropertyOp0
 70
     1
102
RTVSPropertyOp1
 70
     1
102
RTVSPropertyOp2
 70
     1
102
RTVSPropertyOp3
 70
     1
102
RTVSPropertyOp4
 70
     1
102
RTVSPropertyOp5
 70
     1
102
RTVSPropertyOp6
 70
     1
102
RTVSPropertyOp7
 70
     1
102
RTVSPropertyOp8
 70
     1
102
RTVSPropertyOp9
 70
     1
102
RTVSPropertyOp10
 70
     1
102
RTVSPropertyOp11
 70
     1
102
RTVSPropertyOp12
 70
     1
102
RTVSPropertyOp13
 70
     1
102
RTVSPropertyOp14
 70
     1
102
RTVSPropertyOp15
 70
     1
102
RTVSPropertyOp16
 70
     1
102
RTVSPropertyOp17
 70
     1
102
RTVSPropertyOp18
 70
     1
102
RTVSPropertyOp19
 70
     1
102
RTVSPropertyOp20
 70
     1
102
RTVSPropertyOp21
 70
     1
102
RTVSPropertyOp22
 70
     1
102
RTVSPropertyOp23
 70
     1
102
RTVSPropertyOp24
 70
     1
102
RTVSPropertyOp25
 70
     1
102
RTVSPropertyOp26
 70
     1
102
RTVSPropertyOp27
 70
     1
  0
XRECORD
  5
362
102
{ACAD_REACTORS
330
361
102
}
330
361
100
AcDbXrecord
280
     1
102
RTVSPropertyOp0
 70
     1
102
RTVSPropertyOp1
 70
     1
102
RTVSPropertyOp2
 70
     1
102
RTVSPropertyOp3
 70
     1
102
RTVSPropertyOp4
 70
     1
102
RTVSPropertyOp5
 70
     1
102
RTVSPropertyOp6
 70
     1
102
RTVSPropertyOp7
 70
     1
102
RTVSPropertyOp8
 70
     1
102
RTVSPropertyOp9
 70
     1
102
RTVSPropertyOp10
 70
     1
102
RTVSPropertyOp11
 70
     1
102
RTVSPropertyOp12
 70
     1
102
RTVSPropertyOp13
 70
     1
102
RTVSPropertyOp14
 70
     1
102
RTVSPropertyOp15
 70
     1
102
RTVSPropertyOp16
 70
     1
102
RTVSPropertyOp17
 70
     1
102
RTVSPropertyOp18
 70
     1
102
RTVSPropertyOp19
 70
     1
102
RTVSPropertyOp20
 70
     1
102
RTVSPropertyOp21
 70
     1
102
RTVSPropertyOp22
 70
     1
102
RTVSPropertyOp23
 70
     1
102
RTVSPropertyOp24
 70
     1
102
RTVSPropertyOp25
 70
     1
102
RTVSPropertyOp26
 70
     1
102
RTVSPropertyOp27
 70
     1
  0
XRECORD
  5
36A
102
{ACAD_REACTORS
330
369
102
}
330
369
100
AcDbXrecord
280
     1
102
RTVSPropertyOp0
 70
     1
102
RTVSPropertyOp1
 70
     1
102
RTVSPropertyOp2
 70
     1
102
RTVSPropertyOp3
 70
     1
102
RTVSPropertyOp4
 70
     1
102
RTVSPropertyOp5
 70
     1
102
RTVSPropertyOp6
 70
     1
102
RTVSPropertyOp7
 70
     1
102
RTVSPropertyOp8
 70
     1
102
RTVSPropertyOp9
 70
     1
102
RTVSPropertyOp10
 70
     1
102
RTVSPropertyOp11
 70
     1
102
RTVSPropertyOp12
 70
     1
102
RTVSPropertyOp13
 70
     1
102
RTVSPropertyOp14
 70
     1
102
RTVSPropertyOp15
 70
     1
102
RTVSPropertyOp16
 70
     1
102
RTVSPropertyOp17
 70
     1
102
RTVSPropertyOp18
 70
     1
102
RTVSPropertyOp19
 70
     1
102
RTVSPropertyOp20
 70
     1
102
RTVSPropertyOp21
 70
     1
102
RTVSPropertyOp22
 70
     1
102
RTVSPropertyOp23
 70
     1
102
RTVSPropertyOp24
 70
     1
102
RTVSPropertyOp25
 70
     1
102
RTVSPropertyOp26
 70
     1
102
RTVSPropertyOp27
 70
     1
  0
ENDSEC
  0
EOF
