  0
SECTION
  2
HEADER
  9
$ACADVER
  1
AC1015
  9
$ACADMAINTVER
 70
     6
  9
$DWGCODEPAGE
  3
ANSI_932
  9
$INSBASE
 10
0.0
 20
0.0
 30
0.0
  9
$EXTMIN
 10
-34.5884872351279
 20
-2.25035452982308
 30
0.0
  9
$EXTMAX
 10
267.0
 20
294.051034029943
 30
0.0
  9
$LIMMIN
 10
0.0
 20
0.0
  9
$LIMMAX
 10
12.0
 20
9.0
  9
$ORTHOMODE
 70
     0
  9
$REGENMODE
 70
     1
  9
$FILLMODE
 70
     1
  9
$QTEXTMODE
 70
     0
  9
$MIRRTEXT
 70
     1
  9
$LTSCALE
 40
1.0
  9
$ATTMODE
 70
     1
  9
$TEXTSIZE
 40
0.2
  9
$TRACEWID
 40
0.05
  9
$TEXTSTYLE
  7
Standard
  9
$CLAYER
  8
0
  9
$CELTYPE
  6
ByLayer
  9
$CECOLOR
 62
   256
  9
$CELTSCALE
 40
1.0
  9
$DISPSILH
 70
     0
  9
$DIMSCALE
 40
1.0
  9
$DIMASZ
 40
0.18
  9
$DIMEXO
 40
0.0625
  9
$DIMDLI
 40
0.38
  9
$DIMRND
 40
0.0
  9
$DIMDLE
 40
0.0
  9
$DIMEXE
 40
0.18
  9
$DIMTP
 40
0.0
  9
$DIMTM
 40
0.0
  9
$DIMTXT
 40
0.18
  9
$DIMCEN
 40
0.09
  9
$DIMTSZ
 40
0.0
  9
$DIMTOL
 70
     0
  9
$DIMLIM
 70
     0
  9
$DIMTIH
 70
     1
  9
$DIMTOH
 70
     1
  9
$DIMSE1
 70
     0
  9
$DIMSE2
 70
     0
  9
$DIMTAD
 70
     0
  9
$DIMZIN
 70
     0
  9
$DIMBLK
  1

  9
$DIMASO
 70
     1
  9
$DIMSHO
 70
     1
  9
$DIMPOST
  1

  9
$DIMAPOST
  1

  9
$DIMALT
 70
     0
  9
$DIMALTD
 70
     2
  9
$DIMALTF
 40
25.4
  9
$DIMLFAC
 40
1.0
  9
$DIMTOFL
 70
     0
  9
$DIMTVP
 40
0.0
  9
$DIMTIX
 70
     0
  9
$DIMSOXD
 70
     0
  9
$DIMSAH
 70
     0
  9
$DIMBLK1
  1

  9
$DIMBLK2
  1

  9
$DIMSTYLE
  2
Standard
  9
$DIMCLRD
 70
     0
  9
$DIMCLRE
 70
     0
  9
$DIMCLRT
 70
     0
  9
$DIMTFAC
 40
1.0
  9
$DIMGAP
 40
0.09
  9
$DIMJUST
 70
     0
  9
$DIMSD1
 70
     0
  9
$DIMSD2
 70
     0
  9
$DIMTOLJ
 70
     1
  9
$DIMTZIN
 70
     0
  9
$DIMALTZ
 70
     0
  9
$DIMALTTZ
 70
     0
  9
$DIMUPT
 70
     0
  9
$DIMDEC
 70
     4
  9
$DIMTDEC
 70
     4
  9
$DIMALTU
 70
     2
  9
$DIMALTTD
 70
     2
  9
$DIMTXSTY
  7
Standard
  9
$DIMAUNIT
 70
     0
  9
$DIMADEC
 70
     0
  9
$DIMALTRND
 40
0.0
  9
$DIMAZIN
 70
     0
  9
$DIMDSEP
 70
    46
  9
$DIMATFIT
 70
     3
  9
$DIMFRAC
 70
     0
  9
$DIMLDRBLK
  1

  9
$DIMLUNIT
 70
     2
  9
$DIMLWD
 70
    -2
  9
$DIMLWE
 70
    -2
  9
$DIMTMOVE
 70
     0
  9
$LUNITS
 70
     2
  9
$LUPREC
 70
     4
  9
$SKETCHINC
 40
0.1
  9
$FILLETRAD
 40
0.5
  9
$AUNITS
 70
     0
  9
$AUPREC
 70
     0
  9
$MENU
  1
.
  9
$ELEVATION
 40
0.0
  9
$PELEVATION
 40
0.0
  9
$THICKNESS
 40
0.0
  9
$LIMCHECK
 70
     0
  9
$CHAMFERA
 40
0.5
  9
$CHAMFERB
 40
0.5
  9
$CHAMFERC
 40
1.0
  9
$CHAMFERD
 40
0.0
  9
$SKPOLY
 70
     0
  9
$TDCREATE
 40
2457624.376606076
  9
$TDUCREATE
 40
2457624.001606076
  9
$TDUPDATE
 40
2457624.376606088
  9
$TDUUPDATE
 40
2457624.001606088
  9
$TDINDWG
 40
0.0000000116
  9
$TDUSRTIMER
 40
0.0000000116
  9
$USRTIMER
 70
     1
  9
$ANGBASE
 50
0.0
  9
$ANGDIR
 70
     0
  9
$PDMODE
 70
     0
  9
$PDSIZE
 40
0.0
  9
$PLINEWID
 40
0.0
  9
$SPLFRAME
 70
     0
  9
$SPLINETYPE
 70
     6
  9
$SPLINESEGS
 70
     8
  9
$HANDSEED
  5
27C
  9
$SURFTAB1
 70
     6
  9
$SURFTAB2
 70
     6
  9
$SURFTYPE
 70
     6
  9
$SURFU
 70
     6
  9
$SURFV
 70
     6
  9
$UCSBASE
  2

  9
$UCSNAME
  2

  9
$UCSORG
 10
0.0
 20
0.0
 30
0.0
  9
$UCSXDIR
 10
1.0
 20
0.0
 30
0.0
  9
$UCSYDIR
 10
0.0
 20
1.0
 30
0.0
  9
$UCSORTHOREF
  2

  9
$UCSORTHOVIEW
 70
     0
  9
$UCSORGTOP
 10
0.0
 20
0.0
 30
0.0
  9
$UCSORGBOTTOM
 10
0.0
 20
0.0
 30
0.0
  9
$UCSORGLEFT
 10
0.0
 20
0.0
 30
0.0
  9
$UCSORGRIGHT
 10
0.0
 20
0.0
 30
0.0
  9
$UCSORGFRONT
 10
0.0
 20
0.0
 30
0.0
  9
$UCSORGBACK
 10
0.0
 20
0.0
 30
0.0
  9
$PUCSBASE
  2

  9
$PUCSNAME
  2

  9
$PUCSORG
 10
0.0
 20
0.0
 30
0.0
  9
$PUCSXDIR
 10
1.0
 20
0.0
 30
0.0
  9
$PUCSYDIR
 10
0.0
 20
1.0
 30
0.0
  9
$PUCSORTHOREF
  2

  9
$PUCSORTHOVIEW
 70
     0
  9
$PUCSORGTOP
 10
0.0
 20
0.0
 30
0.0
  9
$PUCSORGBOTTOM
 10
0.0
 20
0.0
 30
0.0
  9
$PUCSORGLEFT
 10
0.0
 20
0.0
 30
0.0
  9
$PUCSORGRIGHT
 10
0.0
 20
0.0
 30
0.0
  9
$PUCSORGFRONT
 10
0.0
 20
0.0
 30
0.0
  9
$PUCSORGBACK
 10
0.0
 20
0.0
 30
0.0
  9
$USERI1
 70
     0
  9
$USERI2
 70
     0
  9
$USERI3
 70
     0
  9
$USERI4
 70
     0
  9
$USERI5
 70
     0
  9
$USERR1
 40
18.0
  9
$USERR2
 40
0.0
  9
$USERR3
 40
0.0
  9
$USERR4
 40
0.0
  9
$USERR5
 40
0.0
  9
$WORLDVIEW
 70
     1
  9
$SHADEDGE
 70
     3
  9
$SHADEDIF
 70
    70
  9
$TILEMODE
 70
     1
  9
$MAXACTVP
 70
    64
  9
$PINSBASE
 10
0.0
 20
0.0
 30
0.0
  9
$PLIMCHECK
 70
     0
  9
$PEXTMIN
 10
1.00000000000000E+20
 20
1.00000000000000E+20
 30
1.00000000000000E+20
  9
$PEXTMAX
 10
-1.00000000000000E+20
 20
-1.00000000000000E+20
 30
-1.00000000000000E+20
  9
$PLIMMIN
 10
0.0
 20
0.0
  9
$PLIMMAX
 10
12.0
 20
9.0
  9
$UNITMODE
 70
     0
  9
$VISRETAIN
 70
     1
  9
$PLINEGEN
 70
     0
  9
$PSLTSCALE
 70
     1
  9
$TREEDEPTH
 70
  3020
  9
$CMLSTYLE
  2
Standard
  9
$CMLJUST
 70
     0
  9
$CMLSCALE
 40
1.0
  9
$PROXYGRAPHICS
 70
     1
  9
$MEASUREMENT
 70
     1
  9
$CELWEIGHT
370
    -1
  9
$ENDCAPS
280
     0
  9
$JOINSTYLE
280
     0
  9
$LWDISPLAY
290
     0
  9
$INSUNITS
 70
     1
  9
$HYPERLINKBASE
  1

  9
$STYLESHEET
  1

  9
$XEDIT
290
     1
  9
$CEPSNTYPE
380
     0
  9
$PSTYLEMODE
290
     1
  9
$FINGERPRINTGUID
  2
{B0053487-3746-4C51-A1A8-43CFC7934395}
  9
$VERSIONGUID
  2
{FAEB1C32-E019-11D5-929B-00C0DF256EC4}
  9
$EXTNAMES
290
     1
  9
$PSVPSCALE
 40
0.0
  9
$OLESTARTUP
290
     0
  0
ENDSEC
  0
SECTION
  2
CLASSES
  0
CLASS
  1
ACDBDICTIONARYWDFLT
  2
AcDbDictionaryWithDefault
  3
ObjectDBX Classes
 90
        0
280
     0
281
     0
  0
CLASS
  1
VISUALSTYLE
  2
AcDbVisualStyle
  3
ObjectDBX Classes
 90
     4095
280
     0
281
     0
  0
CLASS
  1
MATERIAL
  2
AcDbMaterial
  3
ObjectDBX Classes
 90
     1153
280
     0
281
     0
  0
CLASS
  1

  2
exOdDbCircle
  3

 90
        0
280
     0
281
     1
  0
CLASS
  1

  2
exOdDbPolyline
  3

 90
        0
280
     0
281
     1
  0
CLASS
  1
SCALE
  2
AcDbScale
  3
ObjectDBX Classes
 90
     1153
280
     0
281
     0
  0
CLASS
  1
DICTIONARYVAR
  2
AcDbDictionaryVar
  3
ObjectDBX Classes
 90
        0
280
     0
281
     0
  0
CLASS
  1
ACDBPLACEHOLDER
  2
AcDbPlaceHolder
  3
ObjectDBX Classes
 90
        0
280
     0
281
     0
  0
CLASS
  1
LAYOUT
  2
AcDbLayout
  3
ObjectDBX Classes
 90
        0
280
     0
281
     0
  0
ENDSEC
  0
SECTION
  2
TABLES
  0
TABLE
  2
VPORT
  5
8
330
0
100
AcDbSymbolTable
 70
     1
  0
VPORT
  5
29
330
8
100
AcDbSymbolTableRecord
100
AcDbViewportTableRecord
  2
*Active
 70
     0
 10
0.0
 20
0.0
 11
1.0
 21
1.0
 12
116.205756382436
 22
145.90033975006
 13
0.0
 23
0.0
 14
0.5
 24
0.5
 15
0.5
 25
0.5
 16
0.0
 26
0.0
 36
1.0
 17
0.0
 27
0.0
 37
0.0
 40
325.9315274157427
 41
1.60267857142857
 42
50.0
 43
0.0
 44
0.0
 50
0.0
 51
0.0
 71
     0
 72
   100
 73
     1
 74
     3
 75
     0
 76
     0
 77
     0
 78
     0
281
     0
 65
     1
110
0.0
120
0.0
130
0.0
111
1.0
121
0.0
131
0.0
112
0.0
122
1.0
132
0.0
 79
     0
146
0.0
  0
ENDTAB
  0
TABLE
  2
LTYPE
  5
5
330
0
100
AcDbSymbolTable
 70
     8
  0
LTYPE
  5
14
330
5
100
AcDbSymbolTableRecord
100
AcDbLinetypeTableRecord
  2
ByBlock
 70
     0
  3

 72
    65
 73
     0
 40
0.0
  0
LTYPE
  5
15
330
5
100
AcDbSymbolTableRecord
100
AcDbLinetypeTableRecord
  2
ByLayer
 70
     0
  3

 72
    65
 73
     0
 40
0.0
  0
LTYPE
  5
16
330
5
100
AcDbSymbolTableRecord
100
AcDbLinetypeTableRecord
  2
Continuous
 70
     0
  3
Solid line
 72
    65
 73
     0
 40
0.0
  0
LTYPE
  5
3F
330
5
100
AcDbSymbolTableRecord
100
AcDbLinetypeTableRecord
  2
DASHED
 70
     0
  3
Dashed
 72
    65
 73
     2
 40
15.0
 49
7.0
 74
     0
 49
-8.0
 74
     0
  0
LTYPE
  5
40
330
5
100
AcDbSymbolTableRecord
100
AcDbLinetypeTableRecord
  2
DOTTED
 70
     0
  3
Dotted
 72
    65
 73
     2
 40
1.0
 49
0.0
 74
     0
 49
-1.0
 74
     0
  0
LTYPE
  5
41
330
5
100
AcDbSymbolTableRecord
100
AcDbLinetypeTableRecord
  2
DOT_CENTER
 70
     0
  3
Dot_Center
 72
    65
 73
     4
 40
14.0
 49
12.0
 74
     0
 49
-1.0
 74
     0
 49
0.0
 74
     0
 49
-1.0
 74
     0
  0
LTYPE
  5
42
330
5
100
AcDbSymbolTableRecord
100
AcDbLinetypeTableRecord
  2
LONG_DASHED
 70
     0
  3
Long_Dashed
 72
    65
 73
     2
 40
15.0
 49
10.0
 74
     0
 49
-5.0
 74
     0
  0
LTYPE
  5
43
330
5
100
AcDbSymbolTableRecord
100
AcDbLinetypeTableRecord
  2
DASH_CENTER
 70
     0
  3
Dash_Center
 72
    65
 73
     4
 40
14.0
 49
11.0
 74
     0
 49
-1.0
 74
     0
 49
1.0
 74
     0
 49
-1.0
 74
     0
  0
LTYPE
  5
44
330
5
100
AcDbSymbolTableRecord
100
AcDbLinetypeTableRecord
  2
PHANTOM
 70
     0
  3
Phantom
 72
    65
 73
     6
 40
13.0
 49
10.0
 74
     0
 49
-1.0
 74
     0
 49
0.0
 74
     0
 49
-1.0
 74
     0
 49
0.0
 74
     0
 49
-1.0
 74
     0
  0
LTYPE
  5
45
330
5
100
AcDbSymbolTableRecord
100
AcDbLinetypeTableRecord
  2
CENTER_DASH_DASH
 70
     0
  3
Center_Dash_Dash
 72
    65
 73
     6
 40
14.0
 49
9.0
 74
     0
 49
-1.0
 74
     0
 49
1.0
 74
     0
 49
-1.0
 74
     0
 49
1.0
 74
     0
 49
-1.0
 74
     0
  0
ENDTAB
  0
TABLE
  2
LAYER
  5
2
330
0
100
AcDbSymbolTable
 70
     5
  0
LAYER
  5
10
330
2
100
AcDbSymbolTableRecord
100
AcDbLayerTableRecord
  2
0
 70
     0
 62
     7
  6
Continuous
370
    -3
390
F
  0
LAYER
  5
46
330
2
100
AcDbSymbolTableRecord
100
AcDbLayerTableRecord
  2
1
 70
     0
 62
     7
  6
Continuous
370
    -3
390
F
  0
LAYER
  5
47
330
2
100
AcDbSymbolTableRecord
100
AcDbLayerTableRecord
  2
100
 70
     0
 62
     7
  6
Continuous
370
    -3
390
F
  0
LAYER
  5
48
330
2
100
AcDbSymbolTableRecord
100
AcDbLayerTableRecord
  2
2
 70
     0
 62
     7
  6
Continuous
370
    -3
390
F
  0
LAYER
  5
49
330
2
100
AcDbSymbolTableRecord
100
AcDbLayerTableRecord
  2
4
 70
     0
 62
     7
  6
Continuous
370
    -3
390
F
  0
ENDTAB
  0
TABLE
  2
STYLE
  5
3
330
0
100
AcDbSymbolTable
 70
     2
  0
STYLE
  5
11
330
3
100
AcDbSymbolTableRecord
100
AcDbTextStyleTableRecord
  2
Standard
 70
     0
 40
0.0
 41
1.0
 50
0.0
 71
     0
 42
0.2
  3
txt
  4

  0
STYLE
  5
215
330
3
100
AcDbSymbolTableRecord
100
AcDbTextStyleTableRecord
  2
CONVERTER_11
 70
     0
 40
0.0
 41
0.9
 50
0.0
 71
     0
 42
0.2
  3
txt.shx
  4

  0
ENDTAB
  0
TABLE
  2
VIEW
  5
6
330
0
100
AcDbSymbolTable
 70
     0
  0
ENDTAB
  0
TABLE
  2
UCS
  5
7
330
0
100
AcDbSymbolTable
 70
     0
  0
ENDTAB
  0
TABLE
  2
APPID
  5
9
330
0
100
AcDbSymbolTable
 70
     1
  0
APPID
  5
12
330
9
100
AcDbSymbolTableRecord
100
AcDbRegAppTableRecord
  2
ACAD
 70
     0
  0
ENDTAB
  0
TABLE
  2
DIMSTYLE
  5
A
330
0
100
AcDbSymbolTable
 70
     3
100
AcDbDimStyleTable
  0
DIMSTYLE
105
27
330
A
100
AcDbSymbolTableRecord
100
AcDbDimStyleTableRecord
  2
Standard
 70
     0
340
11
  0
DIMSTYLE
105
241
102
{ACAD_REACTORS
330
242
102
}
330
A
100
AcDbSymbolTableRecord
100
AcDbDimStyleTableRecord
  2
ME10_DIM_10
 70
     0
 41
8.0
 42
1.0
 44
1.0
 73
     0
 74
     0
 77
     1
 78
    12
140
10.0
147
1.0
172
     1
173
     1
174
     1
175
     1
176
     2
177
     2
178
     2
271
     3
340
215
343
23B
344
23B
  0
DIMSTYLE
105
24E
102
{ACAD_REACTORS
330
24F
102
}
330
A
100
AcDbSymbolTableRecord
100
AcDbDimStyleTableRecord
  2
ME10_DIM_11
 70
     0
 41
8.0
 42
1.0
 44
1.0
 73
     0
 74
     0
 77
     1
 78
    12
140
10.0
147
1.0
172
     1
173
     1
174
     1
175
     1
176
     2
177
     2
178
     2
271
     3
340
215
343
23B
344
23B
  0
ENDTAB
  0
TABLE
  2
BLOCK_RECORD
  5
1
330
0
100
AcDbSymbolTable
 70
     4
  0
BLOCK_RECORD
  5
1F
330
1
100
AcDbSymbolTableRecord
100
AcDbBlockTableRecord
  2
*Model_Space
340
22
  0
BLOCK_RECORD
  5
1B
330
1
100
AcDbSymbolTableRecord
100
AcDbBlockTableRecord
  2
*Paper_Space
340
1E
  0
BLOCK_RECORD
  5
23
330
1
100
AcDbSymbolTableRecord
100
AcDbBlockTableRecord
  2
*Paper_Space0
340
26
  0
BLOCK_RECORD
  5
20D
330
1
100
AcDbSymbolTableRecord
100
AcDbBlockTableRecord
  2
*D1
340
0
  0
BLOCK_RECORD
  5
23B
330
1
100
AcDbSymbolTableRecord
100
AcDbBlockTableRecord
  2
_OPEN30
340
0
  0
BLOCK_RECORD
  5
243
330
1
100
AcDbSymbolTableRecord
100
AcDbBlockTableRecord
  2
*D3
340
0
  0
ENDTAB
  0
ENDSEC
  0
SECTION
  2
BLOCKS
  0
BLOCK
  5
20
330
1F
100
AcDbEntity
  8
0
100
AcDbBlockBegin
  2
*Model_Space
 70
     0
 10
0.0
 20
0.0
 30
0.0
  3
*Model_Space
  1

  0
ENDBLK
  5
21
330
1F
100
AcDbEntity
  8
0
100
AcDbBlockEnd
  0
BLOCK
  5
1C
330
1B
100
AcDbEntity
 67
     1
  8
0
100
AcDbBlockBegin
  2
*Paper_Space
 70
     0
 10
0.0
 20
0.0
 30
0.0
  3
*Paper_Space
  1

  0
ENDBLK
  5
1D
330
1B
100
AcDbEntity
 67
     1
  8
0
100
AcDbBlockEnd
  0
BLOCK
  5
24
330
23
100
AcDbEntity
  8
0
100
AcDbBlockBegin
  2
*Paper_Space0
 70
     0
 10
0.0
 20
0.0
 30
0.0
  3
*Paper_Space0
  1

  0
ENDBLK
  5
25
330
23
100
AcDbEntity
  8
0
100
AcDbBlockEnd
  0
BLOCK
  5
239
330
20D
100
AcDbEntity
  8
0
100
AcDbBlockBegin
  2
*D1
 70
     1
 10
0.0
 20
0.0
 30
0.0
  3
*D1
  1

  0
LINE
  5
20E
330
20D
100
AcDbEntity
  8
1
  6
Continuous
 62
     2
100
AcDbLine
 10
142.217095824704
 20
164.236261146737
 30
0.0
 11
142.217095824704
 21
63.5
 31
0.0
  0
LINE
  5
20F
330
20D
100
AcDbEntity
  8
1
  6
Continuous
 62
     2
100
AcDbLine
 10
83.9752458605681
 20
164.236261146737
 30
0.0
 11
143.217095824704
 21
164.236261146737
 31
0.0
  0
LINE
  5
210
330
20D
100
AcDbEntity
  8
1
  6
Continuous
 62
     2
100
AcDbLine
 10
119.5
 20
63.5
 30
0.0
 11
143.217095824704
 21
63.5
 31
0.0
  0
LINE
  5
211
330
20D
100
AcDbEntity
  8
1
 62
     2
100
AcDbLine
 10
142.217095824704
 20
63.5
 30
0.0
 11
140.073502285255
 21
71.5
 31
0.0
  0
LINE
  5
212
330
20D
100
AcDbEntity
  8
1
 62
     2
100
AcDbLine
 10
142.217095824704
 20
63.5
 30
0.0
 11
144.360689364153
 21
71.5
 31
0.0
  0
LINE
  5
213
330
20D
100
AcDbEntity
  8
1
 62
     2
100
AcDbLine
 10
142.217095824704
 20
164.236261146737
 30
0.0
 11
144.360689364153
 21
156.236261146737
 31
0.0
  0
LINE
  5
214
330
20D
100
AcDbEntity
  8
1
 62
     2
100
AcDbLine
 10
142.217095824704
 20
164.236261146737
 30
0.0
 11
140.073502285255
 21
156.236261146737
 31
0.0
  0
MTEXT
  5
238
330
20D
100
AcDbEntity
  8
1
 62
     2
100
AcDbMText
 10
141.217095824704
 20
102.798130573369
 30
0.0
 40
10.0
 41
0.0
 71
     7
 72
     1
  1
101
  7
CONVERTER_11
 11
0.0
 21
1.0
 31
0.0
 73
     1
 44
0.60024009603842
  0
ENDBLK
  5
23A
330
20D
100
AcDbEntity
  8
0
100
AcDbBlockEnd
  0
BLOCK
  5
23C
330
23B
100
AcDbEntity
  8
0
100
AcDbBlockBegin
  2
_OPEN30
 70
     0
 10
0.0
 20
0.0
 30
0.0
  3
_OPEN30
  1

  0
LINE
  5
23E
330
23B
100
AcDbEntity
  8
0
  6
ByBlock
 62
     0
370
    -2
100
AcDbLine
 10
-1.0
 20
0.267949
 30
0.0
 11
0.0
 21
0.0
 31
0.0
  0
LINE
  5
23F
330
23B
100
AcDbEntity
  8
0
  6
ByBlock
 62
     0
370
    -2
100
AcDbLine
 10
0.0
 20
0.0
 30
0.0
 11
-1.0
 21
-0.267949
 31
0.0
  0
LINE
  5
240
330
23B
100
AcDbEntity
  8
0
  6
ByBlock
 62
     0
370
    -2
100
AcDbLine
 10
0.0
 20
0.0
 30
0.0
 11
-1.0
 21
0.0
 31
0.0
  0
ENDBLK
  5
23D
330
23B
100
AcDbEntity
  8
0
100
AcDbBlockEnd
  0
BLOCK
  5
24C
330
243
100
AcDbEntity
  8
0
100
AcDbBlockBegin
  2
*D3
 70
     1
 10
0.0
 20
0.0
 30
0.0
  3
*D3
  1

  0
LINE
  5
244
330
243
100
AcDbEntity
  8
1
  6
Continuous
 62
     2
100
AcDbLine
 10
115.0
 20
-0.1067609903741
 30
0.0
 11
25.00000000000001
 21
-0.1067609903741
 31
0.0
  0
LINE
  5
245
330
243
100
AcDbEntity
  8
1
  6
Continuous
 62
     2
100
AcDbLine
 10
115.0
 20
41.7
 30
0.0
 11
115.0
 21
-1.1067609903741
 31
0.0
  0
LINE
  5
246
330
243
100
AcDbEntity
  8
1
  6
Continuous
 62
     2
100
AcDbLine
 10
25.00000000000001
 20
41.7
 30
0.0
 11
25.00000000000001
 21
-1.1067609903741
 31
0.0
  0
LINE
  5
247
330
243
100
AcDbEntity
  8
1
 62
     2
100
AcDbLine
 10
25.00000000000001
 20
-0.1067609903741
 30
0.0
 11
33.00000000000001
 21
2.03683254907488
 31
0.0
  0
LINE
  5
248
330
243
100
AcDbEntity
  8
1
 62
     2
100
AcDbLine
 10
25.00000000000001
 20
-0.1067609903741
 30
0.0
 11
33.00000000000001
 21
-2.25035452982308
 31
0.0
  0
LINE
  5
249
330
243
100
AcDbEntity
  8
1
 62
     2
100
AcDbLine
 10
115.0
 20
-0.1067609903741
 30
0.0
 11
107.0
 21
-2.25035452982308
 31
0.0
  0
LINE
  5
24A
330
243
100
AcDbEntity
  8
1
 62
     2
100
AcDbLine
 10
115.0
 20
-0.1067609903741
 30
0.0
 11
107.0
 21
2.03683254907488
 31
0.0
  0
MTEXT
  5
24B
330
243
100
AcDbEntity
  8
1
 62
     2
100
AcDbMText
 10
63.99999757593162
 20
0.89322112001576
 30
0.0
 40
10.0
 41
0.0
 71
     7
 72
     1
  1
90
  7
CONVERTER_11
 11
0.9999999999882478
 21
4.848136811095759E-6
 31
0.0
 73
     1
 44
0.60024009603842
  0
ENDBLK
  5
24D
330
243
100
AcDbEntity
  8
0
100
AcDbBlockEnd
  0
ENDSEC
  0
SECTION
  2
ENTITIES
  0
POINT
  5
4A
330
1F
100
AcDbEntity
  8
1
 62
     7
100
AcDbPoint
 10
82.9752458605681
 20
164.236261146737
 30
0.0
  0
POINT
  5
4B
330
1F
100
AcDbEntity
  8
1
 62
     7
100
AcDbPoint
 10
118.5
 20
63.5
 30
0.0
  0
POINT
  5
4C
330
1F
100
AcDbEntity
  8
1
 62
     7
100
AcDbPoint
 10
115.0
 20
42.7
 30
0.0
  0
POINT
  5
4D
330
1F
100
AcDbEntity
  8
1
 62
     7
100
AcDbPoint
 10
25.0
 20
42.7
 30
0.0
  0
POINT
  5
4E
330
1F
100
AcDbEntity
  8
1
 62
     7
100
AcDbPoint
 10
82.9752458605681
 20
164.236261146737
 30
0.0
  0
POINT
  5
4F
330
1F
100
AcDbEntity
  8
1
 62
     7
100
AcDbPoint
 10
118.5
 20
63.5
 30
0.0
  0
POINT
  5
50
330
1F
100
AcDbEntity
  8
1
 62
     7
100
AcDbPoint
 10
115.0
 20
42.7
 30
0.0
  0
POINT
  5
51
330
1F
100
AcDbEntity
  8
1
 62
     7
100
AcDbPoint
 10
25.0
 20
42.7
 30
0.0
  0
LINE
  5
52
330
1F
100
AcDbEntity
  8
1
  6
Continuous
 62
     4
100
AcDbLine
 10
9.5217493792519
 20
17.3333963241348
 30
0.0
 11
9.5217493792519
 21
13.3333963241348
 31
0.0
  0
LINE
  5
53
330
1F
100
AcDbEntity
  8
1
  6
Continuous
 62
     4
100
AcDbLine
 10
5.0217493792519
 20
15.3333963241348
 30
0.0
 11
11.0217493792519
 21
15.3333963241348
 31
0.0
  0
LINE
  5
54
330
1F
100
AcDbEntity
  8
1
  6
Continuous
 62
     4
100
AcDbLine
 10
9.5217493792519
 20
23.3333963241348
 30
0.0
 11
5.0217493792519
 21
15.3333963241348
 31
0.0
  0
LINE
  5
55
330
1F
100
AcDbEntity
  8
1
  6
Continuous
 62
     4
100
AcDbLine
 10
-1.9782506207481
 20
13.3333963241348
 30
0.0
 11
2.0217493792519
 21
23.3333963241348
 31
0.0
  0
LINE
  5
56
330
1F
100
AcDbEntity
  8
1
  6
Continuous
 62
     4
100
AcDbLine
 10
-4.9782506207481
 20
23.3333963241348
 30
0.0
 11
-4.9782506207481
 21
13.3333963241348
 31
0.0
  0
LINE
  5
57
330
1F
100
AcDbEntity
  8
1
  6
Continuous
 62
     4
100
AcDbLine
 10
-7.9782506207481
 20
20.3333963241348
 30
0.0
 11
-4.9782506207481
 21
23.3333963241348
 31
0.0
  0
LINE
  5
58
330
1F
100
AcDbEntity
  8
1
  6
Continuous
 62
     4
100
AcDbLine
 10
-18.9782506207481
 20
23.3333963241348
 30
0.0
 11
-18.9782506207481
 21
13.3333963241348
 31
0.0
  0
LINE
  5
59
330
1F
100
AcDbEntity
  8
1
  6
Continuous
 62
     4
100
AcDbLine
 10
-21.9782506207481
 20
20.3333963241348
 30
0.0
 11
-18.9782506207481
 21
23.3333963241348
 31
0.0
  0
LINE
  5
5A
330
1F
100
AcDbEntity
  8
1
  6
Continuous
 62
     4
100
AcDbLine
 10
-24.9782506207481
 20
18.8333963241348
 30
0.0
 11
-27.4782506207481
 21
18.8333963241348
 31
0.0
  0
LINE
  5
5B
330
1F
100
AcDbEntity
  8
1
  6
Continuous
 62
     4
100
AcDbLine
 10
-24.9782506207481
 20
13.3333963241348
 30
0.0
 11
-24.9782506207481
 21
18.8333963241348
 31
0.0
  0
LINE
  5
5C
330
1F
100
AcDbEntity
  8
1
  6
Continuous
 62
     4
100
AcDbLine
 10
-29.2282506207481
 20
13.3333963241348
 30
0.0
 11
-24.9782506207481
 21
13.3333963241348
 31
0.0
  0
LINE
  5
5D
330
1F
100
AcDbEntity
  8
1
  6
Continuous
 62
     4
100
AcDbLine
 10
-29.9782506207481
 20
13.5833963241348
 30
0.0
 11
-29.2282506207481
 21
13.3333963241348
 31
0.0
  0
LINE
  5
5E
330
1F
100
AcDbEntity
  8
1
  6
Continuous
 62
     4
100
AcDbLine
 10
-30.9782506207481
 20
14.0833963241348
 30
0.0
 11
-29.9782506207481
 21
13.5833963241348
 31
0.0
  0
LINE
  5
5F
330
1F
100
AcDbEntity
  8
1
  6
Continuous
 62
     4
100
AcDbLine
 10
-31.4782506207481
 20
14.5833963241348
 30
0.0
 11
-30.9782506207481
 21
14.0833963241348
 31
0.0
  0
LINE
  5
60
330
1F
100
AcDbEntity
  8
1
  6
Continuous
 62
     4
100
AcDbLine
 10
-31.7282506207481
 20
15.3333963241348
 30
0.0
 11
-31.4782506207481
 21
14.5833963241348
 31
0.0
  0
LINE
  5
61
330
1F
100
AcDbEntity
  8
1
  6
Continuous
 62
     4
100
AcDbLine
 10
-31.9782506207481
 20
16.3333963241348
 30
0.0
 11
-31.7282506207481
 21
15.3333963241348
 31
0.0
  0
LINE
  5
62
330
1F
100
AcDbEntity
  8
1
  6
Continuous
 62
     4
100
AcDbLine
 10
-31.9782506207481
 20
20.3333963241348
 30
0.0
 11
-31.9782506207481
 21
16.3333963241348
 31
0.0
  0
LINE
  5
63
330
1F
100
AcDbEntity
  8
1
  6
Continuous
 62
     4
100
AcDbLine
 10
-31.7282506207481
 20
21.3333963241348
 30
0.0
 11
-31.9782506207481
 21
20.3333963241348
 31
0.0
  0
LINE
  5
64
330
1F
100
AcDbEntity
  8
1
  6
Continuous
 62
     4
100
AcDbLine
 10
-31.4782506207481
 20
22.0833963241348
 30
0.0
 11
-31.7282506207481
 21
21.3333963241348
 31
0.0
  0
LINE
  5
65
330
1F
100
AcDbEntity
  8
1
  6
Continuous
 62
     4
100
AcDbLine
 10
-30.9782506207481
 20
22.5833963241348
 30
0.0
 11
-31.4782506207481
 21
22.0833963241348
 31
0.0
  0
LINE
  5
66
330
1F
100
AcDbEntity
  8
1
  6
Continuous
 62
     4
100
AcDbLine
 10
-30.2282506207481
 20
23.0833963241348
 30
0.0
 11
-30.9782506207481
 21
22.5833963241348
 31
0.0
  0
LINE
  5
67
330
1F
100
AcDbEntity
  8
1
  6
Continuous
 62
     4
100
AcDbLine
 10
-29.2282506207481
 20
23.3333963241348
 30
0.0
 11
-30.2282506207481
 21
23.0833963241348
 31
0.0
  0
LINE
  5
68
330
1F
100
AcDbEntity
  8
1
  6
Continuous
 62
     4
100
AcDbLine
 10
-24.9782506207481
 20
23.3333963241348
 30
0.0
 11
-29.2282506207481
 21
23.3333963241348
 31
0.0
  0
LINE
  5
69
330
1F
100
AcDbEntity
  8
1
  6
Continuous
 62
     4
100
AcDbLine
 10
162.346445750833
 20
18.9216161958761
 30
0.0
 11
162.346445750833
 21
14.9216161958761
 31
0.0
  0
LINE
  5
6A
330
1F
100
AcDbEntity
  8
1
  6
Continuous
 62
     4
100
AcDbLine
 10
157.846445750833
 20
16.9216161958761
 30
0.0
 11
163.846445750833
 21
16.9216161958761
 31
0.0
  0
LINE
  5
6B
330
1F
100
AcDbEntity
  8
1
  6
Continuous
 62
     4
100
AcDbLine
 10
162.346445750833
 20
24.9216161958761
 30
0.0
 11
157.846445750833
 21
16.9216161958761
 31
0.0
  0
LINE
  5
6C
330
1F
100
AcDbEntity
  8
1
  6
Continuous
 62
     4
100
AcDbLine
 10
150.846445750833
 20
14.9216161958761
 30
0.0
 11
154.846445750833
 21
24.9216161958761
 31
0.0
  0
LINE
  5
6D
330
1F
100
AcDbEntity
  8
1
  6
Continuous
 62
     4
100
AcDbLine
 10
147.846445750833
 20
24.9216161958761
 30
0.0
 11
147.846445750833
 21
14.9216161958761
 31
0.0
  0
LINE
  5
6E
330
1F
100
AcDbEntity
  8
1
  6
Continuous
 62
     4
100
AcDbLine
 10
144.846445750833
 20
21.9216161958761
 30
0.0
 11
147.846445750833
 21
24.9216161958761
 31
0.0
  0
LINE
  5
6F
330
1F
100
AcDbEntity
  8
1
  6
Continuous
 62
     4
100
AcDbLine
 10
133.846445750833
 20
24.9216161958761
 30
0.0
 11
133.846445750833
 21
14.9216161958761
 31
0.0
  0
LINE
  5
70
330
1F
100
AcDbEntity
  8
1
  6
Continuous
 62
     4
100
AcDbLine
 10
130.846445750833
 20
21.9216161958761
 30
0.0
 11
133.846445750833
 21
24.9216161958761
 31
0.0
  0
LINE
  5
71
330
1F
100
AcDbEntity
  8
1
  6
Continuous
 62
     4
100
AcDbLine
 10
127.846445750833
 20
20.4216161958761
 30
0.0
 11
125.346445750833
 21
20.4216161958761
 31
0.0
  0
LINE
  5
72
330
1F
100
AcDbEntity
  8
1
  6
Continuous
 62
     4
100
AcDbLine
 10
127.846445750833
 20
14.9216161958761
 30
0.0
 11
127.846445750833
 21
20.4216161958761
 31
0.0
  0
LINE
  5
73
330
1F
100
AcDbEntity
  8
1
  6
Continuous
 62
     4
100
AcDbLine
 10
123.596445750833
 20
14.9216161958761
 30
0.0
 11
127.846445750833
 21
14.9216161958761
 31
0.0
  0
LINE
  5
74
330
1F
100
AcDbEntity
  8
1
  6
Continuous
 62
     4
100
AcDbLine
 10
122.846445750833
 20
15.1716161958761
 30
0.0
 11
123.596445750833
 21
14.9216161958761
 31
0.0
  0
LINE
  5
75
330
1F
100
AcDbEntity
  8
1
  6
Continuous
 62
     4
100
AcDbLine
 10
121.846445750833
 20
15.6716161958761
 30
0.0
 11
122.846445750833
 21
15.1716161958761
 31
0.0
  0
LINE
  5
76
330
1F
100
AcDbEntity
  8
1
  6
Continuous
 62
     4
100
AcDbLine
 10
121.346445750833
 20
16.1716161958761
 30
0.0
 11
121.846445750833
 21
15.6716161958761
 31
0.0
  0
LINE
  5
77
330
1F
100
AcDbEntity
  8
1
  6
Continuous
 62
     4
100
AcDbLine
 10
121.096445750833
 20
16.9216161958761
 30
0.0
 11
121.346445750833
 21
16.1716161958761
 31
0.0
  0
LINE
  5
78
330
1F
100
AcDbEntity
  8
1
  6
Continuous
 62
     4
100
AcDbLine
 10
120.846445750833
 20
17.9216161958761
 30
0.0
 11
121.096445750833
 21
16.9216161958761
 31
0.0
  0
LINE
  5
79
330
1F
100
AcDbEntity
  8
1
  6
Continuous
 62
     4
100
AcDbLine
 10
120.846445750833
 20
21.9216161958761
 30
0.0
 11
120.846445750833
 21
17.9216161958761
 31
0.0
  0
LINE
  5
7A
330
1F
100
AcDbEntity
  8
1
  6
Continuous
 62
     4
100
AcDbLine
 10
121.096445750833
 20
22.9216161958761
 30
0.0
 11
120.846445750833
 21
21.9216161958761
 31
0.0
  0
LINE
  5
7B
330
1F
100
AcDbEntity
  8
1
  6
Continuous
 62
     4
100
AcDbLine
 10
121.346445750833
 20
23.6716161958761
 30
0.0
 11
121.096445750833
 21
22.9216161958761
 31
0.0
  0
LINE
  5
7C
330
1F
100
AcDbEntity
  8
1
  6
Continuous
 62
     4
100
AcDbLine
 10
121.846445750833
 20
24.1716161958761
 30
0.0
 11
121.346445750833
 21
23.6716161958761
 31
0.0
  0
LINE
  5
7D
330
1F
100
AcDbEntity
  8
1
  6
Continuous
 62
     4
100
AcDbLine
 10
122.596445750833
 20
24.6716161958761
 30
0.0
 11
121.846445750833
 21
24.1716161958761
 31
0.0
  0
LINE
  5
7E
330
1F
100
AcDbEntity
  8
1
  6
Continuous
 62
     4
100
AcDbLine
 10
123.596445750833
 20
24.9216161958761
 30
0.0
 11
122.596445750833
 21
24.6716161958761
 31
0.0
  0
LINE
  5
7F
330
1F
100
AcDbEntity
  8
1
  6
Continuous
 62
     4
100
AcDbLine
 10
127.846445750833
 20
24.9216161958761
 30
0.0
 11
123.596445750833
 21
24.9216161958761
 31
0.0
  0
LINE
  5
80
330
1F
100
AcDbEntity
  8
1
  6
Continuous
 62
     4
100
AcDbLine
 10
249.063995703964
 20
250.373251410535
 30
0.0
 11
245.313995703964
 21
250.373251410535
 31
0.0
  0
LINE
  5
81
330
1F
100
AcDbEntity
  8
1
  6
Continuous
 62
     4
100
AcDbLine
 10
249.813995703964
 20
250.623251410535
 30
0.0
 11
249.063995703964
 21
250.373251410535
 31
0.0
  0
LINE
  5
82
330
1F
100
AcDbEntity
  8
1
  6
Continuous
 62
     4
100
AcDbLine
 10
250.563995703964
 20
251.123251410535
 30
0.0
 11
249.813995703964
 21
250.623251410535
 31
0.0
  0
LINE
  5
83
330
1F
100
AcDbEntity
  8
1
  6
Continuous
 62
     4
100
AcDbLine
 10
251.063995703964
 20
251.873251410535
 30
0.0
 11
250.563995703964
 21
251.123251410535
 31
0.0
  0
LINE
  5
84
330
1F
100
AcDbEntity
  8
1
  6
Continuous
 62
     4
100
AcDbLine
 10
251.313995703964
 20
252.873251410535
 30
0.0
 11
251.063995703964
 21
251.873251410535
 31
0.0
  0
LINE
  5
85
330
1F
100
AcDbEntity
  8
1
  6
Continuous
 62
     4
100
AcDbLine
 10
251.313995703964
 20
254.373251410535
 30
0.0
 11
251.313995703964
 21
252.873251410535
 31
0.0
  0
LINE
  5
86
330
1F
100
AcDbEntity
  8
1
  6
Continuous
 62
     4
100
AcDbLine
 10
251.063995703964
 20
255.373251410535
 30
0.0
 11
251.313995703964
 21
254.373251410535
 31
0.0
  0
LINE
  5
87
330
1F
100
AcDbEntity
  8
1
  6
Continuous
 62
     4
100
AcDbLine
 10
250.313995703964
 20
256.123251410535
 30
0.0
 11
251.063995703964
 21
255.373251410535
 31
0.0
  0
LINE
  5
88
330
1F
100
AcDbEntity
  8
1
  6
Continuous
 62
     4
100
AcDbLine
 10
249.063995703964
 20
256.373251410535
 30
0.0
 11
250.313995703964
 21
256.123251410535
 31
0.0
  0
LINE
  5
89
330
1F
100
AcDbEntity
  8
1
  6
Continuous
 62
     4
100
AcDbLine
 10
245.313995703964
 20
256.373251410535
 30
0.0
 11
249.063995703964
 21
256.373251410535
 31
0.0
  0
LINE
  5
8A
330
1F
100
AcDbEntity
  8
1
  6
Continuous
 62
     4
100
AcDbLine
 10
245.313995703964
 20
260.373251410535
 30
0.0
 11
245.313995703964
 21
256.373251410535
 31
0.0
  0
LINE
  5
8B
330
1F
100
AcDbEntity
  8
1
  6
Continuous
 62
     4
100
AcDbLine
 10
250.813995703964
 20
260.373251410535
 30
0.0
 11
245.313995703964
 21
260.373251410535
 31
0.0
  0
LINE
  5
8C
330
1F
100
AcDbEntity
  8
1
  6
Continuous
 62
     4
100
AcDbLine
 10
236.313995703964
 20
250.373251410535
 30
0.0
 11
242.313995703964
 21
250.373251410535
 31
0.0
  0
LINE
  5
8D
330
1F
100
AcDbEntity
  8
1
  6
Continuous
 62
     4
100
AcDbLine
 10
241.813995703964
 20
256.873251410535
 30
0.0
 11
236.313995703964
 21
250.373251410535
 31
0.0
  0
LINE
  5
8E
330
1F
100
AcDbEntity
  8
1
  6
Continuous
 62
     4
100
AcDbLine
 10
242.313995703964
 20
257.873251410535
 30
0.0
 11
241.813995703964
 21
256.873251410535
 31
0.0
  0
LINE
  5
8F
330
1F
100
AcDbEntity
  8
1
  6
Continuous
 62
     4
100
AcDbLine
 10
242.313995703964
 20
258.873251410535
 30
0.0
 11
242.313995703964
 21
257.873251410535
 31
0.0
  0
LINE
  5
90
330
1F
100
AcDbEntity
  8
1
  6
Continuous
 62
     4
100
AcDbLine
 10
241.813995703964
 20
259.623251410535
 30
0.0
 11
242.313995703964
 21
258.873251410535
 31
0.0
  0
LINE
  5
91
330
1F
100
AcDbEntity
  8
1
  6
Continuous
 62
     4
100
AcDbLine
 10
241.063995703964
 20
260.123251410535
 30
0.0
 11
241.813995703964
 21
259.623251410535
 31
0.0
  0
LINE
  5
92
330
1F
100
AcDbEntity
  8
1
  6
Continuous
 62
     4
100
AcDbLine
 10
240.063995703964
 20
260.373251410535
 30
0.0
 11
241.063995703964
 21
260.123251410535
 31
0.0
  0
LINE
  5
93
330
1F
100
AcDbEntity
  8
1
  6
Continuous
 62
     4
100
AcDbLine
 10
238.563995703964
 20
260.373251410535
 30
0.0
 11
240.063995703964
 21
260.373251410535
 31
0.0
  0
LINE
  5
94
330
1F
100
AcDbEntity
  8
1
  6
Continuous
 62
     4
100
AcDbLine
 10
237.563995703964
 20
260.123251410535
 30
0.0
 11
238.563995703964
 21
260.373251410535
 31
0.0
  0
LINE
  5
95
330
1F
100
AcDbEntity
  8
1
  6
Continuous
 62
     4
100
AcDbLine
 10
236.813995703964
 20
259.623251410535
 30
0.0
 11
237.563995703964
 21
260.123251410535
 31
0.0
  0
LINE
  5
96
330
1F
100
AcDbEntity
  8
1
  6
Continuous
 62
     4
100
AcDbLine
 10
236.313995703964
 20
258.873251410535
 30
0.0
 11
236.813995703964
 21
259.623251410535
 31
0.0
  0
LINE
  5
97
330
1F
100
AcDbEntity
  8
1
  6
Continuous
 62
     4
100
AcDbLine
 10
228.313995703964
 20
253.873251410535
 30
0.0
 11
233.313995703964
 21
253.873251410535
 31
0.0
  0
LINE
  5
98
330
1F
100
AcDbEntity
  8
1
  6
Continuous
 62
     4
100
AcDbLine
 10
221.813995703964
 20
260.373251410535
 30
0.0
 11
221.813995703964
 21
250.373251410535
 31
0.0
  0
LINE
  5
99
330
1F
100
AcDbEntity
  8
1
  6
Continuous
 62
     4
100
AcDbLine
 10
218.313995703964
 20
260.373251410535
 30
0.0
 11
221.813995703964
 21
260.373251410535
 31
0.0
  0
LINE
  5
9A
330
1F
100
AcDbEntity
  8
1
  6
Continuous
 62
     4
100
AcDbLine
 10
221.813995703964
 20
260.373251410535
 30
0.0
 11
225.313995703964
 21
260.373251410535
 31
0.0
  0
LINE
  5
9B
330
1F
100
AcDbEntity
  8
1
  6
Continuous
 62
     4
100
AcDbLine
 10
208.813995703964
 20
251.123251410535
 30
0.0
 11
208.313995703964
 21
251.623251410535
 31
0.0
  0
LINE
  5
9C
330
1F
100
AcDbEntity
  8
1
  6
Continuous
 62
     4
100
AcDbLine
 10
209.813995703964
 20
250.623251410535
 30
0.0
 11
208.813995703964
 21
251.123251410535
 31
0.0
  0
LINE
  5
9D
330
1F
100
AcDbEntity
  8
1
  6
Continuous
 62
     4
100
AcDbLine
 10
211.063995703964
 20
250.373251410535
 30
0.0
 11
209.813995703964
 21
250.623251410535
 31
0.0
  0
LINE
  5
9E
330
1F
100
AcDbEntity
  8
1
  6
Continuous
 62
     4
100
AcDbLine
 10
212.563995703964
 20
250.373251410535
 30
0.0
 11
211.063995703964
 21
250.373251410535
 31
0.0
  0
LINE
  5
9F
330
1F
100
AcDbEntity
  8
1
  6
Continuous
 62
     4
100
AcDbLine
 10
213.813995703964
 20
250.623251410535
 30
0.0
 11
212.563995703964
 21
250.373251410535
 31
0.0
  0
LINE
  5
A0
330
1F
100
AcDbEntity
  8
1
  6
Continuous
 62
     4
100
AcDbLine
 10
214.563995703964
 20
251.123251410535
 30
0.0
 11
213.813995703964
 21
250.623251410535
 31
0.0
  0
LINE
  5
A1
330
1F
100
AcDbEntity
  8
1
  6
Continuous
 62
     4
100
AcDbLine
 10
215.063995703964
 20
251.873251410535
 30
0.0
 11
214.563995703964
 21
251.123251410535
 31
0.0
  0
LINE
  5
A2
330
1F
100
AcDbEntity
  8
1
  6
Continuous
 62
     4
100
AcDbLine
 10
215.313995703964
 20
252.623251410535
 30
0.0
 11
215.063995703964
 21
251.873251410535
 31
0.0
  0
LINE
  5
A3
330
1F
100
AcDbEntity
  8
1
  6
Continuous
 62
     4
100
AcDbLine
 10
215.313995703964
 20
253.123251410535
 30
0.0
 11
215.313995703964
 21
252.623251410535
 31
0.0
  0
LINE
  5
A4
330
1F
100
AcDbEntity
  8
1
  6
Continuous
 62
     4
100
AcDbLine
 10
215.063995703964
 20
253.873251410535
 30
0.0
 11
215.313995703964
 21
253.123251410535
 31
0.0
  0
LINE
  5
A5
330
1F
100
AcDbEntity
  8
1
  6
Continuous
 62
     4
100
AcDbLine
 10
214.563995703964
 20
254.623251410535
 30
0.0
 11
215.063995703964
 21
253.873251410535
 31
0.0
  0
LINE
  5
A6
330
1F
100
AcDbEntity
  8
1
  6
Continuous
 62
     4
100
AcDbLine
 10
213.813995703964
 20
255.123251410535
 30
0.0
 11
214.563995703964
 21
254.623251410535
 31
0.0
  0
LINE
  5
A7
330
1F
100
AcDbEntity
  8
1
  6
Continuous
 62
     4
100
AcDbLine
 10
209.563995703964
 20
256.873251410535
 30
0.0
 11
213.813995703964
 21
255.123251410535
 31
0.0
  0
LINE
  5
A8
330
1F
100
AcDbEntity
  8
1
  6
Continuous
 62
     4
100
AcDbLine
 10
208.813995703964
 20
257.373251410535
 30
0.0
 11
209.563995703964
 21
256.873251410535
 31
0.0
  0
LINE
  5
A9
330
1F
100
AcDbEntity
  8
1
  6
Continuous
 62
     4
100
AcDbLine
 10
208.563995703964
 20
258.123251410535
 30
0.0
 11
208.813995703964
 21
257.373251410535
 31
0.0
  0
LINE
  5
AA
330
1F
100
AcDbEntity
  8
1
  6
Continuous
 62
     4
100
AcDbLine
 10
208.563995703964
 20
258.623251410535
 30
0.0
 11
208.563995703964
 21
258.123251410535
 31
0.0
  0
LINE
  5
AB
330
1F
100
AcDbEntity
  8
1
  6
Continuous
 62
     4
100
AcDbLine
 10
208.813995703964
 20
259.373251410535
 30
0.0
 11
208.563995703964
 21
258.623251410535
 31
0.0
  0
LINE
  5
AC
330
1F
100
AcDbEntity
  8
1
  6
Continuous
 62
     4
100
AcDbLine
 10
209.563995703964
 20
259.873251410535
 30
0.0
 11
208.813995703964
 21
259.373251410535
 31
0.0
  0
LINE
  5
AD
330
1F
100
AcDbEntity
  8
1
  6
Continuous
 62
     4
100
AcDbLine
 10
210.313995703964
 20
260.123251410535
 30
0.0
 11
209.563995703964
 21
259.873251410535
 31
0.0
  0
LINE
  5
AE
330
1F
100
AcDbEntity
  8
1
  6
Continuous
 62
     4
100
AcDbLine
 10
211.313995703964
 20
260.373251410535
 30
0.0
 11
210.313995703964
 21
260.123251410535
 31
0.0
  0
LINE
  5
AF
330
1F
100
AcDbEntity
  8
1
  6
Continuous
 62
     4
100
AcDbLine
 10
212.313995703964
 20
260.373251410535
 30
0.0
 11
211.313995703964
 21
260.373251410535
 31
0.0
  0
LINE
  5
B0
330
1F
100
AcDbEntity
  8
1
  6
Continuous
 62
     4
100
AcDbLine
 10
213.563995703964
 20
260.123251410535
 30
0.0
 11
212.313995703964
 21
260.373251410535
 31
0.0
  0
LINE
  5
B1
330
1F
100
AcDbEntity
  8
1
  6
Continuous
 62
     4
100
AcDbLine
 10
214.313995703964
 20
259.873251410535
 30
0.0
 11
213.563995703964
 21
260.123251410535
 31
0.0
  0
LINE
  5
B2
330
1F
100
AcDbEntity
  8
1
  6
Continuous
 62
     4
100
AcDbLine
 10
215.063995703964
 20
259.373251410535
 30
0.0
 11
214.313995703964
 21
259.873251410535
 31
0.0
  0
LINE
  5
B3
330
1F
100
AcDbEntity
  8
1
  6
Continuous
 62
     4
100
AcDbLine
 10
92.5588449008936
 20
24.5502706835501
 30
0.0
 11
91.76674490089361
 21
23.3002706835501
 31
0.0
  0
LINE
  5
B4
330
1F
100
AcDbEntity
  8
1
  6
Continuous
 62
     4
100
AcDbLine
 10
91.76674490089361
 20
25.8002706835501
 30
0.0
 11
92.5588449008936
 21
24.5502706835501
 31
0.0
  0
LINE
  5
B5
330
1F
100
AcDbEntity
  8
1
  6
Continuous
 62
     4
100
AcDbLine
 10
86.61809490089361
 20
24.5502706835501
 30
0.0
 11
92.5588449008936
 21
24.5502706835501
 31
0.0
  0
LINE
  5
B6
330
1F
100
AcDbEntity
  8
1
  6
Continuous
 62
     4
100
AcDbLine
 10
80.0832699008936
 20
27.4252706835501
 30
0.0
 11
84.6378449008936
 21
27.4252706835501
 31
0.0
  0
LINE
  5
B7
330
1F
100
AcDbEntity
  8
1
  6
Continuous
 62
     4
100
AcDbLine
 10
80.0832699008936
 20
27.4252706835501
 30
0.0
 11
81.1724074008936
 21
29.3002706835501
 31
0.0
  0
LINE
  5
B8
330
1F
100
AcDbEntity
  8
1
  6
Continuous
 62
     4
100
AcDbLine
 10
82.6575949008936
 20
22.6752706835501
 30
0.0
 11
80.9743824008936
 21
22.6752706835501
 31
0.0
  0
LINE
  5
B9
330
1F
100
AcDbEntity
  8
1
  6
Continuous
 62
     4
100
AcDbLine
 10
82.6575949008936
 20
25.1752706835501
 30
0.0
 11
82.6575949008936
 21
22.6752706835501
 31
0.0
  0
LINE
  5
BA
330
1F
100
AcDbEntity
  8
1
  6
Continuous
 62
     4
100
AcDbLine
 10
80.9743824008936
 20
25.1752706835501
 30
0.0
 11
82.6575949008936
 21
25.1752706835501
 31
0.0
  0
LINE
  5
BB
330
1F
100
AcDbEntity
  8
1
  6
Continuous
 62
     4
100
AcDbLine
 10
80.9743824008936
 20
22.6752706835501
 30
0.0
 11
80.9743824008936
 21
25.1752706835501
 31
0.0
  0
LINE
  5
BC
330
1F
100
AcDbEntity
  8
1
  6
Continuous
 62
     4
100
AcDbLine
 10
84.6378449008936
 20
19.9252706835501
 30
0.0
 11
83.5487074008936
 21
19.9252706835501
 31
0.0
  0
LINE
  5
BD
330
1F
100
AcDbEntity
  8
1
  6
Continuous
 62
     4
100
AcDbLine
 10
84.6378449008936
 20
27.4252706835501
 30
0.0
 11
84.6378449008936
 21
19.9252706835501
 31
0.0
  0
LINE
  5
BE
330
1F
100
AcDbEntity
  8
1
  6
Continuous
 62
     4
100
AcDbLine
 10
78.9941324008936
 20
27.4252706835501
 30
0.0
 11
80.0832699008936
 21
27.4252706835501
 31
0.0
  0
LINE
  5
BF
330
1F
100
AcDbEntity
  8
1
  6
Continuous
 62
     4
100
AcDbLine
 10
78.9941324008936
 20
19.9252706835501
 30
0.0
 11
78.9941324008936
 21
27.4252706835501
 31
0.0
  0
LINE
  5
C0
330
1F
100
AcDbEntity
  8
1
  6
Continuous
 62
     4
100
AcDbLine
 10
74.7365949008936
 20
19.5502706835501
 30
0.0
 11
73.9444949008936
 21
20.1752706835501
 31
0.0
  0
LINE
  5
C1
330
1F
100
AcDbEntity
  8
1
  6
Continuous
 62
     4
100
AcDbLine
 10
75.23165740089361
 20
20.5502706835501
 30
0.0
 11
74.7365949008936
 21
19.5502706835501
 31
0.0
  0
LINE
  5
C2
330
1F
100
AcDbEntity
  8
1
  6
Continuous
 62
     4
100
AcDbLine
 10
75.62770740089361
 20
22.0502706835501
 30
0.0
 11
75.23165740089361
 21
20.5502706835501
 31
0.0
  0
LINE
  5
C3
330
1F
100
AcDbEntity
  8
1
  6
Continuous
 62
     4
100
AcDbLine
 10
76.12276990089362
 20
24.3002706835501
 30
0.0
 11
75.62770740089361
 21
22.0502706835501
 31
0.0
  0
LINE
  5
C4
330
1F
100
AcDbEntity
  8
1
  6
Continuous
 62
     4
100
AcDbLine
 10
76.12276990089362
 20
25.1752706835501
 30
0.0
 11
76.12276990089362
 21
24.3002706835501
 31
0.0
  0
LINE
  5
C5
330
1F
100
AcDbEntity
  8
1
  6
Continuous
 62
     4
100
AcDbLine
 10
73.25140740089361
 20
25.1752706835501
 30
0.0
 11
76.12276990089362
 21
25.1752706835501
 31
0.0
  0
LINE
  5
C6
330
1F
100
AcDbEntity
  8
1
  6
Continuous
 62
     4
100
AcDbLine
 10
70.57806990089361
 20
27.6752706835501
 30
0.0
 11
77.21190740089361
 21
27.6752706835501
 31
0.0
  0
LINE
  5
C7
330
1F
100
AcDbEntity
  8
1
  6
Continuous
 62
     4
100
AcDbLine
 10
73.44943240089361
 20
26.8002706835501
 30
0.0
 11
73.64745740089361
 21
29.3002706835501
 31
0.0
  0
LINE
  5
C8
330
1F
100
AcDbEntity
  8
1
  6
Continuous
 62
     4
100
AcDbLine
 10
73.05338240089361
 20
24.3002706835501
 30
0.0
 11
73.44943240089361
 21
26.8002706835501
 31
0.0
  0
LINE
  5
C9
330
1F
100
AcDbEntity
  8
1
  6
Continuous
 62
     4
100
AcDbLine
 10
72.55831990089361
 20
22.6752706835501
 30
0.0
 11
73.05338240089361
 21
24.3002706835501
 31
0.0
  0
LINE
  5
CA
330
1F
100
AcDbEntity
  8
1
  6
Continuous
 62
     4
100
AcDbLine
 10
71.9642449008936
 20
21.1752706835501
 30
0.0
 11
72.55831990089361
 21
22.6752706835501
 31
0.0
  0
LINE
  5
CB
330
1F
100
AcDbEntity
  8
1
  6
Continuous
 62
     4
100
AcDbLine
 10
71.07313240089361
 20
19.9252706835501
 30
0.0
 11
71.9642449008936
 21
21.1752706835501
 31
0.0
  0
LINE
  5
CC
330
1F
100
AcDbEntity
  8
1
  6
Continuous
 62
     4
100
AcDbLine
 10
68.3997949008936
 20
22.6752706835501
 30
0.0
 11
69.4889324008936
 21
21.1752706835501
 31
0.0
  0
LINE
  5
CD
330
1F
100
AcDbEntity
  8
1
  6
Continuous
 62
     4
100
AcDbLine
 10
67.5086824008936
 20
24.5502706835501
 30
0.0
 11
68.3997949008936
 21
22.6752706835501
 31
0.0
  0
LINE
  5
CE
330
1F
100
AcDbEntity
  8
1
  6
Continuous
 62
     4
100
AcDbLine
 10
66.8155949008936
 20
26.8002706835501
 30
0.0
 11
67.5086824008936
 21
24.5502706835501
 31
0.0
  0
LINE
  5
CF
330
1F
100
AcDbEntity
  8
1
  6
Continuous
 62
     4
100
AcDbLine
 10
68.7958449008936
 20
27.0502706835501
 30
0.0
 11
67.3106574008936
 21
25.5502706835501
 31
0.0
  0
LINE
  5
D0
330
1F
100
AcDbEntity
  8
1
  6
Continuous
 62
     4
100
AcDbLine
 10
66.2215199008936
 20
19.5502706835501
 30
0.0
 11
65.5284324008936
 21
19.9252706835501
 31
0.0
  0
LINE
  5
D1
330
1F
100
AcDbEntity
  8
1
  6
Continuous
 62
     4
100
AcDbLine
 10
66.2215199008936
 20
29.3002706835501
 30
0.0
 11
66.2215199008936
 21
19.5502706835501
 31
0.0
  0
LINE
  5
D2
330
1F
100
AcDbEntity
  8
1
  6
Continuous
 62
     4
100
AcDbLine
 10
65.1323824008936
 20
26.1752706835501
 30
0.0
 11
62.8550949008936
 21
26.1752706835501
 31
0.0
  0
LINE
  5
D3
330
1F
100
AcDbEntity
  8
1
  6
Continuous
 62
     4
100
AcDbLine
 10
64.6373199008936
 20
24.3002706835501
 30
0.0
 11
65.1323824008936
 21
26.1752706835501
 31
0.0
  0
LINE
  5
D4
330
1F
100
AcDbEntity
  8
1
  6
Continuous
 62
     4
100
AcDbLine
 10
63.7462074008936
 20
22.4252706835501
 30
0.0
 11
64.6373199008936
 21
24.3002706835501
 31
0.0
  0
LINE
  5
D5
330
1F
100
AcDbEntity
  8
1
  6
Continuous
 62
     4
100
AcDbLine
 10
62.8550949008936
 20
21.1752706835501
 30
0.0
 11
63.7462074008936
 21
22.4252706835501
 31
0.0
  0
LINE
  5
D6
330
1F
100
AcDbEntity
  8
1
  6
Continuous
 62
     4
100
AcDbLine
 10
58.49854490089361
 20
28.0502706835501
 30
0.0
 11
61.1718824008936
 21
28.0502706835501
 31
0.0
  0
LINE
  5
D7
330
1F
100
AcDbEntity
  8
1
  6
Continuous
 62
     4
100
AcDbLine
 10
61.5679324008936
 20
20.5502706835501
 30
0.0
 11
61.5679324008936
 21
21.1752706835501
 31
0.0
  0
LINE
  5
D8
330
1F
100
AcDbEntity
  8
1
  6
Continuous
 62
     4
100
AcDbLine
 10
61.1718824008936
 20
19.9252706835501
 30
0.0
 11
61.5679324008936
 21
20.5502706835501
 31
0.0
  0
LINE
  5
D9
330
1F
100
AcDbEntity
  8
1
  6
Continuous
 62
     4
100
AcDbLine
 10
60.2807699008936
 20
19.9252706835501
 30
0.0
 11
61.1718824008936
 21
19.9252706835501
 31
0.0
  0
LINE
  5
DA
330
1F
100
AcDbEntity
  8
1
  6
Continuous
 62
     4
100
AcDbLine
 10
59.7857074008936
 20
20.8002706835501
 30
0.0
 11
60.2807699008936
 21
19.9252706835501
 31
0.0
  0
LINE
  5
DB
330
1F
100
AcDbEntity
  8
1
  6
Continuous
 62
     4
100
AcDbLine
 10
59.7857074008936
 20
23.9252706835501
 30
0.0
 11
59.7857074008936
 21
20.8002706835501
 31
0.0
  0
LINE
  5
DC
330
1F
100
AcDbEntity
  8
1
  6
Continuous
 62
     4
100
AcDbLine
 10
58.49854490089361
 20
19.9252706835501
 30
0.0
 11
58.49854490089361
 21
23.9252706835501
 31
0.0
  0
LINE
  5
DD
330
1F
100
AcDbEntity
  8
1
  6
Continuous
 62
     4
100
AcDbLine
 10
56.5182949008936
 20
20.1752706835501
 30
0.0
 11
55.8252074008936
 21
19.5502706835501
 31
0.0
  0
LINE
  5
DE
330
1F
100
AcDbEntity
  8
1
  6
Continuous
 62
     4
100
AcDbLine
 10
56.9143449008936
 20
20.8002706835501
 30
0.0
 11
56.5182949008936
 21
20.1752706835501
 31
0.0
  0
LINE
  5
DF
330
1F
100
AcDbEntity
  8
1
  6
Continuous
 62
     4
100
AcDbLine
 10
57.21138240089361
 20
21.8002706835501
 30
0.0
 11
56.9143449008936
 21
20.8002706835501
 31
0.0
  0
LINE
  5
E0
330
1F
100
AcDbEntity
  8
1
  6
Continuous
 62
     4
100
AcDbLine
 10
57.4094074008936
 20
23.9252706835501
 30
0.0
 11
57.21138240089361
 21
21.8002706835501
 31
0.0
  0
LINE
  5
E1
330
1F
100
AcDbEntity
  8
1
  6
Continuous
 62
     4
100
AcDbLine
 10
59.58768240089361
 20
27.0502706835501
 30
0.0
 11
60.4787949008936
 21
24.9252706835501
 31
0.0
  0
LINE
  5
E2
330
1F
100
AcDbEntity
  8
1
  6
Continuous
 62
     4
100
AcDbLine
 10
56.7163199008936
 20
25.5502706835501
 30
0.0
 11
60.0827449008936
 21
25.8002706835501
 31
0.0
  0
LINE
  5
E3
330
1F
100
AcDbEntity
  8
1
  6
Continuous
 62
     4
100
AcDbLine
 10
58.49854490089361
 20
28.0502706835501
 30
0.0
 11
57.6074324008936
 21
25.5502706835501
 31
0.0
  0
LINE
  5
E4
330
1F
100
AcDbEntity
  8
1
  6
Continuous
 62
     4
100
AcDbLine
 10
58.6965699008936
 20
29.5502706835501
 30
0.0
 11
58.6965699008936
 21
28.0502706835501
 31
0.0
  0
LINE
  5
E5
330
1F
100
AcDbEntity
  8
1
  6
Continuous
 62
     4
100
AcDbLine
 10
56.3202699008936
 20
28.0502706835501
 30
0.0
 11
58.49854490089361
 21
28.0502706835501
 31
0.0
  0
LINE
  5
E6
330
1F
100
AcDbEntity
  8
1
  6
Continuous
 62
     4
100
AcDbLine
 10
54.7360699008936
 20
19.9252706835501
 30
0.0
 11
55.6271824008936
 21
23.9252706835501
 31
0.0
  0
LINE
  5
E7
330
1F
100
AcDbEntity
  8
1
  6
Continuous
 62
     4
100
AcDbLine
 10
54.5380449008936
 20
26.4252706835501
 30
0.0
 11
55.2311324008936
 21
25.5502706835501
 31
0.0
  0
LINE
  5
E8
330
1F
100
AcDbEntity
  8
1
  6
Continuous
 62
     4
100
AcDbLine
 10
55.2311324008936
 20
29.3002706835501
 30
0.0
 11
55.6271824008936
 21
28.3002706835501
 31
0.0
  0
LINE
  5
FB
330
1F
100
AcDbEntity
  8
2
  6
Continuous
 62
     3
100
AcDbLine
 10
115.0
 20
239.279755927139
 30
0.0
 11
115.0
 21
280.879755927139
 31
0.0
  0
LINE
  5
FC
330
1F
100
AcDbEntity
  8
4
  6
DOT_CENTER
 62
     1
100
AcDbLine
 10
21.5
 20
63.5
 30
0.0
 11
118.5
 21
63.5
 31
0.0
  0
LINE
  5
FD
330
1F
100
AcDbEntity
  8
4
  6
Continuous
 62
     3
100
AcDbLine
 10
99.0
 20
155.276991029251
 30
0.0
 11
99.0
 21
146.3
 31
0.0
  0
LINE
  5
FE
330
1F
100
AcDbEntity
  8
4
  6
Continuous
 62
     3
100
AcDbLine
 10
41.0000000000002
 20
146.3
 30
0.0
 11
40.9999999999994
 21
155.276991029251
 31
0.0
  0
LINE
  5
FF
330
1F
100
AcDbEntity
  8
4
  6
Continuous
 62
     3
100
AcDbLine
 10
99.0
 20
146.3
 30
0.0
 11
41.0000000000002
 21
146.3
 31
0.0
  0
LINE
  5
100
330
1F
100
AcDbEntity
  8
4
  6
Continuous
 62
     3
100
AcDbLine
 10
73.6
 20
146.3
 30
0.0
 11
73.6
 21
144.3
 31
0.0
  0
LINE
  5
101
330
1F
100
AcDbEntity
  8
4
  6
Continuous
 62
     3
100
AcDbLine
 10
74.25
 20
144.3
 30
0.0
 11
74.75
 21
143.433974596216
 31
0.0
  0
LINE
  5
102
330
1F
100
AcDbEntity
  8
4
  6
Continuous
 62
     3
100
AcDbLine
 10
74.75
 20
143.433974596216
 30
0.0
 11
74.75
 21
134.0
 31
0.0
  0
LINE
  5
103
330
1F
100
AcDbEntity
  8
4
  6
Continuous
 62
     3
100
AcDbLine
 10
66.4
 20
146.3
 30
0.0
 11
66.4
 21
144.3
 31
0.0
  0
LINE
  5
104
330
1F
100
AcDbEntity
  8
4
  6
Continuous
 62
     3
100
AcDbLine
 10
74.25
 20
144.3
 30
0.0
 11
65.75
 21
144.3
 31
0.0
  0
LINE
  5
105
330
1F
100
AcDbEntity
  8
4
  6
Continuous
 62
     3
100
AcDbLine
 10
65.75
 20
144.3
 30
0.0
 11
65.25
 21
143.433974596216
 31
0.0
  0
LINE
  5
106
330
1F
100
AcDbEntity
  8
4
  6
Continuous
 62
     3
100
AcDbLine
 10
65.25
 20
143.433974596216
 30
0.0
 11
65.25
 21
134.0
 31
0.0
  0
LINE
  5
107
330
1F
100
AcDbEntity
  8
4
  6
Continuous
 62
     3
100
AcDbLine
 10
78.2928932188134
 20
133.707106781187
 30
0.0
 11
78.7071067811866
 21
133.292893218814
 31
0.0
  0
LINE
  5
108
330
1F
100
AcDbEntity
  8
4
  6
Continuous
 62
     3
100
AcDbLine
 10
62.4142135623731
 20
134.0
 30
0.0
 11
77.5857864376269
 21
134.0
 31
0.0
  0
LINE
  5
109
330
1F
100
AcDbEntity
  8
4
  6
Continuous
 62
     3
100
AcDbLine
 10
88.7098392645882
 20
123.0
 30
0.0
 11
88.3098392645882
 21
133.0
 31
0.0
  0
LINE
  5
10A
330
1F
100
AcDbEntity
  8
4
  6
Continuous
 62
     3
100
AcDbLine
 10
93.258858419353
 20
123.0
 30
0.0
 11
93.8003746648403
 21
93.0
 31
0.0
  0
LINE
  5
10B
330
1F
100
AcDbEntity
  8
4
  6
Continuous
 62
     3
100
AcDbLine
 10
46.1996253351597
 20
93.0
 30
0.0
 11
93.8003746648403
 21
93.0
 31
0.0
  0
LINE
  5
10C
330
1F
100
AcDbEntity
  8
4
  6
Continuous
 62
     3
100
AcDbLine
 10
46.741141580647
 20
123.0
 30
0.0
 11
93.258858419353
 21
123.0
 31
0.0
  0
LINE
  5
10D
330
1F
100
AcDbEntity
  8
4
  6
Continuous
 62
     3
100
AcDbLine
 10
51.2901607354118
 20
123.0
 30
0.0
 11
51.6901607354118
 21
133.0
 31
0.0
  0
LINE
  5
10E
330
1F
100
AcDbEntity
  8
4
  6
Continuous
 62
     3
100
AcDbLine
 10
88.3098392645882
 20
133.0
 30
0.0
 11
51.6901607354118
 21
133.0
 31
0.0
  0
LINE
  5
10F
330
1F
100
AcDbEntity
  8
4
  6
Continuous
 62
     3
100
AcDbLine
 10
61.7071067811869
 20
133.707106781187
 30
0.0
 11
61.2928932188138
 21
133.292893218814
 31
0.0
  0
LINE
  5
110
330
1F
100
AcDbEntity
  8
4
  6
Continuous
 62
     3
100
AcDbLine
 10
46.741141580647
 20
123.0
 30
0.0
 11
46.1996253351597
 21
93.0
 31
0.0
  0
LINE
  5
111
330
1F
100
AcDbEntity
  8
4
  6
Continuous
 62
     3
100
AcDbLine
 10
74.75
 20
143.433974596216
 30
0.0
 11
65.25
 21
143.433974596216
 31
0.0
  0
LINE
  5
112
330
1F
100
AcDbEntity
  8
4
  6
Continuous
 62
     3
100
AcDbLine
 10
73.6000061035156
 20
156.800003051758
 30
0.0
 11
73.6000061035156
 21
158.0
 31
0.0
  0
LINE
  5
113
330
1F
100
AcDbEntity
  8
4
  6
Continuous
 62
     3
100
AcDbLine
 10
66.4000015258789
 20
156.800003051758
 30
0.0
 11
66.4000015258789
 21
158.0
 31
0.0
  0
LINE
  5
114
330
1F
100
AcDbEntity
  8
4
  6
Continuous
 62
     3
100
AcDbLine
 10
70.0000076293945
 20
158.0
 30
0.0
 11
69.5000076293945
 21
156.800003051758
 31
0.0
  0
LINE
  5
115
330
1F
100
AcDbEntity
  8
4
  6
Continuous
 62
     3
100
AcDbLine
 10
70.5000076293945
 20
158.0
 30
0.0
 11
70.0000076293945
 21
156.800003051758
 31
0.0
  0
LINE
  5
116
330
1F
100
AcDbEntity
  8
4
  6
Continuous
 62
     3
100
AcDbLine
 10
66.25
 20
156.300003051758
 30
0.0
 11
73.75
 21
156.300003051758
 31
0.0
  0
LINE
  5
117
330
1F
100
AcDbEntity
  8
4
  6
Continuous
 62
     3
100
AcDbLine
 10
73.75
 20
156.3
 30
0.0
 11
66.25
 21
156.3
 31
0.0
  0
LINE
  5
118
330
1F
100
AcDbEntity
  8
4
  6
Continuous
 62
     3
100
AcDbLine
 10
66.25
 20
156.800003051758
 30
0.0
 11
73.75
 21
156.800003051758
 31
0.0
  0
LINE
  5
119
330
1F
100
AcDbEntity
  8
4
  6
Continuous
 62
     3
100
AcDbLine
 10
46.058046379913
 20
155.276991029251
 30
0.0
 11
46.058046379913
 21
148.8
 31
0.0
  0
LINE
  5
11A
330
1F
100
AcDbEntity
  8
4
  6
Continuous
 62
     3
100
AcDbLine
 10
54.0387020515442
 20
155.276991029251
 30
0.0
 11
54.0387020515442
 21
148.8
 31
0.0
  0
LINE
  5
11B
330
1F
100
AcDbEntity
  8
4
  6
Continuous
 62
     3
100
AcDbLine
 10
64.3568242562747
 20
155.276991029251
 30
0.0
 11
64.3568242562747
 21
148.8
 31
0.0
  0
LINE
  5
11C
330
1F
100
AcDbEntity
  8
4
  6
Continuous
 62
     3
100
AcDbLine
 10
75.6431757437254
 20
155.276991029251
 30
0.0
 11
75.6431757437254
 21
148.8
 31
0.0
  0
LINE
  5
11D
330
1F
100
AcDbEntity
  8
4
  6
Continuous
 62
     3
100
AcDbLine
 10
85.9612979484558
 20
155.276991029251
 30
0.0
 11
85.9612979484558
 21
148.8
 31
0.0
  0
LINE
  5
11E
330
1F
100
AcDbEntity
  8
4
  6
Continuous
 62
     3
100
AcDbLine
 10
93.941953620087
 20
155.276991029251
 30
0.0
 11
93.941953620087
 21
148.8
 31
0.0
  0
LINE
  5
11F
330
1F
100
AcDbEntity
  8
4
  6
Continuous
 62
     3
100
AcDbLine
 10
41.7841402244906
 20
155.276991029251
 30
0.0
 11
41.7841402244906
 21
148.8
 31
0.0
  0
LINE
  5
120
330
1F
100
AcDbEntity
  8
4
  6
Continuous
 62
     3
100
AcDbLine
 10
98.2158597755094
 20
155.276991029251
 30
0.0
 11
98.2158597755094
 21
148.8
 31
0.0
  0
LINE
  5
121
330
1F
100
AcDbEntity
  8
4
  6
DOTTED
 62
     6
100
AcDbLine
 10
99.0
 20
146.276991029251
 30
0.0
 11
99.0
 21
137.3
 31
0.0
  0
LINE
  5
122
330
1F
100
AcDbEntity
  8
4
  6
DOTTED
 62
     6
100
AcDbLine
 10
99.0
 20
137.3
 30
0.0
 11
41.0000000000002
 21
137.3
 31
0.0
  0
LINE
  5
123
330
1F
100
AcDbEntity
  8
4
  6
DOTTED
 62
     6
100
AcDbLine
 10
41.0000000000002
 20
137.3
 30
0.0
 11
40.9999999999994
 21
146.276991029251
 31
0.0
  0
LINE
  5
124
330
1F
100
AcDbEntity
  8
1
  6
DOT_CENTER
 62
     1
100
AcDbLine
 10
209.0
 20
63.5
 30
0.0
 11
266.0
 21
63.5
 31
0.0
  0
LINE
  5
125
330
1F
100
AcDbEntity
  8
4
  6
Continuous
 62
     3
100
AcDbLine
 10
266.215859775509
 20
155.276991029251
 30
0.0
 11
266.215859775509
 21
148.8
 31
0.0
  0
LINE
  5
126
330
1F
100
AcDbEntity
  8
4
  6
Continuous
 62
     3
100
AcDbLine
 10
209.784140224491
 20
155.276991029251
 30
0.0
 11
209.784140224491
 21
148.8
 31
0.0
  0
LINE
  5
127
330
1F
100
AcDbEntity
  8
4
  6
Continuous
 62
     3
100
AcDbLine
 10
261.941953620087
 20
155.276991029251
 30
0.0
 11
261.941953620087
 21
148.8
 31
0.0
  0
LINE
  5
128
330
1F
100
AcDbEntity
  8
4
  6
Continuous
 62
     3
100
AcDbLine
 10
253.961297948456
 20
155.276991029251
 30
0.0
 11
253.961297948456
 21
148.8
 31
0.0
  0
LINE
  5
129
330
1F
100
AcDbEntity
  8
4
  6
Continuous
 62
     3
100
AcDbLine
 10
243.643175743725
 20
155.276991029251
 30
0.0
 11
243.643175743725
 21
148.8
 31
0.0
  0
LINE
  5
12A
330
1F
100
AcDbEntity
  8
4
  6
Continuous
 62
     3
100
AcDbLine
 10
232.356824256275
 20
155.276991029251
 30
0.0
 11
232.356824256275
 21
148.8
 31
0.0
  0
LINE
  5
12B
330
1F
100
AcDbEntity
  8
4
  6
Continuous
 62
     3
100
AcDbLine
 10
222.038702051544
 20
155.276991029251
 30
0.0
 11
222.038702051544
 21
148.8
 31
0.0
  0
LINE
  5
12C
330
1F
100
AcDbEntity
  8
4
  6
Continuous
 62
     3
100
AcDbLine
 10
214.058046379913
 20
155.276991029251
 30
0.0
 11
214.058046379913
 21
148.8
 31
0.0
  0
LINE
  5
12D
330
1F
100
AcDbEntity
  8
4
  6
Continuous
 62
     3
100
AcDbLine
 10
234.25
 20
156.800003051758
 30
0.0
 11
241.75
 21
156.800003051758
 31
0.0
  0
LINE
  5
12E
330
1F
100
AcDbEntity
  8
4
  6
Continuous
 62
     3
100
AcDbLine
 10
241.75
 20
156.3
 30
0.0
 11
234.25
 21
156.3
 31
0.0
  0
LINE
  5
12F
330
1F
100
AcDbEntity
  8
4
  6
Continuous
 62
     3
100
AcDbLine
 10
234.25
 20
156.300003051758
 30
0.0
 11
241.75
 21
156.300003051758
 31
0.0
  0
LINE
  5
130
330
1F
100
AcDbEntity
  8
4
  6
Continuous
 62
     3
100
AcDbLine
 10
238.500007629395
 20
158.0
 30
0.0
 11
238.000007629395
 21
156.800003051758
 31
0.0
  0
LINE
  5
131
330
1F
100
AcDbEntity
  8
4
  6
Continuous
 62
     3
100
AcDbLine
 10
238.000007629395
 20
158.0
 30
0.0
 11
237.500007629395
 21
156.800003051758
 31
0.0
  0
LINE
  5
132
330
1F
100
AcDbEntity
  8
4
  6
Continuous
 62
     3
100
AcDbLine
 10
234.400001525879
 20
156.800003051758
 30
0.0
 11
234.400001525879
 21
158.0
 31
0.0
  0
LINE
  5
133
330
1F
100
AcDbEntity
  8
4
  6
Continuous
 62
     3
100
AcDbLine
 10
241.600006103516
 20
156.800003051758
 30
0.0
 11
241.600006103516
 21
158.0
 31
0.0
  0
LINE
  5
134
330
1F
100
AcDbEntity
  8
4
  6
Continuous
 62
     3
100
AcDbLine
 10
242.75
 20
143.433974596216
 30
0.0
 11
233.25
 21
143.433974596216
 31
0.0
  0
LINE
  5
135
330
1F
100
AcDbEntity
  8
4
  6
Continuous
 62
     3
100
AcDbLine
 10
214.741141580648
 20
123.0
 30
0.0
 11
214.19962533516
 21
93.0
 31
0.0
  0
LINE
  5
136
330
1F
100
AcDbEntity
  8
4
  6
Continuous
 62
     3
100
AcDbLine
 10
229.707106781187
 20
133.707106781187
 30
0.0
 11
229.292893218814
 21
133.292893218814
 31
0.0
  0
LINE
  5
137
330
1F
100
AcDbEntity
  8
4
  6
Continuous
 62
     3
100
AcDbLine
 10
256.309839264588
 20
132.999999999999
 30
0.0
 11
219.690160735411
 21
133.0
 31
0.0
  0
LINE
  5
138
330
1F
100
AcDbEntity
  8
4
  6
Continuous
 62
     3
100
AcDbLine
 10
219.290160735412
 20
123.0
 30
0.0
 11
219.690160735411
 21
133.0
 31
0.0
  0
LINE
  5
139
330
1F
100
AcDbEntity
  8
4
  6
Continuous
 62
     3
100
AcDbLine
 10
214.741141580648
 20
123.0
 30
0.0
 11
261.258858419353
 21
123.000000000001
 31
0.0
  0
LINE
  5
13A
330
1F
100
AcDbEntity
  8
4
  6
Continuous
 62
     3
100
AcDbLine
 10
214.19962533516
 20
93.0
 30
0.0
 11
261.80037466484
 21
93.0
 31
0.0
  0
LINE
  5
13B
330
1F
100
AcDbEntity
  8
4
  6
Continuous
 62
     3
100
AcDbLine
 10
261.258858419353
 20
123.000000000001
 30
0.0
 11
261.80037466484
 21
93.0
 31
0.0
  0
LINE
  5
13C
330
1F
100
AcDbEntity
  8
4
  6
Continuous
 62
     3
100
AcDbLine
 10
256.709839264588
 20
123.000000000001
 30
0.0
 11
256.309839264588
 21
132.999999999999
 31
0.0
  0
LINE
  5
13D
330
1F
100
AcDbEntity
  8
4
  6
Continuous
 62
     3
100
AcDbLine
 10
230.414213562373
 20
134.0
 30
0.0
 11
245.585786437627
 21
134.0
 31
0.0
  0
LINE
  5
13E
330
1F
100
AcDbEntity
  8
4
  6
Continuous
 62
     3
100
AcDbLine
 10
246.292893218813
 20
133.707106781187
 30
0.0
 11
246.707106781187
 21
133.292893218814
 31
0.0
  0
LINE
  5
13F
330
1F
100
AcDbEntity
  8
4
  6
Continuous
 62
     3
100
AcDbLine
 10
233.25
 20
143.433974596216
 30
0.0
 11
233.25
 21
134.0
 31
0.0
  0
LINE
  5
140
330
1F
100
AcDbEntity
  8
4
  6
Continuous
 62
     3
100
AcDbLine
 10
233.75
 20
144.3
 30
0.0
 11
233.25
 21
143.433974596216
 31
0.0
  0
LINE
  5
141
330
1F
100
AcDbEntity
  8
4
  6
Continuous
 62
     3
100
AcDbLine
 10
242.25
 20
144.3
 30
0.0
 11
233.75
 21
144.3
 31
0.0
  0
LINE
  5
142
330
1F
100
AcDbEntity
  8
4
  6
Continuous
 62
     3
100
AcDbLine
 10
234.4
 20
146.3
 30
0.0
 11
234.4
 21
144.3
 31
0.0
  0
LINE
  5
143
330
1F
100
AcDbEntity
  8
4
  6
Continuous
 62
     3
100
AcDbLine
 10
242.75
 20
143.433974596216
 30
0.0
 11
242.75
 21
134.0
 31
0.0
  0
LINE
  5
144
330
1F
100
AcDbEntity
  8
4
  6
Continuous
 62
     3
100
AcDbLine
 10
242.25
 20
144.3
 30
0.0
 11
242.75
 21
143.433974596216
 31
0.0
  0
LINE
  5
145
330
1F
100
AcDbEntity
  8
4
  6
Continuous
 62
     3
100
AcDbLine
 10
241.6
 20
146.3
 30
0.0
 11
241.6
 21
144.3
 31
0.0
  0
LINE
  5
146
330
1F
100
AcDbEntity
  8
4
  6
Continuous
 62
     3
100
AcDbLine
 10
267.0
 20
146.3
 30
0.0
 11
209.0
 21
146.3
 31
0.0
  0
LINE
  5
147
330
1F
100
AcDbEntity
  8
4
  6
Continuous
 62
     3
100
AcDbLine
 10
209.0
 20
146.3
 30
0.0
 11
209.0
 21
155.276991029251
 31
0.0
  0
LINE
  5
148
330
1F
100
AcDbEntity
  8
4
  6
Continuous
 62
     3
100
AcDbLine
 10
267.0
 20
155.276991029251
 30
0.0
 11
267.0
 21
146.3
 31
0.0
  0
LINE
  5
149
330
1F
100
AcDbEntity
  8
4
  6
DOT_CENTER
 62
     1
100
AcDbLine
 10
70.0
 20
35.5
 30
0.0
 11
70.0
 21
167.973859856348
 31
0.0
  0
LINE
  5
14A
330
1F
100
AcDbEntity
  8
4
  6
DOT_CENTER
 62
     1
100
AcDbLine
 10
238.0
 20
35.5
 30
0.0
 11
238.0
 21
167.973859856348
 31
0.0
  0
LINE
  5
14B
330
1F
100
AcDbEntity
  8
2
  6
DOT_CENTER
 62
     1
100
AcDbLine
 10
70.0
 20
294.051034029943
 30
0.0
 11
70.0
 21
226.579755927139
 31
0.0
  0
LINE
  5
14C
330
1F
100
AcDbEntity
  8
2
  6
DOT_CENTER
 62
     1
100
AcDbLine
 10
20.0
 20
260.079755927139
 30
0.0
 11
121.0
 21
260.079755927139
 31
0.0
  0
LINE
  5
14D
330
1F
100
AcDbEntity
  8
2
  6
Continuous
 62
     3
100
AcDbLine
 10
46.25
 20
85.29050900709
 30
0.0
 11
49.4999999999998
 21
85.2905090070896
 31
0.0
  0
LINE
  5
14E
330
1F
100
AcDbEntity
  8
2
  6
Continuous
 62
     3
100
AcDbLine
 10
90.5
 20
85.29050900709
 30
0.0
 11
93.75
 21
85.29050900709
 31
0.0
  0
LINE
  5
14F
330
1F
100
AcDbEntity
  8
2
  6
Continuous
 62
     3
100
AcDbLine
 10
90.5
 20
85.29050900709
 30
0.0
 11
90.5
 21
88.3
 31
0.0
  0
LINE
  5
150
330
1F
100
AcDbEntity
  8
2
  6
Continuous
 62
     3
100
AcDbLine
 10
49.4999999999998
 20
85.2905090070896
 30
0.0
 11
49.5
 21
88.3
 31
0.0
  0
LINE
  5
151
330
1F
100
AcDbEntity
  8
2
  6
Continuous
 62
     3
100
AcDbLine
 10
46.25
 20
84.0
 30
0.0
 11
46.25
 21
85.29050900709
 31
0.0
  0
LINE
  5
152
330
1F
100
AcDbEntity
  8
2
  6
Continuous
 62
     3
100
AcDbLine
 10
93.75
 20
84.0
 30
0.0
 11
93.75
 21
85.29050900709
 31
0.0
  0
LINE
  5
153
330
1F
100
AcDbEntity
  8
2
  6
Continuous
 62
     3
100
AcDbLine
 10
258.5
 20
84.5888635501
 30
0.0
 11
258.5
 21
88.3
 31
0.0
  0
LINE
  5
154
330
1F
100
AcDbEntity
  8
2
  6
Continuous
 62
     3
100
AcDbLine
 10
217.5
 20
84.5888635500998
 30
0.0
 11
217.5
 21
88.3
 31
0.0
  0
LINE
  5
155
330
1F
100
AcDbEntity
  8
2
  6
Continuous
 62
     3
100
AcDbLine
 10
217.5
 20
88.3
 30
0.0
 11
219.5
 21
90.3
 31
0.0
  0
LINE
  5
156
330
1F
100
AcDbEntity
  8
2
  6
Continuous
 62
     3
100
AcDbLine
 10
258.5
 20
88.3
 30
0.0
 11
256.5
 21
90.3
 31
0.0
  0
LINE
  5
157
330
1F
100
AcDbEntity
  8
2
  6
Continuous
 62
     3
100
AcDbLine
 10
49.5
 20
88.3
 30
0.0
 11
51.5
 21
90.3
 31
0.0
  0
LINE
  5
158
330
1F
100
AcDbEntity
  8
2
  6
Continuous
 62
     3
100
AcDbLine
 10
90.5
 20
88.3
 30
0.0
 11
88.5
 21
90.3
 31
0.0
  0
LINE
  5
159
330
1F
100
AcDbEntity
  8
2
  6
Continuous
 62
     3
100
AcDbLine
 10
256.5
 20
90.3
 30
0.0
 11
256.5
 21
93.0000000000001
 31
0.0
  0
LINE
  5
15A
330
1F
100
AcDbEntity
  8
2
  6
Continuous
 62
     3
100
AcDbLine
 10
219.5
 20
90.3
 30
0.0
 11
219.5
 21
93.0000000000001
 31
0.0
  0
LINE
  5
15B
330
1F
100
AcDbEntity
  8
2
  6
Continuous
 62
     3
100
AcDbLine
 10
95.871572875254
 20
43.9999999999999
 30
0.0
 11
94.392621835301
 21
44.0
 31
0.0
  0
LINE
  5
15C
330
1F
100
AcDbEntity
  8
2
  6
Continuous
 62
     3
100
AcDbLine
 10
98.0
 20
44.024
 30
0.0
 11
97.160617634611
 21
43.5393823653894
 31
0.0
  0
LINE
  5
15D
330
1F
100
AcDbEntity
  8
2
  6
Continuous
 62
     3
100
AcDbLine
 10
98.0
 20
42.7
 30
0.0
 11
97.285786437627
 21
43.4142135623731
 31
0.0
  0
LINE
  5
15E
330
1F
100
AcDbEntity
  8
2
  6
Continuous
 62
     3
100
AcDbLine
 10
115.0
 20
44.024
 30
0.0
 11
98.0
 21
44.024
 31
0.0
  0
LINE
  5
15F
330
1F
100
AcDbEntity
  8
2
  6
Continuous
 62
     3
100
AcDbLine
 10
115.0
 20
42.7
 30
0.0
 11
98.0
 21
42.7
 31
0.0
  0
LINE
  5
160
330
1F
100
AcDbEntity
  8
2
  6
Continuous
 62
     3
100
AcDbLine
 10
115.0
 20
42.7
 30
0.0
 11
115.0
 21
84.3
 31
0.0
  0
LINE
  5
161
330
1F
100
AcDbEntity
  8
2
  6
Continuous
 62
     3
100
AcDbLine
 10
115.0
 20
82.976
 30
0.0
 11
98.0
 21
82.976
 31
0.0
  0
LINE
  5
162
330
1F
100
AcDbEntity
  8
2
  6
Continuous
 62
     3
100
AcDbLine
 10
115.0
 20
84.3
 30
0.0
 11
98.0
 21
84.3
 31
0.0
  0
LINE
  5
163
330
1F
100
AcDbEntity
  8
2
  6
Continuous
 62
     3
100
AcDbLine
 10
98.0
 20
42.7
 30
0.0
 11
98.0
 21
84.3
 31
0.0
  0
LINE
  5
164
330
1F
100
AcDbEntity
  8
2
  6
Continuous
 62
     3
100
AcDbLine
 10
98.0
 20
82.976
 30
0.0
 11
97.160617634611
 21
83.460617634611
 31
0.0
  0
LINE
  5
165
330
1F
100
AcDbEntity
  8
2
  6
Continuous
 62
     3
100
AcDbLine
 10
95.871572875254
 20
83.0
 30
0.0
 11
91.0
 21
83.0
 31
0.0
  0
LINE
  5
166
330
1F
100
AcDbEntity
  8
2
  6
Continuous
 62
     3
100
AcDbLine
 10
98.0
 20
84.3
 30
0.0
 11
97.160617634611
 21
83.460617634611
 31
0.0
  0
LINE
  5
167
330
1F
100
AcDbEntity
  8
2
  6
Continuous
 62
     3
100
AcDbLine
 10
90.0
 20
84.0
 30
0.0
 11
89.9999999999995
 21
84.424483603305
 31
0.0
  0
LINE
  5
168
330
1F
100
AcDbEntity
  8
2
  6
Continuous
 62
     3
100
AcDbLine
 10
88.5
 20
90.3
 30
0.0
 11
88.5
 21
93.0000000000001
 31
0.0
  0
LINE
  5
169
330
1F
100
AcDbEntity
  8
2
  6
Continuous
 62
     3
100
AcDbLine
 10
42.0
 20
44.024
 30
0.0
 11
42.8393823653894
 21
43.5393823653894
 31
0.0
  0
LINE
  5
16A
330
1F
100
AcDbEntity
  8
2
  6
Continuous
 62
     3
100
AcDbLine
 10
44.1284271247462
 20
44.0
 30
0.0
 11
45.607378164699
 21
44.0
 31
0.0
  0
LINE
  5
16B
330
1F
100
AcDbEntity
  8
2
  6
Continuous
 62
     3
100
AcDbLine
 10
42.0
 20
42.7
 30
0.0
 11
42.7142135623731
 21
43.4142135623731
 31
0.0
  0
LINE
  5
16C
330
1F
100
AcDbEntity
  8
2
  6
Continuous
 62
     3
100
AcDbLine
 10
25.0
 20
44.024
 30
0.0
 11
42.0
 21
44.024
 31
0.0
  0
LINE
  5
16D
330
1F
100
AcDbEntity
  8
2
  6
Continuous
 62
     3
100
AcDbLine
 10
25.0
 20
42.7
 30
0.0
 11
42.0
 21
42.7
 31
0.0
  0
LINE
  5
16E
330
1F
100
AcDbEntity
  8
2
  6
Continuous
 62
     3
100
AcDbLine
 10
42.0
 20
82.976
 30
0.0
 11
42.8393823653894
 21
83.460617634611
 31
0.0
  0
LINE
  5
16F
330
1F
100
AcDbEntity
  8
2
  6
Continuous
 62
     3
100
AcDbLine
 10
42.0
 20
84.3
 30
0.0
 11
42.7142135623731
 21
83.585786437627
 31
0.0
  0
LINE
  5
170
330
1F
100
AcDbEntity
  8
2
  6
Continuous
 62
     3
100
AcDbLine
 10
25.0
 20
82.976
 30
0.0
 11
42.0
 21
82.976
 31
0.0
  0
LINE
  5
171
330
1F
100
AcDbEntity
  8
2
  6
Continuous
 62
     3
100
AcDbLine
 10
42.0
 20
42.7
 30
0.0
 11
42.0
 21
84.3
 31
0.0
  0
LINE
  5
172
330
1F
100
AcDbEntity
  8
2
  6
Continuous
 62
     3
100
AcDbLine
 10
25.0
 20
84.3
 30
0.0
 11
42.0
 21
84.3
 31
0.0
  0
LINE
  5
173
330
1F
100
AcDbEntity
  8
2
  6
Continuous
 62
     3
100
AcDbLine
 10
25.0
 20
42.7
 30
0.0
 11
25.0
 21
84.3
 31
0.0
  0
LINE
  5
174
330
1F
100
AcDbEntity
  8
2
  6
Continuous
 62
     3
100
AcDbLine
 10
44.1284271247462
 20
83.0000000000001
 30
0.0
 11
49.0
 21
83.0
 31
0.0
  0
LINE
  5
175
330
1F
100
AcDbEntity
  8
2
  6
Continuous
 62
     3
100
AcDbLine
 10
50.0
 20
84.0
 30
0.0
 11
50.0
 21
84.424483603305
 31
0.0
  0
LINE
  5
176
330
1F
100
AcDbEntity
  8
2
  6
Continuous
 62
     3
100
AcDbLine
 10
51.5
 20
90.3
 30
0.0
 11
51.5
 21
93.0000000000001
 31
0.0
  0
LINE
  5
177
330
1F
100
AcDbEntity
  8
1
  6
Continuous
 62
     3
100
AcDbLine
 10
51.5
 20
90.3
 30
0.0
 11
88.5
 21
90.3
 31
0.0
  0
LINE
  5
178
330
1F
100
AcDbEntity
  8
1
  6
Continuous
 62
     3
100
AcDbLine
 10
90.5
 20
88.3
 30
0.0
 11
49.5
 21
88.3
 31
0.0
  0
LINE
  5
179
330
1F
100
AcDbEntity
  8
1
  6
Continuous
 62
     3
100
AcDbLine
 10
49.4999999999998
 20
85.2905090070896
 30
0.0
 11
90.5
 21
85.29050900709
 31
0.0
  0
LINE
  5
17A
330
1F
100
AcDbEntity
  8
1
  6
Continuous
 62
     3
100
AcDbLine
 10
219.5
 20
90.3
 30
0.0
 11
256.5
 21
90.3
 31
0.0
  0
LINE
  5
17B
330
1F
100
AcDbEntity
  8
1
  6
Continuous
 62
     3
100
AcDbLine
 10
258.5
 20
88.3
 30
0.0
 11
217.5
 21
88.3
 31
0.0
  0
LINE
  5
17C
330
1F
100
AcDbEntity
  8
1
  6
Continuous
 62
     3
100
AcDbLine
 10
217.5
 20
84.5888635500998
 30
0.0
 11
258.5
 21
84.5888635501
 31
0.0
  0
LINE
  5
17D
330
1F
100
AcDbEntity
  8
2
  6
Continuous
 62
     3
100
AcDbLine
 10
98.0
 20
280.879755927139
 30
0.0
 11
97.160617634611
 21
280.04037356175
 31
0.0
  0
LINE
  5
17E
330
1F
100
AcDbEntity
  8
2
  6
Continuous
 62
     3
100
AcDbLine
 10
98.0
 20
279.555755927139
 30
0.0
 11
97.160617634611
 21
280.04037356175
 31
0.0
  0
LINE
  5
17F
330
1F
100
AcDbEntity
  8
2
  6
Continuous
 62
     3
100
AcDbLine
 10
98.0
 20
239.279755927139
 30
0.0
 11
98.0
 21
246.318180916491
 31
0.0
  0
LINE
  5
180
330
1F
100
AcDbEntity
  8
2
  6
Continuous
 62
     3
100
AcDbLine
 10
115.0
 20
280.879755927139
 30
0.0
 11
98.0
 21
280.879755927139
 31
0.0
  0
LINE
  5
181
330
1F
100
AcDbEntity
  8
2
  6
Continuous
 62
     3
100
AcDbLine
 10
115.0
 20
279.555755927139
 30
0.0
 11
98.0
 21
279.555755927139
 31
0.0
  0
LINE
  5
182
330
1F
100
AcDbEntity
  8
2
  6
Continuous
 62
     3
100
AcDbLine
 10
115.0
 20
239.279755927139
 30
0.0
 11
98.0
 21
239.279755927139
 31
0.0
  0
LINE
  5
183
330
1F
100
AcDbEntity
  8
2
  6
Continuous
 62
     3
100
AcDbLine
 10
115.0
 20
240.603755927139
 30
0.0
 11
98.0
 21
240.603755927139
 31
0.0
  0
LINE
  5
184
330
1F
100
AcDbEntity
  8
2
  6
Continuous
 62
     3
100
AcDbLine
 10
98.0
 20
239.279755927139
 30
0.0
 11
97.285786437627
 21
239.993969489512
 31
0.0
  0
LINE
  5
185
330
1F
100
AcDbEntity
  8
2
  6
Continuous
 62
     3
100
AcDbLine
 10
98.0
 20
240.603755927139
 30
0.0
 11
97.160617634611
 21
240.119138292529
 31
0.0
  0
LINE
  5
186
330
1F
100
AcDbEntity
  8
2
  6
Continuous
 62
     3
100
AcDbLine
 10
95.871572875254
 20
279.579755927139
 30
0.0
 11
92.2559864388017
 21
279.579755927139
 31
0.0
  0
LINE
  5
187
330
1F
100
AcDbEntity
  8
2
  6
Continuous
 62
     3
100
AcDbLine
 10
25.0
 20
239.279755927139
 30
0.0
 11
25.0
 21
280.879755927139
 31
0.0
  0
LINE
  5
188
330
1F
100
AcDbEntity
  8
2
  6
Continuous
 62
     3
100
AcDbLine
 10
25.0
 20
280.879755927139
 30
0.0
 11
42.0
 21
280.879755927139
 31
0.0
  0
LINE
  5
189
330
1F
100
AcDbEntity
  8
2
  6
Continuous
 62
     3
100
AcDbLine
 10
42.0
 20
239.279755927139
 30
0.0
 11
42.0
 21
246.318187242222
 31
0.0
  0
LINE
  5
18A
330
1F
100
AcDbEntity
  8
2
  6
Continuous
 62
     3
100
AcDbLine
 10
25.0
 20
279.555755927139
 30
0.0
 11
42.0
 21
279.555755927139
 31
0.0
  0
LINE
  5
18B
330
1F
100
AcDbEntity
  8
2
  6
Continuous
 62
     3
100
AcDbLine
 10
42.0
 20
280.879755927139
 30
0.0
 11
42.7142135623731
 21
280.165542364766
 31
0.0
  0
LINE
  5
18C
330
1F
100
AcDbEntity
  8
2
  6
Continuous
 62
     3
100
AcDbLine
 10
42.0
 20
279.555755927139
 30
0.0
 11
42.8393823653894
 21
280.04037356175
 31
0.0
  0
LINE
  5
18D
330
1F
100
AcDbEntity
  8
2
  6
Continuous
 62
     3
100
AcDbLine
 10
25.0
 20
239.279755927139
 30
0.0
 11
42.0
 21
239.279755927139
 31
0.0
  0
LINE
  5
18E
330
1F
100
AcDbEntity
  8
2
  6
Continuous
 62
     3
100
AcDbLine
 10
25.0
 20
240.603755927139
 30
0.0
 11
42.0
 21
240.603755927139
 31
0.0
  0
LINE
  5
18F
330
1F
100
AcDbEntity
  8
2
  6
Continuous
 62
     3
100
AcDbLine
 10
42.0
 20
239.279755927139
 30
0.0
 11
42.7142135623731
 21
239.993969489512
 31
0.0
  0
LINE
  5
190
330
1F
100
AcDbEntity
  8
2
  6
Continuous
 62
     3
100
AcDbLine
 10
42.0
 20
240.603755927139
 30
0.0
 11
42.8393823653894
 21
240.119138292529
 31
0.0
  0
LINE
  5
191
330
1F
100
AcDbEntity
  8
2
  6
Continuous
 62
     3
100
AcDbLine
 10
44.1284271247462
 20
279.579755927139
 30
0.0
 11
47.7440213247795
 21
279.579755927139
 31
0.0
  0
LINE
  5
192
330
1F
100
AcDbEntity
  8
2
  6
Continuous
 62
     3
100
AcDbLine
 10
92.2559864388014
 20
240.579755927139
 30
0.0
 11
95.871572875254
 21
240.579755927139
 31
0.0
  0
LINE
  5
193
330
1F
100
AcDbEntity
  8
2
  6
Continuous
 62
     3
100
AcDbLine
 10
47.744021324779
 20
240.579755927139
 30
0.0
 11
44.1284271247462
 21
240.579755927139
 31
0.0
  0
LINE
  5
194
330
1F
100
AcDbEntity
  8
2
  6
Continuous
 62
     3
100
AcDbLine
 10
42.0
 20
273.841324612057
 30
0.0
 11
42.0
 21
280.879755927139
 31
0.0
  0
LINE
  5
195
330
1F
100
AcDbEntity
  8
2
  6
Continuous
 62
     3
100
AcDbLine
 10
98.0
 20
273.841330937788
 30
0.0
 11
98.0
 21
280.879755927139
 31
0.0
  0
LINE
  5
196
330
1F
100
AcDbEntity
  8
1
  6
Continuous
 62
     4
100
AcDbLine
 10
34.174131096632
 20
42.7
 30
0.0
 11
32.0573324764261
 21
34.8
 31
0.0
  0
LINE
  5
197
330
1F
100
AcDbEntity
  8
1
  6
Continuous
 62
     4
100
AcDbLine
 10
34.174131096632
 20
42.7
 30
0.0
 11
28.3909297168379
 21
36.9167986202059
 31
0.0
  0
LINE
  5
198
330
1F
100
AcDbEntity
  8
1
  6
Continuous
 62
     4
100
AcDbLine
 10
107.056168959788
 20
42.7
 30
0.0
 11
111.615398637097
 21
35.9099881334378
 31
0.0
  0
LINE
  5
199
330
1F
100
AcDbEntity
  8
1
  6
Continuous
 62
     4
100
AcDbLine
 10
107.056168959788
 20
42.7
 30
0.0
 11
107.609571748744
 21
34.5400623929051
 31
0.0
  0
LINE
  5
19A
330
1F
100
AcDbEntity
  8
1
  6
DOTTED
 62
     6
100
AcDbLine
 10
57.7359841898954
 20
155.3
 30
0.0
 11
82.2640158101046
 21
155.3
 31
0.0
  0
ARC
  5
1A5
330
1F
100
AcDbEntity
  8
4
  6
Continuous
 62
     3
100
AcDbCircle
 10
70.5287199774556
 20
95.3516910788263
 30
0.0
 40
69.99999999999946
100
AcDbArc
 50
69.44454780460548
 51
79.75792041555191
  0
ARC
  5
1A6
330
1F
100
AcDbEntity
  8
4
  6
Continuous
 62
     3
100
AcDbCircle
 10
93.0
 20
155.276991029251
 30
0.0
 40
6.0
100
AcDbArc
 50
0.0
 51
69.44454780460478
  0
ARC
  5
1A7
330
1F
100
AcDbEntity
  8
4
  6
Continuous
 62
     3
100
AcDbCircle
 10
47.0
 20
155.276991029251
 30
0.0
 40
6.000000000000557
100
AcDbArc
 50
110.555452195391
 51
180.0
  0
ARC
  5
1A8
330
1F
100
AcDbEntity
  8
4
  6
Continuous
 62
     3
100
AcDbCircle
 10
69.4712800225444
 20
95.3516910788263
 30
0.0
 40
70.0000000000002
100
AcDbArc
 50
100.242079584448
 51
110.5554521953942
  0
ARC
  5
1A9
330
1F
100
AcDbEntity
  8
4
  6
Continuous
 62
     3
100
AcDbCircle
 10
77.5857864376269
 20
133.0
 30
0.0
 40
1.000000000000299
100
AcDbArc
 50
45.00000000002015
 51
90.0
  0
ARC
  5
1AA
330
1F
100
AcDbEntity
  8
4
  6
Continuous
 62
     3
100
AcDbCircle
 10
79.4142135623731
 20
134.0
 30
0.0
 40
0.9999999999995961
100
AcDbArc
 50
224.9999999999798
 51
270.0
  0
ARC
  5
1AB
330
1F
100
AcDbEntity
  8
4
  6
Continuous
 62
     3
100
AcDbCircle
 10
60.5857864376269
 20
134.0
 30
0.0
 40
1.0
100
AcDbArc
 50
270.0
 51
315.000000000036
  0
ARC
  5
1AC
330
1F
100
AcDbEntity
  8
4
  6
Continuous
 62
     3
100
AcDbCircle
 10
62.4142135623731
 20
133.0
 30
0.0
 40
1.0
100
AcDbArc
 50
90.0
 51
134.9999999999672
  0
ARC
  5
1AD
330
1F
100
AcDbEntity
  8
4
  6
Continuous
 62
     3
100
AcDbCircle
 10
82.2640158101046
 20
160.3
 30
0.0
 40
3.999999999999195
100
AcDbArc
 50
79.75792041555101
 51
90.0
  0
ARC
  5
1AE
330
1F
100
AcDbEntity
  8
4
  6
Continuous
 62
     3
100
AcDbCircle
 10
57.7359841898954
 20
160.3
 30
0.0
 40
4.0
100
AcDbArc
 50
90.0
 51
100.2420795844479
  0
ARC
  5
1AF
330
1F
100
AcDbEntity
  8
4
  6
DOTTED
 62
     6
100
AcDbCircle
 10
70.5287199774556
 20
86.3516910788263
 30
0.0
 40
69.99999999999946
100
AcDbArc
 50
69.44454780460548
 51
79.75792041555191
  0
ARC
  5
1B0
330
1F
100
AcDbEntity
  8
4
  6
DOTTED
 62
     6
100
AcDbCircle
 10
93.0
 20
146.276991029251
 30
0.0
 40
6.0
100
AcDbArc
 50
0.0
 51
69.44454780460478
  0
ARC
  5
1B1
330
1F
100
AcDbEntity
  8
4
  6
DOTTED
 62
     6
100
AcDbCircle
 10
47.0
 20
146.276991029251
 30
0.0
 40
6.000000000000557
100
AcDbArc
 50
110.555452195391
 51
180.0
  0
ARC
  5
1B2
330
1F
100
AcDbEntity
  8
4
  6
DOTTED
 62
     6
100
AcDbCircle
 10
69.4712800225444
 20
86.3516910788263
 30
0.0
 40
70.0000000000002
100
AcDbArc
 50
100.242079584448
 51
110.5554521953942
  0
ARC
  5
1B3
330
1F
100
AcDbEntity
  8
4
  6
DOTTED
 62
     6
100
AcDbCircle
 10
57.7359841898954
 20
151.3
 30
0.0
 40
4.0
100
AcDbArc
 50
90.0
 51
100.2420795844479
  0
ARC
  5
1B4
330
1F
100
AcDbEntity
  8
4
  6
DOTTED
 62
     6
100
AcDbCircle
 10
82.2640158101046
 20
151.3
 30
0.0
 40
3.999999999999195
100
AcDbArc
 50
79.75792041555101
 51
90.0
  0
ARC
  5
1B5
330
1F
100
AcDbEntity
  8
4
  6
Continuous
 62
     3
100
AcDbCircle
 10
225.735984189895
 20
160.3
 30
0.0
 40
4.0
100
AcDbArc
 50
90.0
 51
100.2420795844395
  0
ARC
  5
1B6
330
1F
100
AcDbEntity
  8
4
  6
Continuous
 62
     3
100
AcDbCircle
 10
250.264015810105
 20
160.3
 30
0.0
 40
3.999999999999106
100
AcDbArc
 50
79.75792041555802
 51
90.0
  0
ARC
  5
1B7
330
1F
100
AcDbEntity
  8
4
  6
Continuous
 62
     3
100
AcDbCircle
 10
230.414213562373
 20
133.0
 30
0.0
 40
1.0
100
AcDbArc
 50
90.0
 51
134.9999999999586
  0
ARC
  5
1B8
330
1F
100
AcDbEntity
  8
4
  6
Continuous
 62
     3
100
AcDbCircle
 10
228.585786437627
 20
134.0
 30
0.0
 40
1.0
100
AcDbArc
 50
270.0
 51
315.0000000000391
  0
ARC
  5
1B9
330
1F
100
AcDbEntity
  8
4
  6
Continuous
 62
     3
100
AcDbCircle
 10
247.414213562373
 20
134.0
 30
0.0
 40
0.9999999999992243
100
AcDbArc
 50
225.0000000000012
 51
270.0
  0
ARC
  5
1BA
330
1F
100
AcDbEntity
  8
4
  6
Continuous
 62
     3
100
AcDbCircle
 10
245.585786437627
 20
133.0
 30
0.0
 40
0.9999999999999276
100
AcDbArc
 50
45.00000000004146
 51
90.0
  0
ARC
  5
1BB
330
1F
100
AcDbEntity
  8
4
  6
Continuous
 62
     3
100
AcDbCircle
 10
237.471280022544
 20
95.3516910788263
 30
0.0
 40
70.00000000000009
100
AcDbArc
 50
100.2420795844475
 51
110.5554521953935
  0
ARC
  5
1BC
330
1F
100
AcDbEntity
  8
4
  6
Continuous
 62
     3
100
AcDbCircle
 10
215.0
 20
155.276991029251
 30
0.0
 40
6.000000000000412
100
AcDbArc
 50
110.5554521953873
 51
180.0
  0
ARC
  5
1BD
330
1F
100
AcDbEntity
  8
4
  6
Continuous
 62
     3
100
AcDbCircle
 10
261.0
 20
155.276991029251
 30
0.0
 40
6.0
100
AcDbArc
 50
0.0
 51
69.44454780460912
  0
ARC
  5
1BE
330
1F
100
AcDbEntity
  8
4
  6
Continuous
 62
     3
100
AcDbCircle
 10
238.528719977456
 20
95.3516910788263
 30
0.0
 40
69.99999999999915
100
AcDbArc
 50
69.44454780460617
 51
79.75792041555232
  0
ARC
  5
1BF
330
1F
100
AcDbEntity
  8
100
  6
Continuous
 62
     3
100
AcDbCircle
 10
72.809247488035
 20
288.440964476155
 30
0.0
 40
3.000000000000386
100
AcDbArc
 50
38.36848299940621
 51
84.34317214826795
  0
ARC
  5
1C0
330
1F
100
AcDbEntity
  8
100
  6
Continuous
 62
     3
100
AcDbCircle
 10
67.1907602755459
 20
288.440964476155
 30
0.0
 40
3.00000000000041
100
AcDbArc
 50
95.65682785173017
 51
141.6315170005995
  0
ARC
  5
1C1
330
1F
100
AcDbEntity
  8
100
  6
Continuous
 62
     3
100
AcDbCircle
 10
55.602429578279
 20
284.675687586153
 30
0.0
 40
2.999999999999898
100
AcDbArc
 50
74.36848299941053
 51
120.343172148267
  0
ARC
  5
1C2
330
1F
100
AcDbEntity
  8
100
  6
Continuous
 62
     3
100
AcDbCircle
 10
51.056977940696
 20
281.373223662458
 30
0.0
 40
2.999999999999622
100
AcDbArc
 50
131.6568278517291
 51
177.6315170006158
  0
ARC
  5
1C3
330
1F
100
AcDbEntity
  8
100
  6
Continuous
 62
     3
100
AcDbCircle
 10
43.894995696912
 20
271.515600787377
 30
0.0
 40
3.000000000000421
100
AcDbArc
 50
110.3684829994014
 51
156.3431721482727
  0
ARC
  5
1C4
330
1F
100
AcDbEntity
  8
100
  6
Continuous
 62
     3
100
AcDbCircle
 10
42.158787665574
 20
266.172101912218
 30
0.0
 40
3.000000000000082
100
AcDbArc
 50
167.6568278517429
 51
213.6315170006106
  0
ARC
  5
1C5
330
1F
100
AcDbEntity
  8
100
  6
Continuous
 62
     3
100
AcDbCircle
 10
42.158787665574
 20
253.987409942061
 30
0.0
 40
2.999999999999722
100
AcDbArc
 50
146.3684829994052
 51
192.3431721482781
  0
ARC
  5
1C6
330
1F
100
AcDbEntity
  8
100
  6
Continuous
 62
     3
100
AcDbCircle
 10
51.056977940696
 20
238.786288191821
 30
0.0
 40
2.999999999999457
100
AcDbArc
 50
182.3684829994037
 51
228.3431721482748
  0
ARC
  5
1C7
330
1F
100
AcDbEntity
  8
100
  6
Continuous
 62
     3
100
AcDbCircle
 10
55.602429578279
 20
235.483824268126
 30
0.0
 40
3.000000000000056
100
AcDbArc
 50
239.6568278517312
 51
285.6315170005982
  0
ARC
  5
1C8
330
1F
100
AcDbEntity
  8
100
  6
Continuous
 62
     3
100
AcDbCircle
 10
67.1907602755459
 20
231.718547378123
 30
0.0
 40
2.999999999999739
100
AcDbArc
 50
218.368482999391
 51
264.3431721482679
  0
ARC
  5
1C9
330
1F
100
AcDbEntity
  8
100
  6
Continuous
 62
     3
100
AcDbCircle
 10
72.809247488035
 20
231.718547378123
 30
0.0
 40
2.999999999999402
100
AcDbArc
 50
275.656827851734
 51
321.6315170006127
  0
ARC
  5
1CA
330
1F
100
AcDbEntity
  8
100
  6
Continuous
 62
     3
100
AcDbCircle
 10
84.3975781853019
 20
235.483824268126
 30
0.0
 40
2.999999999999926
100
AcDbArc
 50
254.3684829994107
 51
300.3431721482689
  0
ARC
  5
1CB
330
1F
100
AcDbEntity
  8
100
  6
Continuous
 62
     3
100
AcDbCircle
 10
88.943029822884
 20
238.786288191821
 30
0.0
 40
2.999999999999997
100
AcDbArc
 50
311.6568278517379
 51
357.6315170005975
  0
ARC
  5
1CC
330
1F
100
AcDbEntity
  8
100
  6
Continuous
 62
     3
100
AcDbCircle
 10
97.8412200980069
 20
253.987409942061
 30
0.0
 40
3.0000000000001
100
AcDbArc
 50
347.6568278517235
 51
33.63151700059384
  0
ARC
  5
1CD
330
1F
100
AcDbEntity
  8
100
  6
Continuous
 62
     3
100
AcDbCircle
 10
97.8412200980069
 20
266.172101912218
 30
0.0
 40
3.00000000000035
100
AcDbArc
 50
326.3684829993903
 51
12.3431721482579
  0
ARC
  5
1CE
330
1F
100
AcDbEntity
  8
100
  6
Continuous
 62
     3
100
AcDbCircle
 10
96.1050120666689
 20
271.515600787377
 30
0.0
 40
3.000000000000222
100
AcDbArc
 50
23.65682785172886
 51
69.63151700061124
  0
ARC
  5
1CF
330
1F
100
AcDbEntity
  8
100
  6
Continuous
 62
     3
100
AcDbCircle
 10
88.943029822884
 20
281.373223662458
 30
0.0
 40
3.000000000000417
100
AcDbArc
 50
2.36848299938392
 51
48.34317214825531
  0
ARC
  5
1D0
330
1F
100
AcDbEntity
  8
100
  6
Continuous
 62
     3
100
AcDbCircle
 10
84.3975781853019
 20
284.675687586153
 30
0.0
 40
3.000000000000282
100
AcDbArc
 50
59.65682785172481
 51
105.6315170006017
  0
ARC
  5
1D1
330
1F
100
AcDbEntity
  8
100
  6
Continuous
 62
     3
100
AcDbCircle
 10
70.00000388179
 20
260.079755927139
 30
0.0
 40
31.50000000000072
100
AcDbArc
 50
12.34317214827016
 51
17.99999999999989
  0
ARC
  5
1D2
330
1F
100
AcDbEntity
  8
100
  6
Continuous
 62
     3
100
AcDbCircle
 10
70.00000388179
 20
260.079755927139
 30
0.0
 40
31.5000000000004
100
AcDbArc
 50
336.3431721482717
 51
347.6568278517299
  0
ARC
  5
1D3
330
1F
100
AcDbEntity
  8
100
  6
Continuous
 62
     3
100
AcDbCircle
 10
70.00000388179
 20
260.079755927139
 30
0.0
 40
31.49999999999977
100
AcDbArc
 50
300.3431721482713
 51
311.6568278517308
  0
ARC
  5
1D4
330
1F
100
AcDbEntity
  8
100
  6
Continuous
 62
     3
100
AcDbCircle
 10
70.00000388179
 20
260.079755927139
 30
0.0
 40
31.49999999999942
100
AcDbArc
 50
264.3431721482715
 51
275.6568278517304
  0
ARC
  5
1D5
330
1F
100
AcDbEntity
  8
100
  6
Continuous
 62
     3
100
AcDbCircle
 10
70.00000388179
 20
260.079755927139
 30
0.0
 40
31.49999999999919
100
AcDbArc
 50
228.3431721482704
 51
239.6568278517301
  0
ARC
  5
1D6
330
1F
100
AcDbEntity
  8
100
  6
Continuous
 62
     3
100
AcDbCircle
 10
70.00000388179
 20
260.079755927139
 30
0.0
 40
31.49999999999944
100
AcDbArc
 50
192.3431721482706
 51
203.656827851729
  0
ARC
  5
1D7
330
1F
100
AcDbEntity
  8
100
  6
Continuous
 62
     3
100
AcDbCircle
 10
70.00000388179
 20
260.079755927139
 30
0.0
 40
31.50000000000006
100
AcDbArc
 50
156.3431721482694
 51
167.6568278517296
  0
ARC
  5
1D8
330
1F
100
AcDbEntity
  8
100
  6
Continuous
 62
     3
100
AcDbCircle
 10
70.00000388179
 20
260.079755927139
 30
0.0
 40
31.50000000000017
100
AcDbArc
 50
120.3431721482688
 51
131.6568278517287
  0
ARC
  5
1D9
330
1F
100
AcDbEntity
  8
100
  6
Continuous
 62
     3
100
AcDbCircle
 10
70.00000388179
 20
260.079755927139
 30
0.0
 40
31.50000000000054
100
AcDbArc
 50
84.34317214826983
 51
95.65682785172835
  0
ARC
  5
1DA
330
1F
100
AcDbEntity
  8
100
  6
Continuous
 62
     3
100
AcDbCircle
 10
70.00000388179
 20
260.079755927139
 30
0.0
 40
31.5000000000009
100
AcDbArc
 50
48.34317214826977
 51
59.65682785172902
  0
ARC
  5
1DB
330
1F
100
AcDbEntity
  8
100
  6
Continuous
 62
     3
100
AcDbCircle
 10
70.00000388179
 20
260.079755927139
 30
0.0
 40
31.50000000000069
100
AcDbArc
 50
17.99999999999989
 51
23.65682785173004
  0
ARC
  5
1DC
330
1F
100
AcDbEntity
  8
100
  6
Continuous
 62
     3
100
AcDbCircle
 10
40.0663750899169
 20
281.827810261961
 30
0.0
 40
7.999999999999915
100
AcDbArc
 50
290.3684829994049
 51
357.6315170005939
  0
ARC
  5
1DD
330
1F
100
AcDbEntity
  8
100
  6
Continuous
 62
     3
100
AcDbCircle
 10
33.00000388179
 20
260.079755927139
 30
0.0
 40
8.000000000000314
100
AcDbArc
 50
326.3684829994023
 51
33.63151700059786
  0
ARC
  5
1DE
330
1F
100
AcDbEntity
  8
100
  6
Continuous
 62
     3
100
AcDbCircle
 10
40.0663750899169
 20
238.331701592318
 30
0.0
 40
8.000000000000604
100
AcDbArc
 50
2.3684829993984
 51
69.63151700059638
  0
ARC
  5
1DF
330
1F
100
AcDbEntity
  8
100
  6
Continuous
 62
     3
100
AcDbCircle
 10
58.5663750899169
 20
224.890664824219
 30
0.0
 40
8.000000000000421
100
AcDbArc
 50
38.3684829993971
 51
105.6315170005955
  0
ARC
  5
1E0
330
1F
100
AcDbEntity
  8
100
  6
Continuous
 62
     3
100
AcDbCircle
 10
81.4336326736639
 20
224.890664824219
 30
0.0
 40
7.999999999999864
100
AcDbArc
 50
74.36848299940053
 51
141.6315170006011
  0
ARC
  5
1E1
330
1F
100
AcDbEntity
  8
100
  6
Continuous
 62
     3
100
AcDbCircle
 10
99.9336326736639
 20
238.331701592318
 30
0.0
 40
7.999999999999923
100
AcDbArc
 50
110.3684829994057
 51
177.6315170006014
  0
ARC
  5
1E2
330
1F
100
AcDbEntity
  8
100
  6
Continuous
 62
     3
100
AcDbCircle
 10
107.00000388179
 20
260.079755927139
 30
0.0
 40
7.999999999999496
100
AcDbArc
 50
146.3684829993982
 51
213.6315170006016
  0
ARC
  5
1E3
330
1F
100
AcDbEntity
  8
100
  6
Continuous
 62
     3
100
AcDbCircle
 10
99.9336326736639
 20
281.827810261961
 30
0.0
 40
8.00000000000044
100
AcDbArc
 50
182.368482999406
 51
249.631517000591
  0
ARC
  5
1E4
330
1F
100
AcDbEntity
  8
100
  6
Continuous
 62
     3
100
AcDbCircle
 10
81.4336326736639
 20
295.26884703006
 30
0.0
 40
8.000000000000314
100
AcDbArc
 50
218.3684829993974
 51
285.6315170005948
  0
ARC
  5
1E5
330
1F
100
AcDbEntity
  8
100
  6
Continuous
 62
     3
100
AcDbCircle
 10
58.5663750899169
 20
295.26884703006
 30
0.0
 40
7.999999999999837
100
AcDbArc
 50
254.3684829994012
 51
321.6315170006009
  0
ARC
  5
1E6
330
1F
100
AcDbEntity
  8
100
  6
Continuous
 62
     3
100
AcDbCircle
 10
96.1050120666689
 20
248.643911066902
 30
0.0
 40
3.000000000000376
100
AcDbArc
 50
290.3684829993975
 51
336.3431721482709
  0
ARC
  5
1E7
330
1F
100
AcDbEntity
  8
2
  6
Continuous
 62
     3
100
AcDbCircle
 10
49.0
 20
84.424483603305
 30
0.0
 40
1.0
100
AcDbArc
 50
0.0
 51
60.00000000001422
  0
ARC
  5
1E8
330
1F
100
AcDbEntity
  8
2
  6
Continuous
 62
     3
100
AcDbCircle
 10
45.25
 20
84.0
 30
0.0
 40
1.0
100
AcDbArc
 50
270.0
 51
0.0
  0
ARC
  5
1E9
330
1F
100
AcDbEntity
  8
2
  6
Continuous
 62
     3
100
AcDbCircle
 10
94.75
 20
84.0
 30
0.0
 40
1.0
100
AcDbArc
 50
180.0
 51
270.0
  0
ARC
  5
1EA
330
1F
100
AcDbEntity
  8
2
  6
Continuous
 62
     3
100
AcDbCircle
 10
91.0
 20
84.424483603305
 30
0.0
 40
1.000000000000476
100
AcDbArc
 50
119.9999999999843
 51
180.0
  0
ARC
  5
1EB
330
1F
100
AcDbEntity
  8
2
  6
Continuous
 62
     3
100
AcDbCircle
 10
215.481643137428
 20
83.113656589939
 30
0.0
 40
2.499999999999516
100
AcDbArc
 50
357.6592462878212
 51
36.16288302902272
  0
ARC
  5
1EC
330
1F
100
AcDbEntity
  8
2
  6
Continuous
 62
     3
100
AcDbCircle
 10
282.615790583987
 20
84.05239087358
 30
0.0
 40
24.62198777011957
100
AcDbArc
 50
181.2855307051341
 51
204.7194093099398
  0
ARC
  5
1ED
330
1F
100
AcDbEntity
  8
2
  6
Continuous
 62
     3
100
AcDbCircle
 10
193.384209416013
 20
84.05239087358
 30
0.0
 40
24.62198777011956
100
AcDbArc
 50
335.2805906900603
 51
358.7144692948658
  0
ARC
  5
1EE
330
1F
100
AcDbEntity
  8
2
  6
Continuous
 62
     3
100
AcDbCircle
 10
238.0
 20
63.5
 30
0.0
 40
24.5
100
AcDbArc
 50
155.2527497676229
 51
24.74725023237711
  0
ARC
  5
1EF
330
1F
100
AcDbEntity
  8
2
  6
Continuous
 62
     3
100
AcDbCircle
 10
45.607378164699
 20
39.0
 30
0.0
 40
5.000000000000015
100
AcDbArc
 50
66.83194526423436
 51
90.0
  0
ARC
  5
1F0
330
1F
100
AcDbEntity
  8
2
  6
Continuous
 62
     3
100
AcDbCircle
 10
94.392621835301
 20
39.0
 30
0.0
 40
5.0
100
AcDbArc
 50
90.0
 51
113.1680547357657
  0
ARC
  5
1F1
330
1F
100
AcDbEntity
  8
2
  6
Continuous
 62
     3
100
AcDbCircle
 10
70.0
 20
96.0
 30
0.0
 40
57.00000000000001
100
AcDbArc
 50
246.8319452642344
 51
293.1680547357656
  0
ARC
  5
1F2
330
1F
100
AcDbEntity
  8
2
  6
Continuous
 62
     3
100
AcDbCircle
 10
95.871572875254
 20
42.0
 30
0.0
 40
1.999999999999931
100
AcDbArc
 50
45.00000000000216
 51
90.0
  0
ARC
  5
1F3
330
1F
100
AcDbEntity
  8
2
  6
Continuous
 62
     3
100
AcDbCircle
 10
95.871572875254
 20
85.0
 30
0.0
 40
2.0
100
AcDbArc
 50
270.0
 51
314.9999999999997
  0
ARC
  5
1F4
330
1F
100
AcDbEntity
  8
2
  6
Continuous
 62
     3
100
AcDbCircle
 10
91.0
 20
84.0
 30
0.0
 40
1.0
100
AcDbArc
 50
180.0
 51
270.0
  0
ARC
  5
1F5
330
1F
100
AcDbEntity
  8
2
  6
Continuous
 62
     3
100
AcDbCircle
 10
44.1284271247462
 20
42.0
 30
0.0
 40
2.0
100
AcDbArc
 50
90.0
 51
135.0000000000002
  0
ARC
  5
1F6
330
1F
100
AcDbEntity
  8
2
  6
Continuous
 62
     3
100
AcDbCircle
 10
44.1284271247462
 20
85.0
 30
0.0
 40
1.999999999999946
100
AcDbArc
 50
224.999999999998
 51
270.0
  0
ARC
  5
1F7
330
1F
100
AcDbEntity
  8
2
  6
Continuous
 62
     3
100
AcDbCircle
 10
49.0
 20
84.0
 30
0.0
 40
1.0
100
AcDbArc
 50
270.0
 51
0.0
  0
ARC
  5
1F8
330
1F
100
AcDbEntity
  8
2
  6
Continuous
 62
     3
100
AcDbCircle
 10
260.518356862572
 20
83.113656589939
 30
0.0
 40
2.499999999999773
100
AcDbArc
 50
143.8371169709732
 51
182.3407537121787
  0
ARC
  5
1F9
330
1F
100
AcDbEntity
  8
100
  6
Continuous
 62
     3
100
AcDbCircle
 10
43.894995696912
 20
248.643911066902
 30
0.0
 40
3.000000000000251
100
AcDbArc
 50
203.6568278517298
 51
249.6315170005952
  0
ARC
  5
1FA
330
1F
100
AcDbEntity
  8
2
  6
Continuous
 62
     3
100
AcDbCircle
 10
95.871572875254
 20
238.579755927139
 30
0.0
 40
1.999999999999875
100
AcDbArc
 50
45.00000000000058
 51
90.0
  0
ARC
  5
1FB
330
1F
100
AcDbEntity
  8
2
  6
Continuous
 62
     3
100
AcDbCircle
 10
95.871572875254
 20
281.579755927139
 30
0.0
 40
2.0
100
AcDbArc
 50
270.0
 51
315.000000000004
  0
ARC
  5
1FC
330
1F
100
AcDbEntity
  8
2
  6
Continuous
 62
     3
100
AcDbCircle
 10
44.1284271247462
 20
281.579755927139
 30
0.0
 40
1.999999999999936
100
AcDbArc
 50
224.9999999999977
 51
270.0
  0
ARC
  5
1FD
330
1F
100
AcDbEntity
  8
2
  6
Continuous
 62
     3
100
AcDbCircle
 10
44.1284271247462
 20
238.579755927139
 30
0.0
 40
2.0
100
AcDbArc
 50
90.0
 51
135.0000000000017
  0
CIRCLE
  5
1FE
330
1F
100
AcDbEntity
  8
100
  6
Continuous
 62
     3
100
AcDbCircle
 10
70.00000388179
 20
260.079755927139
 30
0.0
 40
10.0
  0
CIRCLE
  5
1FF
330
1F
100
AcDbEntity
  8
1
  6
Continuous
 62
     3
100
AcDbCircle
 10
238.0
 20
63.5
 30
0.0
 40
15.75
  0
CIRCLE
  5
200
330
1F
100
AcDbEntity
  8
1
  6
Continuous
 62
     3
100
AcDbCircle
 10
238.0
 20
63.5
 30
0.0
 40
19.476
  0
CIRCLE
  5
201
330
1F
100
AcDbEntity
  8
1
  6
Continuous
 62
     3
100
AcDbCircle
 10
238.0
 20
63.5
 30
0.0
 40
20.80000000000001
  0
LWPOLYLINE
  5
202
330
1F
100
AcDbEntity
  8
4
  6
Continuous
 62
     3
100
AcDbPolyline
 90
        4
 70
     0
 43
0.0
 10
73.7500076293945
 20
159.818893432617
 42
0.23185547147654
 10
72.65383911132795
 20
160.7028961181638
 42
0.11195568119992
 10
67.34617614746077
 20
160.7028808593761
 42
0.23187476391119
 10
66.24999999999903
 20
159.818878173828
  0
LWPOLYLINE
  5
203
330
1F
100
AcDbEntity
  8
4
  6
Continuous
 62
     3
100
AcDbPolyline
 90
        2
 70
     0
 43
0.0
 10
66.25
 20
158.0
 10
73.75
 20
158.0
  0
LWPOLYLINE
  5
204
330
1F
100
AcDbEntity
  8
4
  6
Continuous
 62
     3
100
AcDbPolyline
 90
        4
 70
     0
 43
0.0
 10
57.7359841898954
 20
164.3
 10
63.75
 20
164.300000000001
 42
-0.41421356237299
 10
66.25
 20
161.8
 10
66.25
 20
156.3
  0
LWPOLYLINE
  5
205
330
1F
100
AcDbEntity
  8
4
  6
Continuous
 62
     3
100
AcDbPolyline
 90
        4
 70
     0
 43
0.0
 10
82.2640158101046
 20
164.299999999999
 10
76.25
 20
164.3
 42
0.4142135623733
 10
73.7500000000002
 20
161.8
 10
73.75
 20
156.3
  0
LWPOLYLINE
  5
206
330
1F
100
AcDbEntity
  8
4
  6
Continuous
 62
     3
100
AcDbPolyline
 90
        9
 70
     1
 43
0.0
 10
60.5
 20
63.5
 10
60.5
 20
63.5
 10
82.5
 20
63.5
 10
76.0
 20
58.5
 10
76.5
 20
62.5
 10
69.9
 20
62.5
 10
67.5
 20
58.5
 10
57.5
 20
58.5
 10
60.5
 20
63.5
  0
LWPOLYLINE
  5
207
330
1F
100
AcDbEntity
  8
4
  6
Continuous
 62
     3
100
AcDbPolyline
 90
        4
 70
     0
 43
0.0
 10
250.264015810105
 20
164.299999999999
 10
244.25
 20
164.3
 42
0.41421356237333
 10
241.75
 20
161.8
 10
241.75
 20
156.3
  0
LWPOLYLINE
  5
208
330
1F
100
AcDbEntity
  8
4
  6
Continuous
 62
     3
100
AcDbPolyline
 90
        4
 70
     0
 43
0.0
 10
225.735984189895
 20
164.3
 10
231.75
 20
164.300000000001
 42
-0.41421356237298
 10
234.25
 20
161.8
 10
234.25
 20
156.3
  0
LWPOLYLINE
  5
209
330
1F
100
AcDbEntity
  8
4
  6
Continuous
 62
     3
100
AcDbPolyline
 90
        2
 70
     0
 43
0.0
 10
234.25
 20
158.0
 10
241.75
 20
158.0
  0
LWPOLYLINE
  5
20A
330
1F
100
AcDbEntity
  8
4
  6
Continuous
 62
     3
100
AcDbPolyline
 90
        4
 70
     0
 43
0.0
 10
241.750007629395
 20
159.818893432617
 42
0.2318554714766
 10
240.653839111328
 20
160.7028961181639
 42
0.11195568116518
 10
235.3461761474611
 20
160.7028808593747
 42
0.23187476391118
 10
234.2499999999997
 20
159.8188781738282
  0
LEADER
  5
20B
330
1F
100
AcDbEntity
  8
1
  6
Continuous
 62
     4
100
AcDbLeader
  3
Standard
 71
     0
 76
     3
 10
34.174131096632
 20
42.7
 30
0.0
 10
15.0932279375739
 20
9.65090627420989
 30
0.0
 10
-34.5884872351279
 20
9.65090627420989
 30
0.0
  0
LEADER
  5
20C
330
1F
100
AcDbEntity
  8
1
  6
Continuous
 62
     4
100
AcDbLeader
  3
Standard
 71
     0
 76
     3
 10
107.056168959788
 20
42.7
 30
0.0
 10
117.830035426515
 20
11.1959244818973
 30
0.0
 10
166.312434526788
 20
11.1959244818973
 30
0.0
  0
DIMENSION
  5
242
330
1F
100
AcDbEntity
  8
1
100
AcDbDimension
  2
*D1
 10
142.217095824704
 20
63.5
 30
0.0
 11
136.217095824704
 21
113.868130573369
 31
0.0
 70
    32
  1
101
 71
     5
 42
-1.0
 53
90.0
  3
ME10_DIM_10
100
AcDbAlignedDimension
 13
82.9752458605681
 23
164.236261146737
 33
0.0
 14
118.5
 24
63.5
 34
0.0
 50
90.0
100
AcDbRotatedDimension
  0
DIMENSION
  5
24F
330
1F
100
AcDbEntity
  8
1
100
AcDbDimension
  2
*D3
 10
25.00000000000001
 20
-0.1067609903741
 30
0.0
 11
71.3799854555679
 21
5.8932390096259
 31
0.0
 70
    32
  1
90
 71
     5
 42
-1.0
 53
0.00013888888889
  3
ME10_DIM_11
100
AcDbAlignedDimension
 13
115.0
 23
42.7
 33
0.0
 14
25.0
 24
42.7
 34
0.0
100
AcDbRotatedDimension
  0
ENDSEC
  0
SECTION
  2
OBJECTS
  0
DICTIONARY
  5
C
330
0
100
AcDbDictionary
281
     1
  3
ACAD_GROUP
350
D
  3
ACAD_LAYOUT
350
1A
  3
ACAD_MATERIAL
350
3B
  3
ACAD_MLEADERSTYLE
350
252
  3
ACAD_MLINESTYLE
350
17
  3
ACAD_PLOTSETTINGS
350
19
  3
ACAD_PLOTSTYLENAME
350
E
  3
ACAD_SCALELIST
350
216
  3
ACAD_VISUALSTYLE
350
2A
  3
AcDbVariableDictionary
350
250
  0
DICTIONARY
  5
D
102
{ACAD_REACTORS
330
C
102
}
330
C
100
AcDbDictionary
281
     1
  0
DICTIONARY
  5
1A
102
{ACAD_REACTORS
330
C
102
}
330
C
100
AcDbDictionary
281
     1
  3
Layout1
350
1E
  3
Layout2
350
26
  3
Model
350
22
  0
DICTIONARY
  5
3B
102
{ACAD_REACTORS
330
C
102
}
330
C
100
AcDbDictionary
281
     1
  3
ByBlock
350
3D
  3
ByLayer
350
3C
  3
Global
350
3E
  0
DICTIONARY
  5
252
102
{ACAD_REACTORS
330
C
102
}
330
C
100
AcDbDictionary
281
     1
  0
DICTIONARY
  5
17
102
{ACAD_REACTORS
330
C
102
}
330
C
100
AcDbDictionary
281
     1
  3
Standard
350
18
  0
DICTIONARY
  5
19
102
{ACAD_REACTORS
330
C
102
}
330
C
100
AcDbDictionary
281
     1
  0
ACDBDICTIONARYWDFLT
  5
E
102
{ACAD_REACTORS
330
C
102
}
330
C
100
AcDbDictionary
281
     1
  3
Normal
350
F
100
AcDbDictionaryWithDefault
340
F
  0
DICTIONARY
  5
216
102
{ACAD_REACTORS
330
C
102
}
330
C
100
AcDbDictionary
281
     1
  3
A0
350
217
  3
A1
350
218
  3
A2
350
219
  3
A3
350
21A
  3
A4
350
21B
  3
A5
350
21C
  3
A6
350
21D
  3
A7
350
21E
  3
A8
350
21F
  3
A9
350
220
  3
B0
350
221
  3
B1
350
222
  3
B2
350
223
  3
B3
350
224
  3
B4
350
225
  3
B5
350
226
  3
B6
350
227
  3
B7
350
228
  3
B8
350
229
  3
B9
350
22A
  3
C0
350
22B
  3
C1
350
22C
  3
C2
350
22D
  3
C3
350
22E
  3
C4
350
22F
  3
C5
350
230
  3
C6
350
231
  3
C7
350
232
  3
C8
350
233
  3
C9
350
234
  3
D0
350
235
  3
D1
350
236
  3
D2
350
237
  0
DICTIONARY
  5
2A
102
{ACAD_REACTORS
330
C
102
}
330
C
100
AcDbDictionary
281
     1
  3
2dWireframe
350
2F
  3
3D Hidden
350
31
  3
3dWireframe
350
30
  3
Basic
350
32
  3
Brighten
350
36
  3
ColorChange
350
3A
  3
Conceptual
350
34
  3
Dim
350
35
  3
Facepattern
350
39
  3
Flat
350
2B
  3
FlatWithEdges
350
2C
  3
Gouraud
350
2D
  3
GouraudWithEdges
350
2E
  3
Linepattern
350
38
  3
Realistic
350
33
  3
Thicken
350
37
  0
DICTIONARY
  5
250
102
{ACAD_REACTORS
330
C
102
}
330
C
100
AcDbDictionary
281
     1
  3
CANNOSCALE
350
253
  3
DIMASSOC
350
254
  3
HIDETEXT
350
255
  0
LAYOUT
  5
1E
102
{ACAD_REACTORS
330
1A
102
}
330
1A
100
AcDbPlotSettings
  1

  2
none_device
  4

  6

 40
0.0
 41
0.0
 42
0.0
 43
0.0
 44
0.0
 45
0.0
 46
0.0
 47
0.0
 48
0.0
 49
0.0
140
0.0
141
0.0
142
1.0
143
1.0
 70
   688
 72
     0
 73
     0
 74
     5
  7

 75
    16
147
1.0
148
0.0
149
0.0
100
AcDbLayout
  1
Layout1
 70
     1
 71
     1
 10
0.0
 20
0.0
 11
12.0
 21
9.0
 12
0.0
 22
0.0
 32
0.0
 14
1.00000000000000E+20
 24
1.00000000000000E+20
 34
1.00000000000000E+20
 15
-1.00000000000000E+20
 25
-1.00000000000000E+20
 35
-1.00000000000000E+20
146
0.0
 13
0.0
 23
0.0
 33
0.0
 16
1.0
 26
0.0
 36
0.0
 17
0.0
 27
1.0
 37
0.0
 76
     0
330
1B
  0
LAYOUT
  5
26
102
{ACAD_REACTORS
330
1A
102
}
330
1A
100
AcDbPlotSettings
  1

  2
none_device
  4

  6

 40
0.0
 41
0.0
 42
0.0
 43
0.0
 44
0.0
 45
0.0
 46
0.0
 47
0.0
 48
0.0
 49
0.0
140
0.0
141
0.0
142
1.0
143
1.0
 70
   688
 72
     0
 73
     0
 74
     5
  7

 75
    16
147
1.0
148
0.0
149
0.0
100
AcDbLayout
  1
Layout2
 70
     1
 71
     2
 10
0.0
 20
0.0
 11
0.0
 21
0.0
 12
0.0
 22
0.0
 32
0.0
 14
0.0
 24
0.0
 34
0.0
 15
0.0
 25
0.0
 35
0.0
146
0.0
 13
0.0
 23
0.0
 33
0.0
 16
1.0
 26
0.0
 36
0.0
 17
0.0
 27
1.0
 37
0.0
 76
     0
330
23
  0
LAYOUT
  5
22
102
{ACAD_REACTORS
330
1A
102
}
330
1A
100
AcDbPlotSettings
  1

  2
none_device
  4

  6

 40
0.0
 41
0.0
 42
0.0
 43
0.0
 44
0.0
 45
0.0
 46
0.0
 47
0.0
 48
0.0
 49
0.0
140
0.0
141
0.0
142
1.0
143
1.0
 70
  1712
 72
     0
 73
     0
 74
     0
  7

 75
     0
147
1.0
148
0.0
149
0.0
100
AcDbLayout
  1
Model
 70
     1
 71
     0
 10
0.0
 20
0.0
 11
12.0
 21
9.0
 12
0.0
 22
0.0
 32
0.0
 14
-34.5884872351279
 24
-2.25035452982308
 34
0.0
 15
267.0
 25
294.051034029943
 35
0.0
146
0.0
 13
0.0
 23
0.0
 33
0.0
 16
1.0
 26
0.0
 36
0.0
 17
0.0
 27
1.0
 37
0.0
 76
     0
330
1F
331
29
  0
MATERIAL
  5
3D
102
{ACAD_REACTORS
330
3B
102
}
102
{ACAD_XDICTIONARY
360
278
102
}
330
3B
100
AcDbMaterial
  1
ByBlock
  0
MATERIAL
  5
3C
102
{ACAD_REACTORS
330
3B
102
}
102
{ACAD_XDICTIONARY
360
276
102
}
330
3B
100
AcDbMaterial
  1
ByLayer
  0
MATERIAL
  5
3E
102
{ACAD_REACTORS
330
3B
102
}
102
{ACAD_XDICTIONARY
360
27A
102
}
330
3B
100
AcDbMaterial
  1
Global
  0
MLINESTYLE
  5
18
102
{ACAD_REACTORS
330
17
102
}
330
17
100
AcDbMlineStyle
  2
Standard
 70
     0
  3

 62
   256
 51
90.0
 52
90.0
 71
     2
 49
0.5
 62
   256
  6
BYLAYER
 49
-0.5
 62
   256
  6
BYLAYER
  0
ACDBPLACEHOLDER
  5
F
102
{ACAD_REACTORS
330
E
102
}
330
E
  0
SCALE
  5
217
102
{ACAD_REACTORS
330
216
102
}
330
216
100
AcDbScale
 70
     0
300
1:1
140
1.0
141
1.0
290
     1
  0
SCALE
  5
218
102
{ACAD_REACTORS
330
216
102
}
330
216
100
AcDbScale
 70
     0
300
1:2
140
1.0
141
2.0
290
     0
  0
SCALE
  5
219
102
{ACAD_REACTORS
330
216
102
}
330
216
100
AcDbScale
 70
     0
300
1:4
140
1.0
141
4.0
290
     0
  0
SCALE
  5
21A
102
{ACAD_REACTORS
330
216
102
}
330
216
100
AcDbScale
 70
     0
300
1:5
140
1.0
141
5.0
290
     0
  0
SCALE
  5
21B
102
{ACAD_REACTORS
330
216
102
}
330
216
100
AcDbScale
 70
     0
300
1:8
140
1.0
141
8.0
290
     0
  0
SCALE
  5
21C
102
{ACAD_REACTORS
330
216
102
}
330
216
100
AcDbScale
 70
     0
300
1:10
140
1.0
141
10.0
290
     0
  0
SCALE
  5
21D
102
{ACAD_REACTORS
330
216
102
}
330
216
100
AcDbScale
 70
     0
300
1:16
140
1.0
141
16.0
290
     0
  0
SCALE
  5
21E
102
{ACAD_REACTORS
330
216
102
}
330
216
100
AcDbScale
 70
     0
300
1:20
140
1.0
141
20.0
290
     0
  0
SCALE
  5
21F
102
{ACAD_REACTORS
330
216
102
}
330
216
100
AcDbScale
 70
     0
300
1:30
140
1.0
141
30.0
290
     0
  0
SCALE
  5
220
102
{ACAD_REACTORS
330
216
102
}
330
216
100
AcDbScale
 70
     0
300
1:40
140
1.0
141
40.0
290
     0
  0
SCALE
  5
221
102
{ACAD_REACTORS
330
216
102
}
330
216
100
AcDbScale
 70
     0
300
1:50
140
1.0
141
50.0
290
     0
  0
SCALE
  5
222
102
{ACAD_REACTORS
330
216
102
}
330
216
100
AcDbScale
 70
     0
300
1:100
140
1.0
141
100.0
290
     0
  0
SCALE
  5
223
102
{ACAD_REACTORS
330
216
102
}
330
216
100
AcDbScale
 70
     0
300
2:1
140
2.0
141
1.0
290
     0
  0
SCALE
  5
224
102
{ACAD_REACTORS
330
216
102
}
330
216
100
AcDbScale
 70
     0
300
4:1
140
4.0
141
1.0
290
     0
  0
SCALE
  5
225
102
{ACAD_REACTORS
330
216
102
}
330
216
100
AcDbScale
 70
     0
300
8:1
140
8.0
141
1.0
290
     0
  0
SCALE
  5
226
102
{ACAD_REACTORS
330
216
102
}
330
216
100
AcDbScale
 70
     0
300
10:1
140
10.0
141
1.0
290
     0
  0
SCALE
  5
227
102
{ACAD_REACTORS
330
216
102
}
330
216
100
AcDbScale
 70
     0
300
100:1
140
100.0
141
1.0
290
     0
  0
SCALE
  5
228
102
{ACAD_REACTORS
330
216
102
}
330
216
100
AcDbScale
 70
     0
300
1/128" = 1'-0"
140
0.0078125
141
12.0
290
     0
  0
SCALE
  5
229
102
{ACAD_REACTORS
330
216
102
}
330
216
100
AcDbScale
 70
     0
300
1/64" = 1'-0"
140
0.015625
141
12.0
290
     0
  0
SCALE
  5
22A
102
{ACAD_REACTORS
330
216
102
}
330
216
100
AcDbScale
 70
     0
300
1/32" = 1'-0"
140
0.03125
141
12.0
290
     0
  0
SCALE
  5
22B
102
{ACAD_REACTORS
330
216
102
}
330
216
100
AcDbScale
 70
     0
300
1/16" = 1'-0"
140
0.0625
141
12.0
290
     0
  0
SCALE
  5
22C
102
{ACAD_REACTORS
330
216
102
}
330
216
100
AcDbScale
 70
     0
300
3/32" = 1'-0"
140
0.09375
141
12.0
290
     0
  0
SCALE
  5
22D
102
{ACAD_REACTORS
330
216
102
}
330
216
100
AcDbScale
 70
     0
300
1/8" = 1'-0"
140
0.125
141
12.0
290
     0
  0
SCALE
  5
22E
102
{ACAD_REACTORS
330
216
102
}
330
216
100
AcDbScale
 70
     0
300
3/16" = 1'-0"
140
0.1875
141
12.0
290
     0
  0
SCALE
  5
22F
102
{ACAD_REACTORS
330
216
102
}
330
216
100
AcDbScale
 70
     0
300
1/4" = 1'-0"
140
0.25
141
12.0
290
     0
  0
SCALE
  5
230
102
{ACAD_REACTORS
330
216
102
}
330
216
100
AcDbScale
 70
     0
300
3/8" = 1'-0"
140
0.375
141
12.0
290
     0
  0
SCALE
  5
231
102
{ACAD_REACTORS
330
216
102
}
330
216
100
AcDbScale
 70
     0
300
1/2" = 1'-0"
140
0.5
141
12.0
290
     0
  0
SCALE
  5
232
102
{ACAD_REACTORS
330
216
102
}
330
216
100
AcDbScale
 70
     0
300
3/4" = 1'-0"
140
0.75
141
12.0
290
     0
  0
SCALE
  5
233
102
{ACAD_REACTORS
330
216
102
}
330
216
100
AcDbScale
 70
     0
300
1" = 1'-0"
140
1.0
141
12.0
290
     0
  0
SCALE
  5
234
102
{ACAD_REACTORS
330
216
102
}
330
216
100
AcDbScale
 70
     0
300
1-1/2" = 1'-0"
140
1.5
141
12.0
290
     0
  0
SCALE
  5
235
102
{ACAD_REACTORS
330
216
102
}
330
216
100
AcDbScale
 70
     0
300
3" = 1'-0"
140
3.0
141
12.0
290
     0
  0
SCALE
  5
236
102
{ACAD_REACTORS
330
216
102
}
330
216
100
AcDbScale
 70
     0
300
6" = 1'-0"
140
6.0
141
12.0
290
     0
  0
SCALE
  5
237
102
{ACAD_REACTORS
330
216
102
}
330
216
100
AcDbScale
 70
     0
300
1'-0" = 1'-0"
140
12.0
141
12.0
290
     0
  0
VISUALSTYLE
  5
2F
102
{ACAD_REACTORS
330
2A
102
}
102
{ACAD_XDICTIONARY
360
25E
102
}
330
2A
100
AcDbVisualStyle
  2
2dWireframe
 70
     4
 71
     0
 72
     2
 73
     0
 90
        0
 40
-0.6
 41
-30.0
 62
     5
 63
     7
 74
     1
 91
        4
 64
     7
 65
   257
 75
     1
175
     1
 42
1.0
 92
        0
 66
   257
 43
1.0
 76
     1
 77
     6
 78
     2
 67
     7
 79
     5
170
     0
171
     0
290
     0
174
     0
 93
        1
 44
0.0
173
     0
291
     0
 45
0.0
1001
ACAD
1000
AcDbSavedByObjectVersion
1070
     0
  0
VISUALSTYLE
  5
31
102
{ACAD_REACTORS
330
2A
102
}
102
{ACAD_XDICTIONARY
360
262
102
}
330
2A
100
AcDbVisualStyle
  2
3D Hidden
 70
     6
 71
     1
 72
     2
 73
     2
 90
        0
 40
-0.6
 41
-30.0
 62
     5
 63
     7
 74
     2
 91
        2
 64
     7
 65
   257
 75
     2
175
     1
 42
40.0
 92
        0
 66
   257
 43
1.0
 76
     1
 77
     6
 78
     2
 67
     7
 79
     3
170
     0
171
     0
290
     0
174
     0
 93
        1
 44
0.0
173
     0
291
     0
 45
0.0
1001
ACAD
1000
AcDbSavedByObjectVersion
1070
     0
  0
VISUALSTYLE
  5
30
102
{ACAD_REACTORS
330
2A
102
}
102
{ACAD_XDICTIONARY
360
260
102
}
330
2A
100
AcDbVisualStyle
  2
3dWireframe
 70
     5
 71
     0
 72
     2
 73
     0
 90
        0
 40
-0.6
 41
-30.0
 62
     5
 63
     7
 74
     1
 91
        4
 64
     7
 65
   257
 75
     1
175
     1
 42
1.0
 92
        0
 66
   257
 43
1.0
 76
     1
 77
     6
 78
     2
 67
     7
 79
     5
170
     0
171
     0
290
     0
174
     0
 93
        1
 44
0.0
173
     0
291
     0
 45
0.0
1001
ACAD
1000
AcDbSavedByObjectVersion
1070
     0
  0
VISUALSTYLE
  5
32
102
{ACAD_REACTORS
330
2A
102
}
102
{ACAD_XDICTIONARY
360
264
102
}
330
2A
100
AcDbVisualStyle
  2
Basic
 70
     7
 71
     1
 72
     0
 73
     1
 90
        0
 40
-0.6
 41
-30.0
 62
     5
 63
     7
 74
     0
 91
        4
 64
     7
 65
   257
 75
     1
175
     1
 42
1.0
 92
        8
 66
     7
 43
1.0
 76
     1
 77
     6
 78
     2
 67
     7
 79
     5
170
     0
171
     0
290
     0
174
     0
 93
        1
 44
0.0
173
     0
291
     1
 45
0.0
1001
ACAD
1000
AcDbSavedByObjectVersion
1070
     0
  0
VISUALSTYLE
  5
36
102
{ACAD_REACTORS
330
2A
102
}
102
{ACAD_XDICTIONARY
360
26C
102
}
330
2A
100
AcDbVisualStyle
  2
Brighten
 70
    12
 71
     2
 72
     2
 73
     0
 90
        0
 40
-0.6
 41
-30.0
 62
     5
 63
     7
 74
     1
 91
        4
 64
     7
 65
   257
 75
     1
175
     1
 42
1.0
 92
        8
 66
     7
 43
1.0
 76
     1
 77
     6
 78
     2
 67
     7
 79
     5
170
     0
171
     0
290
     0
174
     0
 93
        1
 44
50.0
173
     0
291
     1
 45
0.0
1001
ACAD
1000
AcDbSavedByObjectVersion
1070
     0
  0
VISUALSTYLE
  5
3A
102
{ACAD_REACTORS
330
2A
102
}
102
{ACAD_XDICTIONARY
360
274
102
}
330
2A
100
AcDbVisualStyle
  2
ColorChange
 70
    16
 71
     2
 72
     2
 73
     3
 90
        0
 40
-0.6
 41
-30.0
 62
     5
 63
     8
 74
     1
 91
        4
 64
     7
 65
   257
 75
     1
175
     1
 42
1.0
 92
        8
 66
     8
 43
1.0
 76
     1
 77
     6
 78
     2
 67
     7
 79
     5
170
     0
171
     0
290
     0
174
     0
 93
        1
 44
0.0
173
     0
291
     1
 45
0.0
1001
ACAD
1000
AcDbSavedByObjectVersion
1070
     0
  0
VISUALSTYLE
  5
34
102
{ACAD_REACTORS
330
2A
102
}
102
{ACAD_XDICTIONARY
360
268
102
}
330
2A
100
AcDbVisualStyle
  2
Conceptual
 70
     9
 71
     3
 72
     2
 73
     0
 90
        0
 40
-0.6
 41
-30.0
 62
     5
 63
     7
 74
     2
 91
        2
 64
     7
 65
   257
 75
     1
175
     1
 42
40.0
 92
        8
 66
     7
 43
1.0
 76
     1
 77
     6
 78
     2
 67
     7
 79
     3
170
     0
171
     0
290
     0
174
     0
 93
        1
 44
0.0
173
     0
291
     0
 45
0.0
1001
ACAD
1000
AcDbSavedByObjectVersion
1070
     0
  0
VISUALSTYLE
  5
35
102
{ACAD_REACTORS
330
2A
102
}
102
{ACAD_XDICTIONARY
360
26A
102
}
330
2A
100
AcDbVisualStyle
  2
Dim
 70
    11
 71
     2
 72
     2
 73
     0
 90
        0
 40
-0.6
 41
-30.0
 62
     5
 63
     7
 74
     1
 91
        4
 64
     7
 65
   257
 75
     1
175
     1
 42
1.0
 92
        8
 66
     7
 43
1.0
 76
     1
 77
     6
 78
     2
 67
     7
 79
     5
170
     0
171
     0
290
     0
174
     0
 93
        1
 44
-50.0
173
     0
291
     1
 45
0.0
1001
ACAD
1000
AcDbSavedByObjectVersion
1070
     0
  0
VISUALSTYLE
  5
39
102
{ACAD_REACTORS
330
2A
102
}
102
{ACAD_XDICTIONARY
360
272
102
}
330
2A
100
AcDbVisualStyle
  2
Facepattern
 70
    15
 71
     2
 72
     2
 73
     0
 90
        0
 40
-0.6
 41
-30.0
 62
     5
 63
     7
 74
     1
 91
        4
 64
     7
 65
   257
 75
     1
175
     1
 42
1.0
 92
        8
 66
     7
 43
1.0
 76
     1
 77
     6
 78
     2
 67
     7
 79
     5
170
     0
171
     0
290
     0
174
     0
 93
        1
 44
0.0
173
     0
291
     1
 45
0.0
1001
ACAD
1000
AcDbSavedByObjectVersion
1070
     0
  0
VISUALSTYLE
  5
2B
102
{ACAD_REACTORS
330
2A
102
}
102
{ACAD_XDICTIONARY
360
256
102
}
330
2A
100
AcDbVisualStyle
  2
Flat
 70
     0
 71
     2
 72
     1
 73
     1
 90
        2
 40
-0.6
 41
30.0
 62
     5
 63
     7
 74
     0
 91
        4
 64
     7
 65
   257
 75
     1
175
     1
 42
1.0
 92
        8
 66
     7
 43
1.0
 76
     1
 77
     6
 78
     2
 67
     7
 79
     5
170
     0
171
     0
290
     0
174
     0
 93
       13
 44
0.0
173
     0
291
     1
 45
0.0
1001
ACAD
1000
AcDbSavedByObjectVersion
1070
     0
  0
VISUALSTYLE
  5
2C
102
{ACAD_REACTORS
330
2A
102
}
102
{ACAD_XDICTIONARY
360
258
102
}
330
2A
100
AcDbVisualStyle
  2
FlatWithEdges
 70
     1
 71
     2
 72
     1
 73
     1
 90
        2
 40
-0.6
 41
30.0
 62
     5
 63
     7
 74
     1
 91
        4
 64
     7
 65
   257
 75
     1
175
     1
 42
1.0
 92
        0
 66
   257
 43
1.0
 76
     1
 77
     6
 78
     2
 67
     7
 79
     5
170
     0
171
     0
290
     0
174
     0
 93
       13
 44
0.0
173
     0
291
     1
 45
0.0
1001
ACAD
1000
AcDbSavedByObjectVersion
1070
     0
  0
VISUALSTYLE
  5
2D
102
{ACAD_REACTORS
330
2A
102
}
102
{ACAD_XDICTIONARY
360
25A
102
}
330
2A
100
AcDbVisualStyle
  2
Gouraud
 70
     2
 71
     2
 72
     2
 73
     1
 90
        2
 40
-0.6
 41
30.0
 62
     5
 63
     7
 74
     0
 91
        4
 64
     7
 65
   257
 75
     1
175
     1
 42
1.0
 92
        0
 66
     7
 43
1.0
 76
     1
 77
     6
 78
     2
 67
     7
 79
     5
170
     0
171
     0
290
     0
174
     0
 93
       13
 44
0.0
173
     0
291
     1
 45
0.0
1001
ACAD
1000
AcDbSavedByObjectVersion
1070
     0
  0
VISUALSTYLE
  5
2E
102
{ACAD_REACTORS
330
2A
102
}
102
{ACAD_XDICTIONARY
360
25C
102
}
330
2A
100
AcDbVisualStyle
  2
GouraudWithEdges
 70
     3
 71
     2
 72
     2
 73
     1
 90
        2
 40
-0.6
 41
30.0
 62
     5
 63
     7
 74
     1
 91
        4
 64
     7
 65
   257
 75
     1
175
     1
 42
1.0
 92
        0
 66
   257
 43
1.0
 76
     1
 77
     6
 78
     2
 67
     7
 79
     5
170
     0
171
     0
290
     0
174
     0
 93
       13
 44
0.0
173
     0
291
     1
 45
0.0
1001
ACAD
1000
AcDbSavedByObjectVersion
1070
     0
  0
VISUALSTYLE
  5
38
102
{ACAD_REACTORS
330
2A
102
}
102
{ACAD_XDICTIONARY
360
270
102
}
330
2A
100
AcDbVisualStyle
  2
Linepattern
 70
    14
 71
     2
 72
     2
 73
     0
 90
        0
 40
-0.6
 41
-30.0
 62
     5
 63
     7
 74
     1
 91
        4
 64
     7
 65
   257
 75
     7
175
     7
 42
1.0
 92
        8
 66
     7
 43
1.0
 76
     1
 77
     6
 78
     2
 67
     7
 79
     5
170
     0
171
     0
290
     0
174
     0
 93
        1
 44
0.0
173
     0
291
     1
 45
0.0
1001
ACAD
1000
AcDbSavedByObjectVersion
1070
     0
  0
VISUALSTYLE
  5
33
102
{ACAD_REACTORS
330
2A
102
}
102
{ACAD_XDICTIONARY
360
266
102
}
330
2A
100
AcDbVisualStyle
  2
Realistic
 70
     8
 71
     2
 72
     2
 73
     0
 90
        0
 40
-0.6
 41
-30.0
 62
     5
 63
     7
 74
     1
 91
        0
 64
     7
 65
   257
 75
     1
175
     1
 42
1.0
 92
        8
 66
     8
 43
1.0
 76
     1
 77
     6
 78
     2
 67
     7
 79
     5
170
     0
171
     0
290
     0
174
     0
 93
       13
 44
0.0
173
     0
291
     0
 45
0.0
1001
ACAD
1000
AcDbSavedByObjectVersion
1070
     0
  0
VISUALSTYLE
  5
37
102
{ACAD_REACTORS
330
2A
102
}
102
{ACAD_XDICTIONARY
360
26E
102
}
330
2A
100
AcDbVisualStyle
  2
Thicken
 70
    13
 71
     2
 72
     2
 73
     0
 90
        0
 40
-0.6
 41
-30.0
 62
     5
 63
     7
 74
     1
 91
        4
 64
     7
 65
   257
 75
     1
175
     1
 42
1.0
 92
       12
 66
     7
 43
1.0
 76
     1
 77
     6
 78
     2
 67
     7
 79
     5
170
     0
171
     0
290
     0
174
     0
 93
        1
 44
0.0
173
     0
291
     1
 45
0.0
1001
ACAD
1000
AcDbSavedByObjectVersion
1070
     0
  0
DICTIONARYVAR
  5
253
102
{ACAD_REACTORS
330
250
102
}
330
250
100
DictionaryVariables
280
     0
  1
1:1
  0
DICTIONARYVAR
  5
254
102
{ACAD_REACTORS
330
250
102
}
330
250
100
DictionaryVariables
280
     0
  1
2
  0
DICTIONARYVAR
  5
255
102
{ACAD_REACTORS
330
250
102
}
330
250
100
DictionaryVariables
280
     0
  1
1
  0
DICTIONARY
  5
278
330
3D
100
AcDbDictionary
280
     1
281
     1
  3
ACAD_XREC_ROUNDTRIP
360
279
  0
DICTIONARY
  5
276
330
3C
100
AcDbDictionary
280
     1
281
     1
  3
ACAD_XREC_ROUNDTRIP
360
277
  0
DICTIONARY
  5
27A
330
3E
100
AcDbDictionary
280
     1
281
     1
  3
ACAD_XREC_ROUNDTRIP
360
27B
  0
DICTIONARY
  5
25E
330
2F
100
AcDbDictionary
280
     1
281
     1
  3
ACAD_XREC_ROUNDTRIP
360
25F
  0
DICTIONARY
  5
262
330
31
100
AcDbDictionary
280
     1
281
     1
  3
ACAD_XREC_ROUNDTRIP
360
263
  0
DICTIONARY
  5
260
330
30
100
AcDbDictionary
280
     1
281
     1
  3
ACAD_XREC_ROUNDTRIP
360
261
  0
DICTIONARY
  5
264
330
32
100
AcDbDictionary
280
     1
281
     1
  3
ACAD_XREC_ROUNDTRIP
360
265
  0
DICTIONARY
  5
26C
330
36
100
AcDbDictionary
280
     1
281
     1
  3
ACAD_XREC_ROUNDTRIP
360
26D
  0
DICTIONARY
  5
274
330
3A
100
AcDbDictionary
280
     1
281
     1
  3
ACAD_XREC_ROUNDTRIP
360
275
  0
DICTIONARY
  5
268
330
34
100
AcDbDictionary
280
     1
281
     1
  3
ACAD_XREC_ROUNDTRIP
360
269
  0
DICTIONARY
  5
26A
330
35
100
AcDbDictionary
280
     1
281
     1
  3
ACAD_XREC_ROUNDTRIP
360
26B
  0
DICTIONARY
  5
272
330
39
100
AcDbDictionary
280
     1
281
     1
  3
ACAD_XREC_ROUNDTRIP
360
273
  0
DICTIONARY
  5
256
330
2B
100
AcDbDictionary
280
     1
281
     1
  3
ACAD_XREC_ROUNDTRIP
360
257
  0
DICTIONARY
  5
258
330
2C
100
AcDbDictionary
280
     1
281
     1
  3
ACAD_XREC_ROUNDTRIP
360
259
  0
DICTIONARY
  5
25A
330
2D
100
AcDbDictionary
280
     1
281
     1
  3
ACAD_XREC_ROUNDTRIP
360
25B
  0
DICTIONARY
  5
25C
330
2E
100
AcDbDictionary
280
     1
281
     1
  3
ACAD_XREC_ROUNDTRIP
360
25D
  0
DICTIONARY
  5
270
330
38
100
AcDbDictionary
280
     1
281
     1
  3
ACAD_XREC_ROUNDTRIP
360
271
  0
DICTIONARY
  5
266
330
33
100
AcDbDictionary
280
     1
281
     1
  3
ACAD_XREC_ROUNDTRIP
360
267
  0
DICTIONARY
  5
26E
330
37
100
AcDbDictionary
280
     1
281
     1
  3
ACAD_XREC_ROUNDTRIP
360
26F
  0
XRECORD
  5
279
102
{ACAD_REACTORS
330
278
102
}
330
278
100
AcDbXrecord
280
     1
102
MATERIAL
148
0.0
149
0.0
149
0.0
 93
        0
 94
      127
282
     0
 72
     1
 77
     1
171
     1
175
     1
179
     1
273
     0
  0
XRECORD
  5
277
102
{ACAD_REACTORS
330
276
102
}
330
276
100
AcDbXrecord
280
     1
102
MATERIAL
148
0.0
149
0.0
149
0.0
 93
        0
 94
      127
282
     0
 72
     1
 77
     1
171
     1
175
     1
179
     1
273
     0
  0
XRECORD
  5
27B
102
{ACAD_REACTORS
330
27A
102
}
330
27A
100
AcDbXrecord
280
     1
102
MATERIAL
148
0.0
149
0.0
149
0.0
 93
        0
 94
      127
282
     0
 72
     1
 77
     1
171
     1
175
     1
179
     1
273
     0
  0
XRECORD
  5
25F
102
{ACAD_REACTORS
330
25E
102
}
330
25E
100
AcDbXrecord
280
     1
102
RTVSPropertyOp0
 70
     1
102
RTVSPropertyOp1
 70
     1
102
RTVSPropertyOp2
 70
     1
102
RTVSPropertyOp3
 70
     1
102
RTVSPropertyOp4
 70
     1
102
RTVSPropertyOp5
 70
     1
102
RTVSPropertyOp6
 70
     1
102
RTVSPropertyOp7
 70
     1
102
RTVSPropertyOp8
 70
     1
102
RTVSPropertyOp9
 70
     1
102
RTVSPropertyOp10
 70
     1
102
RTVSPropertyOp11
 70
     1
102
RTVSPropertyOp12
 70
     1
102
RTVSPropertyOp13
 70
     1
102
RTVSPropertyOp14
 70
     1
102
RTVSPropertyOp15
 70
     1
102
RTVSPropertyOp16
 70
     1
102
RTVSPropertyOp17
 70
     1
102
RTVSPropertyOp18
 70
     1
102
RTVSPropertyOp19
 70
     1
102
RTVSPropertyOp20
 70
     1
102
RTVSPropertyOp21
 70
     1
102
RTVSPropertyOp22
 70
     1
102
RTVSPropertyOp23
 70
     1
102
RTVSPropertyOp24
 70
     1
102
RTVSPropertyOp25
 70
     1
102
RTVSPropertyOp26
 70
     1
102
RTVSPropertyOp27
 70
     1
  0
XRECORD
  5
263
102
{ACAD_REACTORS
330
262
102
}
330
262
100
AcDbXrecord
280
     1
102
RTVSPropertyOp0
 70
     1
102
RTVSPropertyOp1
 70
     1
102
RTVSPropertyOp2
 70
     1
102
RTVSPropertyOp3
 70
     1
102
RTVSPropertyOp4
 70
     1
102
RTVSPropertyOp5
 70
     1
102
RTVSPropertyOp6
 70
     1
102
RTVSPropertyOp7
 70
     1
102
RTVSPropertyOp8
 70
     1
102
RTVSPropertyOp9
 70
     1
102
RTVSPropertyOp10
 70
     1
102
RTVSPropertyOp11
 70
     1
102
RTVSPropertyOp12
 70
     1
102
RTVSPropertyOp13
 70
     1
102
RTVSPropertyOp14
 70
     1
102
RTVSPropertyOp15
 70
     1
102
RTVSPropertyOp16
 70
     1
102
RTVSPropertyOp17
 70
     1
102
RTVSPropertyOp18
 70
     1
102
RTVSPropertyOp19
 70
     1
102
RTVSPropertyOp20
 70
     1
102
RTVSPropertyOp21
 70
     1
102
RTVSPropertyOp22
 70
     1
102
RTVSPropertyOp23
 70
     1
102
RTVSPropertyOp24
 70
     1
102
RTVSPropertyOp25
 70
     1
102
RTVSPropertyOp26
 70
     1
102
RTVSPropertyOp27
 70
     1
  0
XRECORD
  5
261
102
{ACAD_REACTORS
330
260
102
}
330
260
100
AcDbXrecord
280
     1
102
RTVSPropertyOp0
 70
     1
102
RTVSPropertyOp1
 70
     1
102
RTVSPropertyOp2
 70
     1
102
RTVSPropertyOp3
 70
     1
102
RTVSPropertyOp4
 70
     1
102
RTVSPropertyOp5
 70
     1
102
RTVSPropertyOp6
 70
     1
102
RTVSPropertyOp7
 70
     1
102
RTVSPropertyOp8
 70
     1
102
RTVSPropertyOp9
 70
     1
102
RTVSPropertyOp10
 70
     1
102
RTVSPropertyOp11
 70
     1
102
RTVSPropertyOp12
 70
     1
102
RTVSPropertyOp13
 70
     1
102
RTVSPropertyOp14
 70
     1
102
RTVSPropertyOp15
 70
     1
102
RTVSPropertyOp16
 70
     1
102
RTVSPropertyOp17
 70
     1
102
RTVSPropertyOp18
 70
     1
102
RTVSPropertyOp19
 70
     1
102
RTVSPropertyOp20
 70
     1
102
RTVSPropertyOp21
 70
     1
102
RTVSPropertyOp22
 70
     1
102
RTVSPropertyOp23
 70
     1
102
RTVSPropertyOp24
 70
     1
102
RTVSPropertyOp25
 70
     1
102
RTVSPropertyOp26
 70
     1
102
RTVSPropertyOp27
 70
     1
  0
XRECORD
  5
265
102
{ACAD_REACTORS
330
264
102
}
330
264
100
AcDbXrecord
280
     1
102
RTVSPropertyOp0
 70
     1
102
RTVSPropertyOp1
 70
     1
102
RTVSPropertyOp2
 70
     1
102
RTVSPropertyOp3
 70
     1
102
RTVSPropertyOp4
 70
     1
102
RTVSPropertyOp5
 70
     1
102
RTVSPropertyOp6
 70
     1
102
RTVSPropertyOp7
 70
     1
102
RTVSPropertyOp8
 70
     1
102
RTVSPropertyOp9
 70
     1
102
RTVSPropertyOp10
 70
     1
102
RTVSPropertyOp11
 70
     1
102
RTVSPropertyOp12
 70
     1
102
RTVSPropertyOp13
 70
     1
102
RTVSPropertyOp14
 70
     1
102
RTVSPropertyOp15
 70
     1
102
RTVSPropertyOp16
 70
     1
102
RTVSPropertyOp17
 70
     1
102
RTVSPropertyOp18
 70
     1
102
RTVSPropertyOp19
 70
     1
102
RTVSPropertyOp20
 70
     1
102
RTVSPropertyOp21
 70
     1
102
RTVSPropertyOp22
 70
     1
102
RTVSPropertyOp23
 70
     1
102
RTVSPropertyOp24
 70
     1
102
RTVSPropertyOp25
 70
     1
102
RTVSPropertyOp26
 70
     1
102
RTVSPropertyOp27
 70
     1
  0
XRECORD
  5
26D
102
{ACAD_REACTORS
330
26C
102
}
330
26C
100
AcDbXrecord
280
     1
102
RTVSPropertyOp0
 70
     1
102
RTVSPropertyOp1
 70
     1
102
RTVSPropertyOp2
 70
     1
102
RTVSPropertyOp3
 70
     1
102
RTVSPropertyOp4
 70
     1
102
RTVSPropertyOp5
 70
     1
102
RTVSPropertyOp6
 70
     1
102
RTVSPropertyOp7
 70
     1
102
RTVSPropertyOp8
 70
     1
102
RTVSPropertyOp9
 70
     1
102
RTVSPropertyOp10
 70
     1
102
RTVSPropertyOp11
 70
     1
102
RTVSPropertyOp12
 70
     1
102
RTVSPropertyOp13
 70
     1
102
RTVSPropertyOp14
 70
     1
102
RTVSPropertyOp15
 70
     1
102
RTVSPropertyOp16
 70
     1
102
RTVSPropertyOp17
 70
     1
102
RTVSPropertyOp18
 70
     1
102
RTVSPropertyOp19
 70
     1
102
RTVSPropertyOp20
 70
     1
102
RTVSPropertyOp21
 70
     1
102
RTVSPropertyOp22
 70
     1
102
RTVSPropertyOp23
 70
     1
102
RTVSPropertyOp24
 70
     1
102
RTVSPropertyOp25
 70
     1
102
RTVSPropertyOp26
 70
     1
102
RTVSPropertyOp27
 70
     1
  0
XRECORD
  5
275
102
{ACAD_REACTORS
330
274
102
}
330
274
100
AcDbXrecord
280
     1
102
RTVSPropertyOp0
 70
     1
102
RTVSPropertyOp1
 70
     1
102
RTVSPropertyOp2
 70
     1
102
RTVSPropertyOp3
 70
     1
102
RTVSPropertyOp4
 70
     1
102
RTVSPropertyOp5
 70
     1
102
RTVSPropertyOp6
 70
     1
102
RTVSPropertyOp7
 70
     1
102
RTVSPropertyOp8
 70
     1
102
RTVSPropertyOp9
 70
     1
102
RTVSPropertyOp10
 70
     1
102
RTVSPropertyOp11
 70
     1
102
RTVSPropertyOp12
 70
     1
102
RTVSPropertyOp13
 70
     1
102
RTVSPropertyOp14
 70
     1
102
RTVSPropertyOp15
 70
     1
102
RTVSPropertyOp16
 70
     1
102
RTVSPropertyOp17
 70
     1
102
RTVSPropertyOp18
 70
     1
102
RTVSPropertyOp19
 70
     1
102
RTVSPropertyOp20
 70
     1
102
RTVSPropertyOp21
 70
     1
102
RTVSPropertyOp22
 70
     1
102
RTVSPropertyOp23
 70
     1
102
RTVSPropertyOp24
 70
     1
102
RTVSPropertyOp25
 70
     1
102
RTVSPropertyOp26
 70
     1
102
RTVSPropertyOp27
 70
     1
  0
XRECORD
  5
269
102
{ACAD_REACTORS
330
268
102
}
330
268
100
AcDbXrecord
280
     1
102
RTVSPropertyOp0
 70
     1
102
RTVSPropertyOp1
 70
     1
102
RTVSPropertyOp2
 70
     1
102
RTVSPropertyOp3
 70
     1
102
RTVSPropertyOp4
 70
     1
102
RTVSPropertyOp5
 70
     1
102
RTVSPropertyOp6
 70
     1
102
RTVSPropertyOp7
 70
     1
102
RTVSPropertyOp8
 70
     1
102
RTVSPropertyOp9
 70
     1
102
RTVSPropertyOp10
 70
     1
102
RTVSPropertyOp11
 70
     1
102
RTVSPropertyOp12
 70
     1
102
RTVSPropertyOp13
 70
     1
102
RTVSPropertyOp14
 70
     1
102
RTVSPropertyOp15
 70
     1
102
RTVSPropertyOp16
 70
     1
102
RTVSPropertyOp17
 70
     1
102
RTVSPropertyOp18
 70
     1
102
RTVSPropertyOp19
 70
     1
102
RTVSPropertyOp20
 70
     1
102
RTVSPropertyOp21
 70
     1
102
RTVSPropertyOp22
 70
     1
102
RTVSPropertyOp23
 70
     1
102
RTVSPropertyOp24
 70
     1
102
RTVSPropertyOp25
 70
     1
102
RTVSPropertyOp26
 70
     1
102
RTVSPropertyOp27
 70
     1
  0
XRECORD
  5
26B
102
{ACAD_REACTORS
330
26A
102
}
330
26A
100
AcDbXrecord
280
     1
102
RTVSPropertyOp0
 70
     1
102
RTVSPropertyOp1
 70
     1
102
RTVSPropertyOp2
 70
     1
102
RTVSPropertyOp3
 70
     1
102
RTVSPropertyOp4
 70
     1
102
RTVSPropertyOp5
 70
     1
102
RTVSPropertyOp6
 70
     1
102
RTVSPropertyOp7
 70
     1
102
RTVSPropertyOp8
 70
     1
102
RTVSPropertyOp9
 70
     1
102
RTVSPropertyOp10
 70
     1
102
RTVSPropertyOp11
 70
     1
102
RTVSPropertyOp12
 70
     1
102
RTVSPropertyOp13
 70
     1
102
RTVSPropertyOp14
 70
     1
102
RTVSPropertyOp15
 70
     1
102
RTVSPropertyOp16
 70
     1
102
RTVSPropertyOp17
 70
     1
102
RTVSPropertyOp18
 70
     1
102
RTVSPropertyOp19
 70
     1
102
RTVSPropertyOp20
 70
     1
102
RTVSPropertyOp21
 70
     1
102
RTVSPropertyOp22
 70
     1
102
RTVSPropertyOp23
 70
     1
102
RTVSPropertyOp24
 70
     1
102
RTVSPropertyOp25
 70
     1
102
RTVSPropertyOp26
 70
     1
102
RTVSPropertyOp27
 70
     1
  0
XRECORD
  5
273
102
{ACAD_REACTORS
330
272
102
}
330
272
100
AcDbXrecord
280
     1
102
RTVSPropertyOp0
 70
     1
102
RTVSPropertyOp1
 70
     1
102
RTVSPropertyOp2
 70
     1
102
RTVSPropertyOp3
 70
     1
102
RTVSPropertyOp4
 70
     1
102
RTVSPropertyOp5
 70
     1
102
RTVSPropertyOp6
 70
     1
102
RTVSPropertyOp7
 70
     1
102
RTVSPropertyOp8
 70
     1
102
RTVSPropertyOp9
 70
     1
102
RTVSPropertyOp10
 70
     1
102
RTVSPropertyOp11
 70
     1
102
RTVSPropertyOp12
 70
     1
102
RTVSPropertyOp13
 70
     1
102
RTVSPropertyOp14
 70
     1
102
RTVSPropertyOp15
 70
     1
102
RTVSPropertyOp16
 70
     1
102
RTVSPropertyOp17
 70
     1
102
RTVSPropertyOp18
 70
     1
102
RTVSPropertyOp19
 70
     1
102
RTVSPropertyOp20
 70
     1
102
RTVSPropertyOp21
 70
     1
102
RTVSPropertyOp22
 70
     1
102
RTVSPropertyOp23
 70
     1
102
RTVSPropertyOp24
 70
     1
102
RTVSPropertyOp25
 70
     1
102
RTVSPropertyOp26
 70
     1
102
RTVSPropertyOp27
 70
     1
  0
XRECORD
  5
257
102
{ACAD_REACTORS
330
256
102
}
330
256
100
AcDbXrecord
280
     1
102
RTVSPropertyOp0
 70
     1
102
RTVSPropertyOp1
 70
     1
102
RTVSPropertyOp2
 70
     1
102
RTVSPropertyOp3
 70
     1
102
RTVSPropertyOp4
 70
     1
102
RTVSPropertyOp5
 70
     1
102
RTVSPropertyOp6
 70
     1
102
RTVSPropertyOp7
 70
     1
102
RTVSPropertyOp8
 70
     1
102
RTVSPropertyOp9
 70
     1
102
RTVSPropertyOp10
 70
     1
102
RTVSPropertyOp11
 70
     1
102
RTVSPropertyOp12
 70
     1
102
RTVSPropertyOp13
 70
     1
102
RTVSPropertyOp14
 70
     1
102
RTVSPropertyOp15
 70
     1
102
RTVSPropertyOp16
 70
     1
102
RTVSPropertyOp17
 70
     1
102
RTVSPropertyOp18
 70
     1
102
RTVSPropertyOp19
 70
     1
102
RTVSPropertyOp20
 70
     1
102
RTVSPropertyOp21
 70
     1
102
RTVSPropertyOp22
 70
     1
102
RTVSPropertyOp23
 70
     1
102
RTVSPropertyOp24
 70
     1
102
RTVSPropertyOp25
 70
     1
102
RTVSPropertyOp26
 70
     1
102
RTVSPropertyOp27
 70
     1
  0
XRECORD
  5
259
102
{ACAD_REACTORS
330
258
102
}
330
258
100
AcDbXrecord
280
     1
102
RTVSPropertyOp0
 70
     1
102
RTVSPropertyOp1
 70
     1
102
RTVSPropertyOp2
 70
     1
102
RTVSPropertyOp3
 70
     1
102
RTVSPropertyOp4
 70
     1
102
RTVSPropertyOp5
 70
     1
102
RTVSPropertyOp6
 70
     1
102
RTVSPropertyOp7
 70
     1
102
RTVSPropertyOp8
 70
     1
102
RTVSPropertyOp9
 70
     1
102
RTVSPropertyOp10
 70
     1
102
RTVSPropertyOp11
 70
     1
102
RTVSPropertyOp12
 70
     1
102
RTVSPropertyOp13
 70
     1
102
RTVSPropertyOp14
 70
     1
102
RTVSPropertyOp15
 70
     1
102
RTVSPropertyOp16
 70
     1
102
RTVSPropertyOp17
 70
     1
102
RTVSPropertyOp18
 70
     1
102
RTVSPropertyOp19
 70
     1
102
RTVSPropertyOp20
 70
     1
102
RTVSPropertyOp21
 70
     1
102
RTVSPropertyOp22
 70
     1
102
RTVSPropertyOp23
 70
     1
102
RTVSPropertyOp24
 70
     1
102
RTVSPropertyOp25
 70
     1
102
RTVSPropertyOp26
 70
     1
102
RTVSPropertyOp27
 70
     1
  0
XRECORD
  5
25B
102
{ACAD_REACTORS
330
25A
102
}
330
25A
100
AcDbXrecord
280
     1
102
RTVSPropertyOp0
 70
     1
102
RTVSPropertyOp1
 70
     1
102
RTVSPropertyOp2
 70
     1
102
RTVSPropertyOp3
 70
     1
102
RTVSPropertyOp4
 70
     1
102
RTVSPropertyOp5
 70
     1
102
RTVSPropertyOp6
 70
     1
102
RTVSPropertyOp7
 70
     1
102
RTVSPropertyOp8
 70
     1
102
RTVSPropertyOp9
 70
     1
102
RTVSPropertyOp10
 70
     1
102
RTVSPropertyOp11
 70
     1
102
RTVSPropertyOp12
 70
     1
102
RTVSPropertyOp13
 70
     1
102
RTVSPropertyOp14
 70
     1
102
RTVSPropertyOp15
 70
     1
102
RTVSPropertyOp16
 70
     1
102
RTVSPropertyOp17
 70
     1
102
RTVSPropertyOp18
 70
     1
102
RTVSPropertyOp19
 70
     1
102
RTVSPropertyOp20
 70
     1
102
RTVSPropertyOp21
 70
     1
102
RTVSPropertyOp22
 70
     1
102
RTVSPropertyOp23
 70
     1
102
RTVSPropertyOp24
 70
     1
102
RTVSPropertyOp25
 70
     1
102
RTVSPropertyOp26
 70
     1
102
RTVSPropertyOp27
 70
     1
  0
XRECORD
  5
25D
102
{ACAD_REACTORS
330
25C
102
}
330
25C
100
AcDbXrecord
280
     1
102
RTVSPropertyOp0
 70
     1
102
RTVSPropertyOp1
 70
     1
102
RTVSPropertyOp2
 70
     1
102
RTVSPropertyOp3
 70
     1
102
RTVSPropertyOp4
 70
     1
102
RTVSPropertyOp5
 70
     1
102
RTVSPropertyOp6
 70
     1
102
RTVSPropertyOp7
 70
     1
102
RTVSPropertyOp8
 70
     1
102
RTVSPropertyOp9
 70
     1
102
RTVSPropertyOp10
 70
     1
102
RTVSPropertyOp11
 70
     1
102
RTVSPropertyOp12
 70
     1
102
RTVSPropertyOp13
 70
     1
102
RTVSPropertyOp14
 70
     1
102
RTVSPropertyOp15
 70
     1
102
RTVSPropertyOp16
 70
     1
102
RTVSPropertyOp17
 70
     1
102
RTVSPropertyOp18
 70
     1
102
RTVSPropertyOp19
 70
     1
102
RTVSPropertyOp20
 70
     1
102
RTVSPropertyOp21
 70
     1
102
RTVSPropertyOp22
 70
     1
102
RTVSPropertyOp23
 70
     1
102
RTVSPropertyOp24
 70
     1
102
RTVSPropertyOp25
 70
     1
102
RTVSPropertyOp26
 70
     1
102
RTVSPropertyOp27
 70
     1
  0
XRECORD
  5
271
102
{ACAD_REACTORS
330
270
102
}
330
270
100
AcDbXrecord
280
     1
102
RTVSPropertyOp0
 70
     1
102
RTVSPropertyOp1
 70
     1
102
RTVSPropertyOp2
 70
     1
102
RTVSPropertyOp3
 70
     1
102
RTVSPropertyOp4
 70
     1
102
RTVSPropertyOp5
 70
     1
102
RTVSPropertyOp6
 70
     1
102
RTVSPropertyOp7
 70
     1
102
RTVSPropertyOp8
 70
     1
102
RTVSPropertyOp9
 70
     1
102
RTVSPropertyOp10
 70
     1
102
RTVSPropertyOp11
 70
     1
102
RTVSPropertyOp12
 70
     1
102
RTVSPropertyOp13
 70
     1
102
RTVSPropertyOp14
 70
     1
102
RTVSPropertyOp15
 70
     1
102
RTVSPropertyOp16
 70
     1
102
RTVSPropertyOp17
 70
     1
102
RTVSPropertyOp18
 70
     1
102
RTVSPropertyOp19
 70
     1
102
RTVSPropertyOp20
 70
     1
102
RTVSPropertyOp21
 70
     1
102
RTVSPropertyOp22
 70
     1
102
RTVSPropertyOp23
 70
     1
102
RTVSPropertyOp24
 70
     1
102
RTVSPropertyOp25
 70
     1
102
RTVSPropertyOp26
 70
     1
102
RTVSPropertyOp27
 70
     1
  0
XRECORD
  5
267
102
{ACAD_REACTORS
330
266
102
}
330
266
100
AcDbXrecord
280
     1
102
RTVSPropertyOp0
 70
     1
102
RTVSPropertyOp1
 70
     1
102
RTVSPropertyOp2
 70
     1
102
RTVSPropertyOp3
 70
     1
102
RTVSPropertyOp4
 70
     1
102
RTVSPropertyOp5
 70
     1
102
RTVSPropertyOp6
 70
     1
102
RTVSPropertyOp7
 70
     1
102
RTVSPropertyOp8
 70
     1
102
RTVSPropertyOp9
 70
     1
102
RTVSPropertyOp10
 70
     1
102
RTVSPropertyOp11
 70
     1
102
RTVSPropertyOp12
 70
     1
102
RTVSPropertyOp13
 70
     1
102
RTVSPropertyOp14
 70
     1
102
RTVSPropertyOp15
 70
     1
102
RTVSPropertyOp16
 70
     1
102
RTVSPropertyOp17
 70
     1
102
RTVSPropertyOp18
 70
     1
102
RTVSPropertyOp19
 70
     1
102
RTVSPropertyOp20
 70
     1
102
RTVSPropertyOp21
 70
     1
102
RTVSPropertyOp22
 70
     1
102
RTVSPropertyOp23
 70
     1
102
RTVSPropertyOp24
 70
     1
102
RTVSPropertyOp25
 70
     1
102
RTVSPropertyOp26
 70
     1
102
RTVSPropertyOp27
 70
     1
  0
XRECORD
  5
26F
102
{ACAD_REACTORS
330
26E
102
}
330
26E
100
AcDbXrecord
280
     1
102
RTVSPropertyOp0
 70
     1
102
RTVSPropertyOp1
 70
     1
102
RTVSPropertyOp2
 70
     1
102
RTVSPropertyOp3
 70
     1
102
RTVSPropertyOp4
 70
     1
102
RTVSPropertyOp5
 70
     1
102
RTVSPropertyOp6
 70
     1
102
RTVSPropertyOp7
 70
     1
102
RTVSPropertyOp8
 70
     1
102
RTVSPropertyOp9
 70
     1
102
RTVSPropertyOp10
 70
     1
102
RTVSPropertyOp11
 70
     1
102
RTVSPropertyOp12
 70
     1
102
RTVSPropertyOp13
 70
     1
102
RTVSPropertyOp14
 70
     1
102
RTVSPropertyOp15
 70
     1
102
RTVSPropertyOp16
 70
     1
102
RTVSPropertyOp17
 70
     1
102
RTVSPropertyOp18
 70
     1
102
RTVSPropertyOp19
 70
     1
102
RTVSPropertyOp20
 70
     1
102
RTVSPropertyOp21
 70
     1
102
RTVSPropertyOp22
 70
     1
102
RTVSPropertyOp23
 70
     1
102
RTVSPropertyOp24
 70
     1
102
RTVSPropertyOp25
 70
     1
102
RTVSPropertyOp26
 70
     1
102
RTVSPropertyOp27
 70
     1
  0
ENDSEC
  0
EOF
