  0
SECTION
  2
HEADER
  9
$ACADVER
  1
AC1015
  9
$ACADMAINTVER
 70
     6
  9
$DWGCODEPAGE
  3
ANSI_932
  9
$INSBASE
 10
0.0
 20
0.0
 30
0.0
  9
$EXTMIN
 10
3.59270694512329
 20
6.39604216139183
 30
0.0
  9
$EXTMAX
 10
232.593989968607
 20
294.051034029943
 30
0.0
  9
$LIMMIN
 10
0.0
 20
0.0
  9
$LIMMAX
 10
12.0
 20
9.0
  9
$ORTHOMODE
 70
     0
  9
$REGENMODE
 70
     1
  9
$FILLMODE
 70
     1
  9
$QTEXTMODE
 70
     0
  9
$MIRRTEXT
 70
     1
  9
$LTSCALE
 40
1.0
  9
$ATTMODE
 70
     1
  9
$TEXTSIZE
 40
0.2
  9
$TRACEWID
 40
0.05
  9
$TEXTSTYLE
  7
Standard
  9
$CLAYER
  8
0
  9
$CELTYPE
  6
ByLayer
  9
$CECOLOR
 62
   256
  9
$CELTSCALE
 40
1.0
  9
$DISPSILH
 70
     0
  9
$DIMSCALE
 40
1.0
  9
$DIMASZ
 40
0.18
  9
$DIMEXO
 40
0.0625
  9
$DIMDLI
 40
0.38
  9
$DIMRND
 40
0.0
  9
$DIMDLE
 40
0.0
  9
$DIMEXE
 40
0.18
  9
$DIMTP
 40
0.0
  9
$DIMTM
 40
0.0
  9
$DIMTXT
 40
0.18
  9
$DIMCEN
 40
0.09
  9
$DIMTSZ
 40
0.0
  9
$DIMTOL
 70
     0
  9
$DIMLIM
 70
     0
  9
$DIMTIH
 70
     1
  9
$DIMTOH
 70
     1
  9
$DIMSE1
 70
     0
  9
$DIMSE2
 70
     0
  9
$DIMTAD
 70
     0
  9
$DIMZIN
 70
     0
  9
$DIMBLK
  1

  9
$DIMASO
 70
     1
  9
$DIMSHO
 70
     1
  9
$DIMPOST
  1

  9
$DIMAPOST
  1

  9
$DIMALT
 70
     0
  9
$DIMALTD
 70
     2
  9
$DIMALTF
 40
25.4
  9
$DIMLFAC
 40
1.0
  9
$DIMTOFL
 70
     0
  9
$DIMTVP
 40
0.0
  9
$DIMTIX
 70
     0
  9
$DIMSOXD
 70
     0
  9
$DIMSAH
 70
     0
  9
$DIMBLK1
  1

  9
$DIMBLK2
  1

  9
$DIMSTYLE
  2
Standard
  9
$DIMCLRD
 70
     0
  9
$DIMCLRE
 70
     0
  9
$DIMCLRT
 70
     0
  9
$DIMTFAC
 40
1.0
  9
$DIMGAP
 40
0.09
  9
$DIMJUST
 70
     0
  9
$DIMSD1
 70
     0
  9
$DIMSD2
 70
     0
  9
$DIMTOLJ
 70
     1
  9
$DIMTZIN
 70
     0
  9
$DIMALTZ
 70
     0
  9
$DIMALTTZ
 70
     0
  9
$DIMUPT
 70
     0
  9
$DIMDEC
 70
     4
  9
$DIMTDEC
 70
     4
  9
$DIMALTU
 70
     2
  9
$DIMALTTD
 70
     2
  9
$DIMTXSTY
  7
Standard
  9
$DIMAUNIT
 70
     0
  9
$DIMADEC
 70
     0
  9
$DIMALTRND
 40
0.0
  9
$DIMAZIN
 70
     0
  9
$DIMDSEP
 70
    46
  9
$DIMATFIT
 70
     3
  9
$DIMFRAC
 70
     0
  9
$DIMLDRBLK
  1

  9
$DIMLUNIT
 70
     2
  9
$DIMLWD
 70
    -2
  9
$DIMLWE
 70
    -2
  9
$DIMTMOVE
 70
     0
  9
$LUNITS
 70
     2
  9
$LUPREC
 70
     4
  9
$SKETCHINC
 40
0.1
  9
$FILLETRAD
 40
0.5
  9
$AUNITS
 70
     0
  9
$AUPREC
 70
     0
  9
$MENU
  1
.
  9
$ELEVATION
 40
0.0
  9
$PELEVATION
 40
0.0
  9
$THICKNESS
 40
0.0
  9
$LIMCHECK
 70
     0
  9
$CHAMFERA
 40
0.5
  9
$CHAMFERB
 40
0.5
  9
$CHAMFERC
 40
1.0
  9
$CHAMFERD
 40
0.0
  9
$SKPOLY
 70
     0
  9
$TDCREATE
 40
2457624.377038854
  9
$TDUCREATE
 40
2457624.002038854
  9
$TDUPDATE
 40
2457624.377038866
  9
$TDUUPDATE
 40
2457624.002038866
  9
$TDINDWG
 40
0.0000000116
  9
$TDUSRTIMER
 40
0.0000000116
  9
$USRTIMER
 70
     1
  9
$ANGBASE
 50
0.0
  9
$ANGDIR
 70
     0
  9
$PDMODE
 70
     0
  9
$PDSIZE
 40
0.0
  9
$PLINEWID
 40
0.0
  9
$SPLFRAME
 70
     0
  9
$SPLINETYPE
 70
     6
  9
$SPLINESEGS
 70
     8
  9
$HANDSEED
  5
275
  9
$SURFTAB1
 70
     6
  9
$SURFTAB2
 70
     6
  9
$SURFTYPE
 70
     6
  9
$SURFU
 70
     6
  9
$SURFV
 70
     6
  9
$UCSBASE
  2

  9
$UCSNAME
  2

  9
$UCSORG
 10
0.0
 20
0.0
 30
0.0
  9
$UCSXDIR
 10
1.0
 20
0.0
 30
0.0
  9
$UCSYDIR
 10
0.0
 20
1.0
 30
0.0
  9
$UCSORTHOREF
  2

  9
$UCSORTHOVIEW
 70
     0
  9
$UCSORGTOP
 10
0.0
 20
0.0
 30
0.0
  9
$UCSORGBOTTOM
 10
0.0
 20
0.0
 30
0.0
  9
$UCSORGLEFT
 10
0.0
 20
0.0
 30
0.0
  9
$UCSORGRIGHT
 10
0.0
 20
0.0
 30
0.0
  9
$UCSORGFRONT
 10
0.0
 20
0.0
 30
0.0
  9
$UCSORGBACK
 10
0.0
 20
0.0
 30
0.0
  9
$PUCSBASE
  2

  9
$PUCSNAME
  2

  9
$PUCSORG
 10
0.0
 20
0.0
 30
0.0
  9
$PUCSXDIR
 10
1.0
 20
0.0
 30
0.0
  9
$PUCSYDIR
 10
0.0
 20
1.0
 30
0.0
  9
$PUCSORTHOREF
  2

  9
$PUCSORTHOVIEW
 70
     0
  9
$PUCSORGTOP
 10
0.0
 20
0.0
 30
0.0
  9
$PUCSORGBOTTOM
 10
0.0
 20
0.0
 30
0.0
  9
$PUCSORGLEFT
 10
0.0
 20
0.0
 30
0.0
  9
$PUCSORGRIGHT
 10
0.0
 20
0.0
 30
0.0
  9
$PUCSORGFRONT
 10
0.0
 20
0.0
 30
0.0
  9
$PUCSORGBACK
 10
0.0
 20
0.0
 30
0.0
  9
$USERI1
 70
     0
  9
$USERI2
 70
     0
  9
$USERI3
 70
     0
  9
$USERI4
 70
     0
  9
$USERI5
 70
     0
  9
$USERR1
 40
18.0
  9
$USERR2
 40
0.0
  9
$USERR3
 40
0.0
  9
$USERR4
 40
0.0
  9
$USERR5
 40
0.0
  9
$WORLDVIEW
 70
     1
  9
$SHADEDGE
 70
     3
  9
$SHADEDIF
 70
    70
  9
$TILEMODE
 70
     1
  9
$MAXACTVP
 70
    64
  9
$PINSBASE
 10
0.0
 20
0.0
 30
0.0
  9
$PLIMCHECK
 70
     0
  9
$PEXTMIN
 10
1.00000000000000E+20
 20
1.00000000000000E+20
 30
1.00000000000000E+20
  9
$PEXTMAX
 10
-1.00000000000000E+20
 20
-1.00000000000000E+20
 30
-1.00000000000000E+20
  9
$PLIMMIN
 10
0.0
 20
0.0
  9
$PLIMMAX
 10
12.0
 20
9.0
  9
$UNITMODE
 70
     0
  9
$VISRETAIN
 70
     1
  9
$PLINEGEN
 70
     0
  9
$PSLTSCALE
 70
     1
  9
$TREEDEPTH
 70
  3020
  9
$CMLSTYLE
  2
Standard
  9
$CMLJUST
 70
     0
  9
$CMLSCALE
 40
1.0
  9
$PROXYGRAPHICS
 70
     1
  9
$MEASUREMENT
 70
     1
  9
$CELWEIGHT
370
    -1
  9
$ENDCAPS
280
     0
  9
$JOINSTYLE
280
     0
  9
$LWDISPLAY
290
     0
  9
$INSUNITS
 70
     1
  9
$HYPERLINKBASE
  1

  9
$STYLESHEET
  1

  9
$XEDIT
290
     1
  9
$CEPSNTYPE
380
     0
  9
$PSTYLEMODE
290
     1
  9
$FINGERPRINTGUID
  2
{422072A4-2646-468D-BF28-A5841287C3DA}
  9
$VERSIONGUID
  2
{FAEB1C32-E019-11D5-929B-00C0DF256EC4}
  9
$EXTNAMES
290
     1
  9
$PSVPSCALE
 40
0.0
  9
$OLESTARTUP
290
     0
  0
ENDSEC
  0
SECTION
  2
CLASSES
  0
CLASS
  1
ACDBDICTIONARYWDFLT
  2
AcDbDictionaryWithDefault
  3
ObjectDBX Classes
 90
        0
280
     0
281
     0
  0
CLASS
  1
VISUALSTYLE
  2
AcDbVisualStyle
  3
ObjectDBX Classes
 90
     4095
280
     0
281
     0
  0
CLASS
  1
MATERIAL
  2
AcDbMaterial
  3
ObjectDBX Classes
 90
     1153
280
     0
281
     0
  0
CLASS
  1

  2
exOdDbCircle
  3

 90
        0
280
     0
281
     1
  0
CLASS
  1

  2
exOdDbPolyline
  3

 90
        0
280
     0
281
     1
  0
CLASS
  1
SCALE
  2
AcDbScale
  3
ObjectDBX Classes
 90
     1153
280
     0
281
     0
  0
CLASS
  1
DICTIONARYVAR
  2
AcDbDictionaryVar
  3
ObjectDBX Classes
 90
        0
280
     0
281
     0
  0
CLASS
  1
ACDBPLACEHOLDER
  2
AcDbPlaceHolder
  3
ObjectDBX Classes
 90
        0
280
     0
281
     0
  0
CLASS
  1
LAYOUT
  2
AcDbLayout
  3
ObjectDBX Classes
 90
        0
280
     0
281
     0
  0
ENDSEC
  0
SECTION
  2
TABLES
  0
TABLE
  2
VPORT
  5
8
330
0
100
AcDbSymbolTable
 70
     1
  0
VPORT
  5
29
330
8
100
AcDbSymbolTableRecord
100
AcDbViewportTableRecord
  2
*Active
 70
     0
 10
0.0
 20
0.0
 11
1.0
 21
1.0
 12
118.0933484568651
 22
150.2235380956674
 13
0.0
 23
0.0
 14
0.5
 24
0.5
 15
0.5
 25
0.5
 16
0.0
 26
0.0
 36
1.0
 17
0.0
 27
0.0
 37
0.0
 40
316.4204910554063
 41
1.60267857142857
 42
50.0
 43
0.0
 44
0.0
 50
0.0
 51
0.0
 71
     0
 72
   100
 73
     1
 74
     3
 75
     0
 76
     0
 77
     0
 78
     0
281
     0
 65
     1
110
0.0
120
0.0
130
0.0
111
1.0
121
0.0
131
0.0
112
0.0
122
1.0
132
0.0
 79
     0
146
0.0
  0
ENDTAB
  0
TABLE
  2
LTYPE
  5
5
330
0
100
AcDbSymbolTable
 70
     8
  0
LTYPE
  5
14
330
5
100
AcDbSymbolTableRecord
100
AcDbLinetypeTableRecord
  2
ByBlock
 70
     0
  3

 72
    65
 73
     0
 40
0.0
  0
LTYPE
  5
15
330
5
100
AcDbSymbolTableRecord
100
AcDbLinetypeTableRecord
  2
ByLayer
 70
     0
  3

 72
    65
 73
     0
 40
0.0
  0
LTYPE
  5
16
330
5
100
AcDbSymbolTableRecord
100
AcDbLinetypeTableRecord
  2
Continuous
 70
     0
  3
Solid line
 72
    65
 73
     0
 40
0.0
  0
LTYPE
  5
3F
330
5
100
AcDbSymbolTableRecord
100
AcDbLinetypeTableRecord
  2
DASHED
 70
     0
  3
Dashed
 72
    65
 73
     2
 40
15.0
 49
7.0
 74
     0
 49
-8.0
 74
     0
  0
LTYPE
  5
40
330
5
100
AcDbSymbolTableRecord
100
AcDbLinetypeTableRecord
  2
DOTTED
 70
     0
  3
Dotted
 72
    65
 73
     2
 40
1.0
 49
0.0
 74
     0
 49
-1.0
 74
     0
  0
LTYPE
  5
41
330
5
100
AcDbSymbolTableRecord
100
AcDbLinetypeTableRecord
  2
DOT_CENTER
 70
     0
  3
Dot_Center
 72
    65
 73
     4
 40
14.0
 49
12.0
 74
     0
 49
-1.0
 74
     0
 49
0.0
 74
     0
 49
-1.0
 74
     0
  0
LTYPE
  5
42
330
5
100
AcDbSymbolTableRecord
100
AcDbLinetypeTableRecord
  2
LONG_DASHED
 70
     0
  3
Long_Dashed
 72
    65
 73
     2
 40
15.0
 49
10.0
 74
     0
 49
-5.0
 74
     0
  0
LTYPE
  5
43
330
5
100
AcDbSymbolTableRecord
100
AcDbLinetypeTableRecord
  2
DASH_CENTER
 70
     0
  3
Dash_Center
 72
    65
 73
     4
 40
14.0
 49
11.0
 74
     0
 49
-1.0
 74
     0
 49
1.0
 74
     0
 49
-1.0
 74
     0
  0
LTYPE
  5
44
330
5
100
AcDbSymbolTableRecord
100
AcDbLinetypeTableRecord
  2
PHANTOM
 70
     0
  3
Phantom
 72
    65
 73
     6
 40
13.0
 49
10.0
 74
     0
 49
-1.0
 74
     0
 49
0.0
 74
     0
 49
-1.0
 74
     0
 49
0.0
 74
     0
 49
-1.0
 74
     0
  0
LTYPE
  5
45
330
5
100
AcDbSymbolTableRecord
100
AcDbLinetypeTableRecord
  2
CENTER_DASH_DASH
 70
     0
  3
Center_Dash_Dash
 72
    65
 73
     6
 40
14.0
 49
9.0
 74
     0
 49
-1.0
 74
     0
 49
1.0
 74
     0
 49
-1.0
 74
     0
 49
1.0
 74
     0
 49
-1.0
 74
     0
  0
ENDTAB
  0
TABLE
  2
LAYER
  5
2
330
0
100
AcDbSymbolTable
 70
     5
  0
LAYER
  5
10
330
2
100
AcDbSymbolTableRecord
100
AcDbLayerTableRecord
  2
0
 70
     0
 62
     7
  6
Continuous
370
    -3
390
F
  0
LAYER
  5
46
330
2
100
AcDbSymbolTableRecord
100
AcDbLayerTableRecord
  2
1
 70
     0
 62
     7
  6
Continuous
370
    -3
390
F
  0
LAYER
  5
47
330
2
100
AcDbSymbolTableRecord
100
AcDbLayerTableRecord
  2
100
 70
     0
 62
     7
  6
Continuous
370
    -3
390
F
  0
LAYER
  5
48
330
2
100
AcDbSymbolTableRecord
100
AcDbLayerTableRecord
  2
2
 70
     0
 62
     7
  6
Continuous
370
    -3
390
F
  0
LAYER
  5
49
330
2
100
AcDbSymbolTableRecord
100
AcDbLayerTableRecord
  2
4
 70
     0
 62
     7
  6
Continuous
370
    -3
390
F
  0
ENDTAB
  0
TABLE
  2
STYLE
  5
3
330
0
100
AcDbSymbolTable
 70
     2
  0
STYLE
  5
11
330
3
100
AcDbSymbolTableRecord
100
AcDbTextStyleTableRecord
  2
Standard
 70
     0
 40
0.0
 41
1.0
 50
0.0
 71
     0
 42
0.2
  3
txt
  4

  0
STYLE
  5
20E
330
3
100
AcDbSymbolTableRecord
100
AcDbTextStyleTableRecord
  2
CONVERTER_11
 70
     0
 40
0.0
 41
0.9
 50
0.0
 71
     0
 42
0.2
  3
txt.shx
  4

  0
ENDTAB
  0
TABLE
  2
VIEW
  5
6
330
0
100
AcDbSymbolTable
 70
     0
  0
ENDTAB
  0
TABLE
  2
UCS
  5
7
330
0
100
AcDbSymbolTable
 70
     0
  0
ENDTAB
  0
TABLE
  2
APPID
  5
9
330
0
100
AcDbSymbolTable
 70
     1
  0
APPID
  5
12
330
9
100
AcDbSymbolTableRecord
100
AcDbRegAppTableRecord
  2
ACAD
 70
     0
  0
ENDTAB
  0
TABLE
  2
DIMSTYLE
  5
A
330
0
100
AcDbSymbolTable
 70
     3
100
AcDbDimStyleTable
  0
DIMSTYLE
105
27
330
A
100
AcDbSymbolTableRecord
100
AcDbDimStyleTableRecord
  2
Standard
 70
     0
340
11
  0
DIMSTYLE
105
23A
102
{ACAD_REACTORS
330
23B
102
}
330
A
100
AcDbSymbolTableRecord
100
AcDbDimStyleTableRecord
  2
ME10_DIM_10
 70
     0
 41
8.0
 42
1.0
 44
1.0
 73
     0
 74
     0
 77
     1
 78
    12
140
10.0
147
1.0
172
     1
173
     1
174
     1
175
     1
176
     2
177
     2
178
     2
271
     3
340
20E
343
234
344
234
  0
DIMSTYLE
105
247
102
{ACAD_REACTORS
330
248
102
}
330
A
100
AcDbSymbolTableRecord
100
AcDbDimStyleTableRecord
  2
ME10_DIM_11
 70
     0
 41
8.0
 42
1.0
 44
1.0
 73
     0
 74
     0
 77
     1
 78
    12
140
10.0
147
1.0
172
     1
173
     1
174
     1
175
     1
176
     2
177
     2
178
     2
271
     3
340
20E
343
234
344
234
  0
ENDTAB
  0
TABLE
  2
BLOCK_RECORD
  5
1
330
0
100
AcDbSymbolTable
 70
     4
  0
BLOCK_RECORD
  5
1F
330
1
100
AcDbSymbolTableRecord
100
AcDbBlockTableRecord
  2
*Model_Space
340
22
  0
BLOCK_RECORD
  5
1B
330
1
100
AcDbSymbolTableRecord
100
AcDbBlockTableRecord
  2
*Paper_Space
340
1E
  0
BLOCK_RECORD
  5
23
330
1
100
AcDbSymbolTableRecord
100
AcDbBlockTableRecord
  2
*Paper_Space0
340
26
  0
BLOCK_RECORD
  5
206
330
1
100
AcDbSymbolTableRecord
100
AcDbBlockTableRecord
  2
*D1
340
0
  0
BLOCK_RECORD
  5
234
330
1
100
AcDbSymbolTableRecord
100
AcDbBlockTableRecord
  2
_OPEN30
340
0
  0
BLOCK_RECORD
  5
23C
330
1
100
AcDbSymbolTableRecord
100
AcDbBlockTableRecord
  2
*D3
340
0
  0
ENDTAB
  0
ENDSEC
  0
SECTION
  2
BLOCKS
  0
BLOCK
  5
20
330
1F
100
AcDbEntity
  8
0
100
AcDbBlockBegin
  2
*Model_Space
 70
     0
 10
0.0
 20
0.0
 30
0.0
  3
*Model_Space
  1

  0
ENDBLK
  5
21
330
1F
100
AcDbEntity
  8
0
100
AcDbBlockEnd
  0
BLOCK
  5
1C
330
1B
100
AcDbEntity
 67
     1
  8
0
100
AcDbBlockBegin
  2
*Paper_Space
 70
     0
 10
0.0
 20
0.0
 30
0.0
  3
*Paper_Space
  1

  0
ENDBLK
  5
1D
330
1B
100
AcDbEntity
 67
     1
  8
0
100
AcDbBlockEnd
  0
BLOCK
  5
24
330
23
100
AcDbEntity
  8
0
100
AcDbBlockBegin
  2
*Paper_Space0
 70
     0
 10
0.0
 20
0.0
 30
0.0
  3
*Paper_Space0
  1

  0
ENDBLK
  5
25
330
23
100
AcDbEntity
  8
0
100
AcDbBlockEnd
  0
BLOCK
  5
232
330
206
100
AcDbEntity
  8
0
100
AcDbBlockBegin
  2
*D1
 70
     1
 10
0.0
 20
0.0
 30
0.0
  3
*D1
  1

  0
LINE
  5
207
330
206
100
AcDbEntity
  8
1
  6
Continuous
 62
     2
100
AcDbLine
 10
141.251636860688
 20
64.69999999999999
 30
0.0
 11
141.251636860688
 21
163.499999999999
 31
0.0
  0
LINE
  5
208
330
206
100
AcDbEntity
  8
1
  6
Continuous
 62
     2
100
AcDbLine
 10
114.5
 20
64.69999999999999
 30
0.0
 11
142.251636860688
 21
64.69999999999999
 31
0.0
  0
LINE
  5
209
330
206
100
AcDbEntity
  8
1
  6
Continuous
 62
     2
100
AcDbLine
 10
83.2640158101046
 20
163.499999999999
 30
0.0
 11
142.251636860688
 21
163.499999999999
 31
0.0
  0
LINE
  5
20A
330
206
100
AcDbEntity
  8
1
 62
     2
100
AcDbLine
 10
141.251636860688
 20
163.499999999999
 30
0.0
 11
143.395230400137
 21
155.499999999999
 31
0.0
  0
LINE
  5
20B
330
206
100
AcDbEntity
  8
1
 62
     2
100
AcDbLine
 10
141.251636860688
 20
163.499999999999
 30
0.0
 11
139.108043321239
 21
155.499999999999
 31
0.0
  0
LINE
  5
20C
330
206
100
AcDbEntity
  8
1
 62
     2
100
AcDbLine
 10
141.251636860688
 20
64.69999999999999
 30
0.0
 11
139.108043321239
 21
72.69999999999999
 31
0.0
  0
LINE
  5
20D
330
206
100
AcDbEntity
  8
1
 62
     2
100
AcDbLine
 10
141.251636860688
 20
64.69999999999999
 30
0.0
 11
143.395230400137
 21
72.69999999999999
 31
0.0
  0
MTEXT
  5
231
330
206
100
AcDbEntity
  8
1
 62
     2
100
AcDbMText
 10
140.251636860688
 20
106.72
 30
0.0
 40
10.0
 41
0.0
 71
     7
 72
     1
  1
99
  7
CONVERTER_11
 11
0.0
 21
1.0
 31
0.0
 73
     1
 44
0.60024009603842
  0
ENDBLK
  5
233
330
206
100
AcDbEntity
  8
0
100
AcDbBlockEnd
  0
BLOCK
  5
235
330
234
100
AcDbEntity
  8
0
100
AcDbBlockBegin
  2
_OPEN30
 70
     0
 10
0.0
 20
0.0
 30
0.0
  3
_OPEN30
  1

  0
LINE
  5
237
330
234
100
AcDbEntity
  8
0
  6
ByBlock
 62
     0
370
    -2
100
AcDbLine
 10
-1.0
 20
0.267949
 30
0.0
 11
0.0
 21
0.0
 31
0.0
  0
LINE
  5
238
330
234
100
AcDbEntity
  8
0
  6
ByBlock
 62
     0
370
    -2
100
AcDbLine
 10
0.0
 20
0.0
 30
0.0
 11
-1.0
 21
-0.267949
 31
0.0
  0
LINE
  5
239
330
234
100
AcDbEntity
  8
0
  6
ByBlock
 62
     0
370
    -2
100
AcDbLine
 10
0.0
 20
0.0
 30
0.0
 11
-1.0
 21
0.0
 31
0.0
  0
ENDBLK
  5
236
330
234
100
AcDbEntity
  8
0
100
AcDbBlockEnd
  0
BLOCK
  5
245
330
23C
100
AcDbEntity
  8
0
100
AcDbBlockBegin
  2
*D3
 70
     1
 10
0.0
 20
0.0
 30
0.0
  3
*D3
  1

  0
LINE
  5
23D
330
23C
100
AcDbEntity
  8
1
  6
Continuous
 62
     2
100
AcDbLine
 10
30.0
 20
22.166541218262
 30
0.0
 11
110.0
 21
22.166541218262
 31
0.0
  0
LINE
  5
23E
330
23C
100
AcDbEntity
  8
1
  6
Continuous
 62
     2
100
AcDbLine
 10
30.0
 20
47.25
 30
0.0
 11
30.0
 21
21.166541218262
 31
0.0
  0
LINE
  5
23F
330
23C
100
AcDbEntity
  8
1
  6
Continuous
 62
     2
100
AcDbLine
 10
110.0
 20
47.25
 30
0.0
 11
110.0
 21
21.166541218262
 31
0.0
  0
LINE
  5
240
330
23C
100
AcDbEntity
  8
1
 62
     2
100
AcDbLine
 10
110.0
 20
22.166541218262
 30
0.0
 11
102.0
 21
20.02294767881302
 31
0.0
  0
LINE
  5
241
330
23C
100
AcDbEntity
  8
1
 62
     2
100
AcDbLine
 10
110.0
 20
22.166541218262
 30
0.0
 11
102.0
 21
24.31013475771098
 31
0.0
  0
LINE
  5
242
330
23C
100
AcDbEntity
  8
1
 62
     2
100
AcDbLine
 10
30.0
 20
22.166541218262
 30
0.0
 11
38.0
 21
24.31013475771098
 31
0.0
  0
LINE
  5
243
330
23C
100
AcDbEntity
  8
1
 62
     2
100
AcDbLine
 10
30.0
 20
22.166541218262
 30
0.0
 11
38.0
 21
20.02294767881302
 31
0.0
  0
MTEXT
  5
244
330
23C
100
AcDbEntity
  8
1
 62
     2
100
AcDbMText
 10
62.62001212036371
 20
23.16652332865186
 30
0.0
 40
10.0
 41
0.0
 71
     7
 72
     1
  1
80
  7
CONVERTER_11
 11
0.9999999999882478
 21
4.848136811095759E-6
 31
0.0
 73
     1
 44
0.60024009603842
  0
ENDBLK
  5
246
330
23C
100
AcDbEntity
  8
0
100
AcDbBlockEnd
  0
ENDSEC
  0
SECTION
  2
ENTITIES
  0
POINT
  5
4A
330
1F
100
AcDbEntity
  8
1
 62
     7
100
AcDbPoint
 10
113.5
 20
64.7
 30
0.0
  0
POINT
  5
4B
330
1F
100
AcDbEntity
  8
1
 62
     7
100
AcDbPoint
 10
82.2640158101046
 20
163.499999999999
 30
0.0
  0
POINT
  5
4C
330
1F
100
AcDbEntity
  8
1
 62
     7
100
AcDbPoint
 10
30.0
 20
48.25
 30
0.0
  0
POINT
  5
4D
330
1F
100
AcDbEntity
  8
1
 62
     7
100
AcDbPoint
 10
110.0
 20
48.25
 30
0.0
  0
POINT
  5
4E
330
1F
100
AcDbEntity
  8
1
 62
     7
100
AcDbPoint
 10
113.5
 20
64.7
 30
0.0
  0
POINT
  5
4F
330
1F
100
AcDbEntity
  8
1
 62
     7
100
AcDbPoint
 10
82.2640158101046
 20
163.499999999999
 30
0.0
  0
POINT
  5
50
330
1F
100
AcDbEntity
  8
1
 62
     7
100
AcDbPoint
 10
30.0
 20
48.25
 30
0.0
  0
POINT
  5
51
330
1F
100
AcDbEntity
  8
1
 62
     7
100
AcDbPoint
 10
110.0
 20
48.25
 30
0.0
  0
POINT
  5
52
330
1F
100
AcDbEntity
  8
1
 62
     7
100
AcDbPoint
 10
113.5
 20
64.7
 30
0.0
  0
POINT
  5
53
330
1F
100
AcDbEntity
  8
1
 62
     7
100
AcDbPoint
 10
82.2640158101046
 20
163.499999999999
 30
0.0
  0
POINT
  5
54
330
1F
100
AcDbEntity
  8
1
 62
     7
100
AcDbPoint
 10
30.0
 20
48.25
 30
0.0
  0
POINT
  5
55
330
1F
100
AcDbEntity
  8
1
 62
     7
100
AcDbPoint
 10
110.0
 20
48.25
 30
0.0
  0
LINE
  5
56
330
1F
100
AcDbEntity
  8
1
  6
Continuous
 62
     4
100
AcDbLine
 10
19.4706121784424
 20
32.1791678019765
 30
0.0
 11
19.4706121784424
 21
22.1791678019765
 31
0.0
  0
LINE
  5
57
330
1F
100
AcDbEntity
  8
1
  6
Continuous
 62
     4
100
AcDbLine
 10
16.4706121784424
 20
29.1791678019765
 30
0.0
 11
19.4706121784424
 21
32.1791678019765
 31
0.0
  0
LINE
  5
58
330
1F
100
AcDbEntity
  8
1
  6
Continuous
 62
     4
100
AcDbLine
 10
13.4706121784424
 20
27.6791678019765
 30
0.0
 11
10.9706121784424
 21
27.6791678019765
 31
0.0
  0
LINE
  5
59
330
1F
100
AcDbEntity
  8
1
  6
Continuous
 62
     4
100
AcDbLine
 10
13.4706121784424
 20
22.1791678019765
 30
0.0
 11
13.4706121784424
 21
27.6791678019765
 31
0.0
  0
LINE
  5
5A
330
1F
100
AcDbEntity
  8
1
  6
Continuous
 62
     4
100
AcDbLine
 10
9.2206121784424
 20
22.1791678019765
 30
0.0
 11
13.4706121784424
 21
22.1791678019765
 31
0.0
  0
LINE
  5
5B
330
1F
100
AcDbEntity
  8
1
  6
Continuous
 62
     4
100
AcDbLine
 10
8.4706121784424
 20
22.4291678019765
 30
0.0
 11
9.2206121784424
 21
22.1791678019765
 31
0.0
  0
LINE
  5
5C
330
1F
100
AcDbEntity
  8
1
  6
Continuous
 62
     4
100
AcDbLine
 10
7.4706121784424
 20
22.9291678019765
 30
0.0
 11
8.4706121784424
 21
22.4291678019765
 31
0.0
  0
LINE
  5
5D
330
1F
100
AcDbEntity
  8
1
  6
Continuous
 62
     4
100
AcDbLine
 10
6.9706121784424
 20
23.4291678019765
 30
0.0
 11
7.4706121784424
 21
22.9291678019765
 31
0.0
  0
LINE
  5
5E
330
1F
100
AcDbEntity
  8
1
  6
Continuous
 62
     4
100
AcDbLine
 10
6.7206121784424
 20
24.1791678019765
 30
0.0
 11
6.9706121784424
 21
23.4291678019765
 31
0.0
  0
LINE
  5
5F
330
1F
100
AcDbEntity
  8
1
  6
Continuous
 62
     4
100
AcDbLine
 10
6.4706121784424
 20
25.1791678019765
 30
0.0
 11
6.7206121784424
 21
24.1791678019765
 31
0.0
  0
LINE
  5
60
330
1F
100
AcDbEntity
  8
1
  6
Continuous
 62
     4
100
AcDbLine
 10
6.4706121784424
 20
29.1791678019765
 30
0.0
 11
6.4706121784424
 21
25.1791678019765
 31
0.0
  0
LINE
  5
61
330
1F
100
AcDbEntity
  8
1
  6
Continuous
 62
     4
100
AcDbLine
 10
6.7206121784424
 20
30.1791678019765
 30
0.0
 11
6.4706121784424
 21
29.1791678019765
 31
0.0
  0
LINE
  5
62
330
1F
100
AcDbEntity
  8
1
  6
Continuous
 62
     4
100
AcDbLine
 10
6.9706121784424
 20
30.9291678019765
 30
0.0
 11
6.7206121784424
 21
30.1791678019765
 31
0.0
  0
LINE
  5
63
330
1F
100
AcDbEntity
  8
1
  6
Continuous
 62
     4
100
AcDbLine
 10
7.4706121784424
 20
31.4291678019765
 30
0.0
 11
6.9706121784424
 21
30.9291678019765
 31
0.0
  0
LINE
  5
64
330
1F
100
AcDbEntity
  8
1
  6
Continuous
 62
     4
100
AcDbLine
 10
8.2206121784424
 20
31.9291678019765
 30
0.0
 11
7.4706121784424
 21
31.4291678019765
 31
0.0
  0
LINE
  5
65
330
1F
100
AcDbEntity
  8
1
  6
Continuous
 62
     4
100
AcDbLine
 10
9.2206121784424
 20
32.1791678019765
 30
0.0
 11
8.2206121784424
 21
31.9291678019765
 31
0.0
  0
LINE
  5
66
330
1F
100
AcDbEntity
  8
1
  6
Continuous
 62
     4
100
AcDbLine
 10
13.4706121784424
 20
32.1791678019765
 30
0.0
 11
9.2206121784424
 21
32.1791678019765
 31
0.0
  0
LINE
  5
67
330
1F
100
AcDbEntity
  8
1
  6
Continuous
 62
     4
100
AcDbLine
 10
134.295308550023
 20
32.7673876737178
 30
0.0
 11
134.295308550023
 21
22.7673876737178
 31
0.0
  0
LINE
  5
68
330
1F
100
AcDbEntity
  8
1
  6
Continuous
 62
     4
100
AcDbLine
 10
131.295308550023
 20
29.7673876737178
 30
0.0
 11
134.295308550023
 21
32.7673876737178
 31
0.0
  0
LINE
  5
69
330
1F
100
AcDbEntity
  8
1
  6
Continuous
 62
     4
100
AcDbLine
 10
128.295308550023
 20
28.2673876737178
 30
0.0
 11
125.795308550023
 21
28.2673876737178
 31
0.0
  0
LINE
  5
6A
330
1F
100
AcDbEntity
  8
1
  6
Continuous
 62
     4
100
AcDbLine
 10
128.295308550023
 20
22.7673876737178
 30
0.0
 11
128.295308550023
 21
28.2673876737178
 31
0.0
  0
LINE
  5
6B
330
1F
100
AcDbEntity
  8
1
  6
Continuous
 62
     4
100
AcDbLine
 10
124.045308550023
 20
22.7673876737178
 30
0.0
 11
128.295308550023
 21
22.7673876737178
 31
0.0
  0
LINE
  5
6C
330
1F
100
AcDbEntity
  8
1
  6
Continuous
 62
     4
100
AcDbLine
 10
123.295308550023
 20
23.0173876737178
 30
0.0
 11
124.045308550023
 21
22.7673876737178
 31
0.0
  0
LINE
  5
6D
330
1F
100
AcDbEntity
  8
1
  6
Continuous
 62
     4
100
AcDbLine
 10
122.295308550023
 20
23.5173876737178
 30
0.0
 11
123.295308550023
 21
23.0173876737178
 31
0.0
  0
LINE
  5
6E
330
1F
100
AcDbEntity
  8
1
  6
Continuous
 62
     4
100
AcDbLine
 10
121.795308550023
 20
24.0173876737178
 30
0.0
 11
122.295308550023
 21
23.5173876737178
 31
0.0
  0
LINE
  5
6F
330
1F
100
AcDbEntity
  8
1
  6
Continuous
 62
     4
100
AcDbLine
 10
121.545308550023
 20
24.7673876737178
 30
0.0
 11
121.795308550023
 21
24.0173876737178
 31
0.0
  0
LINE
  5
70
330
1F
100
AcDbEntity
  8
1
  6
Continuous
 62
     4
100
AcDbLine
 10
121.295308550023
 20
25.7673876737178
 30
0.0
 11
121.545308550023
 21
24.7673876737178
 31
0.0
  0
LINE
  5
71
330
1F
100
AcDbEntity
  8
1
  6
Continuous
 62
     4
100
AcDbLine
 10
121.295308550023
 20
29.7673876737178
 30
0.0
 11
121.295308550023
 21
25.7673876737178
 31
0.0
  0
LINE
  5
72
330
1F
100
AcDbEntity
  8
1
  6
Continuous
 62
     4
100
AcDbLine
 10
121.545308550023
 20
30.7673876737178
 30
0.0
 11
121.295308550023
 21
29.7673876737178
 31
0.0
  0
LINE
  5
73
330
1F
100
AcDbEntity
  8
1
  6
Continuous
 62
     4
100
AcDbLine
 10
121.795308550023
 20
31.5173876737178
 30
0.0
 11
121.545308550023
 21
30.7673876737178
 31
0.0
  0
LINE
  5
74
330
1F
100
AcDbEntity
  8
1
  6
Continuous
 62
     4
100
AcDbLine
 10
122.295308550023
 20
32.0173876737178
 30
0.0
 11
121.795308550023
 21
31.5173876737178
 31
0.0
  0
LINE
  5
75
330
1F
100
AcDbEntity
  8
1
  6
Continuous
 62
     4
100
AcDbLine
 10
123.045308550023
 20
32.5173876737178
 30
0.0
 11
122.295308550023
 21
32.0173876737178
 31
0.0
  0
LINE
  5
76
330
1F
100
AcDbEntity
  8
1
  6
Continuous
 62
     4
100
AcDbLine
 10
124.045308550023
 20
32.7673876737178
 30
0.0
 11
123.045308550023
 21
32.5173876737178
 31
0.0
  0
LINE
  5
77
330
1F
100
AcDbEntity
  8
1
  6
Continuous
 62
     4
100
AcDbLine
 10
128.295308550023
 20
32.7673876737178
 30
0.0
 11
124.045308550023
 21
32.7673876737178
 31
0.0
  0
LINE
  5
78
330
1F
100
AcDbEntity
  8
1
  6
Continuous
 62
     4
100
AcDbLine
 10
216.762858503154
 20
255.469022888377
 30
0.0
 11
216.762858503154
 21
252.969022888377
 31
0.0
  0
LINE
  5
79
330
1F
100
AcDbEntity
  8
1
  6
Continuous
 62
     4
100
AcDbLine
 10
216.512858503154
 20
256.969022888377
 30
0.0
 11
216.762858503154
 21
255.469022888377
 31
0.0
  0
LINE
  5
7A
330
1F
100
AcDbEntity
  8
1
  6
Continuous
 62
     4
100
AcDbLine
 10
216.012858503154
 20
257.969022888377
 30
0.0
 11
216.512858503154
 21
256.969022888377
 31
0.0
  0
LINE
  5
7B
330
1F
100
AcDbEntity
  8
1
  6
Continuous
 62
     4
100
AcDbLine
 10
215.512858503154
 20
258.469022888377
 30
0.0
 11
216.012858503154
 21
257.969022888377
 31
0.0
  0
LINE
  5
7C
330
1F
100
AcDbEntity
  8
1
  6
Continuous
 62
     4
100
AcDbLine
 10
214.762858503154
 20
258.969022888377
 30
0.0
 11
215.512858503154
 21
258.469022888377
 31
0.0
  0
LINE
  5
7D
330
1F
100
AcDbEntity
  8
1
  6
Continuous
 62
     4
100
AcDbLine
 10
214.012858503154
 20
259.219022888377
 30
0.0
 11
214.762858503154
 21
258.969022888377
 31
0.0
  0
LINE
  5
7E
330
1F
100
AcDbEntity
  8
1
  6
Continuous
 62
     4
100
AcDbLine
 10
213.512858503154
 20
259.219022888377
 30
0.0
 11
214.012858503154
 21
259.219022888377
 31
0.0
  0
LINE
  5
7F
330
1F
100
AcDbEntity
  8
1
  6
Continuous
 62
     4
100
AcDbLine
 10
212.762858503154
 20
258.969022888377
 30
0.0
 11
213.512858503154
 21
259.219022888377
 31
0.0
  0
LINE
  5
80
330
1F
100
AcDbEntity
  8
1
  6
Continuous
 62
     4
100
AcDbLine
 10
212.012858503154
 20
258.469022888377
 30
0.0
 11
212.762858503154
 21
258.969022888377
 31
0.0
  0
LINE
  5
81
330
1F
100
AcDbEntity
  8
1
  6
Continuous
 62
     4
100
AcDbLine
 10
211.512858503154
 20
257.969022888377
 30
0.0
 11
212.012858503154
 21
258.469022888377
 31
0.0
  0
LINE
  5
82
330
1F
100
AcDbEntity
  8
1
  6
Continuous
 62
     4
100
AcDbLine
 10
211.012858503154
 20
256.969022888377
 30
0.0
 11
211.512858503154
 21
257.969022888377
 31
0.0
  0
LINE
  5
83
330
1F
100
AcDbEntity
  8
1
  6
Continuous
 62
     4
100
AcDbLine
 10
210.762858503154
 20
255.469022888377
 30
0.0
 11
211.012858503154
 21
256.969022888377
 31
0.0
  0
LINE
  5
84
330
1F
100
AcDbEntity
  8
1
  6
Continuous
 62
     4
100
AcDbLine
 10
210.762858503154
 20
252.969022888377
 30
0.0
 11
210.762858503154
 21
255.469022888377
 31
0.0
  0
LINE
  5
85
330
1F
100
AcDbEntity
  8
1
  6
Continuous
 62
     4
100
AcDbLine
 10
211.012858503154
 20
251.469022888377
 30
0.0
 11
210.762858503154
 21
252.969022888377
 31
0.0
  0
LINE
  5
86
330
1F
100
AcDbEntity
  8
1
  6
Continuous
 62
     4
100
AcDbLine
 10
211.512858503154
 20
250.469022888377
 30
0.0
 11
211.012858503154
 21
251.469022888377
 31
0.0
  0
LINE
  5
87
330
1F
100
AcDbEntity
  8
1
  6
Continuous
 62
     4
100
AcDbLine
 10
212.012858503154
 20
249.969022888377
 30
0.0
 11
211.512858503154
 21
250.469022888377
 31
0.0
  0
LINE
  5
88
330
1F
100
AcDbEntity
  8
1
  6
Continuous
 62
     4
100
AcDbLine
 10
212.762858503154
 20
249.469022888377
 30
0.0
 11
212.012858503154
 21
249.969022888377
 31
0.0
  0
LINE
  5
89
330
1F
100
AcDbEntity
  8
1
  6
Continuous
 62
     4
100
AcDbLine
 10
213.512858503154
 20
249.219022888377
 30
0.0
 11
212.762858503154
 21
249.469022888377
 31
0.0
  0
LINE
  5
8A
330
1F
100
AcDbEntity
  8
1
  6
Continuous
 62
     4
100
AcDbLine
 10
214.012858503154
 20
249.219022888377
 30
0.0
 11
213.512858503154
 21
249.219022888377
 31
0.0
  0
LINE
  5
8B
330
1F
100
AcDbEntity
  8
1
  6
Continuous
 62
     4
100
AcDbLine
 10
214.762858503154
 20
249.469022888377
 30
0.0
 11
214.012858503154
 21
249.219022888377
 31
0.0
  0
LINE
  5
8C
330
1F
100
AcDbEntity
  8
1
  6
Continuous
 62
     4
100
AcDbLine
 10
215.512858503154
 20
249.969022888377
 30
0.0
 11
214.762858503154
 21
249.469022888377
 31
0.0
  0
LINE
  5
8D
330
1F
100
AcDbEntity
  8
1
  6
Continuous
 62
     4
100
AcDbLine
 10
216.012858503154
 20
250.469022888377
 30
0.0
 11
215.512858503154
 21
249.969022888377
 31
0.0
  0
LINE
  5
8E
330
1F
100
AcDbEntity
  8
1
  6
Continuous
 62
     4
100
AcDbLine
 10
216.512858503154
 20
251.469022888377
 30
0.0
 11
216.012858503154
 21
250.469022888377
 31
0.0
  0
LINE
  5
8F
330
1F
100
AcDbEntity
  8
1
  6
Continuous
 62
     4
100
AcDbLine
 10
216.762858503154
 20
252.969022888377
 30
0.0
 11
216.512858503154
 21
251.469022888377
 31
0.0
  0
LINE
  5
90
330
1F
100
AcDbEntity
  8
1
  6
Continuous
 62
     4
100
AcDbLine
 10
201.762858503154
 20
249.219022888377
 30
0.0
 11
207.762858503154
 21
249.219022888377
 31
0.0
  0
LINE
  5
91
330
1F
100
AcDbEntity
  8
1
  6
Continuous
 62
     4
100
AcDbLine
 10
207.262858503154
 20
255.719022888377
 30
0.0
 11
201.762858503154
 21
249.219022888377
 31
0.0
  0
LINE
  5
92
330
1F
100
AcDbEntity
  8
1
  6
Continuous
 62
     4
100
AcDbLine
 10
207.762858503154
 20
256.719022888377
 30
0.0
 11
207.262858503154
 21
255.719022888377
 31
0.0
  0
LINE
  5
93
330
1F
100
AcDbEntity
  8
1
  6
Continuous
 62
     4
100
AcDbLine
 10
207.762858503154
 20
257.719022888377
 30
0.0
 11
207.762858503154
 21
256.719022888377
 31
0.0
  0
LINE
  5
94
330
1F
100
AcDbEntity
  8
1
  6
Continuous
 62
     4
100
AcDbLine
 10
207.262858503154
 20
258.469022888377
 30
0.0
 11
207.762858503154
 21
257.719022888377
 31
0.0
  0
LINE
  5
95
330
1F
100
AcDbEntity
  8
1
  6
Continuous
 62
     4
100
AcDbLine
 10
206.512858503154
 20
258.969022888377
 30
0.0
 11
207.262858503154
 21
258.469022888377
 31
0.0
  0
LINE
  5
96
330
1F
100
AcDbEntity
  8
1
  6
Continuous
 62
     4
100
AcDbLine
 10
205.512858503154
 20
259.219022888377
 30
0.0
 11
206.512858503154
 21
258.969022888377
 31
0.0
  0
LINE
  5
97
330
1F
100
AcDbEntity
  8
1
  6
Continuous
 62
     4
100
AcDbLine
 10
204.012858503154
 20
259.219022888377
 30
0.0
 11
205.512858503154
 21
259.219022888377
 31
0.0
  0
LINE
  5
98
330
1F
100
AcDbEntity
  8
1
  6
Continuous
 62
     4
100
AcDbLine
 10
203.012858503154
 20
258.969022888377
 30
0.0
 11
204.012858503154
 21
259.219022888377
 31
0.0
  0
LINE
  5
99
330
1F
100
AcDbEntity
  8
1
  6
Continuous
 62
     4
100
AcDbLine
 10
202.262858503154
 20
258.469022888377
 30
0.0
 11
203.012858503154
 21
258.969022888377
 31
0.0
  0
LINE
  5
9A
330
1F
100
AcDbEntity
  8
1
  6
Continuous
 62
     4
100
AcDbLine
 10
201.762858503154
 20
257.719022888377
 30
0.0
 11
202.262858503154
 21
258.469022888377
 31
0.0
  0
LINE
  5
9B
330
1F
100
AcDbEntity
  8
1
  6
Continuous
 62
     4
100
AcDbLine
 10
193.762858503154
 20
252.719022888377
 30
0.0
 11
198.762858503154
 21
252.719022888377
 31
0.0
  0
LINE
  5
9C
330
1F
100
AcDbEntity
  8
1
  6
Continuous
 62
     4
100
AcDbLine
 10
187.262858503154
 20
259.219022888377
 30
0.0
 11
187.262858503154
 21
249.219022888377
 31
0.0
  0
LINE
  5
9D
330
1F
100
AcDbEntity
  8
1
  6
Continuous
 62
     4
100
AcDbLine
 10
183.762858503154
 20
259.219022888377
 30
0.0
 11
187.262858503154
 21
259.219022888377
 31
0.0
  0
LINE
  5
9E
330
1F
100
AcDbEntity
  8
1
  6
Continuous
 62
     4
100
AcDbLine
 10
187.262858503154
 20
259.219022888377
 30
0.0
 11
190.762858503154
 21
259.219022888377
 31
0.0
  0
LINE
  5
9F
330
1F
100
AcDbEntity
  8
1
  6
Continuous
 62
     4
100
AcDbLine
 10
174.262858503154
 20
249.969022888377
 30
0.0
 11
173.762858503154
 21
250.469022888377
 31
0.0
  0
LINE
  5
A0
330
1F
100
AcDbEntity
  8
1
  6
Continuous
 62
     4
100
AcDbLine
 10
175.262858503154
 20
249.469022888377
 30
0.0
 11
174.262858503154
 21
249.969022888377
 31
0.0
  0
LINE
  5
A1
330
1F
100
AcDbEntity
  8
1
  6
Continuous
 62
     4
100
AcDbLine
 10
176.512858503154
 20
249.219022888377
 30
0.0
 11
175.262858503154
 21
249.469022888377
 31
0.0
  0
LINE
  5
A2
330
1F
100
AcDbEntity
  8
1
  6
Continuous
 62
     4
100
AcDbLine
 10
178.012858503154
 20
249.219022888377
 30
0.0
 11
176.512858503154
 21
249.219022888377
 31
0.0
  0
LINE
  5
A3
330
1F
100
AcDbEntity
  8
1
  6
Continuous
 62
     4
100
AcDbLine
 10
179.262858503154
 20
249.469022888377
 30
0.0
 11
178.012858503154
 21
249.219022888377
 31
0.0
  0
LINE
  5
A4
330
1F
100
AcDbEntity
  8
1
  6
Continuous
 62
     4
100
AcDbLine
 10
180.012858503154
 20
249.969022888377
 30
0.0
 11
179.262858503154
 21
249.469022888377
 31
0.0
  0
LINE
  5
A5
330
1F
100
AcDbEntity
  8
1
  6
Continuous
 62
     4
100
AcDbLine
 10
180.512858503154
 20
250.719022888377
 30
0.0
 11
180.012858503154
 21
249.969022888377
 31
0.0
  0
LINE
  5
A6
330
1F
100
AcDbEntity
  8
1
  6
Continuous
 62
     4
100
AcDbLine
 10
180.762858503154
 20
251.469022888377
 30
0.0
 11
180.512858503154
 21
250.719022888377
 31
0.0
  0
LINE
  5
A7
330
1F
100
AcDbEntity
  8
1
  6
Continuous
 62
     4
100
AcDbLine
 10
180.762858503154
 20
251.969022888377
 30
0.0
 11
180.762858503154
 21
251.469022888377
 31
0.0
  0
LINE
  5
A8
330
1F
100
AcDbEntity
  8
1
  6
Continuous
 62
     4
100
AcDbLine
 10
180.512858503154
 20
252.719022888377
 30
0.0
 11
180.762858503154
 21
251.969022888377
 31
0.0
  0
LINE
  5
A9
330
1F
100
AcDbEntity
  8
1
  6
Continuous
 62
     4
100
AcDbLine
 10
180.012858503154
 20
253.469022888377
 30
0.0
 11
180.512858503154
 21
252.719022888377
 31
0.0
  0
LINE
  5
AA
330
1F
100
AcDbEntity
  8
1
  6
Continuous
 62
     4
100
AcDbLine
 10
179.262858503154
 20
253.969022888377
 30
0.0
 11
180.012858503154
 21
253.469022888377
 31
0.0
  0
LINE
  5
AB
330
1F
100
AcDbEntity
  8
1
  6
Continuous
 62
     4
100
AcDbLine
 10
175.012858503154
 20
255.719022888377
 30
0.0
 11
179.262858503154
 21
253.969022888377
 31
0.0
  0
LINE
  5
AC
330
1F
100
AcDbEntity
  8
1
  6
Continuous
 62
     4
100
AcDbLine
 10
174.262858503154
 20
256.219022888377
 30
0.0
 11
175.012858503154
 21
255.719022888377
 31
0.0
  0
LINE
  5
AD
330
1F
100
AcDbEntity
  8
1
  6
Continuous
 62
     4
100
AcDbLine
 10
174.012858503154
 20
256.969022888377
 30
0.0
 11
174.262858503154
 21
256.219022888377
 31
0.0
  0
LINE
  5
AE
330
1F
100
AcDbEntity
  8
1
  6
Continuous
 62
     4
100
AcDbLine
 10
174.012858503154
 20
257.469022888377
 30
0.0
 11
174.012858503154
 21
256.969022888377
 31
0.0
  0
LINE
  5
AF
330
1F
100
AcDbEntity
  8
1
  6
Continuous
 62
     4
100
AcDbLine
 10
174.262858503154
 20
258.219022888377
 30
0.0
 11
174.012858503154
 21
257.469022888377
 31
0.0
  0
LINE
  5
B0
330
1F
100
AcDbEntity
  8
1
  6
Continuous
 62
     4
100
AcDbLine
 10
175.012858503154
 20
258.719022888377
 30
0.0
 11
174.262858503154
 21
258.219022888377
 31
0.0
  0
LINE
  5
B1
330
1F
100
AcDbEntity
  8
1
  6
Continuous
 62
     4
100
AcDbLine
 10
175.762858503154
 20
258.969022888377
 30
0.0
 11
175.012858503154
 21
258.719022888377
 31
0.0
  0
LINE
  5
B2
330
1F
100
AcDbEntity
  8
1
  6
Continuous
 62
     4
100
AcDbLine
 10
176.762858503154
 20
259.219022888377
 30
0.0
 11
175.762858503154
 21
258.969022888377
 31
0.0
  0
LINE
  5
B3
330
1F
100
AcDbEntity
  8
1
  6
Continuous
 62
     4
100
AcDbLine
 10
177.762858503154
 20
259.219022888377
 30
0.0
 11
176.762858503154
 21
259.219022888377
 31
0.0
  0
LINE
  5
B4
330
1F
100
AcDbEntity
  8
1
  6
Continuous
 62
     4
100
AcDbLine
 10
179.012858503154
 20
258.969022888377
 30
0.0
 11
177.762858503154
 21
259.219022888377
 31
0.0
  0
LINE
  5
B5
330
1F
100
AcDbEntity
  8
1
  6
Continuous
 62
     4
100
AcDbLine
 10
179.762858503154
 20
258.719022888377
 30
0.0
 11
179.012858503154
 21
258.969022888377
 31
0.0
  0
LINE
  5
B6
330
1F
100
AcDbEntity
  8
1
  6
Continuous
 62
     4
100
AcDbLine
 10
180.512858503154
 20
258.219022888377
 30
0.0
 11
179.762858503154
 21
258.719022888377
 31
0.0
  0
LINE
  5
C1
330
1F
100
AcDbEntity
  8
1
  6
DOTTED
 62
     6
100
AcDbLine
 10
82.2640158101046
 20
154.499999999999
 30
0.0
 11
57.7359841898954
 21
154.5
 31
0.0
  0
LINE
  5
C2
330
1F
100
AcDbEntity
  8
1
  6
Continuous
 62
     4
100
AcDbLine
 10
103.589417607588
 20
48.25
 30
0.0
 11
105.706216227794
 21
40.35
 31
0.0
  0
LINE
  5
C3
330
1F
100
AcDbEntity
  8
1
  6
Continuous
 62
     4
100
AcDbLine
 10
103.589417607588
 20
48.25
 30
0.0
 11
109.372618987382
 21
42.4667986202059
 31
0.0
  0
LINE
  5
C4
330
1F
100
AcDbEntity
  8
1
  6
Continuous
 62
     4
100
AcDbLine
 10
36.7235405885782
 20
48.25
 30
0.0
 11
30.9403392087841
 21
42.4667986202059
 31
0.0
  0
LINE
  5
C5
330
1F
100
AcDbEntity
  8
1
  6
Continuous
 62
     4
100
AcDbLine
 10
36.7235405885782
 20
48.25
 30
0.0
 11
34.6067419683723
 21
40.35
 31
0.0
  0
LINE
  5
C6
330
1F
100
AcDbEntity
  8
4
  6
Continuous
 62
     3
100
AcDbLine
 10
60.5
 20
63.5
 30
0.0
 11
60.5
 21
63.5
 31
0.0
  0
LINE
  5
C7
330
1F
100
AcDbEntity
  8
4
  6
Continuous
 62
     3
100
AcDbLine
 10
57.5
 20
58.5
 30
0.0
 11
60.5
 21
63.5
 31
0.0
  0
LINE
  5
C8
330
1F
100
AcDbEntity
  8
4
  6
Continuous
 62
     3
100
AcDbLine
 10
67.5
 20
58.5
 30
0.0
 11
57.5
 21
58.5
 31
0.0
  0
LINE
  5
C9
330
1F
100
AcDbEntity
  8
4
  6
Continuous
 62
     3
100
AcDbLine
 10
69.9
 20
62.5
 30
0.0
 11
67.5
 21
58.5
 31
0.0
  0
LINE
  5
CA
330
1F
100
AcDbEntity
  8
4
  6
Continuous
 62
     3
100
AcDbLine
 10
76.5
 20
62.5
 30
0.0
 11
69.9
 21
62.5
 31
0.0
  0
LINE
  5
CB
330
1F
100
AcDbEntity
  8
4
  6
Continuous
 62
     3
100
AcDbLine
 10
76.0
 20
58.5
 30
0.0
 11
76.5
 21
62.5
 31
0.0
  0
LINE
  5
CC
330
1F
100
AcDbEntity
  8
4
  6
Continuous
 62
     3
100
AcDbLine
 10
82.5
 20
63.5
 30
0.0
 11
76.0
 21
58.5
 31
0.0
  0
LINE
  5
CD
330
1F
100
AcDbEntity
  8
4
  6
Continuous
 62
     3
100
AcDbLine
 10
60.5
 20
63.5
 30
0.0
 11
82.5
 21
63.5
 31
0.0
  0
LINE
  5
CE
330
1F
100
AcDbEntity
  8
1
  6
Continuous
 62
     3
100
AcDbLine
 10
43.0
 20
49.5545
 30
0.0
 11
30.0
 21
49.5545
 31
0.0
  0
LINE
  5
CF
330
1F
100
AcDbEntity
  8
1
  6
Continuous
 62
     3
100
AcDbLine
 10
43.8464268742321
 20
49.0658152163128
 30
0.0
 11
43.0
 21
49.5545
 31
0.0
  0
LINE
  5
D0
330
1F
100
AcDbEntity
  8
1
  6
Continuous
 62
     3
100
AcDbLine
 10
97.0
 20
49.5545
 30
0.0
 11
110.0
 21
49.5545
 31
0.0
  0
LINE
  5
D1
330
1F
100
AcDbEntity
  8
1
  6
Continuous
 62
     3
100
AcDbLine
 10
96.172980139237
 20
49.0770198607632
 30
0.0
 11
97.0
 21
49.5545
 31
0.0
  0
LINE
  5
D2
330
1F
100
AcDbEntity
  8
1
  6
Continuous
 62
     3
100
AcDbLine
 10
97.0
 20
79.8455
 30
0.0
 11
110.0
 21
79.8455
 31
0.0
  0
LINE
  5
D3
330
1F
100
AcDbEntity
  8
1
  6
Continuous
 62
     3
100
AcDbLine
 10
96.172980139237
 20
80.322980139237
 30
0.0
 11
97.0
 21
79.8455
 31
0.0
  0
LINE
  5
D4
330
1F
100
AcDbEntity
  8
1
  6
Continuous
 62
     3
100
AcDbLine
 10
43.0
 20
276.425255927139
 30
0.0
 11
30.0
 21
276.425255927139
 31
0.0
  0
LINE
  5
D5
330
1F
100
AcDbEntity
  8
1
  6
Continuous
 62
     3
100
AcDbLine
 10
43.8464268742321
 20
276.913940710826
 30
0.0
 11
43.0
 21
276.425255927139
 31
0.0
  0
LINE
  5
D6
330
1F
100
AcDbEntity
  8
1
  6
Continuous
 62
     3
100
AcDbLine
 10
97.0
 20
276.425255927139
 30
0.0
 11
110.0
 21
276.425255927139
 31
0.0
  0
LINE
  5
D7
330
1F
100
AcDbEntity
  8
1
  6
Continuous
 62
     3
100
AcDbLine
 10
96.172980139237
 20
276.902736066376
 30
0.0
 11
97.0
 21
276.425255927139
 31
0.0
  0
LINE
  5
D8
330
1F
100
AcDbEntity
  8
1
  6
Continuous
 62
     3
100
AcDbLine
 10
43.0
 20
79.8455
 30
0.0
 11
30.0
 21
79.8455
 31
0.0
  0
LINE
  5
D9
330
1F
100
AcDbEntity
  8
1
  6
Continuous
 62
     3
100
AcDbLine
 10
43.8464268742321
 20
80.334184783687
 30
0.0
 11
43.0
 21
79.8455
 31
0.0
  0
LINE
  5
DA
330
1F
100
AcDbEntity
  8
4
  6
DOT_CENTER
 62
     1
100
AcDbLine
 10
26.5
 20
64.7
 30
0.0
 11
113.5
 21
64.7
 31
0.0
  0
LINE
  5
DB
330
1F
100
AcDbEntity
  8
4
  6
Continuous
 62
     3
100
AcDbLine
 10
99.0
 20
154.476991029251
 30
0.0
 11
99.0
 21
145.5
 31
0.0
  0
LINE
  5
DC
330
1F
100
AcDbEntity
  8
4
  6
Continuous
 62
     3
100
AcDbLine
 10
41.0000000000002
 20
145.5
 30
0.0
 11
40.9999999999994
 21
154.476991029251
 31
0.0
  0
LINE
  5
DD
330
1F
100
AcDbEntity
  8
4
  6
Continuous
 62
     3
100
AcDbLine
 10
99.0
 20
145.5
 30
0.0
 11
41.0000000000002
 21
145.5
 31
0.0
  0
LINE
  5
DE
330
1F
100
AcDbEntity
  8
4
  6
Continuous
 62
     3
100
AcDbLine
 10
73.6
 20
145.5
 30
0.0
 11
73.6
 21
143.5
 31
0.0
  0
LINE
  5
DF
330
1F
100
AcDbEntity
  8
4
  6
Continuous
 62
     3
100
AcDbLine
 10
74.25
 20
143.5
 30
0.0
 11
74.75
 21
142.633974596216
 31
0.0
  0
LINE
  5
E0
330
1F
100
AcDbEntity
  8
4
  6
Continuous
 62
     3
100
AcDbLine
 10
74.75
 20
142.633974596216
 30
0.0
 11
74.75
 21
133.2
 31
0.0
  0
LINE
  5
E1
330
1F
100
AcDbEntity
  8
4
  6
Continuous
 62
     3
100
AcDbLine
 10
66.4
 20
145.5
 30
0.0
 11
66.4
 21
143.5
 31
0.0
  0
LINE
  5
E2
330
1F
100
AcDbEntity
  8
4
  6
Continuous
 62
     3
100
AcDbLine
 10
74.25
 20
143.5
 30
0.0
 11
65.75
 21
143.5
 31
0.0
  0
LINE
  5
E3
330
1F
100
AcDbEntity
  8
4
  6
Continuous
 62
     3
100
AcDbLine
 10
65.75
 20
143.5
 30
0.0
 11
65.25
 21
142.633974596216
 31
0.0
  0
LINE
  5
E4
330
1F
100
AcDbEntity
  8
4
  6
Continuous
 62
     3
100
AcDbLine
 10
65.25
 20
142.633974596216
 30
0.0
 11
65.25
 21
133.2
 31
0.0
  0
LINE
  5
E5
330
1F
100
AcDbEntity
  8
4
  6
Continuous
 62
     3
100
AcDbLine
 10
78.2928932188134
 20
132.907106781187
 30
0.0
 11
78.7071067811866
 21
132.492893218814
 31
0.0
  0
LINE
  5
E6
330
1F
100
AcDbEntity
  8
4
  6
Continuous
 62
     3
100
AcDbLine
 10
62.4142135623731
 20
133.2
 30
0.0
 11
77.5857864376269
 21
133.2
 31
0.0
  0
LINE
  5
E7
330
1F
100
AcDbEntity
  8
4
  6
Continuous
 62
     3
100
AcDbLine
 10
88.7098392645882
 20
122.2
 30
0.0
 11
88.3098392645882
 21
132.2
 31
0.0
  0
LINE
  5
E8
330
1F
100
AcDbEntity
  8
4
  6
Continuous
 62
     3
100
AcDbLine
 10
93.258858419353
 20
122.2
 30
0.0
 11
93.8003746648403
 21
92.2
 31
0.0
  0
LINE
  5
E9
330
1F
100
AcDbEntity
  8
4
  6
Continuous
 62
     3
100
AcDbLine
 10
46.1996253351597
 20
92.2
 30
0.0
 11
93.8003746648403
 21
92.2
 31
0.0
  0
LINE
  5
EA
330
1F
100
AcDbEntity
  8
4
  6
Continuous
 62
     3
100
AcDbLine
 10
46.741141580647
 20
122.2
 30
0.0
 11
93.258858419353
 21
122.2
 31
0.0
  0
LINE
  5
EB
330
1F
100
AcDbEntity
  8
4
  6
Continuous
 62
     3
100
AcDbLine
 10
51.2901607354118
 20
122.2
 30
0.0
 11
51.6901607354118
 21
132.2
 31
0.0
  0
LINE
  5
EC
330
1F
100
AcDbEntity
  8
4
  6
Continuous
 62
     3
100
AcDbLine
 10
88.3098392645882
 20
132.2
 30
0.0
 11
51.6901607354118
 21
132.2
 31
0.0
  0
LINE
  5
ED
330
1F
100
AcDbEntity
  8
4
  6
Continuous
 62
     3
100
AcDbLine
 10
61.7071067811868
 20
132.907106781187
 30
0.0
 11
61.2928932188137
 21
132.492893218814
 31
0.0
  0
LINE
  5
EE
330
1F
100
AcDbEntity
  8
4
  6
Continuous
 62
     3
100
AcDbLine
 10
46.741141580647
 20
122.2
 30
0.0
 11
46.1996253351597
 21
92.2
 31
0.0
  0
LINE
  5
EF
330
1F
100
AcDbEntity
  8
4
  6
Continuous
 62
     3
100
AcDbLine
 10
74.75
 20
142.633974596216
 30
0.0
 11
65.25
 21
142.633974596216
 31
0.0
  0
LINE
  5
F0
330
1F
100
AcDbEntity
  8
4
  6
Continuous
 62
     3
100
AcDbLine
 10
73.6000061035156
 20
156.000003051758
 30
0.0
 11
73.6000061035156
 21
157.2
 31
0.0
  0
LINE
  5
F1
330
1F
100
AcDbEntity
  8
4
  6
Continuous
 62
     3
100
AcDbLine
 10
66.4000015258789
 20
156.000003051758
 30
0.0
 11
66.4000015258789
 21
157.2
 31
0.0
  0
LINE
  5
F2
330
1F
100
AcDbEntity
  8
4
  6
Continuous
 62
     3
100
AcDbLine
 10
70.0000076293945
 20
157.2
 30
0.0
 11
69.5000076293945
 21
156.000003051758
 31
0.0
  0
LINE
  5
F3
330
1F
100
AcDbEntity
  8
4
  6
Continuous
 62
     3
100
AcDbLine
 10
70.5000076293945
 20
157.2
 30
0.0
 11
70.0000076293945
 21
156.000003051758
 31
0.0
  0
LINE
  5
F4
330
1F
100
AcDbEntity
  8
4
  6
Continuous
 62
     3
100
AcDbLine
 10
66.25
 20
155.500003051758
 30
0.0
 11
73.75
 21
155.500003051758
 31
0.0
  0
LINE
  5
F5
330
1F
100
AcDbEntity
  8
4
  6
Continuous
 62
     3
100
AcDbLine
 10
73.75
 20
155.5
 30
0.0
 11
66.25
 21
155.5
 31
0.0
  0
LINE
  5
F6
330
1F
100
AcDbEntity
  8
4
  6
Continuous
 62
     3
100
AcDbLine
 10
66.25
 20
156.000003051758
 30
0.0
 11
73.75
 21
156.000003051758
 31
0.0
  0
LINE
  5
F7
330
1F
100
AcDbEntity
  8
4
  6
Continuous
 62
     3
100
AcDbLine
 10
46.058046379913
 20
154.476991029251
 30
0.0
 11
46.058046379913
 21
148.0
 31
0.0
  0
LINE
  5
F8
330
1F
100
AcDbEntity
  8
4
  6
Continuous
 62
     3
100
AcDbLine
 10
54.0387020515442
 20
154.476991029251
 30
0.0
 11
54.0387020515442
 21
148.0
 31
0.0
  0
LINE
  5
F9
330
1F
100
AcDbEntity
  8
4
  6
Continuous
 62
     3
100
AcDbLine
 10
64.3568242562747
 20
154.476991029251
 30
0.0
 11
64.3568242562747
 21
148.0
 31
0.0
  0
LINE
  5
FA
330
1F
100
AcDbEntity
  8
4
  6
Continuous
 62
     3
100
AcDbLine
 10
75.6431757437254
 20
154.476991029251
 30
0.0
 11
75.6431757437254
 21
148.0
 31
0.0
  0
LINE
  5
FB
330
1F
100
AcDbEntity
  8
4
  6
Continuous
 62
     3
100
AcDbLine
 10
85.9612979484558
 20
154.476991029251
 30
0.0
 11
85.9612979484558
 21
148.0
 31
0.0
  0
LINE
  5
FC
330
1F
100
AcDbEntity
  8
4
  6
Continuous
 62
     3
100
AcDbLine
 10
93.941953620087
 20
154.476991029251
 30
0.0
 11
93.941953620087
 21
148.0
 31
0.0
  0
LINE
  5
FD
330
1F
100
AcDbEntity
  8
4
  6
Continuous
 62
     3
100
AcDbLine
 10
41.7841402244906
 20
154.476991029251
 30
0.0
 11
41.7841402244906
 21
148.0
 31
0.0
  0
LINE
  5
FE
330
1F
100
AcDbEntity
  8
4
  6
Continuous
 62
     3
100
AcDbLine
 10
98.2158597755094
 20
154.476991029251
 30
0.0
 11
98.2158597755094
 21
148.0
 31
0.0
  0
LINE
  5
FF
330
1F
100
AcDbEntity
  8
4
  6
DOTTED
 62
     6
100
AcDbLine
 10
99.0
 20
145.476991029251
 30
0.0
 11
99.0
 21
136.5
 31
0.0
  0
LINE
  5
100
330
1F
100
AcDbEntity
  8
4
  6
DOTTED
 62
     6
100
AcDbLine
 10
99.0
 20
136.5
 30
0.0
 11
41.0000000000002
 21
136.5
 31
0.0
  0
LINE
  5
101
330
1F
100
AcDbEntity
  8
4
  6
DOTTED
 62
     6
100
AcDbLine
 10
41.0000000000002
 20
136.5
 30
0.0
 11
40.9999999999994
 21
145.476991029251
 31
0.0
  0
LINE
  5
102
330
1F
100
AcDbEntity
  8
1
  6
DOT_CENTER
 62
     1
100
AcDbLine
 10
179.593989968607
 20
64.7
 30
0.0
 11
227.593989968607
 21
64.7
 31
0.0
  0
LINE
  5
103
330
1F
100
AcDbEntity
  8
4
  6
Continuous
 62
     3
100
AcDbLine
 10
231.809849744116
 20
154.476991029251
 30
0.0
 11
231.809849744116
 21
148.0
 31
0.0
  0
LINE
  5
104
330
1F
100
AcDbEntity
  8
4
  6
Continuous
 62
     3
100
AcDbLine
 10
175.378130193098
 20
154.476991029251
 30
0.0
 11
175.378130193098
 21
148.0
 31
0.0
  0
LINE
  5
105
330
1F
100
AcDbEntity
  8
4
  6
Continuous
 62
     3
100
AcDbLine
 10
227.535943588694
 20
154.476991029251
 30
0.0
 11
227.535943588694
 21
148.0
 31
0.0
  0
LINE
  5
106
330
1F
100
AcDbEntity
  8
4
  6
Continuous
 62
     3
100
AcDbLine
 10
219.555287917063
 20
154.476991029251
 30
0.0
 11
219.555287917063
 21
148.0
 31
0.0
  0
LINE
  5
107
330
1F
100
AcDbEntity
  8
4
  6
Continuous
 62
     3
100
AcDbLine
 10
209.237165712332
 20
154.476991029251
 30
0.0
 11
209.237165712332
 21
148.0
 31
0.0
  0
LINE
  5
108
330
1F
100
AcDbEntity
  8
4
  6
Continuous
 62
     3
100
AcDbLine
 10
197.950814224882
 20
154.476991029251
 30
0.0
 11
197.950814224882
 21
148.0
 31
0.0
  0
LINE
  5
109
330
1F
100
AcDbEntity
  8
4
  6
Continuous
 62
     3
100
AcDbLine
 10
187.632692020151
 20
154.476991029251
 30
0.0
 11
187.632692020151
 21
148.0
 31
0.0
  0
LINE
  5
10A
330
1F
100
AcDbEntity
  8
4
  6
Continuous
 62
     3
100
AcDbLine
 10
179.65203634852
 20
154.476991029251
 30
0.0
 11
179.65203634852
 21
148.0
 31
0.0
  0
LINE
  5
10B
330
1F
100
AcDbEntity
  8
4
  6
Continuous
 62
     3
100
AcDbLine
 10
199.843989968607
 20
156.000003051758
 30
0.0
 11
207.343989968607
 21
156.000003051758
 31
0.0
  0
LINE
  5
10C
330
1F
100
AcDbEntity
  8
4
  6
Continuous
 62
     3
100
AcDbLine
 10
207.343989968607
 20
155.5
 30
0.0
 11
199.843989968607
 21
155.5
 31
0.0
  0
LINE
  5
10D
330
1F
100
AcDbEntity
  8
4
  6
Continuous
 62
     3
100
AcDbLine
 10
199.843989968607
 20
155.500003051758
 30
0.0
 11
207.343989968607
 21
155.500003051758
 31
0.0
  0
LINE
  5
10E
330
1F
100
AcDbEntity
  8
4
  6
Continuous
 62
     3
100
AcDbLine
 10
204.093997598001
 20
157.2
 30
0.0
 11
203.593997598001
 21
156.000003051758
 31
0.0
  0
LINE
  5
10F
330
1F
100
AcDbEntity
  8
4
  6
Continuous
 62
     3
100
AcDbLine
 10
203.593997598001
 20
157.2
 30
0.0
 11
203.093997598001
 21
156.000003051758
 31
0.0
  0
LINE
  5
110
330
1F
100
AcDbEntity
  8
4
  6
Continuous
 62
     3
100
AcDbLine
 10
199.993991494486
 20
156.000003051758
 30
0.0
 11
199.993991494486
 21
157.2
 31
0.0
  0
LINE
  5
111
330
1F
100
AcDbEntity
  8
4
  6
Continuous
 62
     3
100
AcDbLine
 10
207.193996072123
 20
156.000003051758
 30
0.0
 11
207.193996072123
 21
157.2
 31
0.0
  0
LINE
  5
112
330
1F
100
AcDbEntity
  8
4
  6
Continuous
 62
     3
100
AcDbLine
 10
208.343989968607
 20
142.633974596216
 30
0.0
 11
198.843989968607
 21
142.633974596216
 31
0.0
  0
LINE
  5
113
330
1F
100
AcDbEntity
  8
4
  6
Continuous
 62
     3
100
AcDbLine
 10
180.335131549255
 20
122.2
 30
0.0
 11
179.793615303767
 21
92.2
 31
0.0
  0
LINE
  5
114
330
1F
100
AcDbEntity
  8
4
  6
Continuous
 62
     3
100
AcDbLine
 10
195.301096749794
 20
132.907106781187
 30
0.0
 11
194.886883187421
 21
132.492893218814
 31
0.0
  0
LINE
  5
115
330
1F
100
AcDbEntity
  8
4
  6
Continuous
 62
     3
100
AcDbLine
 10
221.903829233195
 20
132.2
 30
0.0
 11
185.284150704019
 21
132.2
 31
0.0
  0
LINE
  5
116
330
1F
100
AcDbEntity
  8
4
  6
Continuous
 62
     3
100
AcDbLine
 10
184.884150704019
 20
122.2
 30
0.0
 11
185.284150704019
 21
132.2
 31
0.0
  0
LINE
  5
117
330
1F
100
AcDbEntity
  8
4
  6
Continuous
 62
     3
100
AcDbLine
 10
180.335131549255
 20
122.2
 30
0.0
 11
226.852848387961
 21
122.2
 31
0.0
  0
LINE
  5
118
330
1F
100
AcDbEntity
  8
4
  6
Continuous
 62
     3
100
AcDbLine
 10
179.793615303767
 20
92.2
 30
0.0
 11
227.394364633447
 21
92.2
 31
0.0
  0
LINE
  5
119
330
1F
100
AcDbEntity
  8
4
  6
Continuous
 62
     3
100
AcDbLine
 10
226.852848387961
 20
122.2
 30
0.0
 11
227.394364633447
 21
92.2
 31
0.0
  0
LINE
  5
11A
330
1F
100
AcDbEntity
  8
4
  6
Continuous
 62
     3
100
AcDbLine
 10
222.303829233195
 20
122.2
 30
0.0
 11
221.903829233195
 21
132.2
 31
0.0
  0
LINE
  5
11B
330
1F
100
AcDbEntity
  8
4
  6
Continuous
 62
     3
100
AcDbLine
 10
196.00820353098
 20
133.2
 30
0.0
 11
211.179776406234
 21
133.2
 31
0.0
  0
LINE
  5
11C
330
1F
100
AcDbEntity
  8
4
  6
Continuous
 62
     3
100
AcDbLine
 10
211.88688318742
 20
132.907106781187
 30
0.0
 11
212.301096749794
 21
132.492893218814
 31
0.0
  0
LINE
  5
11D
330
1F
100
AcDbEntity
  8
4
  6
Continuous
 62
     3
100
AcDbLine
 10
222.093989968607
 20
92.2
 30
0.0
 11
222.093989968607
 21
89.5
 31
0.0
  0
LINE
  5
11E
330
1F
100
AcDbEntity
  8
4
  6
Continuous
 62
     3
100
AcDbLine
 10
185.093989968607
 20
89.5
 30
0.0
 11
185.093989968607
 21
92.2
 31
0.0
  0
LINE
  5
11F
330
1F
100
AcDbEntity
  8
4
  6
Continuous
 62
     3
100
AcDbLine
 10
198.843989968607
 20
142.633974596216
 30
0.0
 11
198.843989968607
 21
133.2
 31
0.0
  0
LINE
  5
120
330
1F
100
AcDbEntity
  8
4
  6
Continuous
 62
     3
100
AcDbLine
 10
199.343989968607
 20
143.5
 30
0.0
 11
198.843989968607
 21
142.633974596216
 31
0.0
  0
LINE
  5
121
330
1F
100
AcDbEntity
  8
4
  6
Continuous
 62
     3
100
AcDbLine
 10
207.843989968607
 20
143.5
 30
0.0
 11
199.343989968607
 21
143.5
 31
0.0
  0
LINE
  5
122
330
1F
100
AcDbEntity
  8
4
  6
Continuous
 62
     3
100
AcDbLine
 10
199.993989968607
 20
145.5
 30
0.0
 11
199.993989968607
 21
143.5
 31
0.0
  0
LINE
  5
123
330
1F
100
AcDbEntity
  8
4
  6
Continuous
 62
     3
100
AcDbLine
 10
208.343989968607
 20
142.633974596216
 30
0.0
 11
208.343989968607
 21
133.2
 31
0.0
  0
LINE
  5
124
330
1F
100
AcDbEntity
  8
4
  6
Continuous
 62
     3
100
AcDbLine
 10
207.843989968607
 20
143.5
 30
0.0
 11
208.343989968607
 21
142.633974596216
 31
0.0
  0
LINE
  5
125
330
1F
100
AcDbEntity
  8
4
  6
Continuous
 62
     3
100
AcDbLine
 10
207.193989968607
 20
145.5
 30
0.0
 11
207.193989968607
 21
143.5
 31
0.0
  0
LINE
  5
126
330
1F
100
AcDbEntity
  8
4
  6
Continuous
 62
     3
100
AcDbLine
 10
232.593989968607
 20
145.5
 30
0.0
 11
174.593989968607
 21
145.5
 31
0.0
  0
LINE
  5
127
330
1F
100
AcDbEntity
  8
4
  6
Continuous
 62
     3
100
AcDbLine
 10
174.593989968607
 20
145.5
 30
0.0
 11
174.593989968606
 21
154.476991029251
 31
0.0
  0
LINE
  5
128
330
1F
100
AcDbEntity
  8
4
  6
Continuous
 62
     3
100
AcDbLine
 10
232.593989968607
 20
154.476991029251
 30
0.0
 11
232.593989968607
 21
145.5
 31
0.0
  0
LINE
  5
129
330
1F
100
AcDbEntity
  8
4
  6
DOT_CENTER
 62
     1
100
AcDbLine
 10
70.0
 20
39.5
 30
0.0
 11
70.0
 21
167.173859856348
 31
0.0
  0
LINE
  5
12A
330
1F
100
AcDbEntity
  8
4
  6
DOT_CENTER
 62
     1
100
AcDbLine
 10
203.593989968607
 20
39.5
 30
0.0
 11
203.593989968607
 21
167.173859856348
 31
0.0
  0
LINE
  5
12B
330
1F
100
AcDbEntity
  8
2
  6
DOT_CENTER
 62
     1
100
AcDbLine
 10
70.0
 20
294.051034029943
 30
0.0
 11
70.0
 21
226.579755927139
 31
0.0
  0
LINE
  5
12C
330
1F
100
AcDbEntity
  8
2
  6
DOT_CENTER
 62
     1
100
AcDbLine
 10
27.0
 20
260.079755927139
 30
0.0
 11
113.0
 21
260.079755927139
 31
0.0
  0
LINE
  5
12D
330
1F
100
AcDbEntity
  8
1
  6
Continuous
 62
     3
100
AcDbLine
 10
90.5
 20
83.786319029364
 30
0.0
 11
90.5
 21
87.5
 31
0.0
  0
LINE
  5
12E
330
1F
100
AcDbEntity
  8
1
  6
Continuous
 62
     3
100
AcDbLine
 10
49.5000000000001
 20
83.7863190293641
 30
0.0
 11
49.5
 21
87.5
 31
0.0
  0
LINE
  5
12F
330
1F
100
AcDbEntity
  8
1
  6
Continuous
 62
     3
100
AcDbLine
 10
50.0
 20
81.7
 30
0.0
 11
50.0
 21
82.463443373832
 31
0.0
  0
LINE
  5
130
330
1F
100
AcDbEntity
  8
1
  6
Continuous
 62
     3
100
AcDbLine
 10
90.0
 20
81.7
 30
0.0
 11
90.0000000000002
 21
82.463443373832
 31
0.0
  0
LINE
  5
131
330
1F
100
AcDbEntity
  8
1
  6
Continuous
 62
     3
100
AcDbLine
 10
43.0
 20
81.15
 30
0.0
 11
43.0
 21
48.25
 31
0.0
  0
LINE
  5
132
330
1F
100
AcDbEntity
  8
1
  6
Continuous
 62
     3
100
AcDbLine
 10
90.5
 20
87.5
 30
0.0
 11
88.5
 21
89.5
 31
0.0
  0
LINE
  5
133
330
1F
100
AcDbEntity
  8
1
  6
Continuous
 62
     3
100
AcDbLine
 10
49.5
 20
87.5
 30
0.0
 11
51.5
 21
89.5
 31
0.0
  0
LINE
  5
134
330
1F
100
AcDbEntity
  8
1
  6
Continuous
 62
     3
100
AcDbLine
 10
94.92867965644
 20
49.7000000000001
 30
0.0
 11
94.494897427832
 21
49.7
 31
0.0
  0
LINE
  5
135
330
1F
100
AcDbEntity
  8
1
  6
Continuous
 62
     3
100
AcDbLine
 10
97.0
 20
81.15
 30
0.0
 11
97.0
 21
48.25
 31
0.0
  0
LINE
  5
136
330
1F
100
AcDbEntity
  8
1
  6
Continuous
 62
     3
100
AcDbLine
 10
97.0
 20
48.25
 30
0.0
 11
95.98933982822
 21
49.2606601717798
 31
0.0
  0
LINE
  5
137
330
1F
100
AcDbEntity
  8
1
  6
Continuous
 62
     3
100
AcDbLine
 10
97.0
 20
81.15
 30
0.0
 11
95.9893398282198
 21
80.1393398282202
 31
0.0
  0
LINE
  5
138
330
1F
100
AcDbEntity
  8
1
  6
Continuous
 62
     3
100
AcDbLine
 10
110.0
 20
81.15
 30
0.0
 11
97.0
 21
81.15
 31
0.0
  0
LINE
  5
139
330
1F
100
AcDbEntity
  8
1
  6
Continuous
 62
     3
100
AcDbLine
 10
110.0
 20
48.25
 30
0.0
 11
110.0
 21
81.15
 31
0.0
  0
LINE
  5
13A
330
1F
100
AcDbEntity
  8
1
  6
Continuous
 62
     3
100
AcDbLine
 10
110.0
 20
48.25
 30
0.0
 11
97.0
 21
48.25
 31
0.0
  0
LINE
  5
13B
330
1F
100
AcDbEntity
  8
1
  6
Continuous
 62
     3
100
AcDbLine
 10
45.0713203435596
 20
49.7
 30
0.0
 11
45.5051025721682
 21
49.7
 31
0.0
  0
LINE
  5
13C
330
1F
100
AcDbEntity
  8
1
  6
Continuous
 62
     3
100
AcDbLine
 10
43.0
 20
48.25
 30
0.0
 11
44.0106601717798
 21
49.2606601717798
 31
0.0
  0
LINE
  5
13D
330
1F
100
AcDbEntity
  8
1
  6
Continuous
 62
     3
100
AcDbLine
 10
43.0
 20
81.15
 30
0.0
 11
44.0106601717798
 21
80.13933982822
 31
0.0
  0
LINE
  5
13E
330
1F
100
AcDbEntity
  8
1
  6
Continuous
 62
     3
100
AcDbLine
 10
45.0713203435596
 20
79.6999999999999
 30
0.0
 11
48.0
 21
79.7
 31
0.0
  0
LINE
  5
13F
330
1F
100
AcDbEntity
  8
1
  6
Continuous
 62
     3
100
AcDbLine
 10
43.0
 20
48.25
 30
0.0
 11
30.0
 21
48.25
 31
0.0
  0
LINE
  5
140
330
1F
100
AcDbEntity
  8
1
  6
Continuous
 62
     3
100
AcDbLine
 10
30.0
 20
81.15
 30
0.0
 11
30.0
 21
48.25
 31
0.0
  0
LINE
  5
141
330
1F
100
AcDbEntity
  8
1
  6
Continuous
 62
     3
100
AcDbLine
 10
43.0
 20
81.15
 30
0.0
 11
30.0
 21
81.15
 31
0.0
  0
LINE
  5
142
330
1F
100
AcDbEntity
  8
1
  6
Continuous
 62
     3
100
AcDbLine
 10
51.5
 20
89.5
 30
0.0
 11
51.5
 21
92.2
 31
0.0
  0
LINE
  5
143
330
1F
100
AcDbEntity
  8
1
  6
Continuous
 62
     3
100
AcDbLine
 10
88.5
 20
92.2
 30
0.0
 11
88.5
 21
89.5
 31
0.0
  0
LINE
  5
144
330
1F
100
AcDbEntity
  8
1
  6
Continuous
 62
     3
100
AcDbLine
 10
183.593989968607
 20
71.841428428543
 30
0.0
 11
183.593989968607
 21
82.463443373832
 31
0.0
  0
LINE
  5
145
330
1F
100
AcDbEntity
  8
1
  6
Continuous
 62
     3
100
AcDbLine
 10
223.593989968607
 20
71.841428428543
 30
0.0
 11
223.593989968607
 21
82.463443373832
 31
0.0
  0
LINE
  5
146
330
1F
100
AcDbEntity
  8
1
  6
Continuous
 62
     3
100
AcDbLine
 10
110.0
 20
244.829755927139
 30
0.0
 11
97.0
 21
244.829755927139
 31
0.0
  0
LINE
  5
147
330
1F
100
AcDbEntity
  8
1
  6
Continuous
 62
     3
100
AcDbLine
 10
110.0
 20
277.729755927139
 30
0.0
 11
97.0
 21
277.729755927139
 31
0.0
  0
LINE
  5
148
330
1F
100
AcDbEntity
  8
1
  6
Continuous
 62
     3
100
AcDbLine
 10
110.0
 20
244.829755927139
 30
0.0
 11
110.0
 21
277.729755927139
 31
0.0
  0
LINE
  5
149
330
1F
100
AcDbEntity
  8
1
  6
Continuous
 62
     3
100
AcDbLine
 10
43.0
 20
277.729755927139
 30
0.0
 11
30.0
 21
277.729755927139
 31
0.0
  0
LINE
  5
14A
330
1F
100
AcDbEntity
  8
1
  6
Continuous
 62
     3
100
AcDbLine
 10
30.0
 20
277.729755927139
 30
0.0
 11
30.0
 21
244.829755927139
 31
0.0
  0
LINE
  5
14B
330
1F
100
AcDbEntity
  8
1
  6
Continuous
 62
     3
100
AcDbLine
 10
43.0
 20
244.829755927139
 30
0.0
 11
30.0
 21
244.829755927139
 31
0.0
  0
LINE
  5
14C
330
1F
100
AcDbEntity
  8
1
  6
Continuous
 62
     3
100
AcDbLine
 10
30.0
 20
246.134255927139
 30
0.0
 11
42.2513317776558
 21
246.134255927139
 31
0.0
  0
LINE
  5
14D
330
1F
100
AcDbEntity
  8
1
  6
Continuous
 62
     3
100
AcDbLine
 10
43.0
 20
274.385106123884
 30
0.0
 11
43.0
 21
277.729755927139
 31
0.0
  0
LINE
  5
14E
330
1F
100
AcDbEntity
  8
1
  6
Continuous
 62
     3
100
AcDbLine
 10
43.0
 20
277.729755927139
 30
0.0
 11
44.0106601717798
 21
276.719095755359
 31
0.0
  0
LINE
  5
14F
330
1F
100
AcDbEntity
  8
1
  6
Continuous
 62
     3
100
AcDbLine
 10
45.0713203435596
 20
276.279755927139
 30
0.0
 11
45.8299757958886
 21
276.279755927139
 31
0.0
  0
LINE
  5
150
330
1F
100
AcDbEntity
  8
1
  6
Continuous
 62
     3
100
AcDbLine
 10
97.0
 20
274.385109183991
 30
0.0
 11
97.0
 21
277.729755927139
 31
0.0
  0
LINE
  5
151
330
1F
100
AcDbEntity
  8
1
  6
Continuous
 62
     3
100
AcDbLine
 10
97.0
 20
277.729755927139
 30
0.0
 11
95.9893398282198
 21
276.719095755359
 31
0.0
  0
LINE
  5
152
330
1F
100
AcDbEntity
  8
1
  6
Continuous
 62
     3
100
AcDbLine
 10
97.0
 20
245.780522060987
 30
0.0
 11
97.0
 21
244.829755927139
 31
0.0
  0
LINE
  5
153
330
1F
100
AcDbEntity
  8
1
  6
Continuous
 62
     3
100
AcDbLine
 10
43.0
 20
244.829755927139
 30
0.0
 11
43.6529321848623
 21
245.482688112002
 31
0.0
  0
LINE
  5
154
330
1F
100
AcDbEntity
  8
1
  6
Continuous
 62
     3
100
AcDbLine
 10
43.0
 20
245.774405730395
 30
0.0
 11
43.0
 21
244.829755927139
 31
0.0
  0
LINE
  5
155
330
1F
100
AcDbEntity
  8
1
  6
Continuous
 62
     3
100
AcDbLine
 10
94.92867965644
 20
79.7
 30
0.0
 11
92.0
 21
79.7
 31
0.0
  0
LINE
  5
156
330
1F
100
AcDbEntity
  8
1
  6
Continuous
 62
     3
100
AcDbLine
 10
97.0
 20
244.829755927139
 30
0.0
 11
96.3470704083322
 21
245.482685518807
 31
0.0
  0
LINE
  5
157
330
1F
100
AcDbEntity
  8
1
  6
Continuous
 62
     3
100
AcDbLine
 10
110.0
 20
246.134255927139
 30
0.0
 11
97.7486759859248
 21
246.134255927139
 31
0.0
  0
LINE
  5
158
330
1F
100
AcDbEntity
  8
1
  6
Continuous
 62
     3
100
AcDbLine
 10
94.92867965644
 20
276.279755927139
 30
0.0
 11
94.1700319676927
 21
276.279755927139
 31
0.0
  0
LINE
  5
159
330
1F
100
AcDbEntity
  8
4
  6
Continuous
 62
     3
100
AcDbLine
 10
88.5
 20
89.5
 30
0.0
 11
51.5
 21
89.5
 31
0.0
  0
LINE
  5
15A
330
1F
100
AcDbEntity
  8
4
  6
Continuous
 62
     3
100
AcDbLine
 10
222.093989968607
 20
89.5
 30
0.0
 11
185.093989968607
 21
89.5
 31
0.0
  0
LINE
  5
15B
330
1F
100
AcDbEntity
  8
1
  6
Continuous
 62
     3
100
AcDbLine
 10
183.093989968607
 20
87.5
 30
0.0
 11
185.093989968607
 21
89.5
 31
0.0
  0
LINE
  5
15C
330
1F
100
AcDbEntity
  8
1
  6
Continuous
 62
     3
100
AcDbLine
 10
224.093989968607
 20
87.5
 30
0.0
 11
222.093989968607
 21
89.5
 31
0.0
  0
LINE
  5
15D
330
1F
100
AcDbEntity
  8
1
  6
Continuous
 62
     3
100
AcDbLine
 10
183.093989968607
 20
83.7863190293641
 30
0.0
 11
183.093989968607
 21
87.5
 31
0.0
  0
LINE
  5
15E
330
1F
100
AcDbEntity
  8
1
  6
Continuous
 62
     3
100
AcDbLine
 10
224.093989968607
 20
83.786319029364
 30
0.0
 11
224.093989968607
 21
87.5
 31
0.0
  0
LINE
  5
15F
330
1F
100
AcDbEntity
  8
1
  6
Continuous
 62
     3
100
AcDbLine
 10
224.093989968607
 20
87.5
 30
0.0
 11
183.093989968607
 21
87.5
 31
0.0
  0
LINE
  5
160
330
1F
100
AcDbEntity
  8
1
  6
Continuous
 62
     3
100
AcDbLine
 10
183.093989968607
 20
83.7863190293641
 30
0.0
 11
224.093989968607
 21
83.786319029364
 31
0.0
  0
LINE
  5
161
330
1F
100
AcDbEntity
  8
1
  6
Continuous
 62
     3
100
AcDbLine
 10
90.5
 20
87.5
 30
0.0
 11
49.5
 21
87.5
 31
0.0
  0
LINE
  5
162
330
1F
100
AcDbEntity
  8
1
  6
Continuous
 62
     3
100
AcDbLine
 10
49.5000000000001
 20
83.7863190293641
 30
0.0
 11
90.5
 21
83.786319029364
 31
0.0
  0
LINE
  5
163
330
1F
100
AcDbEntity
  8
1
  6
Continuous
 62
     4
100
AcDbLine
 10
56.6037555750841
 20
16.1460421613918
 30
0.0
 11
56.9562400750841
 21
15.1460421613918
 31
0.0
  0
LINE
  5
164
330
1F
100
AcDbEntity
  8
1
  6
Continuous
 62
     4
100
AcDbLine
 10
55.9869077000841
 20
13.2710421613918
 30
0.0
 11
56.6037555750841
 21
12.3960421613918
 31
0.0
  0
LINE
  5
165
330
1F
100
AcDbEntity
  8
1
  6
Continuous
 62
     4
100
AcDbLine
 10
56.1631499500841
 20
6.77104216139183
 30
0.0
 11
56.9562400750841
 21
10.7710421613918
 31
0.0
  0
LINE
  5
166
330
1F
100
AcDbEntity
  8
1
  6
Continuous
 62
     4
100
AcDbLine
 10
57.5730879500841
 20
14.8960421613918
 30
0.0
 11
59.5117527000841
 21
14.8960421613918
 31
0.0
  0
LINE
  5
167
330
1F
100
AcDbEntity
  8
1
  6
Continuous
 62
     4
100
AcDbLine
 10
59.6879949500841
 20
16.3960421613918
 30
0.0
 11
59.6879949500841
 21
14.8960421613918
 31
0.0
  0
LINE
  5
168
330
1F
100
AcDbEntity
  8
1
  6
Continuous
 62
     4
100
AcDbLine
 10
59.5117527000841
 20
14.8960421613918
 30
0.0
 11
58.7186625750841
 21
12.3960421613918
 31
0.0
  0
LINE
  5
169
330
1F
100
AcDbEntity
  8
1
  6
Continuous
 62
     4
100
AcDbLine
 10
57.9255724500841
 20
12.3960421613918
 30
0.0
 11
60.9216907000841
 21
12.6460421613918
 31
0.0
  0
LINE
  5
16A
330
1F
100
AcDbEntity
  8
1
  6
Continuous
 62
     4
100
AcDbLine
 10
60.4810850750841
 20
13.8960421613918
 30
0.0
 11
61.2741752000841
 21
11.7710421613918
 31
0.0
  0
LINE
  5
16B
330
1F
100
AcDbEntity
  8
1
  6
Continuous
 62
     4
100
AcDbLine
 10
58.5424203250841
 20
10.7710421613918
 30
0.0
 11
58.3661780750841
 21
8.64604216139183
 31
0.0
  0
LINE
  5
16C
330
1F
100
AcDbEntity
  8
1
  6
Continuous
 62
     4
100
AcDbLine
 10
58.3661780750841
 20
8.64604216139183
 30
0.0
 11
58.1018147000841
 21
7.64604216139183
 31
0.0
  0
LINE
  5
16D
330
1F
100
AcDbEntity
  8
1
  6
Continuous
 62
     4
100
AcDbLine
 10
58.1018147000841
 20
7.64604216139183
 30
0.0
 11
57.7493302000841
 21
7.02104216139183
 31
0.0
  0
LINE
  5
16E
330
1F
100
AcDbEntity
  8
1
  6
Continuous
 62
     4
100
AcDbLine
 10
57.7493302000841
 20
7.02104216139183
 30
0.0
 11
57.1324823250841
 21
6.39604216139183
 31
0.0
  0
LINE
  5
16F
330
1F
100
AcDbEntity
  8
1
  6
Continuous
 62
     4
100
AcDbLine
 10
59.5117527000841
 20
6.77104216139183
 30
0.0
 11
59.5117527000841
 21
10.7710421613918
 31
0.0
  0
LINE
  5
170
330
1F
100
AcDbEntity
  8
1
  6
Continuous
 62
     4
100
AcDbLine
 10
60.6573273250841
 20
10.7710421613918
 30
0.0
 11
60.6573273250841
 21
7.64604216139183
 31
0.0
  0
LINE
  5
171
330
1F
100
AcDbEntity
  8
1
  6
Continuous
 62
     4
100
AcDbLine
 10
60.6573273250841
 20
7.64604216139183
 30
0.0
 11
61.0979329500841
 21
6.77104216139183
 31
0.0
  0
LINE
  5
172
330
1F
100
AcDbEntity
  8
1
  6
Continuous
 62
     4
100
AcDbLine
 10
61.0979329500841
 20
6.77104216139183
 30
0.0
 11
61.8910230750841
 21
6.77104216139183
 31
0.0
  0
LINE
  5
173
330
1F
100
AcDbEntity
  8
1
  6
Continuous
 62
     4
100
AcDbLine
 10
61.8910230750841
 20
6.77104216139183
 30
0.0
 11
62.2435075750841
 21
7.39604216139183
 31
0.0
  0
LINE
  5
174
330
1F
100
AcDbEntity
  8
1
  6
Continuous
 62
     4
100
AcDbLine
 10
62.2435075750841
 20
7.39604216139183
 30
0.0
 11
62.2435075750841
 21
8.02104216139183
 31
0.0
  0
LINE
  5
175
330
1F
100
AcDbEntity
  8
1
  6
Continuous
 62
     4
100
AcDbLine
 10
59.5117527000841
 20
14.8960421613918
 30
0.0
 11
61.8910230750841
 21
14.8960421613918
 31
0.0
  0
LINE
  5
176
330
1F
100
AcDbEntity
  8
1
  6
Continuous
 62
     4
100
AcDbLine
 10
63.3890822000841
 20
8.02104216139183
 30
0.0
 11
64.1821723250841
 21
9.27104216139183
 31
0.0
  0
LINE
  5
177
330
1F
100
AcDbEntity
  8
1
  6
Continuous
 62
     4
100
AcDbLine
 10
64.1821723250841
 20
9.27104216139183
 30
0.0
 11
64.9752624500841
 21
11.1460421613918
 31
0.0
  0
LINE
  5
178
330
1F
100
AcDbEntity
  8
1
  6
Continuous
 62
     4
100
AcDbLine
 10
64.9752624500841
 20
11.1460421613918
 30
0.0
 11
65.4158680750841
 21
13.0210421613918
 31
0.0
  0
LINE
  5
179
330
1F
100
AcDbEntity
  8
1
  6
Continuous
 62
     4
100
AcDbLine
 10
65.4158680750841
 20
13.0210421613918
 30
0.0
 11
63.3890822000841
 21
13.0210421613918
 31
0.0
  0
LINE
  5
17A
330
1F
100
AcDbEntity
  8
1
  6
Continuous
 62
     4
100
AcDbLine
 10
66.3852004500841
 20
16.1460421613918
 30
0.0
 11
66.3852004500841
 21
6.39604216139183
 31
0.0
  0
LINE
  5
17B
330
1F
100
AcDbEntity
  8
1
  6
Continuous
 62
     4
100
AcDbLine
 10
66.3852004500841
 20
6.39604216139183
 30
0.0
 11
65.7683525750841
 21
6.77104216139183
 31
0.0
  0
LINE
  5
17C
330
1F
100
AcDbEntity
  8
1
  6
Continuous
 62
     4
100
AcDbLine
 10
68.6763497000841
 20
13.8960421613918
 30
0.0
 11
67.3545328250841
 21
12.3960421613918
 31
0.0
  0
LINE
  5
17D
330
1F
100
AcDbEntity
  8
1
  6
Continuous
 62
     4
100
AcDbLine
 10
66.9139272000841
 20
13.6460421613918
 30
0.0
 11
67.5307750750841
 21
11.3960421613918
 31
0.0
  0
LINE
  5
17E
330
1F
100
AcDbEntity
  8
1
  6
Continuous
 62
     4
100
AcDbLine
 10
67.5307750750841
 20
11.3960421613918
 30
0.0
 11
68.3238652000841
 21
9.52104216139183
 31
0.0
  0
LINE
  5
17F
330
1F
100
AcDbEntity
  8
1
  6
Continuous
 62
     4
100
AcDbLine
 10
68.3238652000841
 20
9.52104216139183
 30
0.0
 11
69.2931975750841
 21
8.02104216139183
 31
0.0
  0
LINE
  5
180
330
1F
100
AcDbEntity
  8
1
  6
Continuous
 62
     4
100
AcDbLine
 10
70.7031355750841
 20
6.77104216139183
 30
0.0
 11
71.4962257000841
 21
8.02104216139183
 31
0.0
  0
LINE
  5
181
330
1F
100
AcDbEntity
  8
1
  6
Continuous
 62
     4
100
AcDbLine
 10
71.4962257000841
 20
8.02104216139183
 30
0.0
 11
72.0249524500841
 21
9.52104216139183
 31
0.0
  0
LINE
  5
182
330
1F
100
AcDbEntity
  8
1
  6
Continuous
 62
     4
100
AcDbLine
 10
72.0249524500841
 20
9.52104216139183
 30
0.0
 11
72.4655580750841
 21
11.1460421613918
 31
0.0
  0
LINE
  5
183
330
1F
100
AcDbEntity
  8
1
  6
Continuous
 62
     4
100
AcDbLine
 10
72.4655580750841
 20
11.1460421613918
 30
0.0
 11
72.8180425750841
 21
13.6460421613918
 31
0.0
  0
LINE
  5
184
330
1F
100
AcDbEntity
  8
1
  6
Continuous
 62
     4
100
AcDbLine
 10
72.8180425750841
 20
13.6460421613918
 30
0.0
 11
72.9942848250841
 21
16.1460421613918
 31
0.0
  0
LINE
  5
185
330
1F
100
AcDbEntity
  8
1
  6
Continuous
 62
     4
100
AcDbLine
 10
70.2625299500841
 20
14.5210421613918
 30
0.0
 11
76.1666453250841
 21
14.5210421613918
 31
0.0
  0
LINE
  5
186
330
1F
100
AcDbEntity
  8
1
  6
Continuous
 62
     4
100
AcDbLine
 10
72.6418003250841
 20
12.0210421613918
 30
0.0
 11
75.1973129500841
 21
12.0210421613918
 31
0.0
  0
LINE
  5
187
330
1F
100
AcDbEntity
  8
1
  6
Continuous
 62
     4
100
AcDbLine
 10
75.1973129500841
 20
12.0210421613918
 30
0.0
 11
75.1973129500841
 21
11.1460421613918
 31
0.0
  0
LINE
  5
188
330
1F
100
AcDbEntity
  8
1
  6
Continuous
 62
     4
100
AcDbLine
 10
75.1973129500841
 20
11.1460421613918
 30
0.0
 11
74.7567073250841
 21
8.89604216139183
 31
0.0
  0
LINE
  5
189
330
1F
100
AcDbEntity
  8
1
  6
Continuous
 62
     4
100
AcDbLine
 10
74.7567073250841
 20
8.89604216139183
 30
0.0
 11
74.4042228250841
 21
7.39604216139183
 31
0.0
  0
LINE
  5
18A
330
1F
100
AcDbEntity
  8
1
  6
Continuous
 62
     4
100
AcDbLine
 10
74.4042228250841
 20
7.39604216139183
 30
0.0
 11
73.9636172000841
 21
6.39604216139183
 31
0.0
  0
LINE
  5
18B
330
1F
100
AcDbEntity
  8
1
  6
Continuous
 62
     4
100
AcDbLine
 10
73.9636172000841
 20
6.39604216139183
 30
0.0
 11
73.2586482000841
 21
7.02104216139183
 31
0.0
  0
LINE
  5
18C
330
1F
100
AcDbEntity
  8
1
  6
Continuous
 62
     4
100
AcDbLine
 10
77.7528255750841
 20
6.77104216139183
 30
0.0
 11
77.7528255750841
 21
14.2710421613918
 31
0.0
  0
LINE
  5
18D
330
1F
100
AcDbEntity
  8
1
  6
Continuous
 62
     4
100
AcDbLine
 10
77.7528255750841
 20
14.2710421613918
 30
0.0
 11
78.7221579500841
 21
14.2710421613918
 31
0.0
  0
LINE
  5
18E
330
1F
100
AcDbEntity
  8
1
  6
Continuous
 62
     4
100
AcDbLine
 10
82.7757297000841
 20
14.2710421613918
 30
0.0
 11
82.7757297000841
 21
6.77104216139183
 31
0.0
  0
LINE
  5
18F
330
1F
100
AcDbEntity
  8
1
  6
Continuous
 62
     4
100
AcDbLine
 10
82.7757297000841
 20
6.77104216139183
 30
0.0
 11
81.8063973250841
 21
6.77104216139183
 31
0.0
  0
LINE
  5
190
330
1F
100
AcDbEntity
  8
1
  6
Continuous
 62
     4
100
AcDbLine
 10
79.5152480750841
 20
9.52104216139183
 30
0.0
 11
79.5152480750841
 21
12.0210421613918
 31
0.0
  0
LINE
  5
191
330
1F
100
AcDbEntity
  8
1
  6
Continuous
 62
     4
100
AcDbLine
 10
79.5152480750841
 20
12.0210421613918
 30
0.0
 11
81.0133072000841
 21
12.0210421613918
 31
0.0
  0
LINE
  5
192
330
1F
100
AcDbEntity
  8
1
  6
Continuous
 62
     4
100
AcDbLine
 10
81.0133072000841
 20
12.0210421613918
 30
0.0
 11
81.0133072000841
 21
9.52104216139183
 31
0.0
  0
LINE
  5
193
330
1F
100
AcDbEntity
  8
1
  6
Continuous
 62
     4
100
AcDbLine
 10
81.0133072000841
 20
9.52104216139183
 30
0.0
 11
79.5152480750841
 21
9.52104216139183
 31
0.0
  0
LINE
  5
194
330
1F
100
AcDbEntity
  8
1
  6
Continuous
 62
     4
100
AcDbLine
 10
78.7221579500841
 20
14.2710421613918
 30
0.0
 11
79.6914903250841
 21
16.1460421613918
 31
0.0
  0
LINE
  5
195
330
1F
100
AcDbEntity
  8
1
  6
Continuous
 62
     4
100
AcDbLine
 10
78.7221579500841
 20
14.2710421613918
 30
0.0
 11
82.7757297000841
 21
14.2710421613918
 31
0.0
  0
LINE
  5
196
330
1F
100
AcDbEntity
  8
1
  6
Continuous
 62
     4
100
AcDbLine
 10
84.5381522000841
 20
11.3960421613918
 30
0.0
 11
89.8254197000841
 21
11.3960421613918
 31
0.0
  0
LINE
  5
197
330
1F
100
AcDbEntity
  8
1
  6
Continuous
 62
     4
100
AcDbLine
 10
89.1204507000841
 20
12.6460421613918
 30
0.0
 11
89.8254197000841
 21
11.3960421613918
 31
0.0
  0
LINE
  5
198
330
1F
100
AcDbEntity
  8
1
  6
Continuous
 62
     4
100
AcDbLine
 10
89.8254197000841
 20
11.3960421613918
 30
0.0
 11
89.1204507000841
 21
10.1460421613918
 31
0.0
  0
ARC
  5
1A3
330
1F
100
AcDbEntity
  8
4
  6
Continuous
 62
     3
100
AcDbCircle
 10
70.5287199774556
 20
94.5516910788263
 30
0.0
 40
69.99999999999952
100
AcDbArc
 50
69.44454780460542
 51
79.75792041555182
  0
ARC
  5
1A4
330
1F
100
AcDbEntity
  8
4
  6
Continuous
 62
     3
100
AcDbCircle
 10
93.0
 20
154.476991029251
 30
0.0
 40
6.0
100
AcDbArc
 50
0.0
 51
69.444547804604
  0
ARC
  5
1A5
330
1F
100
AcDbEntity
  8
4
  6
Continuous
 62
     3
100
AcDbCircle
 10
47.0
 20
154.476991029251
 30
0.0
 40
6.000000000000548
100
AcDbArc
 50
110.55545219539
 51
180.0
  0
ARC
  5
1A6
330
1F
100
AcDbEntity
  8
4
  6
Continuous
 62
     3
100
AcDbCircle
 10
69.4712800225444
 20
94.5516910788263
 30
0.0
 40
70.0000000000002
100
AcDbArc
 50
100.242079584448
 51
110.5554521953941
  0
ARC
  5
1A7
330
1F
100
AcDbEntity
  8
4
  6
Continuous
 62
     3
100
AcDbCircle
 10
77.5857864376269
 20
132.2
 30
0.0
 40
1.000000000000299
100
AcDbArc
 50
45.00000000002015
 51
90.0
  0
ARC
  5
1A8
330
1F
100
AcDbEntity
  8
4
  6
Continuous
 62
     3
100
AcDbCircle
 10
79.4142135623731
 20
133.2
 30
0.0
 40
0.999999999999576
100
AcDbArc
 50
224.9999999999787
 51
270.0
  0
ARC
  5
1A9
330
1F
100
AcDbEntity
  8
4
  6
Continuous
 62
     3
100
AcDbCircle
 10
60.5857864376269
 20
133.2
 30
0.0
 40
1.0
100
AcDbArc
 50
270.0
 51
315.0000000000331
  0
ARC
  5
1AA
330
1F
100
AcDbEntity
  8
4
  6
Continuous
 62
     3
100
AcDbCircle
 10
62.4142135623731
 20
132.2
 30
0.0
 40
1.0
100
AcDbArc
 50
90.0
 51
134.9999999999712
  0
ARC
  5
1AB
330
1F
100
AcDbEntity
  8
4
  6
Continuous
 62
     3
100
AcDbCircle
 10
82.2640158101046
 20
159.5
 30
0.0
 40
3.999999999999213
100
AcDbArc
 50
79.7579204155496
 51
90.0
  0
ARC
  5
1AC
330
1F
100
AcDbEntity
  8
4
  6
Continuous
 62
     3
100
AcDbCircle
 10
57.7359841898954
 20
159.5
 30
0.0
 40
4.0
100
AcDbArc
 50
90.0
 51
100.2420795844479
  0
ARC
  5
1AD
330
1F
100
AcDbEntity
  8
4
  6
DOTTED
 62
     6
100
AcDbCircle
 10
70.5287199774556
 20
85.5516910788263
 30
0.0
 40
69.99999999999952
100
AcDbArc
 50
69.44454780460542
 51
79.75792041555182
  0
ARC
  5
1AE
330
1F
100
AcDbEntity
  8
4
  6
DOTTED
 62
     6
100
AcDbCircle
 10
93.0
 20
145.476991029251
 30
0.0
 40
6.0
100
AcDbArc
 50
0.0
 51
69.444547804604
  0
ARC
  5
1AF
330
1F
100
AcDbEntity
  8
4
  6
DOTTED
 62
     6
100
AcDbCircle
 10
47.0
 20
145.476991029251
 30
0.0
 40
6.000000000000548
100
AcDbArc
 50
110.55545219539
 51
180.0
  0
ARC
  5
1B0
330
1F
100
AcDbEntity
  8
4
  6
DOTTED
 62
     6
100
AcDbCircle
 10
69.4712800225444
 20
85.5516910788263
 30
0.0
 40
70.0000000000002
100
AcDbArc
 50
100.242079584448
 51
110.5554521953941
  0
ARC
  5
1B1
330
1F
100
AcDbEntity
  8
4
  6
DOTTED
 62
     6
100
AcDbCircle
 10
57.7359841898954
 20
150.5
 30
0.0
 40
4.0
100
AcDbArc
 50
90.0
 51
100.2420795844479
  0
ARC
  5
1B2
330
1F
100
AcDbEntity
  8
4
  6
DOTTED
 62
     6
100
AcDbCircle
 10
82.2640158101046
 20
150.5
 30
0.0
 40
3.999999999999213
100
AcDbArc
 50
79.7579204155496
 51
90.0
  0
ARC
  5
1B3
330
1F
100
AcDbEntity
  8
4
  6
Continuous
 62
     3
100
AcDbCircle
 10
191.329974158502
 20
159.5
 30
0.0
 40
4.0
100
AcDbArc
 50
90.0
 51
100.2420795844395
  0
ARC
  5
1B4
330
1F
100
AcDbEntity
  8
4
  6
Continuous
 62
     3
100
AcDbCircle
 10
215.858005778712
 20
159.5
 30
0.0
 40
3.999999999999106
100
AcDbArc
 50
79.75792041555802
 51
90.0
  0
ARC
  5
1B5
330
1F
100
AcDbEntity
  8
4
  6
Continuous
 62
     3
100
AcDbCircle
 10
196.00820353098
 20
132.2
 30
0.0
 40
1.0
100
AcDbArc
 50
90.0
 51
134.9999999999597
  0
ARC
  5
1B6
330
1F
100
AcDbEntity
  8
4
  6
Continuous
 62
     3
100
AcDbCircle
 10
194.179776406234
 20
133.2
 30
0.0
 40
1.0
100
AcDbArc
 50
270.0
 51
315.0000000000415
  0
ARC
  5
1B7
330
1F
100
AcDbEntity
  8
4
  6
Continuous
 62
     3
100
AcDbCircle
 10
213.00820353098
 20
133.2
 30
0.0
 40
0.9999999999992243
100
AcDbArc
 50
224.9999999999988
 51
270.0
  0
ARC
  5
1B8
330
1F
100
AcDbEntity
  8
4
  6
Continuous
 62
     3
100
AcDbCircle
 10
211.179776406234
 20
132.2
 30
0.0
 40
0.9999999999999477
100
AcDbArc
 50
45.00000000004031
 51
90.0
  0
ARC
  5
1B9
330
1F
100
AcDbEntity
  8
4
  6
Continuous
 62
     3
100
AcDbCircle
 10
203.065269991151
 20
94.5516910788263
 30
0.0
 40
70.00000000000009
100
AcDbArc
 50
100.2420795844475
 51
110.5554521953935
  0
ARC
  5
1BA
330
1F
100
AcDbEntity
  8
4
  6
Continuous
 62
     3
100
AcDbCircle
 10
180.593989968607
 20
154.476991029251
 30
0.0
 40
6.000000000000439
100
AcDbArc
 50
110.5554521953872
 51
180.0
  0
ARC
  5
1BB
330
1F
100
AcDbEntity
  8
4
  6
Continuous
 62
     3
100
AcDbCircle
 10
226.593989968607
 20
154.476991029251
 30
0.0
 40
6.0
100
AcDbArc
 50
0.0
 51
69.44454780460921
  0
ARC
  5
1BC
330
1F
100
AcDbEntity
  8
4
  6
Continuous
 62
     3
100
AcDbCircle
 10
204.122709946063
 20
94.5516910788263
 30
0.0
 40
69.99999999999916
100
AcDbArc
 50
69.44454780460619
 51
79.75792041555232
  0
ARC
  5
1BD
330
1F
100
AcDbEntity
  8
100
  6
Continuous
 62
     3
100
AcDbCircle
 10
72.809247488035
 20
288.440964476155
 30
0.0
 40
3.000000000000386
100
AcDbArc
 50
38.36848299940621
 51
84.34317214826795
  0
ARC
  5
1BE
330
1F
100
AcDbEntity
  8
100
  6
Continuous
 62
     3
100
AcDbCircle
 10
67.1907602755459
 20
288.440964476155
 30
0.0
 40
3.00000000000041
100
AcDbArc
 50
95.65682785173017
 51
141.6315170005995
  0
ARC
  5
1BF
330
1F
100
AcDbEntity
  8
100
  6
Continuous
 62
     3
100
AcDbCircle
 10
55.602429578279
 20
284.675687586153
 30
0.0
 40
2.999999999999898
100
AcDbArc
 50
74.36848299941053
 51
120.343172148267
  0
ARC
  5
1C0
330
1F
100
AcDbEntity
  8
100
  6
Continuous
 62
     3
100
AcDbCircle
 10
51.056977940696
 20
281.373223662458
 30
0.0
 40
2.999999999999688
100
AcDbArc
 50
131.6568278517305
 51
177.6315170006158
  0
ARC
  5
1C1
330
1F
100
AcDbEntity
  8
100
  6
Continuous
 62
     3
100
AcDbCircle
 10
43.894995696912
 20
271.515600787377
 30
0.0
 40
3.000000000000421
100
AcDbArc
 50
110.3684829994014
 51
156.3431721482727
  0
ARC
  5
1C2
330
1F
100
AcDbEntity
  8
100
  6
Continuous
 62
     3
100
AcDbCircle
 10
42.158787665574
 20
266.172101912218
 30
0.0
 40
3.000000000000082
100
AcDbArc
 50
167.6568278517429
 51
213.6315170006106
  0
ARC
  5
1C3
330
1F
100
AcDbEntity
  8
100
  6
Continuous
 62
     3
100
AcDbCircle
 10
42.158787665574
 20
253.987409942061
 30
0.0
 40
2.999999999999722
100
AcDbArc
 50
146.3684829994052
 51
192.3431721482781
  0
ARC
  5
1C4
330
1F
100
AcDbEntity
  8
100
  6
Continuous
 62
     3
100
AcDbCircle
 10
43.894995696912
 20
248.643911066902
 30
0.0
 40
3.000000000000251
100
AcDbArc
 50
203.6568278517298
 51
249.6315170005974
  0
ARC
  5
1C5
330
1F
100
AcDbEntity
  8
100
  6
Continuous
 62
     3
100
AcDbCircle
 10
51.056977940696
 20
238.786288191821
 30
0.0
 40
2.999999999999457
100
AcDbArc
 50
182.3684829994037
 51
228.3431721482748
  0
ARC
  5
1C6
330
1F
100
AcDbEntity
  8
100
  6
Continuous
 62
     3
100
AcDbCircle
 10
55.602429578279
 20
235.483824268126
 30
0.0
 40
3.000000000000006
100
AcDbArc
 50
239.6568278517327
 51
285.6315170005982
  0
ARC
  5
1C7
330
1F
100
AcDbEntity
  8
100
  6
Continuous
 62
     3
100
AcDbCircle
 10
67.1907602755459
 20
231.718547378123
 30
0.0
 40
2.999999999999739
100
AcDbArc
 50
218.368482999391
 51
264.3431721482679
  0
ARC
  5
1C8
330
1F
100
AcDbEntity
  8
100
  6
Continuous
 62
     3
100
AcDbCircle
 10
72.809247488035
 20
231.718547378123
 30
0.0
 40
2.999999999999402
100
AcDbArc
 50
275.656827851734
 51
321.6315170006127
  0
ARC
  5
1C9
330
1F
100
AcDbEntity
  8
100
  6
Continuous
 62
     3
100
AcDbCircle
 10
84.3975781853019
 20
235.483824268126
 30
0.0
 40
2.999999999999926
100
AcDbArc
 50
254.3684829994107
 51
300.3431721482673
  0
ARC
  5
1CA
330
1F
100
AcDbEntity
  8
100
  6
Continuous
 62
     3
100
AcDbCircle
 10
88.943029822884
 20
238.786288191821
 30
0.0
 40
2.999999999999997
100
AcDbArc
 50
311.6568278517379
 51
357.6315170005975
  0
ARC
  5
1CB
330
1F
100
AcDbEntity
  8
100
  6
Continuous
 62
     3
100
AcDbCircle
 10
97.8412200980069
 20
253.987409942061
 30
0.0
 40
3.0000000000001
100
AcDbArc
 50
347.6568278517235
 51
33.63151700059384
  0
ARC
  5
1CC
330
1F
100
AcDbEntity
  8
100
  6
Continuous
 62
     3
100
AcDbCircle
 10
97.8412200980069
 20
266.172101912218
 30
0.0
 40
3.00000000000035
100
AcDbArc
 50
326.3684829993903
 51
12.3431721482579
  0
ARC
  5
1CD
330
1F
100
AcDbEntity
  8
100
  6
Continuous
 62
     3
100
AcDbCircle
 10
96.1050120666689
 20
271.515600787377
 30
0.0
 40
3.000000000000222
100
AcDbArc
 50
23.65682785172886
 51
69.63151700061302
  0
ARC
  5
1CE
330
1F
100
AcDbEntity
  8
100
  6
Continuous
 62
     3
100
AcDbCircle
 10
88.943029822884
 20
281.373223662458
 30
0.0
 40
3.000000000000417
100
AcDbArc
 50
2.36848299938392
 51
48.34317214825531
  0
ARC
  5
1CF
330
1F
100
AcDbEntity
  8
100
  6
Continuous
 62
     3
100
AcDbCircle
 10
84.3975781853019
 20
284.675687586153
 30
0.0
 40
3.000000000000282
100
AcDbArc
 50
59.65682785172481
 51
105.6315170005895
  0
ARC
  5
1D0
330
1F
100
AcDbEntity
  8
100
  6
Continuous
 62
     3
100
AcDbCircle
 10
70.00000388179
 20
260.079755927139
 30
0.0
 40
31.50000000000072
100
AcDbArc
 50
12.34317214827016
 51
17.99999999999989
  0
ARC
  5
1D1
330
1F
100
AcDbEntity
  8
100
  6
Continuous
 62
     3
100
AcDbCircle
 10
70.00000388179
 20
260.079755927139
 30
0.0
 40
31.5000000000004
100
AcDbArc
 50
336.3431721482717
 51
347.6568278517299
  0
ARC
  5
1D2
330
1F
100
AcDbEntity
  8
100
  6
Continuous
 62
     3
100
AcDbCircle
 10
70.00000388179
 20
260.079755927139
 30
0.0
 40
31.49999999999972
100
AcDbArc
 50
300.3431721482712
 51
311.6568278517308
  0
ARC
  5
1D3
330
1F
100
AcDbEntity
  8
100
  6
Continuous
 62
     3
100
AcDbCircle
 10
70.00000388179
 20
260.079755927139
 30
0.0
 40
31.49999999999942
100
AcDbArc
 50
264.3431721482715
 51
275.6568278517304
  0
ARC
  5
1D4
330
1F
100
AcDbEntity
  8
100
  6
Continuous
 62
     3
100
AcDbCircle
 10
70.00000388179
 20
260.079755927139
 30
0.0
 40
31.49999999999919
100
AcDbArc
 50
228.3431721482704
 51
239.6568278517303
  0
ARC
  5
1D5
330
1F
100
AcDbEntity
  8
100
  6
Continuous
 62
     3
100
AcDbCircle
 10
70.00000388179
 20
260.079755927139
 30
0.0
 40
31.49999999999944
100
AcDbArc
 50
192.3431721482706
 51
203.656827851729
  0
ARC
  5
1D6
330
1F
100
AcDbEntity
  8
100
  6
Continuous
 62
     3
100
AcDbCircle
 10
70.00000388179
 20
260.079755927139
 30
0.0
 40
31.50000000000006
100
AcDbArc
 50
156.3431721482694
 51
167.6568278517296
  0
ARC
  5
1D7
330
1F
100
AcDbEntity
  8
100
  6
Continuous
 62
     3
100
AcDbCircle
 10
70.00000388179
 20
260.079755927139
 30
0.0
 40
31.50000000000017
100
AcDbArc
 50
120.3431721482688
 51
131.6568278517289
  0
ARC
  5
1D8
330
1F
100
AcDbEntity
  8
100
  6
Continuous
 62
     3
100
AcDbCircle
 10
70.00000388179
 20
260.079755927139
 30
0.0
 40
31.50000000000054
100
AcDbArc
 50
84.34317214826983
 51
95.65682785172835
  0
ARC
  5
1D9
330
1F
100
AcDbEntity
  8
100
  6
Continuous
 62
     3
100
AcDbCircle
 10
70.00000388179
 20
260.079755927139
 30
0.0
 40
31.5000000000009
100
AcDbArc
 50
48.34317214826977
 51
59.65682785172902
  0
ARC
  5
1DA
330
1F
100
AcDbEntity
  8
100
  6
Continuous
 62
     3
100
AcDbCircle
 10
70.00000388179
 20
260.079755927139
 30
0.0
 40
31.50000000000069
100
AcDbArc
 50
17.99999999999989
 51
23.65682785173004
  0
ARC
  5
1DB
330
1F
100
AcDbEntity
  8
100
  6
Continuous
 62
     3
100
AcDbCircle
 10
40.0663750899169
 20
281.827810261961
 30
0.0
 40
7.999999999999915
100
AcDbArc
 50
290.3684829994049
 51
357.6315170005939
  0
ARC
  5
1DC
330
1F
100
AcDbEntity
  8
100
  6
Continuous
 62
     3
100
AcDbCircle
 10
33.00000388179
 20
260.079755927139
 30
0.0
 40
8.000000000000314
100
AcDbArc
 50
326.3684829994023
 51
33.63151700059786
  0
ARC
  5
1DD
330
1F
100
AcDbEntity
  8
100
  6
Continuous
 62
     3
100
AcDbCircle
 10
40.0663750899169
 20
238.331701592318
 30
0.0
 40
8.000000000000604
100
AcDbArc
 50
2.3684829993984
 51
69.63151700059554
  0
ARC
  5
1DE
330
1F
100
AcDbEntity
  8
100
  6
Continuous
 62
     3
100
AcDbCircle
 10
58.5663750899169
 20
224.890664824219
 30
0.0
 40
8.000000000000421
100
AcDbArc
 50
38.3684829993971
 51
105.6315170005955
  0
ARC
  5
1DF
330
1F
100
AcDbEntity
  8
100
  6
Continuous
 62
     3
100
AcDbCircle
 10
81.4336326736639
 20
224.890664824219
 30
0.0
 40
7.999999999999864
100
AcDbArc
 50
74.36848299940053
 51
141.6315170006011
  0
ARC
  5
1E0
330
1F
100
AcDbEntity
  8
100
  6
Continuous
 62
     3
100
AcDbCircle
 10
99.9336326736639
 20
238.331701592318
 30
0.0
 40
7.999999999999923
100
AcDbArc
 50
110.3684829994057
 51
177.6315170006014
  0
ARC
  5
1E1
330
1F
100
AcDbEntity
  8
100
  6
Continuous
 62
     3
100
AcDbCircle
 10
107.00000388179
 20
260.079755927139
 30
0.0
 40
7.999999999999496
100
AcDbArc
 50
146.3684829993982
 51
213.6315170006016
  0
ARC
  5
1E2
330
1F
100
AcDbEntity
  8
100
  6
Continuous
 62
     3
100
AcDbCircle
 10
99.9336326736639
 20
281.827810261961
 30
0.0
 40
8.00000000000044
100
AcDbArc
 50
182.368482999406
 51
249.6315170005904
  0
ARC
  5
1E3
330
1F
100
AcDbEntity
  8
100
  6
Continuous
 62
     3
100
AcDbCircle
 10
81.4336326736639
 20
295.26884703006
 30
0.0
 40
8.000000000000314
100
AcDbArc
 50
218.3684829993974
 51
285.6315170005995
  0
ARC
  5
1E4
330
1F
100
AcDbEntity
  8
100
  6
Continuous
 62
     3
100
AcDbCircle
 10
58.5663750899169
 20
295.26884703006
 30
0.0
 40
7.999999999999837
100
AcDbArc
 50
254.3684829994012
 51
321.6315170006009
  0
ARC
  5
1E5
330
1F
100
AcDbEntity
  8
100
  6
Continuous
 62
     3
100
AcDbCircle
 10
96.1050120666689
 20
248.643911066902
 30
0.0
 40
3.000000000000376
100
AcDbArc
 50
290.3684829993975
 51
336.3431721482709
  0
ARC
  5
1E6
330
1F
100
AcDbEntity
  8
1
  6
Continuous
 62
     3
100
AcDbCircle
 10
48.0
 20
81.7
 30
0.0
 40
2.0
100
AcDbArc
 50
270.0
 51
0.0
  0
ARC
  5
1E7
330
1F
100
AcDbEntity
  8
1
  6
Continuous
 62
     3
100
AcDbCircle
 10
48.0
 20
82.463443373832
 30
0.0
 40
2.0
100
AcDbArc
 50
0.0
 51
41.4096221092645
  0
ARC
  5
1E8
330
1F
100
AcDbEntity
  8
1
  6
Continuous
 62
     3
100
AcDbCircle
 10
92.0
 20
81.7
 30
0.0
 40
2.0
100
AcDbArc
 50
180.0
 51
270.0
  0
ARC
  5
1E9
330
1F
100
AcDbEntity
  8
1
  6
Continuous
 62
     3
100
AcDbCircle
 10
92.0
 20
82.463443373832
 30
0.0
 40
1.999999999999796
100
AcDbArc
 50
138.5903778907358
 51
180.0
  0
ARC
  5
1EA
330
1F
100
AcDbEntity
  8
1
  6
Continuous
 62
     3
100
AcDbCircle
 10
181.593989968607
 20
82.463443373832
 30
0.0
 40
2.0
100
AcDbArc
 50
0.0
 51
41.40962210926639
  0
ARC
  5
1EB
330
1F
100
AcDbEntity
  8
1
  6
Continuous
 62
     3
100
AcDbCircle
 10
225.593989968607
 20
82.463443373832
 30
0.0
 40
1.999999999999796
100
AcDbArc
 50
138.5903778907358
 51
180.0
  0
ARC
  5
1EC
330
1F
100
AcDbEntity
  8
1
  6
Continuous
 62
     3
100
AcDbCircle
 10
94.494897427832
 20
46.7
 30
0.0
 40
3.0
100
AcDbArc
 50
90.0
 51
117.5270852878782
  0
ARC
  5
1ED
330
1F
100
AcDbEntity
  8
1
  6
Continuous
 62
     3
100
AcDbCircle
 10
94.92867965644
 20
48.2
 30
0.0
 40
1.500000000000107
100
AcDbArc
 50
44.99999999999444
 51
90.0
  0
ARC
  5
1EE
330
1F
100
AcDbEntity
  8
1
  6
Continuous
 62
     3
100
AcDbCircle
 10
94.92867965644
 20
81.2
 30
0.0
 40
1.5
100
AcDbArc
 50
270.0
 51
315.0
  0
ARC
  5
1EF
330
1F
100
AcDbEntity
  8
1
  6
Continuous
 62
     3
100
AcDbCircle
 10
45.5051025721682
 20
46.7
 30
0.0
 40
2.999999999999948
100
AcDbArc
 50
62.47291471213646
 51
90.0
  0
ARC
  5
1F0
330
1F
100
AcDbEntity
  8
1
  6
Continuous
 62
     3
100
AcDbCircle
 10
45.0713203435596
 20
48.2
 30
0.0
 40
1.5
100
AcDbArc
 50
90.0
 51
135.0000000000002
  0
ARC
  5
1F1
330
1F
100
AcDbEntity
  8
1
  6
Continuous
 62
     3
100
AcDbCircle
 10
45.0713203435596
 20
81.2
 30
0.0
 40
1.500000000000113
100
AcDbArc
 50
225.0000000000053
 51
270.0
  0
ARC
  5
1F2
330
1F
100
AcDbEntity
  8
1
  6
Continuous
 62
     3
100
AcDbCircle
 10
70.0
 20
93.7
 30
0.0
 40
50.00000000000006
100
AcDbArc
 50
242.4729147121329
 51
297.5270852878664
  0
ARC
  5
1F3
330
1F
100
AcDbEntity
  8
1
  6
Continuous
 62
     3
100
AcDbCircle
 10
228.593989968607
 20
71.841428428543
 30
0.0
 40
5.0
100
AcDbArc
 50
180.0
 51
195.9423686056349
  0
ARC
  5
1F4
330
1F
100
AcDbEntity
  8
1
  6
Continuous
 62
     3
100
AcDbCircle
 10
178.593989968607
 20
71.841428428543
 30
0.0
 40
4.999999999999816
100
AcDbArc
 50
344.0576313943662
 51
0.0
  0
ARC
  5
1F5
330
1F
100
AcDbEntity
  8
1
  6
Continuous
 62
     3
100
AcDbCircle
 10
203.593989968607
 20
64.7
 30
0.0
 40
21.00000000000022
100
AcDbArc
 50
164.0576313943722
 51
15.94236860562752
  0
ARC
  5
1F6
330
1F
100
AcDbEntity
  8
1
  6
Continuous
 62
     3
100
AcDbCircle
 10
45.0713203435596
 20
277.779755927139
 30
0.0
 40
1.500000000000113
100
AcDbArc
 50
225.0000000000053
 51
270.0
  0
ARC
  5
1F7
330
1F
100
AcDbEntity
  8
1
  6
Continuous
 62
     3
100
AcDbCircle
 10
94.92867965644
 20
277.779755927139
 30
0.0
 40
1.5
100
AcDbArc
 50
270.0
 51
314.9999999999946
  0
CIRCLE
  5
1F8
330
1F
100
AcDbEntity
  8
100
  6
Continuous
 62
     3
100
AcDbCircle
 10
70.00000388179
 20
260.079755927139
 30
0.0
 40
10.0
  0
CIRCLE
  5
1F9
330
1F
100
AcDbEntity
  8
1
  6
Continuous
 62
     3
100
AcDbCircle
 10
203.593989968607
 20
63.5
 30
0.0
 40
13.45000000000002
  0
CIRCLE
  5
1FA
330
1F
100
AcDbEntity
  8
1
  6
Continuous
 62
     3
100
AcDbCircle
 10
203.593989968607
 20
63.5
 30
0.0
 40
16.34550000000002
  0
CIRCLE
  5
1FB
330
1F
100
AcDbEntity
  8
1
  6
Continuous
 62
     3
100
AcDbCircle
 10
203.593989968607
 20
63.5
 30
0.0
 40
17.65000000000001
  0
LWPOLYLINE
  5
1FC
330
1F
100
AcDbEntity
  8
4
  6
Continuous
 62
     3
100
AcDbPolyline
 90
        4
 70
     0
 43
0.0
 10
73.7500076293945
 20
159.018893432617
 42
0.2318554714765
 10
72.65383911132808
 20
159.9028961181639
 42
0.11195568116519
 10
67.3461761474604
 20
159.9028808593754
 42
0.23187476391089
 10
66.2500000000009
 20
159.0188781738279
  0
LWPOLYLINE
  5
1FD
330
1F
100
AcDbEntity
  8
4
  6
Continuous
 62
     3
100
AcDbPolyline
 90
        2
 70
     0
 43
0.0
 10
73.75
 20
157.2
 10
66.25
 20
157.2
  0
LWPOLYLINE
  5
1FE
330
1F
100
AcDbEntity
  8
4
  6
Continuous
 62
     3
100
AcDbPolyline
 90
        4
 70
     0
 43
0.0
 10
66.25
 20
155.5
 10
66.25
 20
161.0
 42
0.41421356237307
 10
63.75
 20
163.5000000000002
 10
57.7359841898954
 20
163.5
  0
LWPOLYLINE
  5
1FF
330
1F
100
AcDbEntity
  8
4
  6
Continuous
 62
     3
100
AcDbPolyline
 90
        4
 70
     0
 43
0.0
 10
73.75
 20
155.5
 10
73.7500000000005
 20
161.0
 42
-0.41421356237327
 10
76.25
 20
163.5
 10
82.2640158101046
 20
163.499999999999
  0
LWPOLYLINE
  5
200
330
1F
100
AcDbEntity
  8
4
  6
Continuous
 62
     3
100
AcDbPolyline
 90
        4
 70
     0
 43
0.0
 10
207.343989968607
 20
155.5
 10
207.343989968608
 20
161.0
 42
-0.41421356237321
 10
209.843989968607
 20
163.5
 10
215.858005778712
 20
163.499999999999
  0
LWPOLYLINE
  5
201
330
1F
100
AcDbEntity
  8
4
  6
Continuous
 62
     3
100
AcDbPolyline
 90
        4
 70
     0
 43
0.0
 10
199.843989968607
 20
155.5
 10
199.843989968607
 20
161.0
 42
0.4142135623731
 10
197.343989968607
 20
163.5
 10
191.329974158502
 20
163.5
  0
LWPOLYLINE
  5
202
330
1F
100
AcDbEntity
  8
4
  6
Continuous
 62
     3
100
AcDbPolyline
 90
        2
 70
     0
 43
0.0
 10
207.343989968607
 20
157.2
 10
199.843989968607
 20
157.2
  0
LWPOLYLINE
  5
203
330
1F
100
AcDbEntity
  8
4
  6
Continuous
 62
     3
100
AcDbPolyline
 90
        4
 70
     0
 43
0.0
 10
207.343997598001
 20
159.018893432617
 42
0.23185547147645
 10
206.2478290799349
 20
159.9028961181638
 42
0.11195568116518
 10
200.940166116068
 20
159.9028808593751
 42
0.23187476391119
 10
199.8439899686067
 20
159.0188781738281
  0
LEADER
  5
204
330
1F
100
AcDbEntity
  8
1
  6
Continuous
 62
     4
100
AcDbLeader
  3
Standard
 71
     0
 76
     3
 10
103.589417607588
 20
48.25
 30
0.0
 10
119.987088901011
 20
19.8484001939781
 30
0.0
 10
135.008323676761
 20
19.8484001939781
 30
0.0
  0
LEADER
  5
205
330
1F
100
AcDbEntity
  8
1
  6
Continuous
 62
     4
100
AcDbLeader
  3
Standard
 71
     0
 76
     3
 10
36.7235405885782
 20
48.25
 30
0.0
 10
20.2755184841471
 20
19.7611900311094
 30
0.0
 10
3.59270694512329
 20
19.7611900311094
 30
0.0
  0
DIMENSION
  5
23B
330
1F
100
AcDbEntity
  8
1
100
AcDbDimension
  2
*D1
 10
141.251636860688
 20
163.499999999999
 30
0.0
 11
135.251636860688
 21
114.1
 31
0.0
 70
    32
  1
99
 71
     5
 42
-1.0
 53
90.0
  3
ME10_DIM_10
100
AcDbAlignedDimension
 13
113.5
 23
64.7
 33
0.0
 14
82.2640158101046
 24
163.499999999999
 34
0.0
 50
90.0
100
AcDbRotatedDimension
  0
DIMENSION
  5
248
330
1F
100
AcDbEntity
  8
1
100
AcDbDimension
  2
*D3
 10
110.0
 20
22.166541218262
 30
0.0
 11
70.0
 21
28.166541218262
 31
0.0
 70
    32
  1
80
 71
     5
 42
-1.0
 53
0.00013888888889
  3
ME10_DIM_11
100
AcDbAlignedDimension
 13
30.0
 23
48.25
 33
0.0
 14
110.0
 24
48.25
 34
0.0
100
AcDbRotatedDimension
  0
ENDSEC
  0
SECTION
  2
OBJECTS
  0
DICTIONARY
  5
C
330
0
100
AcDbDictionary
281
     1
  3
ACAD_GROUP
350
D
  3
ACAD_LAYOUT
350
1A
  3
ACAD_MATERIAL
350
3B
  3
ACAD_MLEADERSTYLE
350
24B
  3
ACAD_MLINESTYLE
350
17
  3
ACAD_PLOTSETTINGS
350
19
  3
ACAD_PLOTSTYLENAME
350
E
  3
ACAD_SCALELIST
350
20F
  3
ACAD_VISUALSTYLE
350
2A
  3
AcDbVariableDictionary
350
249
  0
DICTIONARY
  5
D
102
{ACAD_REACTORS
330
C
102
}
330
C
100
AcDbDictionary
281
     1
  0
DICTIONARY
  5
1A
102
{ACAD_REACTORS
330
C
102
}
330
C
100
AcDbDictionary
281
     1
  3
Layout1
350
1E
  3
Layout2
350
26
  3
Model
350
22
  0
DICTIONARY
  5
3B
102
{ACAD_REACTORS
330
C
102
}
330
C
100
AcDbDictionary
281
     1
  3
ByBlock
350
3D
  3
ByLayer
350
3C
  3
Global
350
3E
  0
DICTIONARY
  5
24B
102
{ACAD_REACTORS
330
C
102
}
330
C
100
AcDbDictionary
281
     1
  0
DICTIONARY
  5
17
102
{ACAD_REACTORS
330
C
102
}
330
C
100
AcDbDictionary
281
     1
  3
Standard
350
18
  0
DICTIONARY
  5
19
102
{ACAD_REACTORS
330
C
102
}
330
C
100
AcDbDictionary
281
     1
  0
ACDBDICTIONARYWDFLT
  5
E
102
{ACAD_REACTORS
330
C
102
}
330
C
100
AcDbDictionary
281
     1
  3
Normal
350
F
100
AcDbDictionaryWithDefault
340
F
  0
DICTIONARY
  5
20F
102
{ACAD_REACTORS
330
C
102
}
330
C
100
AcDbDictionary
281
     1
  3
A0
350
210
  3
A1
350
211
  3
A2
350
212
  3
A3
350
213
  3
A4
350
214
  3
A5
350
215
  3
A6
350
216
  3
A7
350
217
  3
A8
350
218
  3
A9
350
219
  3
B0
350
21A
  3
B1
350
21B
  3
B2
350
21C
  3
B3
350
21D
  3
B4
350
21E
  3
B5
350
21F
  3
B6
350
220
  3
B7
350
221
  3
B8
350
222
  3
B9
350
223
  3
C0
350
224
  3
C1
350
225
  3
C2
350
226
  3
C3
350
227
  3
C4
350
228
  3
C5
350
229
  3
C6
350
22A
  3
C7
350
22B
  3
C8
350
22C
  3
C9
350
22D
  3
D0
350
22E
  3
D1
350
22F
  3
D2
350
230
  0
DICTIONARY
  5
2A
102
{ACAD_REACTORS
330
C
102
}
330
C
100
AcDbDictionary
281
     1
  3
2dWireframe
350
2F
  3
3D Hidden
350
31
  3
3dWireframe
350
30
  3
Basic
350
32
  3
Brighten
350
36
  3
ColorChange
350
3A
  3
Conceptual
350
34
  3
Dim
350
35
  3
Facepattern
350
39
  3
Flat
350
2B
  3
FlatWithEdges
350
2C
  3
Gouraud
350
2D
  3
GouraudWithEdges
350
2E
  3
Linepattern
350
38
  3
Realistic
350
33
  3
Thicken
350
37
  0
DICTIONARY
  5
249
102
{ACAD_REACTORS
330
C
102
}
330
C
100
AcDbDictionary
281
     1
  3
CANNOSCALE
350
24C
  3
DIMASSOC
350
24D
  3
HIDETEXT
350
24E
  0
LAYOUT
  5
1E
102
{ACAD_REACTORS
330
1A
102
}
330
1A
100
AcDbPlotSettings
  1

  2
none_device
  4

  6

 40
0.0
 41
0.0
 42
0.0
 43
0.0
 44
0.0
 45
0.0
 46
0.0
 47
0.0
 48
0.0
 49
0.0
140
0.0
141
0.0
142
1.0
143
1.0
 70
   688
 72
     0
 73
     0
 74
     5
  7

 75
    16
147
1.0
148
0.0
149
0.0
100
AcDbLayout
  1
Layout1
 70
     1
 71
     1
 10
0.0
 20
0.0
 11
12.0
 21
9.0
 12
0.0
 22
0.0
 32
0.0
 14
1.00000000000000E+20
 24
1.00000000000000E+20
 34
1.00000000000000E+20
 15
-1.00000000000000E+20
 25
-1.00000000000000E+20
 35
-1.00000000000000E+20
146
0.0
 13
0.0
 23
0.0
 33
0.0
 16
1.0
 26
0.0
 36
0.0
 17
0.0
 27
1.0
 37
0.0
 76
     0
330
1B
  0
LAYOUT
  5
26
102
{ACAD_REACTORS
330
1A
102
}
330
1A
100
AcDbPlotSettings
  1

  2
none_device
  4

  6

 40
0.0
 41
0.0
 42
0.0
 43
0.0
 44
0.0
 45
0.0
 46
0.0
 47
0.0
 48
0.0
 49
0.0
140
0.0
141
0.0
142
1.0
143
1.0
 70
   688
 72
     0
 73
     0
 74
     5
  7

 75
    16
147
1.0
148
0.0
149
0.0
100
AcDbLayout
  1
Layout2
 70
     1
 71
     2
 10
0.0
 20
0.0
 11
0.0
 21
0.0
 12
0.0
 22
0.0
 32
0.0
 14
0.0
 24
0.0
 34
0.0
 15
0.0
 25
0.0
 35
0.0
146
0.0
 13
0.0
 23
0.0
 33
0.0
 16
1.0
 26
0.0
 36
0.0
 17
0.0
 27
1.0
 37
0.0
 76
     0
330
23
  0
LAYOUT
  5
22
102
{ACAD_REACTORS
330
1A
102
}
330
1A
100
AcDbPlotSettings
  1

  2
none_device
  4

  6

 40
0.0
 41
0.0
 42
0.0
 43
0.0
 44
0.0
 45
0.0
 46
0.0
 47
0.0
 48
0.0
 49
0.0
140
0.0
141
0.0
142
1.0
143
1.0
 70
  1712
 72
     0
 73
     0
 74
     0
  7

 75
     0
147
1.0
148
0.0
149
0.0
100
AcDbLayout
  1
Model
 70
     1
 71
     0
 10
0.0
 20
0.0
 11
12.0
 21
9.0
 12
0.0
 22
0.0
 32
0.0
 14
3.59270694512329
 24
6.39604216139183
 34
0.0
 15
232.593989968607
 25
294.051034029943
 35
0.0
146
0.0
 13
0.0
 23
0.0
 33
0.0
 16
1.0
 26
0.0
 36
0.0
 17
0.0
 27
1.0
 37
0.0
 76
     0
330
1F
331
29
  0
MATERIAL
  5
3D
102
{ACAD_REACTORS
330
3B
102
}
102
{ACAD_XDICTIONARY
360
271
102
}
330
3B
100
AcDbMaterial
  1
ByBlock
  0
MATERIAL
  5
3C
102
{ACAD_REACTORS
330
3B
102
}
102
{ACAD_XDICTIONARY
360
26F
102
}
330
3B
100
AcDbMaterial
  1
ByLayer
  0
MATERIAL
  5
3E
102
{ACAD_REACTORS
330
3B
102
}
102
{ACAD_XDICTIONARY
360
273
102
}
330
3B
100
AcDbMaterial
  1
Global
  0
MLINESTYLE
  5
18
102
{ACAD_REACTORS
330
17
102
}
330
17
100
AcDbMlineStyle
  2
Standard
 70
     0
  3

 62
   256
 51
90.0
 52
90.0
 71
     2
 49
0.5
 62
   256
  6
BYLAYER
 49
-0.5
 62
   256
  6
BYLAYER
  0
ACDBPLACEHOLDER
  5
F
102
{ACAD_REACTORS
330
E
102
}
330
E
  0
SCALE
  5
210
102
{ACAD_REACTORS
330
20F
102
}
330
20F
100
AcDbScale
 70
     0
300
1:1
140
1.0
141
1.0
290
     1
  0
SCALE
  5
211
102
{ACAD_REACTORS
330
20F
102
}
330
20F
100
AcDbScale
 70
     0
300
1:2
140
1.0
141
2.0
290
     0
  0
SCALE
  5
212
102
{ACAD_REACTORS
330
20F
102
}
330
20F
100
AcDbScale
 70
     0
300
1:4
140
1.0
141
4.0
290
     0
  0
SCALE
  5
213
102
{ACAD_REACTORS
330
20F
102
}
330
20F
100
AcDbScale
 70
     0
300
1:5
140
1.0
141
5.0
290
     0
  0
SCALE
  5
214
102
{ACAD_REACTORS
330
20F
102
}
330
20F
100
AcDbScale
 70
     0
300
1:8
140
1.0
141
8.0
290
     0
  0
SCALE
  5
215
102
{ACAD_REACTORS
330
20F
102
}
330
20F
100
AcDbScale
 70
     0
300
1:10
140
1.0
141
10.0
290
     0
  0
SCALE
  5
216
102
{ACAD_REACTORS
330
20F
102
}
330
20F
100
AcDbScale
 70
     0
300
1:16
140
1.0
141
16.0
290
     0
  0
SCALE
  5
217
102
{ACAD_REACTORS
330
20F
102
}
330
20F
100
AcDbScale
 70
     0
300
1:20
140
1.0
141
20.0
290
     0
  0
SCALE
  5
218
102
{ACAD_REACTORS
330
20F
102
}
330
20F
100
AcDbScale
 70
     0
300
1:30
140
1.0
141
30.0
290
     0
  0
SCALE
  5
219
102
{ACAD_REACTORS
330
20F
102
}
330
20F
100
AcDbScale
 70
     0
300
1:40
140
1.0
141
40.0
290
     0
  0
SCALE
  5
21A
102
{ACAD_REACTORS
330
20F
102
}
330
20F
100
AcDbScale
 70
     0
300
1:50
140
1.0
141
50.0
290
     0
  0
SCALE
  5
21B
102
{ACAD_REACTORS
330
20F
102
}
330
20F
100
AcDbScale
 70
     0
300
1:100
140
1.0
141
100.0
290
     0
  0
SCALE
  5
21C
102
{ACAD_REACTORS
330
20F
102
}
330
20F
100
AcDbScale
 70
     0
300
2:1
140
2.0
141
1.0
290
     0
  0
SCALE
  5
21D
102
{ACAD_REACTORS
330
20F
102
}
330
20F
100
AcDbScale
 70
     0
300
4:1
140
4.0
141
1.0
290
     0
  0
SCALE
  5
21E
102
{ACAD_REACTORS
330
20F
102
}
330
20F
100
AcDbScale
 70
     0
300
8:1
140
8.0
141
1.0
290
     0
  0
SCALE
  5
21F
102
{ACAD_REACTORS
330
20F
102
}
330
20F
100
AcDbScale
 70
     0
300
10:1
140
10.0
141
1.0
290
     0
  0
SCALE
  5
220
102
{ACAD_REACTORS
330
20F
102
}
330
20F
100
AcDbScale
 70
     0
300
100:1
140
100.0
141
1.0
290
     0
  0
SCALE
  5
221
102
{ACAD_REACTORS
330
20F
102
}
330
20F
100
AcDbScale
 70
     0
300
1/128" = 1'-0"
140
0.0078125
141
12.0
290
     0
  0
SCALE
  5
222
102
{ACAD_REACTORS
330
20F
102
}
330
20F
100
AcDbScale
 70
     0
300
1/64" = 1'-0"
140
0.015625
141
12.0
290
     0
  0
SCALE
  5
223
102
{ACAD_REACTORS
330
20F
102
}
330
20F
100
AcDbScale
 70
     0
300
1/32" = 1'-0"
140
0.03125
141
12.0
290
     0
  0
SCALE
  5
224
102
{ACAD_REACTORS
330
20F
102
}
330
20F
100
AcDbScale
 70
     0
300
1/16" = 1'-0"
140
0.0625
141
12.0
290
     0
  0
SCALE
  5
225
102
{ACAD_REACTORS
330
20F
102
}
330
20F
100
AcDbScale
 70
     0
300
3/32" = 1'-0"
140
0.09375
141
12.0
290
     0
  0
SCALE
  5
226
102
{ACAD_REACTORS
330
20F
102
}
330
20F
100
AcDbScale
 70
     0
300
1/8" = 1'-0"
140
0.125
141
12.0
290
     0
  0
SCALE
  5
227
102
{ACAD_REACTORS
330
20F
102
}
330
20F
100
AcDbScale
 70
     0
300
3/16" = 1'-0"
140
0.1875
141
12.0
290
     0
  0
SCALE
  5
228
102
{ACAD_REACTORS
330
20F
102
}
330
20F
100
AcDbScale
 70
     0
300
1/4" = 1'-0"
140
0.25
141
12.0
290
     0
  0
SCALE
  5
229
102
{ACAD_REACTORS
330
20F
102
}
330
20F
100
AcDbScale
 70
     0
300
3/8" = 1'-0"
140
0.375
141
12.0
290
     0
  0
SCALE
  5
22A
102
{ACAD_REACTORS
330
20F
102
}
330
20F
100
AcDbScale
 70
     0
300
1/2" = 1'-0"
140
0.5
141
12.0
290
     0
  0
SCALE
  5
22B
102
{ACAD_REACTORS
330
20F
102
}
330
20F
100
AcDbScale
 70
     0
300
3/4" = 1'-0"
140
0.75
141
12.0
290
     0
  0
SCALE
  5
22C
102
{ACAD_REACTORS
330
20F
102
}
330
20F
100
AcDbScale
 70
     0
300
1" = 1'-0"
140
1.0
141
12.0
290
     0
  0
SCALE
  5
22D
102
{ACAD_REACTORS
330
20F
102
}
330
20F
100
AcDbScale
 70
     0
300
1-1/2" = 1'-0"
140
1.5
141
12.0
290
     0
  0
SCALE
  5
22E
102
{ACAD_REACTORS
330
20F
102
}
330
20F
100
AcDbScale
 70
     0
300
3" = 1'-0"
140
3.0
141
12.0
290
     0
  0
SCALE
  5
22F
102
{ACAD_REACTORS
330
20F
102
}
330
20F
100
AcDbScale
 70
     0
300
6" = 1'-0"
140
6.0
141
12.0
290
     0
  0
SCALE
  5
230
102
{ACAD_REACTORS
330
20F
102
}
330
20F
100
AcDbScale
 70
     0
300
1'-0" = 1'-0"
140
12.0
141
12.0
290
     0
  0
VISUALSTYLE
  5
2F
102
{ACAD_REACTORS
330
2A
102
}
102
{ACAD_XDICTIONARY
360
257
102
}
330
2A
100
AcDbVisualStyle
  2
2dWireframe
 70
     4
 71
     0
 72
     2
 73
     0
 90
        0
 40
-0.6
 41
-30.0
 62
     5
 63
     7
 74
     1
 91
        4
 64
     7
 65
   257
 75
     1
175
     1
 42
1.0
 92
        0
 66
   257
 43
1.0
 76
     1
 77
     6
 78
     2
 67
     7
 79
     5
170
     0
171
     0
290
     0
174
     0
 93
        1
 44
0.0
173
     0
291
     0
 45
0.0
1001
ACAD
1000
AcDbSavedByObjectVersion
1070
     0
  0
VISUALSTYLE
  5
31
102
{ACAD_REACTORS
330
2A
102
}
102
{ACAD_XDICTIONARY
360
25B
102
}
330
2A
100
AcDbVisualStyle
  2
3D Hidden
 70
     6
 71
     1
 72
     2
 73
     2
 90
        0
 40
-0.6
 41
-30.0
 62
     5
 63
     7
 74
     2
 91
        2
 64
     7
 65
   257
 75
     2
175
     1
 42
40.0
 92
        0
 66
   257
 43
1.0
 76
     1
 77
     6
 78
     2
 67
     7
 79
     3
170
     0
171
     0
290
     0
174
     0
 93
        1
 44
0.0
173
     0
291
     0
 45
0.0
1001
ACAD
1000
AcDbSavedByObjectVersion
1070
     0
  0
VISUALSTYLE
  5
30
102
{ACAD_REACTORS
330
2A
102
}
102
{ACAD_XDICTIONARY
360
259
102
}
330
2A
100
AcDbVisualStyle
  2
3dWireframe
 70
     5
 71
     0
 72
     2
 73
     0
 90
        0
 40
-0.6
 41
-30.0
 62
     5
 63
     7
 74
     1
 91
        4
 64
     7
 65
   257
 75
     1
175
     1
 42
1.0
 92
        0
 66
   257
 43
1.0
 76
     1
 77
     6
 78
     2
 67
     7
 79
     5
170
     0
171
     0
290
     0
174
     0
 93
        1
 44
0.0
173
     0
291
     0
 45
0.0
1001
ACAD
1000
AcDbSavedByObjectVersion
1070
     0
  0
VISUALSTYLE
  5
32
102
{ACAD_REACTORS
330
2A
102
}
102
{ACAD_XDICTIONARY
360
25D
102
}
330
2A
100
AcDbVisualStyle
  2
Basic
 70
     7
 71
     1
 72
     0
 73
     1
 90
        0
 40
-0.6
 41
-30.0
 62
     5
 63
     7
 74
     0
 91
        4
 64
     7
 65
   257
 75
     1
175
     1
 42
1.0
 92
        8
 66
     7
 43
1.0
 76
     1
 77
     6
 78
     2
 67
     7
 79
     5
170
     0
171
     0
290
     0
174
     0
 93
        1
 44
0.0
173
     0
291
     1
 45
0.0
1001
ACAD
1000
AcDbSavedByObjectVersion
1070
     0
  0
VISUALSTYLE
  5
36
102
{ACAD_REACTORS
330
2A
102
}
102
{ACAD_XDICTIONARY
360
265
102
}
330
2A
100
AcDbVisualStyle
  2
Brighten
 70
    12
 71
     2
 72
     2
 73
     0
 90
        0
 40
-0.6
 41
-30.0
 62
     5
 63
     7
 74
     1
 91
        4
 64
     7
 65
   257
 75
     1
175
     1
 42
1.0
 92
        8
 66
     7
 43
1.0
 76
     1
 77
     6
 78
     2
 67
     7
 79
     5
170
     0
171
     0
290
     0
174
     0
 93
        1
 44
50.0
173
     0
291
     1
 45
0.0
1001
ACAD
1000
AcDbSavedByObjectVersion
1070
     0
  0
VISUALSTYLE
  5
3A
102
{ACAD_REACTORS
330
2A
102
}
102
{ACAD_XDICTIONARY
360
26D
102
}
330
2A
100
AcDbVisualStyle
  2
ColorChange
 70
    16
 71
     2
 72
     2
 73
     3
 90
        0
 40
-0.6
 41
-30.0
 62
     5
 63
     8
 74
     1
 91
        4
 64
     7
 65
   257
 75
     1
175
     1
 42
1.0
 92
        8
 66
     8
 43
1.0
 76
     1
 77
     6
 78
     2
 67
     7
 79
     5
170
     0
171
     0
290
     0
174
     0
 93
        1
 44
0.0
173
     0
291
     1
 45
0.0
1001
ACAD
1000
AcDbSavedByObjectVersion
1070
     0
  0
VISUALSTYLE
  5
34
102
{ACAD_REACTORS
330
2A
102
}
102
{ACAD_XDICTIONARY
360
261
102
}
330
2A
100
AcDbVisualStyle
  2
Conceptual
 70
     9
 71
     3
 72
     2
 73
     0
 90
        0
 40
-0.6
 41
-30.0
 62
     5
 63
     7
 74
     2
 91
        2
 64
     7
 65
   257
 75
     1
175
     1
 42
40.0
 92
        8
 66
     7
 43
1.0
 76
     1
 77
     6
 78
     2
 67
     7
 79
     3
170
     0
171
     0
290
     0
174
     0
 93
        1
 44
0.0
173
     0
291
     0
 45
0.0
1001
ACAD
1000
AcDbSavedByObjectVersion
1070
     0
  0
VISUALSTYLE
  5
35
102
{ACAD_REACTORS
330
2A
102
}
102
{ACAD_XDICTIONARY
360
263
102
}
330
2A
100
AcDbVisualStyle
  2
Dim
 70
    11
 71
     2
 72
     2
 73
     0
 90
        0
 40
-0.6
 41
-30.0
 62
     5
 63
     7
 74
     1
 91
        4
 64
     7
 65
   257
 75
     1
175
     1
 42
1.0
 92
        8
 66
     7
 43
1.0
 76
     1
 77
     6
 78
     2
 67
     7
 79
     5
170
     0
171
     0
290
     0
174
     0
 93
        1
 44
-50.0
173
     0
291
     1
 45
0.0
1001
ACAD
1000
AcDbSavedByObjectVersion
1070
     0
  0
VISUALSTYLE
  5
39
102
{ACAD_REACTORS
330
2A
102
}
102
{ACAD_XDICTIONARY
360
26B
102
}
330
2A
100
AcDbVisualStyle
  2
Facepattern
 70
    15
 71
     2
 72
     2
 73
     0
 90
        0
 40
-0.6
 41
-30.0
 62
     5
 63
     7
 74
     1
 91
        4
 64
     7
 65
   257
 75
     1
175
     1
 42
1.0
 92
        8
 66
     7
 43
1.0
 76
     1
 77
     6
 78
     2
 67
     7
 79
     5
170
     0
171
     0
290
     0
174
     0
 93
        1
 44
0.0
173
     0
291
     1
 45
0.0
1001
ACAD
1000
AcDbSavedByObjectVersion
1070
     0
  0
VISUALSTYLE
  5
2B
102
{ACAD_REACTORS
330
2A
102
}
102
{ACAD_XDICTIONARY
360
24F
102
}
330
2A
100
AcDbVisualStyle
  2
Flat
 70
     0
 71
     2
 72
     1
 73
     1
 90
        2
 40
-0.6
 41
30.0
 62
     5
 63
     7
 74
     0
 91
        4
 64
     7
 65
   257
 75
     1
175
     1
 42
1.0
 92
        8
 66
     7
 43
1.0
 76
     1
 77
     6
 78
     2
 67
     7
 79
     5
170
     0
171
     0
290
     0
174
     0
 93
       13
 44
0.0
173
     0
291
     1
 45
0.0
1001
ACAD
1000
AcDbSavedByObjectVersion
1070
     0
  0
VISUALSTYLE
  5
2C
102
{ACAD_REACTORS
330
2A
102
}
102
{ACAD_XDICTIONARY
360
251
102
}
330
2A
100
AcDbVisualStyle
  2
FlatWithEdges
 70
     1
 71
     2
 72
     1
 73
     1
 90
        2
 40
-0.6
 41
30.0
 62
     5
 63
     7
 74
     1
 91
        4
 64
     7
 65
   257
 75
     1
175
     1
 42
1.0
 92
        0
 66
   257
 43
1.0
 76
     1
 77
     6
 78
     2
 67
     7
 79
     5
170
     0
171
     0
290
     0
174
     0
 93
       13
 44
0.0
173
     0
291
     1
 45
0.0
1001
ACAD
1000
AcDbSavedByObjectVersion
1070
     0
  0
VISUALSTYLE
  5
2D
102
{ACAD_REACTORS
330
2A
102
}
102
{ACAD_XDICTIONARY
360
253
102
}
330
2A
100
AcDbVisualStyle
  2
Gouraud
 70
     2
 71
     2
 72
     2
 73
     1
 90
        2
 40
-0.6
 41
30.0
 62
     5
 63
     7
 74
     0
 91
        4
 64
     7
 65
   257
 75
     1
175
     1
 42
1.0
 92
        0
 66
     7
 43
1.0
 76
     1
 77
     6
 78
     2
 67
     7
 79
     5
170
     0
171
     0
290
     0
174
     0
 93
       13
 44
0.0
173
     0
291
     1
 45
0.0
1001
ACAD
1000
AcDbSavedByObjectVersion
1070
     0
  0
VISUALSTYLE
  5
2E
102
{ACAD_REACTORS
330
2A
102
}
102
{ACAD_XDICTIONARY
360
255
102
}
330
2A
100
AcDbVisualStyle
  2
GouraudWithEdges
 70
     3
 71
     2
 72
     2
 73
     1
 90
        2
 40
-0.6
 41
30.0
 62
     5
 63
     7
 74
     1
 91
        4
 64
     7
 65
   257
 75
     1
175
     1
 42
1.0
 92
        0
 66
   257
 43
1.0
 76
     1
 77
     6
 78
     2
 67
     7
 79
     5
170
     0
171
     0
290
     0
174
     0
 93
       13
 44
0.0
173
     0
291
     1
 45
0.0
1001
ACAD
1000
AcDbSavedByObjectVersion
1070
     0
  0
VISUALSTYLE
  5
38
102
{ACAD_REACTORS
330
2A
102
}
102
{ACAD_XDICTIONARY
360
269
102
}
330
2A
100
AcDbVisualStyle
  2
Linepattern
 70
    14
 71
     2
 72
     2
 73
     0
 90
        0
 40
-0.6
 41
-30.0
 62
     5
 63
     7
 74
     1
 91
        4
 64
     7
 65
   257
 75
     7
175
     7
 42
1.0
 92
        8
 66
     7
 43
1.0
 76
     1
 77
     6
 78
     2
 67
     7
 79
     5
170
     0
171
     0
290
     0
174
     0
 93
        1
 44
0.0
173
     0
291
     1
 45
0.0
1001
ACAD
1000
AcDbSavedByObjectVersion
1070
     0
  0
VISUALSTYLE
  5
33
102
{ACAD_REACTORS
330
2A
102
}
102
{ACAD_XDICTIONARY
360
25F
102
}
330
2A
100
AcDbVisualStyle
  2
Realistic
 70
     8
 71
     2
 72
     2
 73
     0
 90
        0
 40
-0.6
 41
-30.0
 62
     5
 63
     7
 74
     1
 91
        0
 64
     7
 65
   257
 75
     1
175
     1
 42
1.0
 92
        8
 66
     8
 43
1.0
 76
     1
 77
     6
 78
     2
 67
     7
 79
     5
170
     0
171
     0
290
     0
174
     0
 93
       13
 44
0.0
173
     0
291
     0
 45
0.0
1001
ACAD
1000
AcDbSavedByObjectVersion
1070
     0
  0
VISUALSTYLE
  5
37
102
{ACAD_REACTORS
330
2A
102
}
102
{ACAD_XDICTIONARY
360
267
102
}
330
2A
100
AcDbVisualStyle
  2
Thicken
 70
    13
 71
     2
 72
     2
 73
     0
 90
        0
 40
-0.6
 41
-30.0
 62
     5
 63
     7
 74
     1
 91
        4
 64
     7
 65
   257
 75
     1
175
     1
 42
1.0
 92
       12
 66
     7
 43
1.0
 76
     1
 77
     6
 78
     2
 67
     7
 79
     5
170
     0
171
     0
290
     0
174
     0
 93
        1
 44
0.0
173
     0
291
     1
 45
0.0
1001
ACAD
1000
AcDbSavedByObjectVersion
1070
     0
  0
DICTIONARYVAR
  5
24C
102
{ACAD_REACTORS
330
249
102
}
330
249
100
DictionaryVariables
280
     0
  1
1:1
  0
DICTIONARYVAR
  5
24D
102
{ACAD_REACTORS
330
249
102
}
330
249
100
DictionaryVariables
280
     0
  1
2
  0
DICTIONARYVAR
  5
24E
102
{ACAD_REACTORS
330
249
102
}
330
249
100
DictionaryVariables
280
     0
  1
1
  0
DICTIONARY
  5
271
330
3D
100
AcDbDictionary
280
     1
281
     1
  3
ACAD_XREC_ROUNDTRIP
360
272
  0
DICTIONARY
  5
26F
330
3C
100
AcDbDictionary
280
     1
281
     1
  3
ACAD_XREC_ROUNDTRIP
360
270
  0
DICTIONARY
  5
273
330
3E
100
AcDbDictionary
280
     1
281
     1
  3
ACAD_XREC_ROUNDTRIP
360
274
  0
DICTIONARY
  5
257
330
2F
100
AcDbDictionary
280
     1
281
     1
  3
ACAD_XREC_ROUNDTRIP
360
258
  0
DICTIONARY
  5
25B
330
31
100
AcDbDictionary
280
     1
281
     1
  3
ACAD_XREC_ROUNDTRIP
360
25C
  0
DICTIONARY
  5
259
330
30
100
AcDbDictionary
280
     1
281
     1
  3
ACAD_XREC_ROUNDTRIP
360
25A
  0
DICTIONARY
  5
25D
330
32
100
AcDbDictionary
280
     1
281
     1
  3
ACAD_XREC_ROUNDTRIP
360
25E
  0
DICTIONARY
  5
265
330
36
100
AcDbDictionary
280
     1
281
     1
  3
ACAD_XREC_ROUNDTRIP
360
266
  0
DICTIONARY
  5
26D
330
3A
100
AcDbDictionary
280
     1
281
     1
  3
ACAD_XREC_ROUNDTRIP
360
26E
  0
DICTIONARY
  5
261
330
34
100
AcDbDictionary
280
     1
281
     1
  3
ACAD_XREC_ROUNDTRIP
360
262
  0
DICTIONARY
  5
263
330
35
100
AcDbDictionary
280
     1
281
     1
  3
ACAD_XREC_ROUNDTRIP
360
264
  0
DICTIONARY
  5
26B
330
39
100
AcDbDictionary
280
     1
281
     1
  3
ACAD_XREC_ROUNDTRIP
360
26C
  0
DICTIONARY
  5
24F
330
2B
100
AcDbDictionary
280
     1
281
     1
  3
ACAD_XREC_ROUNDTRIP
360
250
  0
DICTIONARY
  5
251
330
2C
100
AcDbDictionary
280
     1
281
     1
  3
ACAD_XREC_ROUNDTRIP
360
252
  0
DICTIONARY
  5
253
330
2D
100
AcDbDictionary
280
     1
281
     1
  3
ACAD_XREC_ROUNDTRIP
360
254
  0
DICTIONARY
  5
255
330
2E
100
AcDbDictionary
280
     1
281
     1
  3
ACAD_XREC_ROUNDTRIP
360
256
  0
DICTIONARY
  5
269
330
38
100
AcDbDictionary
280
     1
281
     1
  3
ACAD_XREC_ROUNDTRIP
360
26A
  0
DICTIONARY
  5
25F
330
33
100
AcDbDictionary
280
     1
281
     1
  3
ACAD_XREC_ROUNDTRIP
360
260
  0
DICTIONARY
  5
267
330
37
100
AcDbDictionary
280
     1
281
     1
  3
ACAD_XREC_ROUNDTRIP
360
268
  0
XRECORD
  5
272
102
{ACAD_REACTORS
330
271
102
}
330
271
100
AcDbXrecord
280
     1
102
MATERIAL
148
0.0
149
0.0
149
0.0
 93
        0
 94
      127
282
     0
 72
     1
 77
     1
171
     1
175
     1
179
     1
273
     0
  0
XRECORD
  5
270
102
{ACAD_REACTORS
330
26F
102
}
330
26F
100
AcDbXrecord
280
     1
102
MATERIAL
148
0.0
149
0.0
149
0.0
 93
        0
 94
      127
282
     0
 72
     1
 77
     1
171
     1
175
     1
179
     1
273
     0
  0
XRECORD
  5
274
102
{ACAD_REACTORS
330
273
102
}
330
273
100
AcDbXrecord
280
     1
102
MATERIAL
148
0.0
149
0.0
149
0.0
 93
        0
 94
      127
282
     0
 72
     1
 77
     1
171
     1
175
     1
179
     1
273
     0
  0
XRECORD
  5
258
102
{ACAD_REACTORS
330
257
102
}
330
257
100
AcDbXrecord
280
     1
102
RTVSPropertyOp0
 70
     1
102
RTVSPropertyOp1
 70
     1
102
RTVSPropertyOp2
 70
     1
102
RTVSPropertyOp3
 70
     1
102
RTVSPropertyOp4
 70
     1
102
RTVSPropertyOp5
 70
     1
102
RTVSPropertyOp6
 70
     1
102
RTVSPropertyOp7
 70
     1
102
RTVSPropertyOp8
 70
     1
102
RTVSPropertyOp9
 70
     1
102
RTVSPropertyOp10
 70
     1
102
RTVSPropertyOp11
 70
     1
102
RTVSPropertyOp12
 70
     1
102
RTVSPropertyOp13
 70
     1
102
RTVSPropertyOp14
 70
     1
102
RTVSPropertyOp15
 70
     1
102
RTVSPropertyOp16
 70
     1
102
RTVSPropertyOp17
 70
     1
102
RTVSPropertyOp18
 70
     1
102
RTVSPropertyOp19
 70
     1
102
RTVSPropertyOp20
 70
     1
102
RTVSPropertyOp21
 70
     1
102
RTVSPropertyOp22
 70
     1
102
RTVSPropertyOp23
 70
     1
102
RTVSPropertyOp24
 70
     1
102
RTVSPropertyOp25
 70
     1
102
RTVSPropertyOp26
 70
     1
102
RTVSPropertyOp27
 70
     1
  0
XRECORD
  5
25C
102
{ACAD_REACTORS
330
25B
102
}
330
25B
100
AcDbXrecord
280
     1
102
RTVSPropertyOp0
 70
     1
102
RTVSPropertyOp1
 70
     1
102
RTVSPropertyOp2
 70
     1
102
RTVSPropertyOp3
 70
     1
102
RTVSPropertyOp4
 70
     1
102
RTVSPropertyOp5
 70
     1
102
RTVSPropertyOp6
 70
     1
102
RTVSPropertyOp7
 70
     1
102
RTVSPropertyOp8
 70
     1
102
RTVSPropertyOp9
 70
     1
102
RTVSPropertyOp10
 70
     1
102
RTVSPropertyOp11
 70
     1
102
RTVSPropertyOp12
 70
     1
102
RTVSPropertyOp13
 70
     1
102
RTVSPropertyOp14
 70
     1
102
RTVSPropertyOp15
 70
     1
102
RTVSPropertyOp16
 70
     1
102
RTVSPropertyOp17
 70
     1
102
RTVSPropertyOp18
 70
     1
102
RTVSPropertyOp19
 70
     1
102
RTVSPropertyOp20
 70
     1
102
RTVSPropertyOp21
 70
     1
102
RTVSPropertyOp22
 70
     1
102
RTVSPropertyOp23
 70
     1
102
RTVSPropertyOp24
 70
     1
102
RTVSPropertyOp25
 70
     1
102
RTVSPropertyOp26
 70
     1
102
RTVSPropertyOp27
 70
     1
  0
XRECORD
  5
25A
102
{ACAD_REACTORS
330
259
102
}
330
259
100
AcDbXrecord
280
     1
102
RTVSPropertyOp0
 70
     1
102
RTVSPropertyOp1
 70
     1
102
RTVSPropertyOp2
 70
     1
102
RTVSPropertyOp3
 70
     1
102
RTVSPropertyOp4
 70
     1
102
RTVSPropertyOp5
 70
     1
102
RTVSPropertyOp6
 70
     1
102
RTVSPropertyOp7
 70
     1
102
RTVSPropertyOp8
 70
     1
102
RTVSPropertyOp9
 70
     1
102
RTVSPropertyOp10
 70
     1
102
RTVSPropertyOp11
 70
     1
102
RTVSPropertyOp12
 70
     1
102
RTVSPropertyOp13
 70
     1
102
RTVSPropertyOp14
 70
     1
102
RTVSPropertyOp15
 70
     1
102
RTVSPropertyOp16
 70
     1
102
RTVSPropertyOp17
 70
     1
102
RTVSPropertyOp18
 70
     1
102
RTVSPropertyOp19
 70
     1
102
RTVSPropertyOp20
 70
     1
102
RTVSPropertyOp21
 70
     1
102
RTVSPropertyOp22
 70
     1
102
RTVSPropertyOp23
 70
     1
102
RTVSPropertyOp24
 70
     1
102
RTVSPropertyOp25
 70
     1
102
RTVSPropertyOp26
 70
     1
102
RTVSPropertyOp27
 70
     1
  0
XRECORD
  5
25E
102
{ACAD_REACTORS
330
25D
102
}
330
25D
100
AcDbXrecord
280
     1
102
RTVSPropertyOp0
 70
     1
102
RTVSPropertyOp1
 70
     1
102
RTVSPropertyOp2
 70
     1
102
RTVSPropertyOp3
 70
     1
102
RTVSPropertyOp4
 70
     1
102
RTVSPropertyOp5
 70
     1
102
RTVSPropertyOp6
 70
     1
102
RTVSPropertyOp7
 70
     1
102
RTVSPropertyOp8
 70
     1
102
RTVSPropertyOp9
 70
     1
102
RTVSPropertyOp10
 70
     1
102
RTVSPropertyOp11
 70
     1
102
RTVSPropertyOp12
 70
     1
102
RTVSPropertyOp13
 70
     1
102
RTVSPropertyOp14
 70
     1
102
RTVSPropertyOp15
 70
     1
102
RTVSPropertyOp16
 70
     1
102
RTVSPropertyOp17
 70
     1
102
RTVSPropertyOp18
 70
     1
102
RTVSPropertyOp19
 70
     1
102
RTVSPropertyOp20
 70
     1
102
RTVSPropertyOp21
 70
     1
102
RTVSPropertyOp22
 70
     1
102
RTVSPropertyOp23
 70
     1
102
RTVSPropertyOp24
 70
     1
102
RTVSPropertyOp25
 70
     1
102
RTVSPropertyOp26
 70
     1
102
RTVSPropertyOp27
 70
     1
  0
XRECORD
  5
266
102
{ACAD_REACTORS
330
265
102
}
330
265
100
AcDbXrecord
280
     1
102
RTVSPropertyOp0
 70
     1
102
RTVSPropertyOp1
 70
     1
102
RTVSPropertyOp2
 70
     1
102
RTVSPropertyOp3
 70
     1
102
RTVSPropertyOp4
 70
     1
102
RTVSPropertyOp5
 70
     1
102
RTVSPropertyOp6
 70
     1
102
RTVSPropertyOp7
 70
     1
102
RTVSPropertyOp8
 70
     1
102
RTVSPropertyOp9
 70
     1
102
RTVSPropertyOp10
 70
     1
102
RTVSPropertyOp11
 70
     1
102
RTVSPropertyOp12
 70
     1
102
RTVSPropertyOp13
 70
     1
102
RTVSPropertyOp14
 70
     1
102
RTVSPropertyOp15
 70
     1
102
RTVSPropertyOp16
 70
     1
102
RTVSPropertyOp17
 70
     1
102
RTVSPropertyOp18
 70
     1
102
RTVSPropertyOp19
 70
     1
102
RTVSPropertyOp20
 70
     1
102
RTVSPropertyOp21
 70
     1
102
RTVSPropertyOp22
 70
     1
102
RTVSPropertyOp23
 70
     1
102
RTVSPropertyOp24
 70
     1
102
RTVSPropertyOp25
 70
     1
102
RTVSPropertyOp26
 70
     1
102
RTVSPropertyOp27
 70
     1
  0
XRECORD
  5
26E
102
{ACAD_REACTORS
330
26D
102
}
330
26D
100
AcDbXrecord
280
     1
102
RTVSPropertyOp0
 70
     1
102
RTVSPropertyOp1
 70
     1
102
RTVSPropertyOp2
 70
     1
102
RTVSPropertyOp3
 70
     1
102
RTVSPropertyOp4
 70
     1
102
RTVSPropertyOp5
 70
     1
102
RTVSPropertyOp6
 70
     1
102
RTVSPropertyOp7
 70
     1
102
RTVSPropertyOp8
 70
     1
102
RTVSPropertyOp9
 70
     1
102
RTVSPropertyOp10
 70
     1
102
RTVSPropertyOp11
 70
     1
102
RTVSPropertyOp12
 70
     1
102
RTVSPropertyOp13
 70
     1
102
RTVSPropertyOp14
 70
     1
102
RTVSPropertyOp15
 70
     1
102
RTVSPropertyOp16
 70
     1
102
RTVSPropertyOp17
 70
     1
102
RTVSPropertyOp18
 70
     1
102
RTVSPropertyOp19
 70
     1
102
RTVSPropertyOp20
 70
     1
102
RTVSPropertyOp21
 70
     1
102
RTVSPropertyOp22
 70
     1
102
RTVSPropertyOp23
 70
     1
102
RTVSPropertyOp24
 70
     1
102
RTVSPropertyOp25
 70
     1
102
RTVSPropertyOp26
 70
     1
102
RTVSPropertyOp27
 70
     1
  0
XRECORD
  5
262
102
{ACAD_REACTORS
330
261
102
}
330
261
100
AcDbXrecord
280
     1
102
RTVSPropertyOp0
 70
     1
102
RTVSPropertyOp1
 70
     1
102
RTVSPropertyOp2
 70
     1
102
RTVSPropertyOp3
 70
     1
102
RTVSPropertyOp4
 70
     1
102
RTVSPropertyOp5
 70
     1
102
RTVSPropertyOp6
 70
     1
102
RTVSPropertyOp7
 70
     1
102
RTVSPropertyOp8
 70
     1
102
RTVSPropertyOp9
 70
     1
102
RTVSPropertyOp10
 70
     1
102
RTVSPropertyOp11
 70
     1
102
RTVSPropertyOp12
 70
     1
102
RTVSPropertyOp13
 70
     1
102
RTVSPropertyOp14
 70
     1
102
RTVSPropertyOp15
 70
     1
102
RTVSPropertyOp16
 70
     1
102
RTVSPropertyOp17
 70
     1
102
RTVSPropertyOp18
 70
     1
102
RTVSPropertyOp19
 70
     1
102
RTVSPropertyOp20
 70
     1
102
RTVSPropertyOp21
 70
     1
102
RTVSPropertyOp22
 70
     1
102
RTVSPropertyOp23
 70
     1
102
RTVSPropertyOp24
 70
     1
102
RTVSPropertyOp25
 70
     1
102
RTVSPropertyOp26
 70
     1
102
RTVSPropertyOp27
 70
     1
  0
XRECORD
  5
264
102
{ACAD_REACTORS
330
263
102
}
330
263
100
AcDbXrecord
280
     1
102
RTVSPropertyOp0
 70
     1
102
RTVSPropertyOp1
 70
     1
102
RTVSPropertyOp2
 70
     1
102
RTVSPropertyOp3
 70
     1
102
RTVSPropertyOp4
 70
     1
102
RTVSPropertyOp5
 70
     1
102
RTVSPropertyOp6
 70
     1
102
RTVSPropertyOp7
 70
     1
102
RTVSPropertyOp8
 70
     1
102
RTVSPropertyOp9
 70
     1
102
RTVSPropertyOp10
 70
     1
102
RTVSPropertyOp11
 70
     1
102
RTVSPropertyOp12
 70
     1
102
RTVSPropertyOp13
 70
     1
102
RTVSPropertyOp14
 70
     1
102
RTVSPropertyOp15
 70
     1
102
RTVSPropertyOp16
 70
     1
102
RTVSPropertyOp17
 70
     1
102
RTVSPropertyOp18
 70
     1
102
RTVSPropertyOp19
 70
     1
102
RTVSPropertyOp20
 70
     1
102
RTVSPropertyOp21
 70
     1
102
RTVSPropertyOp22
 70
     1
102
RTVSPropertyOp23
 70
     1
102
RTVSPropertyOp24
 70
     1
102
RTVSPropertyOp25
 70
     1
102
RTVSPropertyOp26
 70
     1
102
RTVSPropertyOp27
 70
     1
  0
XRECORD
  5
26C
102
{ACAD_REACTORS
330
26B
102
}
330
26B
100
AcDbXrecord
280
     1
102
RTVSPropertyOp0
 70
     1
102
RTVSPropertyOp1
 70
     1
102
RTVSPropertyOp2
 70
     1
102
RTVSPropertyOp3
 70
     1
102
RTVSPropertyOp4
 70
     1
102
RTVSPropertyOp5
 70
     1
102
RTVSPropertyOp6
 70
     1
102
RTVSPropertyOp7
 70
     1
102
RTVSPropertyOp8
 70
     1
102
RTVSPropertyOp9
 70
     1
102
RTVSPropertyOp10
 70
     1
102
RTVSPropertyOp11
 70
     1
102
RTVSPropertyOp12
 70
     1
102
RTVSPropertyOp13
 70
     1
102
RTVSPropertyOp14
 70
     1
102
RTVSPropertyOp15
 70
     1
102
RTVSPropertyOp16
 70
     1
102
RTVSPropertyOp17
 70
     1
102
RTVSPropertyOp18
 70
     1
102
RTVSPropertyOp19
 70
     1
102
RTVSPropertyOp20
 70
     1
102
RTVSPropertyOp21
 70
     1
102
RTVSPropertyOp22
 70
     1
102
RTVSPropertyOp23
 70
     1
102
RTVSPropertyOp24
 70
     1
102
RTVSPropertyOp25
 70
     1
102
RTVSPropertyOp26
 70
     1
102
RTVSPropertyOp27
 70
     1
  0
XRECORD
  5
250
102
{ACAD_REACTORS
330
24F
102
}
330
24F
100
AcDbXrecord
280
     1
102
RTVSPropertyOp0
 70
     1
102
RTVSPropertyOp1
 70
     1
102
RTVSPropertyOp2
 70
     1
102
RTVSPropertyOp3
 70
     1
102
RTVSPropertyOp4
 70
     1
102
RTVSPropertyOp5
 70
     1
102
RTVSPropertyOp6
 70
     1
102
RTVSPropertyOp7
 70
     1
102
RTVSPropertyOp8
 70
     1
102
RTVSPropertyOp9
 70
     1
102
RTVSPropertyOp10
 70
     1
102
RTVSPropertyOp11
 70
     1
102
RTVSPropertyOp12
 70
     1
102
RTVSPropertyOp13
 70
     1
102
RTVSPropertyOp14
 70
     1
102
RTVSPropertyOp15
 70
     1
102
RTVSPropertyOp16
 70
     1
102
RTVSPropertyOp17
 70
     1
102
RTVSPropertyOp18
 70
     1
102
RTVSPropertyOp19
 70
     1
102
RTVSPropertyOp20
 70
     1
102
RTVSPropertyOp21
 70
     1
102
RTVSPropertyOp22
 70
     1
102
RTVSPropertyOp23
 70
     1
102
RTVSPropertyOp24
 70
     1
102
RTVSPropertyOp25
 70
     1
102
RTVSPropertyOp26
 70
     1
102
RTVSPropertyOp27
 70
     1
  0
XRECORD
  5
252
102
{ACAD_REACTORS
330
251
102
}
330
251
100
AcDbXrecord
280
     1
102
RTVSPropertyOp0
 70
     1
102
RTVSPropertyOp1
 70
     1
102
RTVSPropertyOp2
 70
     1
102
RTVSPropertyOp3
 70
     1
102
RTVSPropertyOp4
 70
     1
102
RTVSPropertyOp5
 70
     1
102
RTVSPropertyOp6
 70
     1
102
RTVSPropertyOp7
 70
     1
102
RTVSPropertyOp8
 70
     1
102
RTVSPropertyOp9
 70
     1
102
RTVSPropertyOp10
 70
     1
102
RTVSPropertyOp11
 70
     1
102
RTVSPropertyOp12
 70
     1
102
RTVSPropertyOp13
 70
     1
102
RTVSPropertyOp14
 70
     1
102
RTVSPropertyOp15
 70
     1
102
RTVSPropertyOp16
 70
     1
102
RTVSPropertyOp17
 70
     1
102
RTVSPropertyOp18
 70
     1
102
RTVSPropertyOp19
 70
     1
102
RTVSPropertyOp20
 70
     1
102
RTVSPropertyOp21
 70
     1
102
RTVSPropertyOp22
 70
     1
102
RTVSPropertyOp23
 70
     1
102
RTVSPropertyOp24
 70
     1
102
RTVSPropertyOp25
 70
     1
102
RTVSPropertyOp26
 70
     1
102
RTVSPropertyOp27
 70
     1
  0
XRECORD
  5
254
102
{ACAD_REACTORS
330
253
102
}
330
253
100
AcDbXrecord
280
     1
102
RTVSPropertyOp0
 70
     1
102
RTVSPropertyOp1
 70
     1
102
RTVSPropertyOp2
 70
     1
102
RTVSPropertyOp3
 70
     1
102
RTVSPropertyOp4
 70
     1
102
RTVSPropertyOp5
 70
     1
102
RTVSPropertyOp6
 70
     1
102
RTVSPropertyOp7
 70
     1
102
RTVSPropertyOp8
 70
     1
102
RTVSPropertyOp9
 70
     1
102
RTVSPropertyOp10
 70
     1
102
RTVSPropertyOp11
 70
     1
102
RTVSPropertyOp12
 70
     1
102
RTVSPropertyOp13
 70
     1
102
RTVSPropertyOp14
 70
     1
102
RTVSPropertyOp15
 70
     1
102
RTVSPropertyOp16
 70
     1
102
RTVSPropertyOp17
 70
     1
102
RTVSPropertyOp18
 70
     1
102
RTVSPropertyOp19
 70
     1
102
RTVSPropertyOp20
 70
     1
102
RTVSPropertyOp21
 70
     1
102
RTVSPropertyOp22
 70
     1
102
RTVSPropertyOp23
 70
     1
102
RTVSPropertyOp24
 70
     1
102
RTVSPropertyOp25
 70
     1
102
RTVSPropertyOp26
 70
     1
102
RTVSPropertyOp27
 70
     1
  0
XRECORD
  5
256
102
{ACAD_REACTORS
330
255
102
}
330
255
100
AcDbXrecord
280
     1
102
RTVSPropertyOp0
 70
     1
102
RTVSPropertyOp1
 70
     1
102
RTVSPropertyOp2
 70
     1
102
RTVSPropertyOp3
 70
     1
102
RTVSPropertyOp4
 70
     1
102
RTVSPropertyOp5
 70
     1
102
RTVSPropertyOp6
 70
     1
102
RTVSPropertyOp7
 70
     1
102
RTVSPropertyOp8
 70
     1
102
RTVSPropertyOp9
 70
     1
102
RTVSPropertyOp10
 70
     1
102
RTVSPropertyOp11
 70
     1
102
RTVSPropertyOp12
 70
     1
102
RTVSPropertyOp13
 70
     1
102
RTVSPropertyOp14
 70
     1
102
RTVSPropertyOp15
 70
     1
102
RTVSPropertyOp16
 70
     1
102
RTVSPropertyOp17
 70
     1
102
RTVSPropertyOp18
 70
     1
102
RTVSPropertyOp19
 70
     1
102
RTVSPropertyOp20
 70
     1
102
RTVSPropertyOp21
 70
     1
102
RTVSPropertyOp22
 70
     1
102
RTVSPropertyOp23
 70
     1
102
RTVSPropertyOp24
 70
     1
102
RTVSPropertyOp25
 70
     1
102
RTVSPropertyOp26
 70
     1
102
RTVSPropertyOp27
 70
     1
  0
XRECORD
  5
26A
102
{ACAD_REACTORS
330
269
102
}
330
269
100
AcDbXrecord
280
     1
102
RTVSPropertyOp0
 70
     1
102
RTVSPropertyOp1
 70
     1
102
RTVSPropertyOp2
 70
     1
102
RTVSPropertyOp3
 70
     1
102
RTVSPropertyOp4
 70
     1
102
RTVSPropertyOp5
 70
     1
102
RTVSPropertyOp6
 70
     1
102
RTVSPropertyOp7
 70
     1
102
RTVSPropertyOp8
 70
     1
102
RTVSPropertyOp9
 70
     1
102
RTVSPropertyOp10
 70
     1
102
RTVSPropertyOp11
 70
     1
102
RTVSPropertyOp12
 70
     1
102
RTVSPropertyOp13
 70
     1
102
RTVSPropertyOp14
 70
     1
102
RTVSPropertyOp15
 70
     1
102
RTVSPropertyOp16
 70
     1
102
RTVSPropertyOp17
 70
     1
102
RTVSPropertyOp18
 70
     1
102
RTVSPropertyOp19
 70
     1
102
RTVSPropertyOp20
 70
     1
102
RTVSPropertyOp21
 70
     1
102
RTVSPropertyOp22
 70
     1
102
RTVSPropertyOp23
 70
     1
102
RTVSPropertyOp24
 70
     1
102
RTVSPropertyOp25
 70
     1
102
RTVSPropertyOp26
 70
     1
102
RTVSPropertyOp27
 70
     1
  0
XRECORD
  5
260
102
{ACAD_REACTORS
330
25F
102
}
330
25F
100
AcDbXrecord
280
     1
102
RTVSPropertyOp0
 70
     1
102
RTVSPropertyOp1
 70
     1
102
RTVSPropertyOp2
 70
     1
102
RTVSPropertyOp3
 70
     1
102
RTVSPropertyOp4
 70
     1
102
RTVSPropertyOp5
 70
     1
102
RTVSPropertyOp6
 70
     1
102
RTVSPropertyOp7
 70
     1
102
RTVSPropertyOp8
 70
     1
102
RTVSPropertyOp9
 70
     1
102
RTVSPropertyOp10
 70
     1
102
RTVSPropertyOp11
 70
     1
102
RTVSPropertyOp12
 70
     1
102
RTVSPropertyOp13
 70
     1
102
RTVSPropertyOp14
 70
     1
102
RTVSPropertyOp15
 70
     1
102
RTVSPropertyOp16
 70
     1
102
RTVSPropertyOp17
 70
     1
102
RTVSPropertyOp18
 70
     1
102
RTVSPropertyOp19
 70
     1
102
RTVSPropertyOp20
 70
     1
102
RTVSPropertyOp21
 70
     1
102
RTVSPropertyOp22
 70
     1
102
RTVSPropertyOp23
 70
     1
102
RTVSPropertyOp24
 70
     1
102
RTVSPropertyOp25
 70
     1
102
RTVSPropertyOp26
 70
     1
102
RTVSPropertyOp27
 70
     1
  0
XRECORD
  5
268
102
{ACAD_REACTORS
330
267
102
}
330
267
100
AcDbXrecord
280
     1
102
RTVSPropertyOp0
 70
     1
102
RTVSPropertyOp1
 70
     1
102
RTVSPropertyOp2
 70
     1
102
RTVSPropertyOp3
 70
     1
102
RTVSPropertyOp4
 70
     1
102
RTVSPropertyOp5
 70
     1
102
RTVSPropertyOp6
 70
     1
102
RTVSPropertyOp7
 70
     1
102
RTVSPropertyOp8
 70
     1
102
RTVSPropertyOp9
 70
     1
102
RTVSPropertyOp10
 70
     1
102
RTVSPropertyOp11
 70
     1
102
RTVSPropertyOp12
 70
     1
102
RTVSPropertyOp13
 70
     1
102
RTVSPropertyOp14
 70
     1
102
RTVSPropertyOp15
 70
     1
102
RTVSPropertyOp16
 70
     1
102
RTVSPropertyOp17
 70
     1
102
RTVSPropertyOp18
 70
     1
102
RTVSPropertyOp19
 70
     1
102
RTVSPropertyOp20
 70
     1
102
RTVSPropertyOp21
 70
     1
102
RTVSPropertyOp22
 70
     1
102
RTVSPropertyOp23
 70
     1
102
RTVSPropertyOp24
 70
     1
102
RTVSPropertyOp25
 70
     1
102
RTVSPropertyOp26
 70
     1
102
RTVSPropertyOp27
 70
     1
  0
ENDSEC
  0
EOF
