  0
SECTION
  2
HEADER
  9
$ACADVER
  1
AC1015
  9
$ACADMAINTVER
 70
     6
  9
$DWGCODEPAGE
  3
ANSI_932
  9
$INSBASE
 10
0.0
 20
0.0
 30
0.0
  9
$EXTMIN
 10
131.499990475517
 20
-3.0661102634825
 30
0.0
  9
$EXTMAX
 10
410.319506741694
 20
296.493434545587
 30
0.0
  9
$LIMMIN
 10
0.0
 20
0.0
  9
$LIMMAX
 10
12.0
 20
9.0
  9
$ORTHOMODE
 70
     0
  9
$REGENMODE
 70
     1
  9
$FILLMODE
 70
     1
  9
$QTEXTMODE
 70
     0
  9
$MIRRTEXT
 70
     1
  9
$LTSCALE
 40
1.0
  9
$ATTMODE
 70
     1
  9
$TEXTSIZE
 40
0.2
  9
$TRACEWID
 40
0.05
  9
$TEXTSTYLE
  7
Standard
  9
$CLAYER
  8
0
  9
$CELTYPE
  6
ByLayer
  9
$CECOLOR
 62
   256
  9
$CELTSCALE
 40
1.0
  9
$DISPSILH
 70
     0
  9
$DIMSCALE
 40
1.0
  9
$DIMASZ
 40
0.18
  9
$DIMEXO
 40
0.0625
  9
$DIMDLI
 40
0.38
  9
$DIMRND
 40
0.0
  9
$DIMDLE
 40
0.0
  9
$DIMEXE
 40
0.18
  9
$DIMTP
 40
0.0
  9
$DIMTM
 40
0.0
  9
$DIMTXT
 40
0.18
  9
$DIMCEN
 40
0.09
  9
$DIMTSZ
 40
0.0
  9
$DIMTOL
 70
     0
  9
$DIMLIM
 70
     0
  9
$DIMTIH
 70
     1
  9
$DIMTOH
 70
     1
  9
$DIMSE1
 70
     0
  9
$DIMSE2
 70
     0
  9
$DIMTAD
 70
     0
  9
$DIMZIN
 70
     0
  9
$DIMBLK
  1

  9
$DIMASO
 70
     1
  9
$DIMSHO
 70
     1
  9
$DIMPOST
  1

  9
$DIMAPOST
  1

  9
$DIMALT
 70
     0
  9
$DIMALTD
 70
     2
  9
$DIMALTF
 40
25.4
  9
$DIMLFAC
 40
1.0
  9
$DIMTOFL
 70
     0
  9
$DIMTVP
 40
0.0
  9
$DIMTIX
 70
     0
  9
$DIMSOXD
 70
     0
  9
$DIMSAH
 70
     0
  9
$DIMBLK1
  1

  9
$DIMBLK2
  1

  9
$DIMSTYLE
  2
Standard
  9
$DIMCLRD
 70
     0
  9
$DIMCLRE
 70
     0
  9
$DIMCLRT
 70
     0
  9
$DIMTFAC
 40
1.0
  9
$DIMGAP
 40
0.09
  9
$DIMJUST
 70
     0
  9
$DIMSD1
 70
     0
  9
$DIMSD2
 70
     0
  9
$DIMTOLJ
 70
     1
  9
$DIMTZIN
 70
     0
  9
$DIMALTZ
 70
     0
  9
$DIMALTTZ
 70
     0
  9
$DIMUPT
 70
     0
  9
$DIMDEC
 70
     4
  9
$DIMTDEC
 70
     4
  9
$DIMALTU
 70
     2
  9
$DIMALTTD
 70
     2
  9
$DIMTXSTY
  7
Standard
  9
$DIMAUNIT
 70
     0
  9
$DIMADEC
 70
     0
  9
$DIMALTRND
 40
0.0
  9
$DIMAZIN
 70
     0
  9
$DIMDSEP
 70
    46
  9
$DIMATFIT
 70
     3
  9
$DIMFRAC
 70
     0
  9
$DIMLDRBLK
  1

  9
$DIMLUNIT
 70
     2
  9
$DIMLWD
 70
    -2
  9
$DIMLWE
 70
    -2
  9
$DIMTMOVE
 70
     0
  9
$LUNITS
 70
     2
  9
$LUPREC
 70
     4
  9
$SKETCHINC
 40
0.1
  9
$FILLETRAD
 40
0.5
  9
$AUNITS
 70
     0
  9
$AUPREC
 70
     0
  9
$MENU
  1
.
  9
$ELEVATION
 40
0.0
  9
$PELEVATION
 40
0.0
  9
$THICKNESS
 40
0.0
  9
$LIMCHECK
 70
     0
  9
$CHAMFERA
 40
0.5
  9
$CHAMFERB
 40
0.5
  9
$CHAMFERC
 40
1.0
  9
$CHAMFERD
 40
0.0
  9
$SKPOLY
 70
     0
  9
$TDCREATE
 40
2457624.639805116
  9
$TDUCREATE
 40
2457624.264805116
  9
$TDUPDATE
 40
2457624.639805127
  9
$TDUUPDATE
 40
2457624.264805127
  9
$TDINDWG
 40
0.0000000116
  9
$TDUSRTIMER
 40
0.0000000116
  9
$USRTIMER
 70
     1
  9
$ANGBASE
 50
0.0
  9
$ANGDIR
 70
     0
  9
$PDMODE
 70
     0
  9
$PDSIZE
 40
0.0
  9
$PLINEWID
 40
0.0
  9
$SPLFRAME
 70
     0
  9
$SPLINETYPE
 70
     6
  9
$SPLINESEGS
 70
     8
  9
$HANDSEED
  5
336
  9
$SURFTAB1
 70
     6
  9
$SURFTAB2
 70
     6
  9
$SURFTYPE
 70
     6
  9
$SURFU
 70
     6
  9
$SURFV
 70
     6
  9
$UCSBASE
  2

  9
$UCSNAME
  2

  9
$UCSORG
 10
0.0
 20
0.0
 30
0.0
  9
$UCSXDIR
 10
1.0
 20
0.0
 30
0.0
  9
$UCSYDIR
 10
0.0
 20
1.0
 30
0.0
  9
$UCSORTHOREF
  2

  9
$UCSORTHOVIEW
 70
     0
  9
$UCSORGTOP
 10
0.0
 20
0.0
 30
0.0
  9
$UCSORGBOTTOM
 10
0.0
 20
0.0
 30
0.0
  9
$UCSORGLEFT
 10
0.0
 20
0.0
 30
0.0
  9
$UCSORGRIGHT
 10
0.0
 20
0.0
 30
0.0
  9
$UCSORGFRONT
 10
0.0
 20
0.0
 30
0.0
  9
$UCSORGBACK
 10
0.0
 20
0.0
 30
0.0
  9
$PUCSBASE
  2

  9
$PUCSNAME
  2

  9
$PUCSORG
 10
0.0
 20
0.0
 30
0.0
  9
$PUCSXDIR
 10
1.0
 20
0.0
 30
0.0
  9
$PUCSYDIR
 10
0.0
 20
1.0
 30
0.0
  9
$PUCSORTHOREF
  2

  9
$PUCSORTHOVIEW
 70
     0
  9
$PUCSORGTOP
 10
0.0
 20
0.0
 30
0.0
  9
$PUCSORGBOTTOM
 10
0.0
 20
0.0
 30
0.0
  9
$PUCSORGLEFT
 10
0.0
 20
0.0
 30
0.0
  9
$PUCSORGRIGHT
 10
0.0
 20
0.0
 30
0.0
  9
$PUCSORGFRONT
 10
0.0
 20
0.0
 30
0.0
  9
$PUCSORGBACK
 10
0.0
 20
0.0
 30
0.0
  9
$USERI1
 70
     0
  9
$USERI2
 70
     0
  9
$USERI3
 70
     0
  9
$USERI4
 70
     0
  9
$USERI5
 70
     0
  9
$USERR1
 40
18.0
  9
$USERR2
 40
0.0
  9
$USERR3
 40
0.0
  9
$USERR4
 40
0.0
  9
$USERR5
 40
0.0
  9
$WORLDVIEW
 70
     1
  9
$SHADEDGE
 70
     3
  9
$SHADEDIF
 70
    70
  9
$TILEMODE
 70
     1
  9
$MAXACTVP
 70
    64
  9
$PINSBASE
 10
0.0
 20
0.0
 30
0.0
  9
$PLIMCHECK
 70
     0
  9
$PEXTMIN
 10
1.00000000000000E+20
 20
1.00000000000000E+20
 30
1.00000000000000E+20
  9
$PEXTMAX
 10
-1.00000000000000E+20
 20
-1.00000000000000E+20
 30
-1.00000000000000E+20
  9
$PLIMMIN
 10
0.0
 20
0.0
  9
$PLIMMAX
 10
12.0
 20
9.0
  9
$UNITMODE
 70
     0
  9
$VISRETAIN
 70
     1
  9
$PLINEGEN
 70
     0
  9
$PSLTSCALE
 70
     1
  9
$TREEDEPTH
 70
  3020
  9
$CMLSTYLE
  2
Standard
  9
$CMLJUST
 70
     0
  9
$CMLSCALE
 40
1.0
  9
$PROXYGRAPHICS
 70
     1
  9
$MEASUREMENT
 70
     1
  9
$CELWEIGHT
370
    -1
  9
$ENDCAPS
280
     0
  9
$JOINSTYLE
280
     0
  9
$LWDISPLAY
290
     0
  9
$INSUNITS
 70
     1
  9
$HYPERLINKBASE
  1

  9
$STYLESHEET
  1

  9
$XEDIT
290
     1
  9
$CEPSNTYPE
380
     0
  9
$PSTYLEMODE
290
     1
  9
$FINGERPRINTGUID
  2
{C3815396-1573-4E84-80C8-B841CECFA496}
  9
$VERSIONGUID
  2
{FAEB1C32-E019-11D5-929B-00C0DF256EC4}
  9
$EXTNAMES
290
     1
  9
$PSVPSCALE
 40
0.0
  9
$OLESTARTUP
290
     0
  0
ENDSEC
  0
SECTION
  2
CLASSES
  0
CLASS
  1
ACDBDICTIONARYWDFLT
  2
AcDbDictionaryWithDefault
  3
ObjectDBX Classes
 90
        0
280
     0
281
     0
  0
CLASS
  1
VISUALSTYLE
  2
AcDbVisualStyle
  3
ObjectDBX Classes
 90
     4095
280
     0
281
     0
  0
CLASS
  1
MATERIAL
  2
AcDbMaterial
  3
ObjectDBX Classes
 90
     1153
280
     0
281
     0
  0
CLASS
  1

  2
exOdDbCircle
  3

 90
        0
280
     0
281
     1
  0
CLASS
  1

  2
exOdDbPolyline
  3

 90
        0
280
     0
281
     1
  0
CLASS
  1
SCALE
  2
AcDbScale
  3
ObjectDBX Classes
 90
     1153
280
     0
281
     0
  0
CLASS
  1
DICTIONARYVAR
  2
AcDbDictionaryVar
  3
ObjectDBX Classes
 90
        0
280
     0
281
     0
  0
CLASS
  1
ACDBPLACEHOLDER
  2
AcDbPlaceHolder
  3
ObjectDBX Classes
 90
        0
280
     0
281
     0
  0
CLASS
  1
LAYOUT
  2
AcDbLayout
  3
ObjectDBX Classes
 90
        0
280
     0
281
     0
  0
ENDSEC
  0
SECTION
  2
TABLES
  0
TABLE
  2
VPORT
  5
8
330
0
100
AcDbSymbolTable
 70
     1
  0
VPORT
  5
29
330
8
100
AcDbSymbolTableRecord
100
AcDbViewportTableRecord
  2
*Active
 70
     0
 10
0.0
 20
0.0
 11
1.0
 21
1.0
 12
270.9097486086055
 22
146.7136621410522
 13
0.0
 23
0.0
 14
0.5
 24
0.5
 15
0.5
 25
0.5
 16
0.0
 26
0.0
 36
1.0
 17
0.0
 27
0.0
 37
0.0
 40
329.5154992899765
 41
1.60267857142857
 42
50.0
 43
0.0
 44
0.0
 50
0.0
 51
0.0
 71
     0
 72
   100
 73
     1
 74
     3
 75
     0
 76
     0
 77
     0
 78
     0
281
     0
 65
     1
110
0.0
120
0.0
130
0.0
111
1.0
121
0.0
131
0.0
112
0.0
122
1.0
132
0.0
 79
     0
146
0.0
  0
ENDTAB
  0
TABLE
  2
LTYPE
  5
5
330
0
100
AcDbSymbolTable
 70
     9
  0
LTYPE
  5
14
330
5
100
AcDbSymbolTableRecord
100
AcDbLinetypeTableRecord
  2
ByBlock
 70
     0
  3

 72
    65
 73
     0
 40
0.0
  0
LTYPE
  5
15
330
5
100
AcDbSymbolTableRecord
100
AcDbLinetypeTableRecord
  2
ByLayer
 70
     0
  3

 72
    65
 73
     0
 40
0.0
  0
LTYPE
  5
16
330
5
100
AcDbSymbolTableRecord
100
AcDbLinetypeTableRecord
  2
Continuous
 70
     0
  3
Solid line
 72
    65
 73
     0
 40
0.0
  0
LTYPE
  5
3F
330
5
100
AcDbSymbolTableRecord
100
AcDbLinetypeTableRecord
  2
DASHED
 70
     0
  3
Dashed
 72
    65
 73
     2
 40
15.0
 49
7.0
 74
     0
 49
-8.0
 74
     0
  0
LTYPE
  5
40
330
5
100
AcDbSymbolTableRecord
100
AcDbLinetypeTableRecord
  2
DOTTED
 70
     0
  3
Dotted
 72
    65
 73
     2
 40
1.0
 49
0.0
 74
     0
 49
-1.0
 74
     0
  0
LTYPE
  5
41
330
5
100
AcDbSymbolTableRecord
100
AcDbLinetypeTableRecord
  2
DOT_CENTER
 70
     0
  3
Dot_Center
 72
    65
 73
     4
 40
14.0
 49
12.0
 74
     0
 49
-1.0
 74
     0
 49
0.0
 74
     0
 49
-1.0
 74
     0
  0
LTYPE
  5
42
330
5
100
AcDbSymbolTableRecord
100
AcDbLinetypeTableRecord
  2
LONG_DASHED
 70
     0
  3
Long_Dashed
 72
    65
 73
     2
 40
15.0
 49
10.0
 74
     0
 49
-5.0
 74
     0
  0
LTYPE
  5
43
330
5
100
AcDbSymbolTableRecord
100
AcDbLinetypeTableRecord
  2
DASH_CENTER
 70
     0
  3
Dash_Center
 72
    65
 73
     4
 40
14.0
 49
11.0
 74
     0
 49
-1.0
 74
     0
 49
1.0
 74
     0
 49
-1.0
 74
     0
  0
LTYPE
  5
44
330
5
100
AcDbSymbolTableRecord
100
AcDbLinetypeTableRecord
  2
PHANTOM
 70
     0
  3
Phantom
 72
    65
 73
     6
 40
13.0
 49
10.0
 74
     0
 49
-1.0
 74
     0
 49
0.0
 74
     0
 49
-1.0
 74
     0
 49
0.0
 74
     0
 49
-1.0
 74
     0
  0
LTYPE
  5
45
330
5
100
AcDbSymbolTableRecord
100
AcDbLinetypeTableRecord
  2
CENTER_DASH_DASH
 70
     0
  3
Center_Dash_Dash
 72
    65
 73
     6
 40
14.0
 49
9.0
 74
     0
 49
-1.0
 74
     0
 49
1.0
 74
     0
 49
-1.0
 74
     0
 49
1.0
 74
     0
 49
-1.0
 74
     0
  0
LTYPE
  5
46
330
5
100
AcDbSymbolTableRecord
100
AcDbLinetypeTableRecord
  2
CENTER
 70
     0
  3
CENTER
 72
    65
 73
     4
 40
6.0
 49
3.0
 74
     0
 49
-1.0
 74
     0
 49
1.0
 74
     0
 49
-1.0
 74
     0
  0
ENDTAB
  0
TABLE
  2
LAYER
  5
2
330
0
100
AcDbSymbolTable
 70
     4
  0
LAYER
  5
10
330
2
100
AcDbSymbolTableRecord
100
AcDbLayerTableRecord
  2
0
 70
     0
 62
     7
  6
Continuous
370
    -3
390
F
  0
LAYER
  5
47
330
2
100
AcDbSymbolTableRecord
100
AcDbLayerTableRecord
  2
1
 70
     0
 62
     7
  6
Continuous
370
    -3
390
F
  0
LAYER
  5
48
330
2
100
AcDbSymbolTableRecord
100
AcDbLayerTableRecord
  2
2
 70
     0
 62
     7
  6
Continuous
370
    -3
390
F
  0
LAYER
  5
49
330
2
100
AcDbSymbolTableRecord
100
AcDbLayerTableRecord
  2
5
 70
     0
 62
     7
  6
Continuous
370
    -3
390
F
  0
ENDTAB
  0
TABLE
  2
STYLE
  5
3
330
0
100
AcDbSymbolTable
 70
     2
  0
STYLE
  5
11
330
3
100
AcDbSymbolTableRecord
100
AcDbTextStyleTableRecord
  2
Standard
 70
     0
 40
0.0
 41
1.0
 50
0.0
 71
     0
 42
0.2
  3
txt
  4

  0
STYLE
  5
2CF
330
3
100
AcDbSymbolTableRecord
100
AcDbTextStyleTableRecord
  2
CONVERTER_11
 70
     0
 40
0.0
 41
0.9
 50
0.0
 71
     0
 42
0.2
  3
txt.shx
  4

  0
ENDTAB
  0
TABLE
  2
VIEW
  5
6
330
0
100
AcDbSymbolTable
 70
     0
  0
ENDTAB
  0
TABLE
  2
UCS
  5
7
330
0
100
AcDbSymbolTable
 70
     0
  0
ENDTAB
  0
TABLE
  2
APPID
  5
9
330
0
100
AcDbSymbolTable
 70
     1
  0
APPID
  5
12
330
9
100
AcDbSymbolTableRecord
100
AcDbRegAppTableRecord
  2
ACAD
 70
     0
  0
ENDTAB
  0
TABLE
  2
DIMSTYLE
  5
A
330
0
100
AcDbSymbolTable
 70
     3
100
AcDbDimStyleTable
  0
DIMSTYLE
105
27
330
A
100
AcDbSymbolTableRecord
100
AcDbDimStyleTableRecord
  2
Standard
 70
     0
340
11
  0
DIMSTYLE
105
2FB
102
{ACAD_REACTORS
330
2FC
102
}
330
A
100
AcDbSymbolTableRecord
100
AcDbDimStyleTableRecord
  2
ME10_DIM_10
 70
     0
 41
8.0
 42
1.0
 44
1.0
 73
     0
 74
     0
 77
     1
 78
    12
140
10.0
147
1.0
172
     1
173
     1
174
     1
175
     1
176
     2
177
     2
178
     2
271
     3
340
2CF
343
2F5
344
2F5
  0
DIMSTYLE
105
308
102
{ACAD_REACTORS
330
309
102
}
330
A
100
AcDbSymbolTableRecord
100
AcDbDimStyleTableRecord
  2
ME10_DIM_11
 70
     0
 41
8.0
 42
1.0
 44
1.0
 73
     0
 74
     0
 77
     1
 78
    12
140
10.0
147
1.0
172
     1
173
     1
174
     1
175
     1
176
     2
177
     2
178
     2
271
     3
340
2CF
343
2F5
344
2F5
  0
ENDTAB
  0
TABLE
  2
BLOCK_RECORD
  5
1
330
0
100
AcDbSymbolTable
 70
     4
  0
BLOCK_RECORD
  5
1F
330
1
100
AcDbSymbolTableRecord
100
AcDbBlockTableRecord
  2
*Model_Space
340
22
  0
BLOCK_RECORD
  5
1B
330
1
100
AcDbSymbolTableRecord
100
AcDbBlockTableRecord
  2
*Paper_Space
340
1E
  0
BLOCK_RECORD
  5
23
330
1
100
AcDbSymbolTableRecord
100
AcDbBlockTableRecord
  2
*Paper_Space0
340
26
  0
BLOCK_RECORD
  5
2C7
330
1
100
AcDbSymbolTableRecord
100
AcDbBlockTableRecord
  2
*D1
340
0
  0
BLOCK_RECORD
  5
2F5
330
1
100
AcDbSymbolTableRecord
100
AcDbBlockTableRecord
  2
_OPEN30
340
0
  0
BLOCK_RECORD
  5
2FD
330
1
100
AcDbSymbolTableRecord
100
AcDbBlockTableRecord
  2
*D3
340
0
  0
ENDTAB
  0
ENDSEC
  0
SECTION
  2
BLOCKS
  0
BLOCK
  5
20
330
1F
100
AcDbEntity
  8
0
100
AcDbBlockBegin
  2
*Model_Space
 70
     0
 10
0.0
 20
0.0
 30
0.0
  3
*Model_Space
  1

  0
ENDBLK
  5
21
330
1F
100
AcDbEntity
  8
0
100
AcDbBlockEnd
  0
BLOCK
  5
1C
330
1B
100
AcDbEntity
 67
     1
  8
0
100
AcDbBlockBegin
  2
*Paper_Space
 70
     0
 10
0.0
 20
0.0
 30
0.0
  3
*Paper_Space
  1

  0
ENDBLK
  5
1D
330
1B
100
AcDbEntity
 67
     1
  8
0
100
AcDbBlockEnd
  0
BLOCK
  5
24
330
23
100
AcDbEntity
  8
0
100
AcDbBlockBegin
  2
*Paper_Space0
 70
     0
 10
0.0
 20
0.0
 30
0.0
  3
*Paper_Space0
  1

  0
ENDBLK
  5
25
330
23
100
AcDbEntity
  8
0
100
AcDbBlockEnd
  0
BLOCK
  5
2F3
330
2C7
100
AcDbEntity
  8
0
100
AcDbBlockBegin
  2
*D1
 70
     1
 10
0.0
 20
0.0
 30
0.0
  3
*D1
  1

  0
LINE
  5
2C8
330
2C7
100
AcDbEntity
  8
1
  6
Continuous
 62
     2
100
AcDbLine
 10
188.615765790895
 20
-0.92251672403352
 30
0.0
 11
298.615765790895
 21
-0.92251672403352
 31
0.0
  0
LINE
  5
2C9
330
2C7
100
AcDbEntity
  8
1
  6
Continuous
 62
     2
100
AcDbLine
 10
188.615765790895
 20
35.19999999999998
 30
0.0
 11
188.615765790895
 21
-1.92251672403352
 31
0.0
  0
LINE
  5
2CA
330
2C7
100
AcDbEntity
  8
1
  6
Continuous
 62
     2
100
AcDbLine
 10
298.615765790895
 20
35.19999999999998
 30
0.0
 11
298.615765790895
 21
-1.92251672403352
 31
0.0
  0
LINE
  5
2CB
330
2C7
100
AcDbEntity
  8
1
 62
     2
100
AcDbLine
 10
298.615765790895
 20
-0.92251672403352
 30
0.0
 11
290.615765790895
 21
-3.0661102634825
 31
0.0
  0
LINE
  5
2CC
330
2C7
100
AcDbEntity
  8
1
 62
     2
100
AcDbLine
 10
298.615765790895
 20
-0.92251672403352
 30
0.0
 11
290.615765790895
 21
1.22107681541546
 31
0.0
  0
LINE
  5
2CD
330
2C7
100
AcDbEntity
  8
1
 62
     2
100
AcDbLine
 10
188.615765790895
 20
-0.92251672403352
 30
0.0
 11
196.615765790895
 21
1.22107681541546
 31
0.0
  0
LINE
  5
2CE
330
2C7
100
AcDbEntity
  8
1
 62
     2
100
AcDbLine
 10
188.615765790895
 20
-0.92251672403352
 30
0.0
 11
196.615765790895
 21
-3.0661102634825
 31
0.0
  0
MTEXT
  5
2F2
330
2C7
100
AcDbEntity
  8
1
 62
     2
100
AcDbMText
 10
232.5457779112696
 20
0.07745644154392
 30
0.0
 40
10.0
 41
0.0
 71
     7
 72
     1
  1
110
  7
CONVERTER_11
 11
0.9999999999882478
 21
4.848136811095759E-6
 31
0.0
 73
     1
 44
0.60024009603842
  0
ENDBLK
  5
2F4
330
2C7
100
AcDbEntity
  8
0
100
AcDbBlockEnd
  0
BLOCK
  5
2F6
330
2F5
100
AcDbEntity
  8
0
100
AcDbBlockBegin
  2
_OPEN30
 70
     0
 10
0.0
 20
0.0
 30
0.0
  3
_OPEN30
  1

  0
LINE
  5
2F8
330
2F5
100
AcDbEntity
  8
0
  6
ByBlock
 62
     0
370
    -2
100
AcDbLine
 10
-1.0
 20
0.267949
 30
0.0
 11
0.0
 21
0.0
 31
0.0
  0
LINE
  5
2F9
330
2F5
100
AcDbEntity
  8
0
  6
ByBlock
 62
     0
370
    -2
100
AcDbLine
 10
0.0
 20
0.0
 30
0.0
 11
-1.0
 21
-0.267949
 31
0.0
  0
LINE
  5
2FA
330
2F5
100
AcDbEntity
  8
0
  6
ByBlock
 62
     0
370
    -2
100
AcDbLine
 10
0.0
 20
0.0
 30
0.0
 11
-1.0
 21
0.0
 31
0.0
  0
ENDBLK
  5
2F7
330
2F5
100
AcDbEntity
  8
0
100
AcDbBlockEnd
  0
BLOCK
  5
306
330
2FD
100
AcDbEntity
  8
0
100
AcDbBlockBegin
  2
*D3
 70
     1
 10
0.0
 20
0.0
 30
0.0
  3
*D3
  1

  0
LINE
  5
2FE
330
2FD
100
AcDbEntity
  8
1
  6
Continuous
 62
     2
100
AcDbLine
 10
316.096353245672
 20
57.0
 30
0.0
 11
316.096353245672
 21
169.016127015244
 31
0.0
  0
LINE
  5
2FF
330
2FD
100
AcDbEntity
  8
1
  6
Continuous
 62
     2
100
AcDbLine
 10
304.615765790895
 20
57.0
 30
0.0
 11
317.096353245672
 21
57.0
 31
0.0
  0
LINE
  5
300
330
2FD
100
AcDbEntity
  8
1
  6
Continuous
 62
     2
100
AcDbLine
 10
245.7994505016
 20
169.016127015244
 30
0.0
 11
317.096353245672
 21
169.016127015244
 31
0.0
  0
LINE
  5
301
330
2FD
100
AcDbEntity
  8
1
 62
     2
100
AcDbLine
 10
316.096353245672
 20
169.016127015244
 30
0.0
 11
318.239946785121
 21
161.016127015244
 31
0.0
  0
LINE
  5
302
330
2FD
100
AcDbEntity
  8
1
 62
     2
100
AcDbLine
 10
316.096353245672
 20
169.016127015244
 30
0.0
 11
313.952759706223
 21
161.016127015244
 31
0.0
  0
LINE
  5
303
330
2FD
100
AcDbEntity
  8
1
 62
     2
100
AcDbLine
 10
316.096353245672
 20
57.0
 30
0.0
 11
313.952759706223
 21
65.0
 31
0.0
  0
LINE
  5
304
330
2FD
100
AcDbEntity
  8
1
 62
     2
100
AcDbLine
 10
316.096353245672
 20
57.0
 30
0.0
 11
318.239946785121
 21
65.0
 31
0.0
  0
MTEXT
  5
305
330
2FD
100
AcDbEntity
  8
1
 62
     2
100
AcDbMText
 10
315.096353245672
 20
106.194463562847
 30
0.0
 40
10.0
 41
0.0
 71
     7
 72
     1
  1
112
  7
CONVERTER_11
 11
0.0
 21
1.0
 31
0.0
 73
     1
 44
0.60024009603842
  0
ENDBLK
  5
307
330
2FD
100
AcDbEntity
  8
0
100
AcDbBlockEnd
  0
ENDSEC
  0
SECTION
  2
ENTITIES
  0
POINT
  5
4A
330
1F
100
AcDbEntity
  8
1
 62
     7
100
AcDbPoint
 10
188.615765790895
 20
36.2
 30
0.0
  0
POINT
  5
4B
330
1F
100
AcDbEntity
  8
1
 62
     7
100
AcDbPoint
 10
298.615765790895
 20
36.2
 30
0.0
  0
POINT
  5
4C
330
1F
100
AcDbEntity
  8
1
 62
     7
100
AcDbPoint
 10
303.615765790895
 20
57.0
 30
0.0
  0
POINT
  5
4D
330
1F
100
AcDbEntity
  8
1
 62
     7
100
AcDbPoint
 10
244.7994505016
 20
169.016127015243
 30
0.0
  0
LINE
  5
4E
330
1F
100
AcDbEntity
  8
1
  6
Continuous
 62
     4
100
AcDbLine
 10
265.812314911254
 20
21.2818765508203
 30
0.0
 11
265.020214911254
 21
20.0318765508203
 31
0.0
  0
LINE
  5
4F
330
1F
100
AcDbEntity
  8
1
  6
Continuous
 62
     4
100
AcDbLine
 10
265.020214911254
 20
22.5318765508203
 30
0.0
 11
265.812314911254
 21
21.2818765508203
 31
0.0
  0
LINE
  5
50
330
1F
100
AcDbEntity
  8
1
  6
Continuous
 62
     4
100
AcDbLine
 10
259.871564911254
 20
21.2818765508203
 30
0.0
 11
265.812314911254
 21
21.2818765508203
 31
0.0
  0
LINE
  5
51
330
1F
100
AcDbEntity
  8
1
  6
Continuous
 62
     4
100
AcDbLine
 10
253.336739911254
 20
24.1568765508203
 30
0.0
 11
257.891314911254
 21
24.1568765508203
 31
0.0
  0
LINE
  5
52
330
1F
100
AcDbEntity
  8
1
  6
Continuous
 62
     4
100
AcDbLine
 10
253.336739911254
 20
24.1568765508203
 30
0.0
 11
254.425877411254
 21
26.0318765508203
 31
0.0
  0
LINE
  5
53
330
1F
100
AcDbEntity
  8
1
  6
Continuous
 62
     4
100
AcDbLine
 10
255.911064911254
 20
19.4068765508203
 30
0.0
 11
254.227852411254
 21
19.4068765508203
 31
0.0
  0
LINE
  5
54
330
1F
100
AcDbEntity
  8
1
  6
Continuous
 62
     4
100
AcDbLine
 10
255.911064911254
 20
21.9068765508203
 30
0.0
 11
255.911064911254
 21
19.4068765508203
 31
0.0
  0
LINE
  5
55
330
1F
100
AcDbEntity
  8
1
  6
Continuous
 62
     4
100
AcDbLine
 10
254.227852411254
 20
21.9068765508203
 30
0.0
 11
255.911064911254
 21
21.9068765508203
 31
0.0
  0
LINE
  5
56
330
1F
100
AcDbEntity
  8
1
  6
Continuous
 62
     4
100
AcDbLine
 10
254.227852411254
 20
19.4068765508203
 30
0.0
 11
254.227852411254
 21
21.9068765508203
 31
0.0
  0
LINE
  5
57
330
1F
100
AcDbEntity
  8
1
  6
Continuous
 62
     4
100
AcDbLine
 10
257.891314911254
 20
16.6568765508203
 30
0.0
 11
256.802177411254
 21
16.6568765508203
 31
0.0
  0
LINE
  5
58
330
1F
100
AcDbEntity
  8
1
  6
Continuous
 62
     4
100
AcDbLine
 10
257.891314911254
 20
24.1568765508203
 30
0.0
 11
257.891314911254
 21
16.6568765508203
 31
0.0
  0
LINE
  5
59
330
1F
100
AcDbEntity
  8
1
  6
Continuous
 62
     4
100
AcDbLine
 10
252.247602411254
 20
24.1568765508203
 30
0.0
 11
253.336739911254
 21
24.1568765508203
 31
0.0
  0
LINE
  5
5A
330
1F
100
AcDbEntity
  8
1
  6
Continuous
 62
     4
100
AcDbLine
 10
252.247602411254
 20
16.6568765508203
 30
0.0
 11
252.247602411254
 21
24.1568765508203
 31
0.0
  0
LINE
  5
5B
330
1F
100
AcDbEntity
  8
1
  6
Continuous
 62
     4
100
AcDbLine
 10
247.990064911254
 20
16.2818765508203
 30
0.0
 11
247.197964911254
 21
16.9068765508203
 31
0.0
  0
LINE
  5
5C
330
1F
100
AcDbEntity
  8
1
  6
Continuous
 62
     4
100
AcDbLine
 10
248.485127411254
 20
17.2818765508203
 30
0.0
 11
247.990064911254
 21
16.2818765508203
 31
0.0
  0
LINE
  5
5D
330
1F
100
AcDbEntity
  8
1
  6
Continuous
 62
     4
100
AcDbLine
 10
248.881177411254
 20
18.7818765508203
 30
0.0
 11
248.485127411254
 21
17.2818765508203
 31
0.0
  0
LINE
  5
5E
330
1F
100
AcDbEntity
  8
1
  6
Continuous
 62
     4
100
AcDbLine
 10
249.376239911254
 20
21.0318765508203
 30
0.0
 11
248.881177411254
 21
18.7818765508203
 31
0.0
  0
LINE
  5
5F
330
1F
100
AcDbEntity
  8
1
  6
Continuous
 62
     4
100
AcDbLine
 10
249.376239911254
 20
21.9068765508203
 30
0.0
 11
249.376239911254
 21
21.0318765508203
 31
0.0
  0
LINE
  5
60
330
1F
100
AcDbEntity
  8
1
  6
Continuous
 62
     4
100
AcDbLine
 10
246.504877411254
 20
21.9068765508203
 30
0.0
 11
249.376239911254
 21
21.9068765508203
 31
0.0
  0
LINE
  5
61
330
1F
100
AcDbEntity
  8
1
  6
Continuous
 62
     4
100
AcDbLine
 10
243.831539911254
 20
24.4068765508203
 30
0.0
 11
250.465377411254
 21
24.4068765508203
 31
0.0
  0
LINE
  5
62
330
1F
100
AcDbEntity
  8
1
  6
Continuous
 62
     4
100
AcDbLine
 10
246.702902411254
 20
23.5318765508203
 30
0.0
 11
246.900927411254
 21
26.0318765508203
 31
0.0
  0
LINE
  5
63
330
1F
100
AcDbEntity
  8
1
  6
Continuous
 62
     4
100
AcDbLine
 10
246.306852411254
 20
21.0318765508203
 30
0.0
 11
246.702902411254
 21
23.5318765508203
 31
0.0
  0
LINE
  5
64
330
1F
100
AcDbEntity
  8
1
  6
Continuous
 62
     4
100
AcDbLine
 10
245.811789911254
 20
19.4068765508203
 30
0.0
 11
246.306852411254
 21
21.0318765508203
 31
0.0
  0
LINE
  5
65
330
1F
100
AcDbEntity
  8
1
  6
Continuous
 62
     4
100
AcDbLine
 10
245.217714911254
 20
17.9068765508203
 30
0.0
 11
245.811789911254
 21
19.4068765508203
 31
0.0
  0
LINE
  5
66
330
1F
100
AcDbEntity
  8
1
  6
Continuous
 62
     4
100
AcDbLine
 10
244.326602411254
 20
16.6568765508203
 30
0.0
 11
245.217714911254
 21
17.9068765508203
 31
0.0
  0
LINE
  5
67
330
1F
100
AcDbEntity
  8
1
  6
Continuous
 62
     4
100
AcDbLine
 10
241.653264911254
 20
19.4068765508203
 30
0.0
 11
242.742402411254
 21
17.9068765508203
 31
0.0
  0
LINE
  5
68
330
1F
100
AcDbEntity
  8
1
  6
Continuous
 62
     4
100
AcDbLine
 10
240.762152411254
 20
21.2818765508203
 30
0.0
 11
241.653264911254
 21
19.4068765508203
 31
0.0
  0
LINE
  5
69
330
1F
100
AcDbEntity
  8
1
  6
Continuous
 62
     4
100
AcDbLine
 10
240.069064911254
 20
23.5318765508203
 30
0.0
 11
240.762152411254
 21
21.2818765508203
 31
0.0
  0
LINE
  5
6A
330
1F
100
AcDbEntity
  8
1
  6
Continuous
 62
     4
100
AcDbLine
 10
242.049314911254
 20
23.7818765508203
 30
0.0
 11
240.564127411254
 21
22.2818765508203
 31
0.0
  0
LINE
  5
6B
330
1F
100
AcDbEntity
  8
1
  6
Continuous
 62
     4
100
AcDbLine
 10
239.474989911254
 20
16.2818765508203
 30
0.0
 11
238.781902411254
 21
16.6568765508203
 31
0.0
  0
LINE
  5
6C
330
1F
100
AcDbEntity
  8
1
  6
Continuous
 62
     4
100
AcDbLine
 10
239.474989911254
 20
26.0318765508203
 30
0.0
 11
239.474989911254
 21
16.2818765508203
 31
0.0
  0
LINE
  5
6D
330
1F
100
AcDbEntity
  8
1
  6
Continuous
 62
     4
100
AcDbLine
 10
238.385852411254
 20
22.9068765508203
 30
0.0
 11
236.108564911254
 21
22.9068765508203
 31
0.0
  0
LINE
  5
6E
330
1F
100
AcDbEntity
  8
1
  6
Continuous
 62
     4
100
AcDbLine
 10
237.890789911254
 20
21.0318765508203
 30
0.0
 11
238.385852411254
 21
22.9068765508203
 31
0.0
  0
LINE
  5
6F
330
1F
100
AcDbEntity
  8
1
  6
Continuous
 62
     4
100
AcDbLine
 10
236.999677411254
 20
19.1568765508203
 30
0.0
 11
237.890789911254
 21
21.0318765508203
 31
0.0
  0
LINE
  5
70
330
1F
100
AcDbEntity
  8
1
  6
Continuous
 62
     4
100
AcDbLine
 10
236.108564911254
 20
17.9068765508203
 30
0.0
 11
236.999677411254
 21
19.1568765508203
 31
0.0
  0
LINE
  5
71
330
1F
100
AcDbEntity
  8
1
  6
Continuous
 62
     4
100
AcDbLine
 10
231.752014911254
 20
24.7818765508203
 30
0.0
 11
234.425352411254
 21
24.7818765508203
 31
0.0
  0
LINE
  5
72
330
1F
100
AcDbEntity
  8
1
  6
Continuous
 62
     4
100
AcDbLine
 10
234.821402411254
 20
17.2818765508203
 30
0.0
 11
234.821402411254
 21
17.9068765508203
 31
0.0
  0
LINE
  5
73
330
1F
100
AcDbEntity
  8
1
  6
Continuous
 62
     4
100
AcDbLine
 10
234.425352411254
 20
16.6568765508203
 30
0.0
 11
234.821402411254
 21
17.2818765508203
 31
0.0
  0
LINE
  5
74
330
1F
100
AcDbEntity
  8
1
  6
Continuous
 62
     4
100
AcDbLine
 10
233.534239911254
 20
16.6568765508203
 30
0.0
 11
234.425352411254
 21
16.6568765508203
 31
0.0
  0
LINE
  5
75
330
1F
100
AcDbEntity
  8
1
  6
Continuous
 62
     4
100
AcDbLine
 10
233.039177411254
 20
17.5318765508203
 30
0.0
 11
233.534239911254
 21
16.6568765508203
 31
0.0
  0
LINE
  5
76
330
1F
100
AcDbEntity
  8
1
  6
Continuous
 62
     4
100
AcDbLine
 10
233.039177411254
 20
20.6568765508203
 30
0.0
 11
233.039177411254
 21
17.5318765508203
 31
0.0
  0
LINE
  5
77
330
1F
100
AcDbEntity
  8
1
  6
Continuous
 62
     4
100
AcDbLine
 10
231.752014911254
 20
16.6568765508203
 30
0.0
 11
231.752014911254
 21
20.6568765508203
 31
0.0
  0
LINE
  5
78
330
1F
100
AcDbEntity
  8
1
  6
Continuous
 62
     4
100
AcDbLine
 10
229.771764911254
 20
16.9068765508203
 30
0.0
 11
229.078677411254
 21
16.2818765508203
 31
0.0
  0
LINE
  5
79
330
1F
100
AcDbEntity
  8
1
  6
Continuous
 62
     4
100
AcDbLine
 10
230.167814911254
 20
17.5318765508203
 30
0.0
 11
229.771764911254
 21
16.9068765508203
 31
0.0
  0
LINE
  5
7A
330
1F
100
AcDbEntity
  8
1
  6
Continuous
 62
     4
100
AcDbLine
 10
230.464852411254
 20
18.5318765508203
 30
0.0
 11
230.167814911254
 21
17.5318765508203
 31
0.0
  0
LINE
  5
7B
330
1F
100
AcDbEntity
  8
1
  6
Continuous
 62
     4
100
AcDbLine
 10
230.662877411254
 20
20.6568765508203
 30
0.0
 11
230.464852411254
 21
18.5318765508203
 31
0.0
  0
LINE
  5
7C
330
1F
100
AcDbEntity
  8
1
  6
Continuous
 62
     4
100
AcDbLine
 10
232.841152411254
 20
23.7818765508203
 30
0.0
 11
233.732264911254
 21
21.6568765508203
 31
0.0
  0
LINE
  5
7D
330
1F
100
AcDbEntity
  8
1
  6
Continuous
 62
     4
100
AcDbLine
 10
229.969789911254
 20
22.2818765508203
 30
0.0
 11
233.336214911254
 21
22.5318765508203
 31
0.0
  0
LINE
  5
7E
330
1F
100
AcDbEntity
  8
1
  6
Continuous
 62
     4
100
AcDbLine
 10
231.752014911254
 20
24.7818765508203
 30
0.0
 11
230.860902411254
 21
22.2818765508203
 31
0.0
  0
LINE
  5
7F
330
1F
100
AcDbEntity
  8
1
  6
Continuous
 62
     4
100
AcDbLine
 10
231.950039911254
 20
26.2818765508203
 30
0.0
 11
231.950039911254
 21
24.7818765508203
 31
0.0
  0
LINE
  5
80
330
1F
100
AcDbEntity
  8
1
  6
Continuous
 62
     4
100
AcDbLine
 10
229.573739911254
 20
24.7818765508203
 30
0.0
 11
231.752014911254
 21
24.7818765508203
 31
0.0
  0
LINE
  5
81
330
1F
100
AcDbEntity
  8
1
  6
Continuous
 62
     4
100
AcDbLine
 10
227.989539911254
 20
16.6568765508203
 30
0.0
 11
228.880652411254
 21
20.6568765508203
 31
0.0
  0
LINE
  5
82
330
1F
100
AcDbEntity
  8
1
  6
Continuous
 62
     4
100
AcDbLine
 10
227.791514911254
 20
23.1568765508203
 30
0.0
 11
228.484602411254
 21
22.2818765508203
 31
0.0
  0
LINE
  5
83
330
1F
100
AcDbEntity
  8
1
  6
Continuous
 62
     4
100
AcDbLine
 10
228.484602411254
 20
26.0318765508203
 30
0.0
 11
228.880652411254
 21
25.0318765508203
 31
0.0
  0
LINE
  5
84
330
1F
100
AcDbEntity
  8
1
  6
Continuous
 62
     4
100
AcDbLine
 10
408.069506741694
 20
256.23517398121
 30
0.0
 11
404.319506741694
 21
256.23517398121
 31
0.0
  0
LINE
  5
85
330
1F
100
AcDbEntity
  8
1
  6
Continuous
 62
     4
100
AcDbLine
 10
408.819506741694
 20
256.48517398121
 30
0.0
 11
408.069506741694
 21
256.23517398121
 31
0.0
  0
LINE
  5
86
330
1F
100
AcDbEntity
  8
1
  6
Continuous
 62
     4
100
AcDbLine
 10
409.569506741694
 20
256.98517398121
 30
0.0
 11
408.819506741694
 21
256.48517398121
 31
0.0
  0
LINE
  5
87
330
1F
100
AcDbEntity
  8
1
  6
Continuous
 62
     4
100
AcDbLine
 10
410.069506741694
 20
257.73517398121
 30
0.0
 11
409.569506741694
 21
256.98517398121
 31
0.0
  0
LINE
  5
88
330
1F
100
AcDbEntity
  8
1
  6
Continuous
 62
     4
100
AcDbLine
 10
410.319506741694
 20
258.73517398121
 30
0.0
 11
410.069506741694
 21
257.73517398121
 31
0.0
  0
LINE
  5
89
330
1F
100
AcDbEntity
  8
1
  6
Continuous
 62
     4
100
AcDbLine
 10
410.319506741694
 20
260.23517398121
 30
0.0
 11
410.319506741694
 21
258.73517398121
 31
0.0
  0
LINE
  5
8A
330
1F
100
AcDbEntity
  8
1
  6
Continuous
 62
     4
100
AcDbLine
 10
410.069506741694
 20
261.23517398121
 30
0.0
 11
410.319506741694
 21
260.23517398121
 31
0.0
  0
LINE
  5
8B
330
1F
100
AcDbEntity
  8
1
  6
Continuous
 62
     4
100
AcDbLine
 10
409.319506741694
 20
261.98517398121
 30
0.0
 11
410.069506741694
 21
261.23517398121
 31
0.0
  0
LINE
  5
8C
330
1F
100
AcDbEntity
  8
1
  6
Continuous
 62
     4
100
AcDbLine
 10
408.069506741694
 20
262.23517398121
 30
0.0
 11
409.319506741694
 21
261.98517398121
 31
0.0
  0
LINE
  5
8D
330
1F
100
AcDbEntity
  8
1
  6
Continuous
 62
     4
100
AcDbLine
 10
404.319506741694
 20
262.23517398121
 30
0.0
 11
408.069506741694
 21
262.23517398121
 31
0.0
  0
LINE
  5
8E
330
1F
100
AcDbEntity
  8
1
  6
Continuous
 62
     4
100
AcDbLine
 10
404.319506741694
 20
266.23517398121
 30
0.0
 11
404.319506741694
 21
262.23517398121
 31
0.0
  0
LINE
  5
8F
330
1F
100
AcDbEntity
  8
1
  6
Continuous
 62
     4
100
AcDbLine
 10
409.819506741694
 20
266.23517398121
 30
0.0
 11
404.319506741694
 21
266.23517398121
 31
0.0
  0
LINE
  5
90
330
1F
100
AcDbEntity
  8
1
  6
Continuous
 62
     4
100
AcDbLine
 10
395.319506741694
 20
256.23517398121
 30
0.0
 11
401.319506741694
 21
256.23517398121
 31
0.0
  0
LINE
  5
91
330
1F
100
AcDbEntity
  8
1
  6
Continuous
 62
     4
100
AcDbLine
 10
400.819506741694
 20
262.73517398121
 30
0.0
 11
395.319506741694
 21
256.23517398121
 31
0.0
  0
LINE
  5
92
330
1F
100
AcDbEntity
  8
1
  6
Continuous
 62
     4
100
AcDbLine
 10
401.319506741694
 20
263.73517398121
 30
0.0
 11
400.819506741694
 21
262.73517398121
 31
0.0
  0
LINE
  5
93
330
1F
100
AcDbEntity
  8
1
  6
Continuous
 62
     4
100
AcDbLine
 10
401.319506741694
 20
264.73517398121
 30
0.0
 11
401.319506741694
 21
263.73517398121
 31
0.0
  0
LINE
  5
94
330
1F
100
AcDbEntity
  8
1
  6
Continuous
 62
     4
100
AcDbLine
 10
400.819506741694
 20
265.48517398121
 30
0.0
 11
401.319506741694
 21
264.73517398121
 31
0.0
  0
LINE
  5
95
330
1F
100
AcDbEntity
  8
1
  6
Continuous
 62
     4
100
AcDbLine
 10
400.069506741694
 20
265.98517398121
 30
0.0
 11
400.819506741694
 21
265.48517398121
 31
0.0
  0
LINE
  5
96
330
1F
100
AcDbEntity
  8
1
  6
Continuous
 62
     4
100
AcDbLine
 10
399.069506741694
 20
266.23517398121
 30
0.0
 11
400.069506741694
 21
265.98517398121
 31
0.0
  0
LINE
  5
97
330
1F
100
AcDbEntity
  8
1
  6
Continuous
 62
     4
100
AcDbLine
 10
397.569506741694
 20
266.23517398121
 30
0.0
 11
399.069506741694
 21
266.23517398121
 31
0.0
  0
LINE
  5
98
330
1F
100
AcDbEntity
  8
1
  6
Continuous
 62
     4
100
AcDbLine
 10
396.569506741694
 20
265.98517398121
 30
0.0
 11
397.569506741694
 21
266.23517398121
 31
0.0
  0
LINE
  5
99
330
1F
100
AcDbEntity
  8
1
  6
Continuous
 62
     4
100
AcDbLine
 10
395.819506741694
 20
265.48517398121
 30
0.0
 11
396.569506741694
 21
265.98517398121
 31
0.0
  0
LINE
  5
9A
330
1F
100
AcDbEntity
  8
1
  6
Continuous
 62
     4
100
AcDbLine
 10
395.319506741694
 20
264.73517398121
 30
0.0
 11
395.819506741694
 21
265.48517398121
 31
0.0
  0
LINE
  5
9B
330
1F
100
AcDbEntity
  8
1
  6
Continuous
 62
     4
100
AcDbLine
 10
387.319506741694
 20
259.73517398121
 30
0.0
 11
392.319506741694
 21
259.73517398121
 31
0.0
  0
LINE
  5
9C
330
1F
100
AcDbEntity
  8
1
  6
Continuous
 62
     4
100
AcDbLine
 10
381.069506741694
 20
266.23517398121
 30
0.0
 11
384.319506741694
 21
266.23517398121
 31
0.0
  0
LINE
  5
9D
330
1F
100
AcDbEntity
  8
1
  6
Continuous
 62
     4
100
AcDbLine
 10
380.069506741694
 20
265.98517398121
 30
0.0
 11
381.069506741694
 21
266.23517398121
 31
0.0
  0
LINE
  5
9E
330
1F
100
AcDbEntity
  8
1
  6
Continuous
 62
     4
100
AcDbLine
 10
379.319506741694
 20
265.48517398121
 30
0.0
 11
380.069506741694
 21
265.98517398121
 31
0.0
  0
LINE
  5
9F
330
1F
100
AcDbEntity
  8
1
  6
Continuous
 62
     4
100
AcDbLine
 10
378.819506741694
 20
264.98517398121
 30
0.0
 11
379.319506741694
 21
265.48517398121
 31
0.0
  0
LINE
  5
A0
330
1F
100
AcDbEntity
  8
1
  6
Continuous
 62
     4
100
AcDbLine
 10
378.569506741694
 20
264.23517398121
 30
0.0
 11
378.819506741694
 21
264.98517398121
 31
0.0
  0
LINE
  5
A1
330
1F
100
AcDbEntity
  8
1
  6
Continuous
 62
     4
100
AcDbLine
 10
378.319506741694
 20
263.23517398121
 30
0.0
 11
378.569506741694
 21
264.23517398121
 31
0.0
  0
LINE
  5
A2
330
1F
100
AcDbEntity
  8
1
  6
Continuous
 62
     4
100
AcDbLine
 10
378.319506741694
 20
259.23517398121
 30
0.0
 11
378.319506741694
 21
263.23517398121
 31
0.0
  0
LINE
  5
A3
330
1F
100
AcDbEntity
  8
1
  6
Continuous
 62
     4
100
AcDbLine
 10
378.569506741694
 20
258.23517398121
 30
0.0
 11
378.319506741694
 21
259.23517398121
 31
0.0
  0
LINE
  5
A4
330
1F
100
AcDbEntity
  8
1
  6
Continuous
 62
     4
100
AcDbLine
 10
378.819506741694
 20
257.48517398121
 30
0.0
 11
378.569506741694
 21
258.23517398121
 31
0.0
  0
LINE
  5
A5
330
1F
100
AcDbEntity
  8
1
  6
Continuous
 62
     4
100
AcDbLine
 10
379.319506741694
 20
256.98517398121
 30
0.0
 11
378.819506741694
 21
257.48517398121
 31
0.0
  0
LINE
  5
A6
330
1F
100
AcDbEntity
  8
1
  6
Continuous
 62
     4
100
AcDbLine
 10
380.069506741694
 20
256.48517398121
 30
0.0
 11
379.319506741694
 21
256.98517398121
 31
0.0
  0
LINE
  5
A7
330
1F
100
AcDbEntity
  8
1
  6
Continuous
 62
     4
100
AcDbLine
 10
381.069506741694
 20
256.23517398121
 30
0.0
 11
380.069506741694
 21
256.48517398121
 31
0.0
  0
LINE
  5
A8
330
1F
100
AcDbEntity
  8
1
  6
Continuous
 62
     4
100
AcDbLine
 10
384.319506741694
 20
256.23517398121
 30
0.0
 11
381.069506741694
 21
256.23517398121
 31
0.0
  0
LINE
  5
A9
330
1F
100
AcDbEntity
  8
1
  6
Continuous
 62
     4
100
AcDbLine
 10
374.069506741694
 20
256.98517398121
 30
0.0
 11
373.319506741694
 21
256.48517398121
 31
0.0
  0
LINE
  5
AA
330
1F
100
AcDbEntity
  8
1
  6
Continuous
 62
     4
100
AcDbLine
 10
374.569506741694
 20
257.48517398121
 30
0.0
 11
374.069506741694
 21
256.98517398121
 31
0.0
  0
LINE
  5
AB
330
1F
100
AcDbEntity
  8
1
  6
Continuous
 62
     4
100
AcDbLine
 10
375.069506741694
 20
258.23517398121
 30
0.0
 11
374.569506741694
 21
257.48517398121
 31
0.0
  0
LINE
  5
AC
330
1F
100
AcDbEntity
  8
1
  6
Continuous
 62
     4
100
AcDbLine
 10
375.319506741694
 20
259.23517398121
 30
0.0
 11
375.069506741694
 21
258.23517398121
 31
0.0
  0
LINE
  5
AD
330
1F
100
AcDbEntity
  8
1
  6
Continuous
 62
     4
100
AcDbLine
 10
375.319506741694
 20
263.23517398121
 30
0.0
 11
375.319506741694
 21
259.23517398121
 31
0.0
  0
LINE
  5
AE
330
1F
100
AcDbEntity
  8
1
  6
Continuous
 62
     4
100
AcDbLine
 10
375.069506741694
 20
264.23517398121
 30
0.0
 11
375.319506741694
 21
263.23517398121
 31
0.0
  0
LINE
  5
AF
330
1F
100
AcDbEntity
  8
1
  6
Continuous
 62
     4
100
AcDbLine
 10
374.569506741694
 20
264.98517398121
 30
0.0
 11
375.069506741694
 21
264.23517398121
 31
0.0
  0
LINE
  5
B0
330
1F
100
AcDbEntity
  8
1
  6
Continuous
 62
     4
100
AcDbLine
 10
374.069506741694
 20
265.48517398121
 30
0.0
 11
374.569506741694
 21
264.98517398121
 31
0.0
  0
LINE
  5
B1
330
1F
100
AcDbEntity
  8
1
  6
Continuous
 62
     4
100
AcDbLine
 10
373.319506741694
 20
265.98517398121
 30
0.0
 11
374.069506741694
 21
265.48517398121
 31
0.0
  0
LINE
  5
B2
330
1F
100
AcDbEntity
  8
1
  6
Continuous
 62
     4
100
AcDbLine
 10
372.569506741694
 20
266.23517398121
 30
0.0
 11
373.319506741694
 21
265.98517398121
 31
0.0
  0
LINE
  5
B3
330
1F
100
AcDbEntity
  8
1
  6
Continuous
 62
     4
100
AcDbLine
 10
371.069506741694
 20
266.23517398121
 30
0.0
 11
372.569506741694
 21
266.23517398121
 31
0.0
  0
LINE
  5
B4
330
1F
100
AcDbEntity
  8
1
  6
Continuous
 62
     4
100
AcDbLine
 10
370.319506741694
 20
265.98517398121
 30
0.0
 11
371.069506741694
 21
266.23517398121
 31
0.0
  0
LINE
  5
B5
330
1F
100
AcDbEntity
  8
1
  6
Continuous
 62
     4
100
AcDbLine
 10
369.569506741694
 20
265.48517398121
 30
0.0
 11
370.319506741694
 21
265.98517398121
 31
0.0
  0
LINE
  5
B6
330
1F
100
AcDbEntity
  8
1
  6
Continuous
 62
     4
100
AcDbLine
 10
369.069506741694
 20
264.98517398121
 30
0.0
 11
369.569506741694
 21
265.48517398121
 31
0.0
  0
LINE
  5
B7
330
1F
100
AcDbEntity
  8
1
  6
Continuous
 62
     4
100
AcDbLine
 10
368.569506741694
 20
264.23517398121
 30
0.0
 11
369.069506741694
 21
264.98517398121
 31
0.0
  0
LINE
  5
B8
330
1F
100
AcDbEntity
  8
1
  6
Continuous
 62
     4
100
AcDbLine
 10
368.319506741694
 20
263.23517398121
 30
0.0
 11
368.569506741694
 21
264.23517398121
 31
0.0
  0
LINE
  5
B9
330
1F
100
AcDbEntity
  8
1
  6
Continuous
 62
     4
100
AcDbLine
 10
368.319506741694
 20
259.23517398121
 30
0.0
 11
368.319506741694
 21
263.23517398121
 31
0.0
  0
LINE
  5
BA
330
1F
100
AcDbEntity
  8
1
  6
Continuous
 62
     4
100
AcDbLine
 10
368.569506741694
 20
258.23517398121
 30
0.0
 11
368.319506741694
 21
259.23517398121
 31
0.0
  0
LINE
  5
BB
330
1F
100
AcDbEntity
  8
1
  6
Continuous
 62
     4
100
AcDbLine
 10
369.069506741694
 20
257.48517398121
 30
0.0
 11
368.569506741694
 21
258.23517398121
 31
0.0
  0
LINE
  5
BC
330
1F
100
AcDbEntity
  8
1
  6
Continuous
 62
     4
100
AcDbLine
 10
369.569506741694
 20
256.98517398121
 30
0.0
 11
369.069506741694
 21
257.48517398121
 31
0.0
  0
LINE
  5
BD
330
1F
100
AcDbEntity
  8
1
  6
Continuous
 62
     4
100
AcDbLine
 10
370.319506741694
 20
256.48517398121
 30
0.0
 11
369.569506741694
 21
256.98517398121
 31
0.0
  0
LINE
  5
BE
330
1F
100
AcDbEntity
  8
1
  6
Continuous
 62
     4
100
AcDbLine
 10
371.069506741694
 20
256.23517398121
 30
0.0
 11
370.319506741694
 21
256.48517398121
 31
0.0
  0
LINE
  5
BF
330
1F
100
AcDbEntity
  8
1
  6
Continuous
 62
     4
100
AcDbLine
 10
372.569506741694
 20
256.23517398121
 30
0.0
 11
371.069506741694
 21
256.23517398121
 31
0.0
  0
LINE
  5
C0
330
1F
100
AcDbEntity
  8
1
  6
Continuous
 62
     4
100
AcDbLine
 10
373.319506741694
 20
256.48517398121
 30
0.0
 11
372.569506741694
 21
256.23517398121
 31
0.0
  0
LINE
  5
C1
330
1F
100
AcDbEntity
  8
1
  6
Continuous
 62
     4
100
AcDbLine
 10
373.319506741694
 20
258.23517398121
 30
0.0
 11
375.319506741694
 21
256.23517398121
 31
0.0
  0
LINE
  5
C2
330
1F
100
AcDbEntity
  8
1
  6
Continuous
 62
     4
100
AcDbLine
 10
360.319506741694
 20
259.73517398121
 30
0.0
 11
365.319506741694
 21
259.73517398121
 31
0.0
  0
LINE
  5
C3
330
1F
100
AcDbEntity
  8
1
  6
Continuous
 62
     4
100
AcDbLine
 10
350.319506741694
 20
256.23517398121
 30
0.0
 11
350.319506741694
 21
261.23517398121
 31
0.0
  0
LINE
  5
C4
330
1F
100
AcDbEntity
  8
1
  6
Continuous
 62
     4
100
AcDbLine
 10
354.319506741694
 20
261.23517398121
 30
0.0
 11
357.319506741694
 21
256.23517398121
 31
0.0
  0
LINE
  5
C5
330
1F
100
AcDbEntity
  8
1
  6
Continuous
 62
     4
100
AcDbLine
 10
355.069506741694
 20
261.23517398121
 30
0.0
 11
354.319506741694
 21
261.23517398121
 31
0.0
  0
LINE
  5
C6
330
1F
100
AcDbEntity
  8
1
  6
Continuous
 62
     4
100
AcDbLine
 10
356.069506741694
 20
261.48517398121
 30
0.0
 11
355.069506741694
 21
261.23517398121
 31
0.0
  0
LINE
  5
C7
330
1F
100
AcDbEntity
  8
1
  6
Continuous
 62
     4
100
AcDbLine
 10
356.819506741694
 20
261.98517398121
 30
0.0
 11
356.069506741694
 21
261.48517398121
 31
0.0
  0
LINE
  5
C8
330
1F
100
AcDbEntity
  8
1
  6
Continuous
 62
     4
100
AcDbLine
 10
357.069506741694
 20
262.48517398121
 30
0.0
 11
356.819506741694
 21
261.98517398121
 31
0.0
  0
LINE
  5
C9
330
1F
100
AcDbEntity
  8
1
  6
Continuous
 62
     4
100
AcDbLine
 10
357.319506741694
 20
263.23517398121
 30
0.0
 11
357.069506741694
 21
262.48517398121
 31
0.0
  0
LINE
  5
CA
330
1F
100
AcDbEntity
  8
1
  6
Continuous
 62
     4
100
AcDbLine
 10
357.319506741694
 20
264.23517398121
 30
0.0
 11
357.319506741694
 21
263.23517398121
 31
0.0
  0
LINE
  5
CB
330
1F
100
AcDbEntity
  8
1
  6
Continuous
 62
     4
100
AcDbLine
 10
357.069506741694
 20
264.98517398121
 30
0.0
 11
357.319506741694
 21
264.23517398121
 31
0.0
  0
LINE
  5
CC
330
1F
100
AcDbEntity
  8
1
  6
Continuous
 62
     4
100
AcDbLine
 10
356.819506741694
 20
265.48517398121
 30
0.0
 11
357.069506741694
 21
264.98517398121
 31
0.0
  0
LINE
  5
CD
330
1F
100
AcDbEntity
  8
1
  6
Continuous
 62
     4
100
AcDbLine
 10
356.069506741694
 20
265.98517398121
 30
0.0
 11
356.819506741694
 21
265.48517398121
 31
0.0
  0
LINE
  5
CE
330
1F
100
AcDbEntity
  8
1
  6
Continuous
 62
     4
100
AcDbLine
 10
355.069506741694
 20
266.23517398121
 30
0.0
 11
356.069506741694
 21
265.98517398121
 31
0.0
  0
LINE
  5
CF
330
1F
100
AcDbEntity
  8
1
  6
Continuous
 62
     4
100
AcDbLine
 10
350.319506741694
 20
266.23517398121
 30
0.0
 11
355.069506741694
 21
266.23517398121
 31
0.0
  0
LINE
  5
D0
330
1F
100
AcDbEntity
  8
1
  6
Continuous
 62
     4
100
AcDbLine
 10
350.319506741694
 20
261.23517398121
 30
0.0
 11
350.319506741694
 21
266.23517398121
 31
0.0
  0
LINE
  5
D1
330
1F
100
AcDbEntity
  8
1
  6
Continuous
 62
     4
100
AcDbLine
 10
354.319506741694
 20
261.23517398121
 30
0.0
 11
350.319506741694
 21
261.23517398121
 31
0.0
  0
LINE
  5
D2
330
1F
100
AcDbEntity
  8
1
  6
Continuous
 62
     4
100
AcDbLine
 10
342.319506741694
 20
259.73517398121
 30
0.0
 11
347.319506741694
 21
259.73517398121
 31
0.0
  0
LINE
  5
D3
330
1F
100
AcDbEntity
  8
1
  6
Continuous
 62
     4
100
AcDbLine
 10
332.319506741694
 20
259.23517398121
 30
0.0
 11
332.319506741694
 21
266.23517398121
 31
0.0
  0
LINE
  5
D4
330
1F
100
AcDbEntity
  8
1
  6
Continuous
 62
     4
100
AcDbLine
 10
332.319506741694
 20
256.23517398121
 30
0.0
 11
332.319506741694
 21
259.23517398121
 31
0.0
  0
LINE
  5
D5
330
1F
100
AcDbEntity
  8
1
  6
Continuous
 62
     4
100
AcDbLine
 10
334.319506741694
 20
261.23517398121
 30
0.0
 11
339.319506741694
 21
256.23517398121
 31
0.0
  0
LINE
  5
D6
330
1F
100
AcDbEntity
  8
1
  6
Continuous
 62
     4
100
AcDbLine
 10
339.319506741694
 20
266.23517398121
 30
0.0
 11
334.319506741694
 21
261.23517398121
 31
0.0
  0
LINE
  5
D7
330
1F
100
AcDbEntity
  8
1
  6
Continuous
 62
     4
100
AcDbLine
 10
334.319506741694
 20
261.23517398121
 30
0.0
 11
332.319506741694
 21
259.23517398121
 31
0.0
  0
LINE
  5
D8
330
1F
100
AcDbEntity
  8
1
  6
Continuous
 62
     4
100
AcDbLine
 10
343.87627433287
 20
16.5898671027959
 30
0.0
 11
343.87627433287
 21
12.5898671027959
 31
0.0
  0
LINE
  5
D9
330
1F
100
AcDbEntity
  8
1
  6
Continuous
 62
     4
100
AcDbLine
 10
339.37627433287
 20
14.5898671027959
 30
0.0
 11
345.37627433287
 21
14.5898671027959
 31
0.0
  0
LINE
  5
DA
330
1F
100
AcDbEntity
  8
1
  6
Continuous
 62
     4
100
AcDbLine
 10
343.87627433287
 20
22.5898671027959
 30
0.0
 11
339.37627433287
 21
14.5898671027959
 31
0.0
  0
LINE
  5
DB
330
1F
100
AcDbEntity
  8
1
  6
Continuous
 62
     4
100
AcDbLine
 10
332.37627433287
 20
12.5898671027959
 30
0.0
 11
336.37627433287
 21
22.5898671027959
 31
0.0
  0
LINE
  5
DC
330
1F
100
AcDbEntity
  8
1
  6
Continuous
 62
     4
100
AcDbLine
 10
329.37627433287
 20
22.5898671027959
 30
0.0
 11
329.37627433287
 21
12.5898671027959
 31
0.0
  0
LINE
  5
DD
330
1F
100
AcDbEntity
  8
1
  6
Continuous
 62
     4
100
AcDbLine
 10
326.37627433287
 20
19.5898671027959
 30
0.0
 11
329.37627433287
 21
22.5898671027959
 31
0.0
  0
LINE
  5
DE
330
1F
100
AcDbEntity
  8
1
  6
Continuous
 62
     4
100
AcDbLine
 10
315.37627433287
 20
22.5898671027959
 30
0.0
 11
315.37627433287
 21
12.5898671027959
 31
0.0
  0
LINE
  5
DF
330
1F
100
AcDbEntity
  8
1
  6
Continuous
 62
     4
100
AcDbLine
 10
312.37627433287
 20
19.5898671027959
 30
0.0
 11
315.37627433287
 21
22.5898671027959
 31
0.0
  0
LINE
  5
E0
330
1F
100
AcDbEntity
  8
1
  6
Continuous
 62
     4
100
AcDbLine
 10
309.37627433287
 20
18.0898671027959
 30
0.0
 11
306.87627433287
 21
18.0898671027959
 31
0.0
  0
LINE
  5
E1
330
1F
100
AcDbEntity
  8
1
  6
Continuous
 62
     4
100
AcDbLine
 10
309.37627433287
 20
12.5898671027959
 30
0.0
 11
309.37627433287
 21
18.0898671027959
 31
0.0
  0
LINE
  5
E2
330
1F
100
AcDbEntity
  8
1
  6
Continuous
 62
     4
100
AcDbLine
 10
305.12627433287
 20
12.5898671027959
 30
0.0
 11
309.37627433287
 21
12.5898671027959
 31
0.0
  0
LINE
  5
E3
330
1F
100
AcDbEntity
  8
1
  6
Continuous
 62
     4
100
AcDbLine
 10
304.37627433287
 20
12.8398671027959
 30
0.0
 11
305.12627433287
 21
12.5898671027959
 31
0.0
  0
LINE
  5
E4
330
1F
100
AcDbEntity
  8
1
  6
Continuous
 62
     4
100
AcDbLine
 10
303.37627433287
 20
13.3398671027959
 30
0.0
 11
304.37627433287
 21
12.8398671027959
 31
0.0
  0
LINE
  5
E5
330
1F
100
AcDbEntity
  8
1
  6
Continuous
 62
     4
100
AcDbLine
 10
302.87627433287
 20
13.8398671027959
 30
0.0
 11
303.37627433287
 21
13.3398671027959
 31
0.0
  0
LINE
  5
E6
330
1F
100
AcDbEntity
  8
1
  6
Continuous
 62
     4
100
AcDbLine
 10
302.62627433287
 20
14.5898671027959
 30
0.0
 11
302.87627433287
 21
13.8398671027959
 31
0.0
  0
LINE
  5
E7
330
1F
100
AcDbEntity
  8
1
  6
Continuous
 62
     4
100
AcDbLine
 10
302.37627433287
 20
15.5898671027959
 30
0.0
 11
302.62627433287
 21
14.5898671027959
 31
0.0
  0
LINE
  5
E8
330
1F
100
AcDbEntity
  8
1
  6
Continuous
 62
     4
100
AcDbLine
 10
302.37627433287
 20
19.5898671027959
 30
0.0
 11
302.37627433287
 21
15.5898671027959
 31
0.0
  0
LINE
  5
E9
330
1F
100
AcDbEntity
  8
1
  6
Continuous
 62
     4
100
AcDbLine
 10
302.62627433287
 20
20.5898671027959
 30
0.0
 11
302.37627433287
 21
19.5898671027959
 31
0.0
  0
LINE
  5
EA
330
1F
100
AcDbEntity
  8
1
  6
Continuous
 62
     4
100
AcDbLine
 10
302.87627433287
 20
21.3398671027959
 30
0.0
 11
302.62627433287
 21
20.5898671027959
 31
0.0
  0
LINE
  5
EB
330
1F
100
AcDbEntity
  8
1
  6
Continuous
 62
     4
100
AcDbLine
 10
303.37627433287
 20
21.8398671027959
 30
0.0
 11
302.87627433287
 21
21.3398671027959
 31
0.0
  0
LINE
  5
EC
330
1F
100
AcDbEntity
  8
1
  6
Continuous
 62
     4
100
AcDbLine
 10
304.12627433287
 20
22.3398671027959
 30
0.0
 11
303.37627433287
 21
21.8398671027959
 31
0.0
  0
LINE
  5
ED
330
1F
100
AcDbEntity
  8
1
  6
Continuous
 62
     4
100
AcDbLine
 10
305.12627433287
 20
22.5898671027959
 30
0.0
 11
304.12627433287
 21
22.3398671027959
 31
0.0
  0
LINE
  5
EE
330
1F
100
AcDbEntity
  8
1
  6
Continuous
 62
     4
100
AcDbLine
 10
309.37627433287
 20
22.5898671027959
 30
0.0
 11
305.12627433287
 21
22.5898671027959
 31
0.0
  0
LINE
  5
EF
330
1F
100
AcDbEntity
  8
1
  6
Continuous
 62
     4
100
AcDbLine
 10
175.815060908525
 20
18.8266625773346
 30
0.0
 11
175.815060908525
 21
14.8266625773346
 31
0.0
  0
LINE
  5
F0
330
1F
100
AcDbEntity
  8
1
  6
Continuous
 62
     4
100
AcDbLine
 10
171.315060908525
 20
16.8266625773346
 30
0.0
 11
177.315060908525
 21
16.8266625773346
 31
0.0
  0
LINE
  5
F1
330
1F
100
AcDbEntity
  8
1
  6
Continuous
 62
     4
100
AcDbLine
 10
175.815060908525
 20
24.8266625773346
 30
0.0
 11
171.315060908525
 21
16.8266625773346
 31
0.0
  0
LINE
  5
F2
330
1F
100
AcDbEntity
  8
1
  6
Continuous
 62
     4
100
AcDbLine
 10
164.315060908525
 20
14.8266625773346
 30
0.0
 11
168.315060908525
 21
24.8266625773346
 31
0.0
  0
LINE
  5
F3
330
1F
100
AcDbEntity
  8
1
  6
Continuous
 62
     4
100
AcDbLine
 10
161.315060908525
 20
24.8266625773346
 30
0.0
 11
161.315060908525
 21
14.8266625773346
 31
0.0
  0
LINE
  5
F4
330
1F
100
AcDbEntity
  8
1
  6
Continuous
 62
     4
100
AcDbLine
 10
158.315060908525
 20
21.8266625773346
 30
0.0
 11
161.315060908525
 21
24.8266625773346
 31
0.0
  0
LINE
  5
F5
330
1F
100
AcDbEntity
  8
1
  6
Continuous
 62
     4
100
AcDbLine
 10
147.315060908525
 20
24.8266625773346
 30
0.0
 11
147.315060908525
 21
14.8266625773346
 31
0.0
  0
LINE
  5
F6
330
1F
100
AcDbEntity
  8
1
  6
Continuous
 62
     4
100
AcDbLine
 10
144.315060908525
 20
21.8266625773346
 30
0.0
 11
147.315060908525
 21
24.8266625773346
 31
0.0
  0
LINE
  5
F7
330
1F
100
AcDbEntity
  8
1
  6
Continuous
 62
     4
100
AcDbLine
 10
141.315060908525
 20
20.3266625773346
 30
0.0
 11
138.815060908525
 21
20.3266625773346
 31
0.0
  0
LINE
  5
F8
330
1F
100
AcDbEntity
  8
1
  6
Continuous
 62
     4
100
AcDbLine
 10
141.315060908525
 20
14.8266625773346
 30
0.0
 11
141.315060908525
 21
20.3266625773346
 31
0.0
  0
LINE
  5
F9
330
1F
100
AcDbEntity
  8
1
  6
Continuous
 62
     4
100
AcDbLine
 10
137.065060908525
 20
14.8266625773346
 30
0.0
 11
141.315060908525
 21
14.8266625773346
 31
0.0
  0
LINE
  5
FA
330
1F
100
AcDbEntity
  8
1
  6
Continuous
 62
     4
100
AcDbLine
 10
136.315060908525
 20
15.0766625773346
 30
0.0
 11
137.065060908525
 21
14.8266625773346
 31
0.0
  0
LINE
  5
FB
330
1F
100
AcDbEntity
  8
1
  6
Continuous
 62
     4
100
AcDbLine
 10
135.315060908525
 20
15.5766625773346
 30
0.0
 11
136.315060908525
 21
15.0766625773346
 31
0.0
  0
LINE
  5
FC
330
1F
100
AcDbEntity
  8
1
  6
Continuous
 62
     4
100
AcDbLine
 10
134.815060908525
 20
16.0766625773346
 30
0.0
 11
135.315060908525
 21
15.5766625773346
 31
0.0
  0
LINE
  5
FD
330
1F
100
AcDbEntity
  8
1
  6
Continuous
 62
     4
100
AcDbLine
 10
134.565060908525
 20
16.8266625773346
 30
0.0
 11
134.815060908525
 21
16.0766625773346
 31
0.0
  0
LINE
  5
FE
330
1F
100
AcDbEntity
  8
1
  6
Continuous
 62
     4
100
AcDbLine
 10
134.315060908525
 20
17.8266625773346
 30
0.0
 11
134.565060908525
 21
16.8266625773346
 31
0.0
  0
LINE
  5
FF
330
1F
100
AcDbEntity
  8
1
  6
Continuous
 62
     4
100
AcDbLine
 10
134.315060908525
 20
21.8266625773346
 30
0.0
 11
134.315060908525
 21
17.8266625773346
 31
0.0
  0
LINE
  5
100
330
1F
100
AcDbEntity
  8
1
  6
Continuous
 62
     4
100
AcDbLine
 10
134.565060908525
 20
22.8266625773346
 30
0.0
 11
134.315060908525
 21
21.8266625773346
 31
0.0
  0
LINE
  5
101
330
1F
100
AcDbEntity
  8
1
  6
Continuous
 62
     4
100
AcDbLine
 10
134.815060908525
 20
23.5766625773346
 30
0.0
 11
134.565060908525
 21
22.8266625773346
 31
0.0
  0
LINE
  5
102
330
1F
100
AcDbEntity
  8
1
  6
Continuous
 62
     4
100
AcDbLine
 10
135.315060908525
 20
24.0766625773346
 30
0.0
 11
134.815060908525
 21
23.5766625773346
 31
0.0
  0
LINE
  5
103
330
1F
100
AcDbEntity
  8
1
  6
Continuous
 62
     4
100
AcDbLine
 10
136.065060908525
 20
24.5766625773346
 30
0.0
 11
135.315060908525
 21
24.0766625773346
 31
0.0
  0
LINE
  5
104
330
1F
100
AcDbEntity
  8
1
  6
Continuous
 62
     4
100
AcDbLine
 10
137.065060908525
 20
24.8266625773346
 30
0.0
 11
136.065060908525
 21
24.5766625773346
 31
0.0
  0
LINE
  5
105
330
1F
100
AcDbEntity
  8
1
  6
Continuous
 62
     4
100
AcDbLine
 10
141.315060908525
 20
24.8266625773346
 30
0.0
 11
137.065060908525
 21
24.8266625773346
 31
0.0
  0
LINE
  5
1BD
330
1F
100
AcDbEntity
  8
1
  6
Continuous
 62
     4
100
AcDbLine
 10
290.792347825071
 20
36.2
 30
0.0
 11
291.655779044858
 21
27.9629204331229
 31
0.0
  0
LINE
  5
1BE
330
1F
100
AcDbEntity
  8
1
  6
Continuous
 62
     4
100
AcDbLine
 10
290.792347825071
 20
36.2
 30
0.0
 11
295.658640979266
 21
29.4981954519841
 31
0.0
  0
LINE
  5
1BF
330
1F
100
AcDbEntity
  8
1
  6
Continuous
 62
     4
100
AcDbLine
 10
197.311256739444
 20
36.2
 30
0.0
 11
190.706765718515
 21
31.202431429502
 31
0.0
  0
LINE
  5
1C0
330
1F
100
AcDbEntity
  8
1
  6
Continuous
 62
     4
100
AcDbLine
 10
197.311256739444
 20
36.2
 30
0.0
 11
194.090384021502
 21
28.5697331503293
 31
0.0
  0
LINE
  5
1C1
330
1F
100
AcDbEntity
  8
2
  6
Continuous
 62
     3
100
AcDbLine
 10
228.615765790895
 20
151.016127015244
 30
0.0
 11
228.615765790895
 21
129.999999336898
 31
0.0
  0
LINE
  5
1C2
330
1F
100
AcDbEntity
  8
2
  6
Continuous
 62
     3
100
AcDbLine
 10
238.615765790895
 20
151.016127015244
 30
0.0
 11
238.615765790895
 21
129.999999336898
 31
0.0
  0
LINE
  5
1C3
330
1F
100
AcDbEntity
  8
2
  6
DOTTED
 62
     6
100
AcDbLine
 10
204.615765790895
 20
141.791818191757
 30
0.0
 11
262.615765790895
 21
141.791818191757
 31
0.0
  0
LINE
  5
1C4
330
1F
100
AcDbEntity
  8
2
  6
Continuous
 62
     3
100
AcDbLine
 10
229.865753173828
 20
161.016133164307
 30
0.0
 11
237.365753173828
 21
161.016133164307
 31
0.0
  0
LINE
  5
1C5
330
1F
100
AcDbEntity
  8
2
  6
DOTTED
 62
     6
100
AcDbLine
 10
204.615765790895
 20
150.768809221008
 30
0.0
 11
204.615765790895
 21
141.791818191757
 31
0.0
  0
LINE
  5
1C6
330
1F
100
AcDbEntity
  8
2
  6
DOTTED
 62
     6
100
AcDbLine
 10
262.615765790895
 20
141.791818191757
 30
0.0
 11
262.615765790895
 21
150.768809221008
 31
0.0
  0
LINE
  5
1C7
330
1F
100
AcDbEntity
  8
2
  6
Continuous
 62
     3
100
AcDbLine
 10
237.365765790895
 20
161.016127015244
 30
0.0
 11
229.865765790895
 21
161.016127015244
 31
0.0
  0
LINE
  5
1C8
330
1F
100
AcDbEntity
  8
2
  6
Continuous
 62
     3
100
AcDbLine
 10
229.865753173828
 20
161.516133164307
 30
0.0
 11
237.365753173828
 21
161.516133164307
 31
0.0
  0
LINE
  5
1C9
330
1F
100
AcDbEntity
  8
5
  6
Continuous
 62
     3
100
AcDbLine
 10
204.615765790895
 20
159.993118044495
 30
0.0
 11
204.615765790895
 21
151.016127015244
 31
0.0
  0
LINE
  5
1CA
330
1F
100
AcDbEntity
  8
5
  6
Continuous
 62
     3
100
AcDbLine
 10
262.615765790895
 20
151.016127015244
 30
0.0
 11
262.615765790895
 21
159.993118044495
 31
0.0
  0
LINE
  5
1CB
330
1F
100
AcDbEntity
  8
5
  6
Continuous
 62
     3
100
AcDbLine
 10
204.615765790895
 20
151.016127015244
 30
0.0
 11
262.615765790895
 21
151.016127015244
 31
0.0
  0
LINE
  5
1CC
330
1F
100
AcDbEntity
  8
5
  6
DOTTED
 62
     6
100
AcDbLine
 10
222.43208108019
 20
159.791818191757
 30
0.0
 11
244.7994505016
 21
159.791818191757
 31
0.0
  0
LINE
  5
1CD
330
1F
100
AcDbEntity
  8
2
  6
Continuous
 62
     3
100
AcDbLine
 10
238.615765790895
 20
233.00422750628
 30
0.0
 11
237.115765790895
 21
252.12593754799
 31
0.0
  0
LINE
  5
1CE
330
1F
100
AcDbEntity
  8
2
  6
Continuous
 62
     3
100
AcDbLine
 10
242.983262788493
 20
257.993434545588
 30
0.0
 11
262.104972830204
 21
256.493434545588
 31
0.0
  0
LINE
  5
1CF
330
1F
100
AcDbEntity
  8
2
  6
Continuous
 62
     3
100
AcDbLine
 10
262.104972830204
 20
266.493434545588
 30
0.0
 11
242.983262788493
 21
264.993434545588
 31
0.0
  0
LINE
  5
1D0
330
1F
100
AcDbEntity
  8
2
  6
Continuous
 62
     3
100
AcDbLine
 10
237.115765790895
 20
270.860931543185
 30
0.0
 11
238.615765790895
 21
289.982641584896
 31
0.0
  0
LINE
  5
1D1
330
1F
100
AcDbEntity
  8
2
  6
Continuous
 62
     3
100
AcDbLine
 10
228.615765790895
 20
289.982641584896
 30
0.0
 11
230.115765790895
 21
270.860931543185
 31
0.0
  0
LINE
  5
1D2
330
1F
100
AcDbEntity
  8
2
  6
Continuous
 62
     3
100
AcDbLine
 10
224.248268793297
 20
264.993434545588
 30
0.0
 11
205.126558751586
 21
266.493434545588
 31
0.0
  0
LINE
  5
1D3
330
1F
100
AcDbEntity
  8
2
  6
Continuous
 62
     3
100
AcDbLine
 10
205.126558751586
 20
256.493434545588
 30
0.0
 11
224.248268793297
 21
257.993434545588
 31
0.0
  0
LINE
  5
1D4
330
1F
100
AcDbEntity
  8
2
  6
Continuous
 62
     3
100
AcDbLine
 10
230.115765790895
 20
252.12593754799
 30
0.0
 11
228.615765790895
 21
233.004227506279
 31
0.0
  0
LINE
  5
1D5
330
1F
100
AcDbEntity
  8
2
  6
Continuous
 62
     3
100
AcDbLine
 10
222.115765790534
 20
112.0
 30
0.0
 11
245.115765791256
 21
112.0
 31
0.0
  0
LINE
  5
1D6
330
1F
100
AcDbEntity
  8
2
  6
Continuous
 62
     3
100
AcDbLine
 10
246.894821982256
 20
120.720943809
 30
0.0
 11
246.894821982256
 21
113.779056191
 31
0.0
  0
LINE
  5
1D7
330
1F
100
AcDbEntity
  8
2
  6
Continuous
 62
     3
100
AcDbLine
 10
220.336709599534
 20
120.720943809
 30
0.0
 11
220.336709599534
 21
113.779056191
 31
0.0
  0
LINE
  5
1D8
330
1F
100
AcDbEntity
  8
2
  6
Continuous
 62
     3
100
AcDbLine
 10
243.115765790895
 20
129.999999336898
 30
0.0
 11
243.115765790895
 21
122.5
 31
0.0
  0
LINE
  5
1D9
330
1F
100
AcDbEntity
  8
2
  6
Continuous
 62
     3
100
AcDbLine
 10
224.115765790895
 20
129.999999336898
 30
0.0
 11
224.115765790895
 21
122.5
 31
0.0
  0
LINE
  5
1DA
330
1F
100
AcDbEntity
  8
2
  6
Continuous
 62
     3
100
AcDbLine
 10
222.115765790534
 20
122.5
 30
0.0
 11
245.115765791256
 21
122.5
 31
0.0
  0
LINE
  5
1DB
330
1F
100
AcDbEntity
  8
2
  6
Continuous
 62
     3
100
AcDbLine
 10
226.97624195199
 20
113.779056191
 30
0.0
 11
226.97624195199
 21
120.720943809
 31
0.0
  0
LINE
  5
1DC
330
1F
100
AcDbEntity
  8
2
  6
Continuous
 62
     3
100
AcDbLine
 10
240.255293886576
 20
113.779056191
 30
0.0
 11
240.255293886576
 21
120.720943809
 31
0.0
  0
LINE
  5
1DD
330
1F
100
AcDbEntity
  8
5
  6
CENTER
 62
     1
100
AcDbLine
 10
373.725079744383
 20
27.697244644165
 30
0.0
 11
373.725079744383
 21
177.569266319275
 31
0.0
  0
LINE
  5
1DE
330
1F
100
AcDbEntity
  8
2
  6
Continuous
 62
     3
100
AcDbLine
 10
362.225079744022
 20
112.0
 30
0.0
 11
369.925890931972
 21
112.0
 31
0.0
  0
LINE
  5
1DF
330
1F
100
AcDbEntity
  8
2
  6
Continuous
 62
     3
100
AcDbLine
 10
377.524268556795
 20
112.0
 30
0.0
 11
385.225079744745
 21
112.0
 31
0.0
  0
LINE
  5
1E0
330
1F
100
AcDbEntity
  8
2
  6
Continuous
 62
     3
100
AcDbLine
 10
362.225079744022
 20
122.5
 30
0.0
 11
385.225079744745
 21
122.5
 31
0.0
  0
LINE
  5
1E1
330
1F
100
AcDbEntity
  8
2
  6
Continuous
 62
     3
100
AcDbLine
 10
385.225079744745
 20
112.0
 30
0.0
 11
385.225079744745
 21
122.5
 31
0.0
  0
LINE
  5
1E2
330
1F
100
AcDbEntity
  8
2
  6
Continuous
 62
     3
100
AcDbLine
 10
362.225079744022
 20
112.0
 30
0.0
 11
362.225079744022
 21
122.5
 31
0.0
  0
LINE
  5
1E3
330
1F
100
AcDbEntity
  8
5
  6
CENTER
 62
     1
100
AcDbLine
 10
183.615765790895
 20
57.0
 30
0.0
 11
303.615765790895
 21
57.0
 31
0.0
  0
LINE
  5
1E4
330
1F
100
AcDbEntity
  8
2
  6
Continuous
 62
     3
100
AcDbLine
 10
246.471967530831
 20
107.561583159906
 30
0.0
 11
276.173900645733
 21
77.8596500450032
 31
0.0
  0
LINE
  5
1E5
330
1F
100
AcDbEntity
  8
2
  6
Continuous
 62
     3
100
AcDbLine
 10
188.615765790895
 20
36.2
 30
0.0
 11
188.615765790895
 21
77.8
 31
0.0
  0
LINE
  5
1E6
330
1F
100
AcDbEntity
  8
2
  6
Continuous
 62
     3
100
AcDbLine
 10
188.615765790895
 20
36.2
 30
0.0
 11
203.615765790895
 21
36.2
 31
0.0
  0
LINE
  5
1E7
330
1F
100
AcDbEntity
  8
2
  6
Continuous
 62
     3
100
AcDbLine
 10
188.615765790895
 20
77.8
 30
0.0
 11
203.615765790895
 21
77.8
 31
0.0
  0
LINE
  5
1E8
330
1F
100
AcDbEntity
  8
5
  6
Continuous
 62
     3
100
AcDbLine
 10
188.615765790895
 20
76.476
 30
0.0
 11
204.939765790895
 21
76.476
 31
0.0
  0
LINE
  5
1E9
330
1F
100
AcDbEntity
  8
5
  6
Continuous
 62
     3
100
AcDbLine
 10
188.615765790895
 20
37.524
 30
0.0
 11
204.939765790895
 21
37.524
 31
0.0
  0
LINE
  5
1EA
330
1F
100
AcDbEntity
  8
2
  6
Continuous
 62
     3
100
AcDbLine
 10
205.665765790895
 20
38.25
 30
0.0
 11
209.382193088064
 21
38.25
 31
0.0
  0
LINE
  5
1EB
330
1F
100
AcDbEntity
  8
2
  6
Continuous
 62
     3
100
AcDbLine
 10
205.665765790895
 20
75.75
 30
0.0
 11
208.088295974527
 21
75.75
 31
0.0
  0
LINE
  5
1EC
330
1F
100
AcDbEntity
  8
2
  6
Continuous
 62
     3
100
AcDbLine
 10
203.615765790895
 20
77.8
 30
0.0
 11
205.665765790895
 21
75.75
 31
0.0
  0
LINE
  5
1ED
330
1F
100
AcDbEntity
  8
2
  6
Continuous
 62
     3
100
AcDbLine
 10
205.665765790895
 20
38.25
 30
0.0
 11
203.615765790895
 21
36.2
 31
0.0
  0
LINE
  5
1EE
330
1F
100
AcDbEntity
  8
2
  6
Continuous
 62
     3
100
AcDbLine
 10
281.565765790895
 20
38.25
 30
0.0
 11
283.615765790895
 21
36.2
 31
0.0
  0
LINE
  5
1EF
330
1F
100
AcDbEntity
  8
2
  6
Continuous
 62
     3
100
AcDbLine
 10
298.615765790895
 20
36.2
 30
0.0
 11
283.615765790895
 21
36.2
 31
0.0
  0
LINE
  5
1F0
330
1F
100
AcDbEntity
  8
5
  6
Continuous
 62
     3
100
AcDbLine
 10
298.615765790895
 20
37.524
 30
0.0
 11
282.291765790895
 21
37.524
 31
0.0
  0
LINE
  5
1F1
330
1F
100
AcDbEntity
  8
2
  6
Continuous
 62
     3
100
AcDbLine
 10
281.565765790895
 20
38.25
 30
0.0
 11
277.849338493726
 21
38.25
 31
0.0
  0
LINE
  5
1F2
330
1F
100
AcDbEntity
  8
2
  6
Continuous
 62
     3
100
AcDbLine
 10
283.615765790895
 20
77.8
 30
0.0
 11
281.565765790895
 21
75.75
 31
0.0
  0
LINE
  5
1F3
330
1F
100
AcDbEntity
  8
2
  6
Continuous
 62
     3
100
AcDbLine
 10
298.615765790895
 20
77.8
 30
0.0
 11
283.615765790895
 21
77.8
 31
0.0
  0
LINE
  5
1F4
330
1F
100
AcDbEntity
  8
5
  6
Continuous
 62
     3
100
AcDbLine
 10
298.615765790895
 20
76.476
 30
0.0
 11
282.291765790895
 21
76.476
 31
0.0
  0
LINE
  5
1F5
330
1F
100
AcDbEntity
  8
2
  6
Continuous
 62
     3
100
AcDbLine
 10
281.565765790895
 20
75.75
 30
0.0
 11
278.283900645733
 21
75.75
 31
0.0
  0
LINE
  5
1F6
330
1F
100
AcDbEntity
  8
5
  6
CENTER
 62
     1
100
AcDbLine
 10
233.615765790895
 20
82.8793766256649
 30
0.0
 11
233.615765790895
 21
177.569266319275
 31
0.0
  0
LINE
  5
1F7
330
1F
100
AcDbEntity
  8
2
  6
Continuous
 62
     3
100
AcDbLine
 10
223.615765790895
 20
102.0
 30
0.0
 11
223.615765790895
 21
112.0
 31
0.0
  0
LINE
  5
1F8
330
1F
100
AcDbEntity
  8
2
  6
Continuous
 62
     3
100
AcDbLine
 10
243.615765790895
 20
110.558134854838
 30
0.0
 11
243.615765790895
 21
112.0
 31
0.0
  0
LINE
  5
1F9
330
1F
100
AcDbEntity
  8
2
  6
Continuous
 62
     3
100
AcDbLine
 10
246.475415835898
 20
107.558134854838
 30
0.0
 11
248.243182788864
 21
109.325901807805
 31
0.0
  0
LINE
  5
1FA
330
1F
100
AcDbEntity
  8
2
  6
Continuous
 62
     3
100
AcDbLine
 10
276.173900645733
 20
77.8596500450032
 30
0.0
 11
277.9416675987
 21
79.6274169979696
 31
0.0
  0
LINE
  5
1FB
330
1F
100
AcDbEntity
  8
2
  6
Continuous
 62
     3
100
AcDbLine
 10
248.243182788864
 20
109.325901807805
 30
0.0
 11
277.9416675987
 21
79.6274169979696
 31
0.0
  0
LINE
  5
1FC
330
1F
100
AcDbEntity
  8
2
  6
Continuous
 62
     3
100
AcDbLine
 10
256.038887539024
 20
113.551012337816
 30
0.0
 11
282.166778128711
 21
87.4231217481291
 31
0.0
  0
LINE
  5
1FD
330
1F
100
AcDbEntity
  8
2
  6
Continuous
 62
     3
100
AcDbLine
 10
250.028479898938
 20
107.540604697731
 30
0.0
 11
256.038887539024
 21
113.551012337816
 31
0.0
  0
LINE
  5
1FE
330
1F
100
AcDbEntity
  8
2
  6
Continuous
 62
     3
100
AcDbLine
 10
256.56045254636
 20
101.008632050309
 30
0.0
 11
262.570860186446
 21
107.019039690394
 31
0.0
  0
LINE
  5
1FF
330
1F
100
AcDbEntity
  8
2
  6
Continuous
 62
     3
100
AcDbLine
 10
269.624397841204
 20
87.9446867554653
 30
0.0
 11
275.63480548129
 21
93.9550943955509
 31
0.0
  0
LINE
  5
200
330
1F
100
AcDbEntity
  8
2
  6
Continuous
 62
     3
100
AcDbLine
 10
276.156370488626
 20
81.4127141080434
 30
0.0
 11
282.166778128711
 21
87.4231217481291
 31
0.0
  0
LINE
  5
201
330
1F
100
AcDbEntity
  8
2
  6
Continuous
 62
     3
100
AcDbLine
 10
203.615765790895
 20
36.2
 30
0.0
 11
203.615765790895
 21
77.8
 31
0.0
  0
LINE
  5
202
330
1F
100
AcDbEntity
  8
2
  6
Continuous
 62
     3
100
AcDbLine
 10
283.615765790895
 20
36.2
 30
0.0
 11
283.615765790895
 21
77.8
 31
0.0
  0
LINE
  5
203
330
1F
100
AcDbEntity
  8
2
  6
Continuous
 62
     3
100
AcDbLine
 10
394.725079744383
 20
66.3808315196469
 30
0.0
 11
394.725079744383
 21
94.476659402915
 31
0.0
  0
LINE
  5
204
330
1F
100
AcDbEntity
  8
2
  6
Continuous
 62
     3
100
AcDbLine
 10
363.725079744383
 20
109.468529433178
 30
0.0
 11
363.725079744383
 21
112.0
 31
0.0
  0
LINE
  5
205
330
1F
100
AcDbEntity
  8
2
  6
Continuous
 62
     3
100
AcDbLine
 10
383.725079744383
 20
109.468529433178
 30
0.0
 11
383.725079744383
 21
112.0
 31
0.0
  0
LINE
  5
206
330
1F
100
AcDbEntity
  8
2
  6
Continuous
 62
     3
100
AcDbLine
 10
352.725079744383
 20
66.3808315196467
 30
0.0
 11
352.725079744383
 21
94.4766599140617
 31
0.0
  0
LINE
  5
207
330
1F
100
AcDbEntity
  8
2
  6
Continuous
 62
     3
100
AcDbLine
 10
357.725079744383
 20
87.9446867554653
 30
0.0
 11
357.725079744383
 21
107.019039690394
 31
0.0
  0
LINE
  5
208
330
1F
100
AcDbEntity
  8
2
  6
Continuous
 62
     3
100
AcDbLine
 10
389.725079744383
 20
87.9446867554653
 30
0.0
 11
389.725079744383
 21
107.019039690394
 31
0.0
  0
LINE
  5
209
330
1F
100
AcDbEntity
  8
2
  6
Continuous
 62
     3
100
AcDbLine
 10
357.725079744383
 20
87.9446867554653
 30
0.0
 11
373.725079744383
 21
81.4127141080434
 31
0.0
  0
LINE
  5
20A
330
1F
100
AcDbEntity
  8
2
  6
Continuous
 62
     3
100
AcDbLine
 10
373.725079744383
 20
81.4127141080434
 30
0.0
 11
389.725079744383
 21
87.9446867554653
 31
0.0
  0
LINE
  5
20B
330
1F
100
AcDbEntity
  8
2
  6
Continuous
 62
     3
100
AcDbLine
 10
373.725079744383
 20
113.551012337816
 30
0.0
 11
357.725079744383
 21
107.019039690394
 31
0.0
  0
LINE
  5
20C
330
1F
100
AcDbEntity
  8
2
  6
Continuous
 62
     3
100
AcDbLine
 10
357.725079744383
 20
93.9550943955509
 30
0.0
 11
373.725079744383
 21
87.4231217481291
 31
0.0
  0
LINE
  5
20D
330
1F
100
AcDbEntity
  8
2
  6
Continuous
 62
     3
100
AcDbLine
 10
373.725079744383
 20
87.4231217481291
 30
0.0
 11
389.725079744383
 21
93.9550943955509
 31
0.0
  0
LINE
  5
20E
330
1F
100
AcDbEntity
  8
2
  6
Continuous
 62
     3
100
AcDbLine
 10
389.725079744383
 20
107.019039690394
 30
0.0
 11
373.725079744383
 21
113.551012337816
 31
0.0
  0
LINE
  5
20F
330
1F
100
AcDbEntity
  8
2
  6
Continuous
 62
     3
100
AcDbLine
 10
373.725079744383
 20
87.4231217481291
 30
0.0
 11
373.725079744383
 21
81.4127141080434
 31
0.0
  0
LINE
  5
210
330
1F
100
AcDbEntity
  8
2
  6
Continuous
 62
     3
100
AcDbLine
 10
298.615765790895
 20
36.2
 30
0.0
 11
298.615765790895
 21
77.8
 31
0.0
  0
LINE
  5
211
330
1F
100
AcDbEntity
  8
2
  6
Continuous
 62
     3
100
AcDbLine
 10
373.725079744383
 20
120.720943809
 30
0.0
 11
373.725079744383
 21
113.779056191
 31
0.0
  0
LINE
  5
212
330
1F
100
AcDbEntity
  8
5
  6
CENTER
 62
     1
100
AcDbLine
 10
345.725079744383
 20
57.0
 30
0.0
 11
401.725079744383
 21
57.0
 31
0.0
  0
LINE
  5
213
330
1F
100
AcDbEntity
  8
2
  6
Continuous
 62
     3
100
AcDbLine
 10
352.725079744383
 20
92.7735026918962
 30
0.0
 11
349.725079744383
 21
92.7735026918962
 31
0.0
  0
LINE
  5
214
330
1F
100
AcDbEntity
  8
2
  6
Continuous
 62
     3
100
AcDbLine
 10
352.725079744383
 20
81.2264973081038
 30
0.0
 11
349.725079744383
 21
81.2264973081038
 31
0.0
  0
LINE
  5
215
330
1F
100
AcDbEntity
  8
2
  6
Continuous
 62
     3
100
AcDbLine
 10
352.725079744383
 20
84.1132486540518
 30
0.0
 11
349.725079744383
 21
84.1132486540518
 31
0.0
  0
LINE
  5
216
330
1F
100
AcDbEntity
  8
2
  6
Continuous
 62
     3
100
AcDbLine
 10
352.725079744383
 20
89.8867513459481
 30
0.0
 11
349.725079744383
 21
89.8867513459481
 31
0.0
  0
LINE
  5
217
330
1F
100
AcDbEntity
  8
2
  6
Continuous
 62
     3
100
AcDbLine
 10
349.725079744383
 20
81.2264973081038
 30
0.0
 11
349.725079744383
 21
92.7735026918962
 31
0.0
  0
LINE
  5
218
330
1F
100
AcDbEntity
  8
5
  6
CENTER
 62
     1
100
AcDbLine
 10
243.615765790895
 20
27.697244644165
 30
0.0
 11
243.615765790895
 21
68.6796022448429
 31
0.0
  0
LINE
  5
219
330
1F
100
AcDbEntity
  8
5
  6
CENTER
 62
     1
100
AcDbLine
 10
183.615765790895
 20
261.493434545588
 30
0.0
 11
303.615765790895
 21
261.493434545588
 31
0.0
  0
LINE
  5
21A
330
1F
100
AcDbEntity
  8
5
  6
CENTER
 62
     1
100
AcDbLine
 10
233.615765790895
 20
296.493434545587
 30
0.0
 11
233.615765790895
 21
226.493434545588
 31
0.0
  0
LINE
  5
21B
330
1F
100
AcDbEntity
  8
2
  6
Continuous
 62
     3
100
AcDbLine
 10
253.615765790895
 20
282.493434545588
 30
0.0
 11
263.092425193782
 21
282.493434545588
 31
0.0
  0
LINE
  5
21C
330
1F
100
AcDbEntity
  8
2
  6
Continuous
 62
     3
100
AcDbLine
 10
253.615765790895
 20
240.493434545588
 30
0.0
 11
263.092425193782
 21
240.493434545588
 31
0.0
  0
LINE
  5
21D
330
1F
100
AcDbEntity
  8
2
  6
Continuous
 62
     3
100
AcDbLine
 10
257.518713054195
 20
277.493434545588
 30
0.0
 11
275.63480548129
 21
277.493434545588
 31
0.0
  0
LINE
  5
21E
330
1F
100
AcDbEntity
  8
2
  6
Continuous
 62
     3
100
AcDbLine
 10
257.518713054195
 20
245.493434545588
 30
0.0
 11
275.63480548129
 21
245.493434545588
 31
0.0
  0
LINE
  5
21F
330
1F
100
AcDbEntity
  8
2
  6
Continuous
 62
     3
100
AcDbLine
 10
282.166778128711
 20
261.493434545588
 30
0.0
 11
275.63480548129
 21
277.493434545588
 31
0.0
  0
LINE
  5
220
330
1F
100
AcDbEntity
  8
2
  6
Continuous
 62
     3
100
AcDbLine
 10
282.166778128711
 20
261.493434545588
 30
0.0
 11
275.63480548129
 21
245.493434545588
 31
0.0
  0
LINE
  5
221
330
1F
100
AcDbEntity
  8
2
  6
Continuous
 62
     3
100
AcDbLine
 10
262.570860186446
 20
245.493434545588
 30
0.0
 11
259.52612529956
 21
252.951481420509
 31
0.0
  0
LINE
  5
222
330
1F
100
AcDbEntity
  8
2
  6
Continuous
 62
     3
100
AcDbLine
 10
259.299443963618
 20
269.480134063397
 30
0.0
 11
262.570860186446
 21
277.493434545588
 31
0.0
  0
LINE
  5
223
330
1F
100
AcDbEntity
  8
2
  6
Continuous
 62
     3
100
AcDbLine
 10
283.615765790895
 20
282.293434545588
 30
0.0
 11
281.565765790895
 21
280.243434545588
 31
0.0
  0
LINE
  5
224
330
1F
100
AcDbEntity
  8
2
  6
Continuous
 62
     3
100
AcDbLine
 10
298.615765790895
 20
282.293434545588
 30
0.0
 11
283.615765790895
 21
282.293434545588
 31
0.0
  0
LINE
  5
225
330
1F
100
AcDbEntity
  8
5
  6
Continuous
 62
     3
100
AcDbLine
 10
298.615765790895
 20
280.969434545588
 30
0.0
 11
282.291765790895
 21
280.969434545588
 31
0.0
  0
LINE
  5
226
330
1F
100
AcDbEntity
  8
2
  6
Continuous
 62
     3
100
AcDbLine
 10
281.565765790895
 20
280.243434545588
 30
0.0
 11
269.782574635725
 21
280.243434545588
 31
0.0
  0
LINE
  5
227
330
1F
100
AcDbEntity
  8
2
  6
Continuous
 62
     3
100
AcDbLine
 10
283.615765790895
 20
240.693434545588
 30
0.0
 11
283.615765790895
 21
282.293434545588
 31
0.0
  0
LINE
  5
228
330
1F
100
AcDbEntity
  8
2
  6
Continuous
 62
     3
100
AcDbLine
 10
298.615765790895
 20
240.693434545588
 30
0.0
 11
298.615765790895
 21
282.293434545588
 31
0.0
  0
LINE
  5
229
330
1F
100
AcDbEntity
  8
2
  6
Continuous
 62
     3
100
AcDbLine
 10
281.565765790895
 20
242.743434545588
 30
0.0
 11
283.615765790895
 21
240.693434545588
 31
0.0
  0
LINE
  5
22A
330
1F
100
AcDbEntity
  8
2
  6
Continuous
 62
     3
100
AcDbLine
 10
298.615765790895
 20
240.693434545588
 30
0.0
 11
283.615765790895
 21
240.693434545588
 31
0.0
  0
LINE
  5
22B
330
1F
100
AcDbEntity
  8
5
  6
Continuous
 62
     3
100
AcDbLine
 10
298.615765790895
 20
242.017434545588
 30
0.0
 11
282.291765790895
 21
242.017434545588
 31
0.0
  0
LINE
  5
22C
330
1F
100
AcDbEntity
  8
2
  6
Continuous
 62
     3
100
AcDbLine
 10
281.565765790895
 20
242.743434545588
 30
0.0
 11
269.782574635725
 21
242.743434545588
 31
0.0
  0
LINE
  5
22D
330
1F
100
AcDbEntity
  8
2
  6
Continuous
 62
     3
100
AcDbLine
 10
188.615765790895
 20
240.693434545588
 30
0.0
 11
188.615765790895
 21
282.293434545588
 31
0.0
  0
LINE
  5
22E
330
1F
100
AcDbEntity
  8
2
  6
Continuous
 62
     3
100
AcDbLine
 10
188.615765790895
 20
282.293434545588
 30
0.0
 11
203.615765790895
 21
282.293434545588
 31
0.0
  0
LINE
  5
22F
330
1F
100
AcDbEntity
  8
5
  6
Continuous
 62
     3
100
AcDbLine
 10
188.615765790895
 20
280.969434545588
 30
0.0
 11
204.939765790895
 21
280.969434545588
 31
0.0
  0
LINE
  5
230
330
1F
100
AcDbEntity
  8
2
  6
Continuous
 62
     3
100
AcDbLine
 10
205.665765790895
 20
280.243434545588
 30
0.0
 11
211.492531398067
 21
280.243434545588
 31
0.0
  0
LINE
  5
231
330
1F
100
AcDbEntity
  8
2
  6
Continuous
 62
     3
100
AcDbLine
 10
203.615765790895
 20
282.293434545588
 30
0.0
 11
205.665765790895
 21
280.243434545588
 31
0.0
  0
LINE
  5
232
330
1F
100
AcDbEntity
  8
2
  6
Continuous
 62
     3
100
AcDbLine
 10
203.615765790895
 20
240.693434545588
 30
0.0
 11
203.615765790895
 21
282.293434545588
 31
0.0
  0
LINE
  5
233
330
1F
100
AcDbEntity
  8
2
  6
Continuous
 62
     3
100
AcDbLine
 10
188.615765790895
 20
240.693434545588
 30
0.0
 11
203.615765790895
 21
240.693434545588
 31
0.0
  0
LINE
  5
234
330
1F
100
AcDbEntity
  8
5
  6
Continuous
 62
     3
100
AcDbLine
 10
188.615765790895
 20
242.017434545588
 30
0.0
 11
204.939765790895
 21
242.017434545588
 31
0.0
  0
LINE
  5
235
330
1F
100
AcDbEntity
  8
2
  6
Continuous
 62
     3
100
AcDbLine
 10
205.665765790895
 20
242.743434545588
 30
0.0
 11
211.492531398067
 21
242.743434545588
 31
0.0
  0
LINE
  5
236
330
1F
100
AcDbEntity
  8
2
  6
Continuous
 62
     3
100
AcDbLine
 10
205.665765790895
 20
242.743434545588
 30
0.0
 11
203.615765790895
 21
240.693434545588
 31
0.0
  0
LINE
  5
237
330
1F
100
AcDbEntity
  8
2
  6
Continuous
 62
     3
100
AcDbLine
 10
224.115765790895
 20
129.999999336898
 30
0.0
 11
243.115765790895
 21
129.999999336898
 31
0.0
  0
LINE
  5
238
330
1F
100
AcDbEntity
  8
2
  6
Continuous
 62
     3
100
AcDbLine
 10
383.225079744383
 20
129.999999336898
 30
0.0
 11
383.225079744383
 21
122.5
 31
0.0
  0
LINE
  5
239
330
1F
100
AcDbEntity
  8
2
  6
Continuous
 62
     3
100
AcDbLine
 10
364.225079744383
 20
129.999999336898
 30
0.0
 11
383.225079744383
 21
129.999999336898
 31
0.0
  0
LINE
  5
23A
330
1F
100
AcDbEntity
  8
2
  6
Continuous
 62
     3
100
AcDbLine
 10
364.225079744383
 20
129.999999336898
 30
0.0
 11
364.225079744383
 21
122.5
 31
0.0
  0
LINE
  5
23B
330
1F
100
AcDbEntity
  8
5
  6
DOTTED
 62
     6
100
AcDbLine
 10
362.541395033678
 20
159.791818191757
 30
0.0
 11
384.908764455088
 21
159.791818191757
 31
0.0
  0
LINE
  5
23C
330
1F
100
AcDbEntity
  8
5
  6
Continuous
 62
     3
100
AcDbLine
 10
344.725079744383
 20
151.016127015244
 30
0.0
 11
402.725079744383
 21
151.016127015244
 31
0.0
  0
LINE
  5
23D
330
1F
100
AcDbEntity
  8
5
  6
Continuous
 62
     3
100
AcDbLine
 10
402.725079744383
 20
151.016127015244
 30
0.0
 11
402.725079744383
 21
159.993118044495
 31
0.0
  0
LINE
  5
23E
330
1F
100
AcDbEntity
  8
5
  6
Continuous
 62
     3
100
AcDbLine
 10
344.725079744383
 20
159.993118044495
 30
0.0
 11
344.725079744383
 21
151.016127015244
 31
0.0
  0
LINE
  5
23F
330
1F
100
AcDbEntity
  8
2
  6
Continuous
 62
     3
100
AcDbLine
 10
369.975067127316
 20
161.516133164307
 30
0.0
 11
377.475067127316
 21
161.516133164307
 31
0.0
  0
LINE
  5
240
330
1F
100
AcDbEntity
  8
2
  6
Continuous
 62
     3
100
AcDbLine
 10
377.475079744383
 20
161.016127015244
 30
0.0
 11
369.975079744383
 21
161.016127015244
 31
0.0
  0
LINE
  5
241
330
1F
100
AcDbEntity
  8
2
  6
DOTTED
 62
     6
100
AcDbLine
 10
402.725079744383
 20
141.791818191757
 30
0.0
 11
402.725079744383
 21
150.768809221008
 31
0.0
  0
LINE
  5
242
330
1F
100
AcDbEntity
  8
2
  6
DOTTED
 62
     6
100
AcDbLine
 10
344.725079744383
 20
150.768809221008
 30
0.0
 11
344.725079744383
 21
141.791818191757
 31
0.0
  0
LINE
  5
243
330
1F
100
AcDbEntity
  8
2
  6
Continuous
 62
     3
100
AcDbLine
 10
369.975067127316
 20
161.016133164307
 30
0.0
 11
377.475067127316
 21
161.016133164307
 31
0.0
  0
LINE
  5
244
330
1F
100
AcDbEntity
  8
2
  6
DOTTED
 62
     6
100
AcDbLine
 10
344.725079744383
 20
141.791818191757
 30
0.0
 11
402.725079744383
 21
141.791818191757
 31
0.0
  0
LINE
  5
245
330
1F
100
AcDbEntity
  8
2
  6
Continuous
 62
     3
100
AcDbLine
 10
378.725079744383
 20
151.016127015244
 30
0.0
 11
378.725079744383
 21
129.999999336898
 31
0.0
  0
LINE
  5
246
330
1F
100
AcDbEntity
  8
2
  6
Continuous
 62
     3
100
AcDbLine
 10
368.725079744383
 20
151.016127015244
 30
0.0
 11
368.725079744383
 21
129.999999336898
 31
0.0
  0
ARC
  5
251
330
1F
100
AcDbEntity
  8
2
  6
DOTTED
 62
     6
100
AcDbCircle
 10
233.087045813439
 20
90.843509270583
 30
0.0
 40
70.00000000000026
100
AcDbArc
 50
101.2741638648803
 51
110.5554521953945
  0
ARC
  5
252
330
1F
100
AcDbEntity
  8
2
  6
DOTTED
 62
     6
100
AcDbCircle
 10
210.615765790895
 20
150.768809221008
 30
0.0
 40
5.99999999999984
100
AcDbArc
 50
110.5554521953998
 51
180.0
  0
ARC
  5
253
330
1F
100
AcDbEntity
  8
2
  6
DOTTED
 62
     6
100
AcDbCircle
 10
256.615765790895
 20
150.768809221008
 30
0.0
 40
6.0
100
AcDbArc
 50
0.0
 51
69.44454780460961
  0
ARC
  5
254
330
1F
100
AcDbEntity
  8
2
  6
DOTTED
 62
     6
100
AcDbCircle
 10
234.144485768351
 20
90.843509270583
 30
0.0
 40
69.99999999999943
100
AcDbArc
 50
69.44454780460629
 51
78.72583613511952
  0
ARC
  5
255
330
1F
100
AcDbEntity
  8
2
  6
DOTTED
 62
     6
100
AcDbCircle
 10
244.7994505016
 20
144.291818191757
 30
0.0
 40
15.499999999999
100
AcDbArc
 50
78.72583613511901
 51
90.0
  0
ARC
  5
256
330
1F
100
AcDbEntity
  8
2
  6
DOTTED
 62
     6
100
AcDbCircle
 10
222.43208108019
 20
144.291818191757
 30
0.0
 40
15.5
100
AcDbArc
 50
90.0
 51
101.2741638648803
  0
ARC
  5
257
330
1F
100
AcDbEntity
  8
5
  6
Continuous
 62
     3
100
AcDbCircle
 10
210.615765790895
 20
159.993118044495
 30
0.0
 40
5.999999999999867
100
AcDbArc
 50
110.5554521953997
 51
180.0
  0
ARC
  5
258
330
1F
100
AcDbEntity
  8
5
  6
Continuous
 62
     3
100
AcDbCircle
 10
233.087045813439
 20
100.06781809407
 30
0.0
 40
70.00000000000023
100
AcDbArc
 50
101.2741638648803
 51
110.5554521953945
  0
ARC
  5
259
330
1F
100
AcDbEntity
  8
5
  6
PHANTOM
 62
     3
100
AcDbCircle
 10
222.43208108019
 20
153.516127015244
 30
0.0
 40
15.5
100
AcDbArc
 50
90.0
 51
101.2741638648803
  0
ARC
  5
25A
330
1F
100
AcDbEntity
  8
5
  6
PHANTOM
 62
     3
100
AcDbCircle
 10
244.7994505016
 20
153.516127015244
 30
0.0
 40
15.499999999999
100
AcDbArc
 50
78.72583613511901
 51
90.0
  0
ARC
  5
25B
330
1F
100
AcDbEntity
  8
5
  6
Continuous
 62
     3
100
AcDbCircle
 10
234.144485768351
 20
100.06781809407
 30
0.0
 40
69.99999999999943
100
AcDbArc
 50
69.44454780460629
 51
78.72583613511952
  0
ARC
  5
25C
330
1F
100
AcDbEntity
  8
5
  6
Continuous
 62
     3
100
AcDbCircle
 10
256.615765790895
 20
159.993118044495
 30
0.0
 40
6.0
100
AcDbArc
 50
0.0
 51
69.44454780460971
  0
ARC
  5
25D
330
1F
100
AcDbEntity
  8
2
  6
Continuous
 62
     3
100
AcDbCircle
 10
233.615765790895
 20
261.493434545588
 30
0.0
 40
25.0000000000001
100
AcDbArc
 50
169.1838626983027
 51
190.8161373016973
  0
ARC
  5
25E
330
1F
100
AcDbEntity
  8
2
  6
Continuous
 62
     3
100
AcDbCircle
 10
233.615765790895
 20
261.493434545588
 30
0.0
 40
25.0000000000001
100
AcDbArc
 50
259.1838626983026
 51
280.8161373016974
  0
ARC
  5
25F
330
1F
100
AcDbEntity
  8
2
  6
Continuous
 62
     3
100
AcDbCircle
 10
233.615765790895
 20
261.493434545588
 30
0.0
 40
25.0000000000001
100
AcDbArc
 50
349.1838626983026
 51
10.81613730169734
  0
ARC
  5
260
330
1F
100
AcDbEntity
  8
2
  6
Continuous
 62
     3
100
AcDbCircle
 10
233.615765790895
 20
261.493434545588
 30
0.0
 40
25.0000000000001
100
AcDbArc
 50
79.18386269830266
 51
100.8161373016974
  0
ARC
  5
261
330
1F
100
AcDbEntity
  8
2
  6
Continuous
 62
     3
100
AcDbCircle
 10
233.615765790895
 20
261.493434545588
 30
0.0
 40
11.50000000000002
100
AcDbArc
 50
251.6450253534814
 51
288.3549746465184
  0
ARC
  5
262
330
1F
100
AcDbEntity
  8
2
  6
Continuous
 62
     3
100
AcDbCircle
 10
233.615765790895
 20
261.493434545588
 30
0.0
 40
11.50000000000001
100
AcDbArc
 50
341.6450253534816
 51
18.35497464651845
  0
ARC
  5
263
330
1F
100
AcDbEntity
  8
2
  6
Continuous
 62
     3
100
AcDbCircle
 10
233.615765790895
 20
261.493434545588
 30
0.0
 40
11.50000000000001
100
AcDbArc
 50
71.64502535348156
 51
108.3549746465186
  0
ARC
  5
264
330
1F
100
AcDbEntity
  8
2
  6
Continuous
 62
     3
100
AcDbCircle
 10
233.615765790895
 20
261.493434545588
 30
0.0
 40
11.49999999999971
100
AcDbArc
 50
161.6450253534861
 51
198.3549746465185
  0
ARC
  5
265
330
1F
100
AcDbEntity
  8
2
  6
Continuous
 62
     3
100
AcDbCircle
 10
233.615765790895
 20
261.493434545588
 30
0.0
 40
29.00000000000099
100
AcDbArc
 50
270.0
 51
278.0735995924416
  0
ARC
  5
266
330
1F
100
AcDbEntity
  8
2
  6
Continuous
 62
     3
100
AcDbCircle
 10
236.986446746092
 20
237.731311115678
 30
0.0
 40
4.999999999999863
100
AcDbArc
 50
278.0735995924477
 51
315.9918022488907
  0
ARC
  5
267
330
1F
100
AcDbEntity
  8
2
  6
Continuous
 62
     3
100
AcDbCircle
 10
247.775052788403
 20
227.30989184267
 30
0.0
 40
9.99999999999967
100
AcDbArc
 50
89.00819775111228
 51
135.9918022488867
  0
ARC
  5
268
330
1F
100
AcDbEntity
  8
2
  6
Continuous
 62
     3
100
AcDbCircle
 10
248.034693042939
 20
242.30764457227
 30
0.0
 40
5.000000000000318
100
AcDbArc
 50
269.0081977511123
 51
306.9264004075617
  0
ARC
  5
269
330
1F
100
AcDbEntity
  8
2
  6
Continuous
 62
     3
100
AcDbCircle
 10
233.615765790895
 20
261.493434545588
 30
0.0
 40
29.00000000000099
100
AcDbArc
 50
306.9264004075577
 51
323.0735995924411
  0
ARC
  5
26A
330
1F
100
AcDbEntity
  8
2
  6
Continuous
 62
     3
100
AcDbCircle
 10
252.801555764212
 20
247.074507293543
 30
0.0
 40
5.00000000000025
100
AcDbArc
 50
323.0735995924474
 51
0.99180224888762
  0
ARC
  5
26B
330
1F
100
AcDbEntity
  8
2
  6
Continuous
 62
     3
100
AcDbCircle
 10
267.799308493812
 20
247.33414754808
 30
0.0
 40
9.999999999999357
100
AcDbArc
 50
134.0081977511093
 51
180.9918022488934
  0
ARC
  5
26C
330
1F
100
AcDbEntity
  8
2
  6
Continuous
 62
     3
100
AcDbCircle
 10
257.377889220805
 20
258.12275359039
 30
0.0
 40
4.999999999999637
100
AcDbArc
 50
314.008197751117
 51
351.9264004075632
  0
ARC
  5
26D
330
1F
100
AcDbEntity
  8
2
  6
Continuous
 62
     3
100
AcDbCircle
 10
233.615765790895
 20
261.493434545588
 30
0.0
 40
28.99999999999995
100
AcDbArc
 50
351.9264004075584
 51
8.07359959244152
  0
ARC
  5
26E
330
1F
100
AcDbEntity
  8
2
  6
Continuous
 62
     3
100
AcDbCircle
 10
257.377889220805
 20
264.864115500785
 30
0.0
 40
4.999999999999835
100
AcDbArc
 50
8.07359959244778
 51
45.9918022488914
  0
ARC
  5
26F
330
1F
100
AcDbEntity
  8
2
  6
Continuous
 62
     3
100
AcDbCircle
 10
267.799308493812
 20
275.652721543096
 30
0.0
 40
9.99999999999967
100
AcDbArc
 50
179.0081977511123
 51
225.9918022488906
  0
ARC
  5
270
330
1F
100
AcDbEntity
  8
2
  6
Continuous
 62
     3
100
AcDbCircle
 10
252.801555764212
 20
275.912361797632
 30
0.0
 40
5.000000000000346
100
AcDbArc
 50
359.0081977511124
 51
36.92640040755229
  0
ARC
  5
271
330
1F
100
AcDbEntity
  8
2
  6
Continuous
 62
     3
100
AcDbCircle
 10
233.615765790895
 20
261.493434545588
 30
0.0
 40
28.99999999999956
100
AcDbArc
 50
36.92640040755725
 51
53.0735995924427
  0
ARC
  5
272
330
1F
100
AcDbEntity
  8
2
  6
Continuous
 62
     3
100
AcDbCircle
 10
248.034693042939
 20
280.679224518905
 30
0.0
 40
5.000000000000227
100
AcDbArc
 50
53.07359959244727
 51
90.99180224888764
  0
ARC
  5
273
330
1F
100
AcDbEntity
  8
2
  6
Continuous
 62
     3
100
AcDbCircle
 10
247.775052788403
 20
295.676977248505
 30
0.0
 40
10.00000000000003
100
AcDbArc
 50
224.0081977511133
 51
270.9918022488877
  0
ARC
  5
274
330
1F
100
AcDbEntity
  8
2
  6
Continuous
 62
     3
100
AcDbCircle
 10
236.986446746092
 20
285.255557975498
 30
0.0
 40
4.999999999999681
100
AcDbArc
 50
44.0081977511011
 51
81.92640040755232
  0
ARC
  5
275
330
1F
100
AcDbEntity
  8
2
  6
Continuous
 62
     3
100
AcDbCircle
 10
233.615765790895
 20
261.493434545588
 30
0.0
 40
29.0
100
AcDbArc
 50
81.92640040755845
 51
98.07359959244157
  0
ARC
  5
276
330
1F
100
AcDbEntity
  8
2
  6
Continuous
 62
     3
100
AcDbCircle
 10
230.245084835697
 20
285.255557975498
 30
0.0
 40
4.999999999999751
100
AcDbArc
 50
98.07359959243641
 51
135.9918022488827
  0
ARC
  5
277
330
1F
100
AcDbEntity
  8
2
  6
Continuous
 62
     3
100
AcDbCircle
 10
219.456478793386
 20
295.676977248505
 30
0.0
 40
9.99999999999967
100
AcDbArc
 50
269.0081977511123
 51
315.9918022488949
  0
ARC
  5
278
330
1F
100
AcDbEntity
  8
2
  6
Continuous
 62
     3
100
AcDbCircle
 10
219.19683853885
 20
280.679224518905
 30
0.0
 40
5.000000000000318
100
AcDbArc
 50
89.00819775111238
 51
126.9264004075528
  0
ARC
  5
279
330
1F
100
AcDbEntity
  8
2
  6
Continuous
 62
     3
100
AcDbCircle
 10
233.615765790895
 20
261.493434545588
 30
0.0
 40
29.00000000000019
100
AcDbArc
 50
126.9264004075589
 51
143.0735995924428
  0
ARC
  5
27A
330
1F
100
AcDbEntity
  8
2
  6
Continuous
 62
     3
100
AcDbCircle
 10
214.429975817577
 20
275.912361797632
 30
0.0
 40
4.999999999999438
100
AcDbArc
 50
143.0735995924409
 51
180.9918022488876
  0
ARC
  5
27B
330
1F
100
AcDbEntity
  8
2
  6
Continuous
 62
     3
100
AcDbCircle
 10
199.432223087977
 20
275.652721543096
 30
0.0
 40
9.99999999999999
100
AcDbArc
 50
314.0081977511132
 51
0.99180224888773
  0
ARC
  5
27C
330
1F
100
AcDbEntity
  8
2
  6
Continuous
 62
     3
100
AcDbCircle
 10
209.853642360985
 20
264.864115500785
 30
0.0
 40
5.000000000000413
100
AcDbArc
 50
134.0081977511089
 51
171.9264004075539
  0
ARC
  5
27D
330
1F
100
AcDbEntity
  8
2
  6
Continuous
 62
     3
100
AcDbCircle
 10
233.615765790895
 20
261.493434545588
 30
0.0
 40
29.00000000000098
100
AcDbArc
 50
171.9264004075588
 51
188.0735995924416
  0
ARC
  5
27E
330
1F
100
AcDbEntity
  8
2
  6
Continuous
 62
     3
100
AcDbCircle
 10
209.853642360985
 20
258.12275359039
 30
0.0
 40
4.999999999999727
100
AcDbArc
 50
188.0735995924368
 51
225.9918022488828
  0
ARC
  5
27F
330
1F
100
AcDbEntity
  8
2
  6
Continuous
 62
     3
100
AcDbCircle
 10
199.432223087977
 20
247.33414754808
 30
0.0
 40
9.999999999999659
100
AcDbArc
 50
359.0081977511066
 51
45.99180224888687
  0
ARC
  5
280
330
1F
100
AcDbEntity
  8
2
  6
Continuous
 62
     3
100
AcDbCircle
 10
214.429975817577
 20
247.074507293543
 30
0.0
 40
5.000000000000346
100
AcDbArc
 50
179.0081977511124
 51
216.9264004075615
  0
ARC
  5
281
330
1F
100
AcDbEntity
  8
2
  6
Continuous
 62
     3
100
AcDbCircle
 10
233.615765790895
 20
261.493434545588
 30
0.0
 40
29.00000000000161
100
AcDbArc
 50
216.9264004075592
 51
233.0735995924411
  0
ARC
  5
282
330
1F
100
AcDbEntity
  8
2
  6
Continuous
 62
     3
100
AcDbCircle
 10
219.19683853885
 20
242.30764457227
 30
0.0
 40
4.999999999999455
100
AcDbArc
 50
233.0735995924406
 51
270.991802248899
  0
ARC
  5
283
330
1F
100
AcDbEntity
  8
2
  6
Continuous
 62
     3
100
AcDbCircle
 10
219.456478793386
 20
227.30989184267
 30
0.0
 40
10.00000000000003
100
AcDbArc
 50
44.00819775111326
 51
90.99180224888202
  0
ARC
  5
284
330
1F
100
AcDbEntity
  8
2
  6
Continuous
 62
     3
100
AcDbCircle
 10
230.245084835697
 20
237.731311115678
 30
0.0
 40
5.000000000000393
100
AcDbArc
 50
224.0081977511091
 51
261.9264004075652
  0
ARC
  5
285
330
1F
100
AcDbEntity
  8
2
  6
Continuous
 62
     3
100
AcDbCircle
 10
233.615765790895
 20
261.493434545588
 30
0.0
 40
29.00000000000098
100
AcDbArc
 50
261.9264004075587
 51
270.0
  0
ARC
  5
286
330
1F
100
AcDbEntity
  8
2
  6
Continuous
 62
     3
100
AcDbCircle
 10
233.615765790895
 20
261.493434545588
 30
0.0
 40
10.00000000000039
100
AcDbArc
 50
290.4873151147218
 51
339.5126848852781
  0
ARC
  5
287
330
1F
100
AcDbEntity
  8
2
  6
Continuous
 62
     3
100
AcDbCircle
 10
233.615765790895
 20
261.493434545588
 30
0.0
 40
10.00000000000036
100
AcDbArc
 50
20.48731511472189
 51
69.51268488527616
  0
ARC
  5
288
330
1F
100
AcDbEntity
  8
2
  6
Continuous
 62
     3
100
AcDbCircle
 10
233.615765790895
 20
261.493434545588
 30
0.0
 40
9.999999999999455
100
AcDbArc
 50
110.4873151147238
 51
159.5126848852782
  0
ARC
  5
289
330
1F
100
AcDbEntity
  8
2
  6
Continuous
 62
     3
100
AcDbCircle
 10
233.615765790895
 20
261.493434545588
 30
0.0
 40
10.00000000000039
100
AcDbArc
 50
200.4873151147218
 51
249.5126848852782
  0
ARC
  5
28A
330
1F
100
AcDbEntity
  8
2
  6
Continuous
 62
     3
100
AcDbCircle
 10
222.115765790534
 20
120.720943809
 30
0.0
 40
1.779056190999995
100
AcDbArc
 50
90.0
 51
180.0
  0
ARC
  5
28B
330
1F
100
AcDbEntity
  8
2
  6
Continuous
 62
     3
100
AcDbCircle
 10
222.115765790534
 20
113.779056191
 30
0.0
 40
1.779056190999995
100
AcDbArc
 50
180.0
 51
270.0
  0
ARC
  5
28C
330
1F
100
AcDbEntity
  8
2
  6
Continuous
 62
     3
100
AcDbCircle
 10
245.115765791256
 20
113.779056191
 30
0.0
 40
1.779056190999995
100
AcDbArc
 50
270.0
 51
0.0
  0
ARC
  5
28D
330
1F
100
AcDbEntity
  8
2
  6
Continuous
 62
     3
100
AcDbCircle
 10
245.115765791256
 20
120.720943809
 30
0.0
 40
1.779056190999995
100
AcDbArc
 50
0.0
 51
90.0
  0
ARC
  5
28E
330
1F
100
AcDbEntity
  8
2
  6
Continuous
 62
     3
100
AcDbCircle
 10
379.475079744383
 20
112.318325830852
 30
0.0
 40
10.18167416914802
100
AcDbArc
 50
55.61575253853068
 51
124.3842474614693
  0
ARC
  5
28F
330
1F
100
AcDbEntity
  8
2
  6
Continuous
 62
     3
100
AcDbCircle
 10
367.975079744383
 20
112.318325830852
 30
0.0
 40
10.18167416914802
100
AcDbArc
 50
55.61575253853068
 51
124.3842474614693
  0
ARC
  5
290
330
1F
100
AcDbEntity
  8
2
  6
Continuous
 62
     3
100
AcDbCircle
 10
379.475079744383
 20
122.181674169148
 30
0.0
 40
10.18167416914802
100
AcDbArc
 50
235.6157525385307
 51
304.3842474614693
  0
ARC
  5
291
330
1F
100
AcDbEntity
  8
2
  6
Continuous
 62
     3
100
AcDbCircle
 10
367.975079744383
 20
122.181674169148
 30
0.0
 40
10.18167416914802
100
AcDbArc
 50
235.6157525385307
 51
304.3842474614693
  0
ARC
  5
292
330
1F
100
AcDbEntity
  8
2
  6
Continuous
 62
     3
100
AcDbCircle
 10
243.615765790895
 20
134.0
 30
0.0
 40
100.0
100
AcDbArc
 50
255.8462048628604
 51
284.1537951371396
  0
ARC
  5
293
330
1F
100
AcDbEntity
  8
2
  6
Continuous
 62
     3
100
AcDbCircle
 10
277.849338493726
 20
-1.7500000000009
 30
0.0
 40
40.0000000000009
100
AcDbArc
 50
90.0
 51
104.1537951371405
  0
ARC
  5
294
330
1F
100
AcDbEntity
  8
2
  6
Continuous
 62
     3
100
AcDbCircle
 10
209.382193088064
 20
-1.75000000000047
 30
0.0
 40
40.00000000000053
100
AcDbArc
 50
75.84620486285944
 51
90.0
  0
ARC
  5
295
330
1F
100
AcDbEntity
  8
2
  6
Continuous
 62
     3
100
AcDbCircle
 10
278.283900645733
 20
77.8600000000001
 30
0.0
 40
2.110000000000014
100
AcDbArc
 50
180.0000000000027
 51
270.0
  0
ARC
  5
296
330
1F
100
AcDbEntity
  8
2
  6
Continuous
 62
     3
100
AcDbCircle
 10
220.615765790895
 20
87.0
 30
0.0
 40
12.0
100
AcDbArc
 50
90.0
 51
213.3670129692335
  0
ARC
  5
297
330
1F
100
AcDbEntity
  8
2
  6
Continuous
 62
     3
100
AcDbCircle
 10
208.088295974527
 20
78.75
 30
0.0
 40
3.0
100
AcDbArc
 50
270.0
 51
33.36701296922006
  0
ARC
  5
298
330
1F
100
AcDbEntity
  8
2
  6
Continuous
 62
     3
100
AcDbCircle
 10
220.615765790895
 20
102.0
 30
0.0
 40
3.0
100
AcDbArc
 50
270.0
 51
0.0
  0
ARC
  5
299
330
1F
100
AcDbEntity
  8
2
  6
Continuous
 62
     3
100
AcDbCircle
 10
246.615765790895
 20
110.558134854838
 30
0.0
 40
3.0
100
AcDbArc
 50
180.0
 51
267.2526028001289
  0
ARC
  5
29A
330
1F
100
AcDbEntity
  8
2
  6
Continuous
 62
     3
100
AcDbCircle
 10
373.725079744383
 20
57.0
 30
0.0
 40
23.0
100
AcDbArc
 50
0.0
 51
24.07061462256661
  0
ARC
  5
29B
330
1F
100
AcDbEntity
  8
2
  6
Continuous
 62
     3
100
AcDbCircle
 10
373.725079744383
 20
57.0
 30
0.0
 40
22.99999999999994
100
AcDbArc
 50
155.9293853774339
 51
0.0
  0
ARC
  5
29C
330
1F
100
AcDbEntity
  8
5
  6
Continuous
 62
     3
100
AcDbCircle
 10
396.725079744383
 20
159.993118044495
 30
0.0
 40
6.0
100
AcDbArc
 50
0.0
 51
69.44454780460921
  0
ARC
  5
29D
330
1F
100
AcDbEntity
  8
5
  6
Continuous
 62
     3
100
AcDbCircle
 10
374.253799721839
 20
100.06781809407
 30
0.0
 40
69.99999999999943
100
AcDbArc
 50
69.44454780460629
 51
78.72583613511956
  0
ARC
  5
29E
330
1F
100
AcDbEntity
  8
5
  6
PHANTOM
 62
     3
100
AcDbCircle
 10
384.908764455088
 20
153.516127015244
 30
0.0
 40
15.49999999999901
100
AcDbArc
 50
78.72583613511891
 51
90.0
  0
ARC
  5
29F
330
1F
100
AcDbEntity
  8
5
  6
PHANTOM
 62
     3
100
AcDbCircle
 10
362.541395033678
 20
153.516127015244
 30
0.0
 40
15.5
100
AcDbArc
 50
90.0
 51
101.2741638648802
  0
ARC
  5
2A0
330
1F
100
AcDbEntity
  8
5
  6
Continuous
 62
     3
100
AcDbCircle
 10
373.196359766927
 20
100.06781809407
 30
0.0
 40
70.00000000000023
100
AcDbArc
 50
101.2741638648803
 51
110.5554521953945
  0
ARC
  5
2A1
330
1F
100
AcDbEntity
  8
5
  6
Continuous
 62
     3
100
AcDbCircle
 10
350.725079744383
 20
159.993118044495
 30
0.0
 40
5.999999999999857
100
AcDbArc
 50
110.5554521953994
 51
180.0
  0
ARC
  5
2A2
330
1F
100
AcDbEntity
  8
2
  6
DOTTED
 62
     6
100
AcDbCircle
 10
362.541395033678
 20
144.291818191757
 30
0.0
 40
15.5
100
AcDbArc
 50
90.0
 51
101.2741638648802
  0
ARC
  5
2A3
330
1F
100
AcDbEntity
  8
2
  6
DOTTED
 62
     6
100
AcDbCircle
 10
384.908764455088
 20
144.291818191757
 30
0.0
 40
15.49999999999901
100
AcDbArc
 50
78.72583613511891
 51
90.0
  0
ARC
  5
2A4
330
1F
100
AcDbEntity
  8
2
  6
DOTTED
 62
     6
100
AcDbCircle
 10
374.253799721839
 20
90.843509270583
 30
0.0
 40
70.00000000000036
100
AcDbArc
 50
69.44454780460656
 51
78.72583613511956
  0
ARC
  5
2A5
330
1F
100
AcDbEntity
  8
2
  6
DOTTED
 62
     6
100
AcDbCircle
 10
396.725079744383
 20
150.768809221008
 30
0.0
 40
6.0
100
AcDbArc
 50
0.0
 51
69.44454780461244
  0
ARC
  5
2A6
330
1F
100
AcDbEntity
  8
2
  6
DOTTED
 62
     6
100
AcDbCircle
 10
350.725079744383
 20
150.768809221008
 30
0.0
 40
5.99999999999983
100
AcDbArc
 50
110.5554521953995
 51
180.0
  0
ARC
  5
2A7
330
1F
100
AcDbEntity
  8
2
  6
DOTTED
 62
     6
100
AcDbCircle
 10
373.196359766927
 20
90.843509270583
 30
0.0
 40
70.00000000000026
100
AcDbArc
 50
101.2741638648803
 51
110.5554521953945
  0
CIRCLE
  5
2A8
330
1F
100
AcDbEntity
  8
2
  6
Continuous
 62
     3
100
AcDbCircle
 10
233.615765790895
 20
261.493434545588
 30
0.0
 40
3.899986872798991
  0
CIRCLE
  5
2A9
330
1F
100
AcDbEntity
  8
2
  6
Continuous
 62
     3
100
AcDbCircle
 10
218.615765790895
 20
87.0
 30
0.0
 40
6.5
  0
CIRCLE
  5
2AA
330
1F
100
AcDbEntity
  8
2
  6
Continuous
 62
     3
100
AcDbCircle
 10
373.725079744383
 20
57.0
 30
0.0
 40
15.75
  0
CIRCLE
  5
2AB
330
1F
100
AcDbEntity
  8
2
  6
Continuous
 62
     3
100
AcDbCircle
 10
373.725079744383
 20
57.0
 30
0.0
 40
20.80000000000001
  0
CIRCLE
  5
2AC
330
1F
100
AcDbEntity
  8
5
  6
Continuous
 62
     3
100
AcDbCircle
 10
373.725079744383
 20
57.0
 30
0.0
 40
19.476
  0
LWPOLYLINE
  5
2AD
330
1F
100
AcDbEntity
  8
2
  6
Continuous
 62
     3
100
AcDbPolyline
 90
        4
 70
     0
 43
0.0
 10
237.365768432617
 20
164.535023545167
 42
0.23185789477876
 10
236.2695922851561
 20
165.4190262307133
 42
0.11195568119145
 10
230.9619293212892
 20
165.4190109719233
 42
0.2318747639112
 10
229.8657531738273
 20
164.5350082863779
  0
LWPOLYLINE
  5
2AE
330
1F
100
AcDbEntity
  8
2
  6
Continuous
 62
     3
100
AcDbPolyline
 90
        2
 70
     0
 43
0.0
 10
237.365753173828
 20
162.71613011255
 10
229.865753173828
 20
162.71613011255
  0
LWPOLYLINE
  5
2AF
330
1F
100
AcDbEntity
  8
2
  6
Continuous
 62
     3
100
AcDbPolyline
 90
        4
 70
     0
 43
0.0
 10
222.43208108019
 20
169.016127015244
 10
227.365765790895
 20
169.016127015244
 42
-0.4142135623731
 10
229.865765790895
 20
166.516127015244
 10
229.865765790895
 20
161.016127015244
  0
LWPOLYLINE
  5
2B0
330
1F
100
AcDbEntity
  8
2
  6
Continuous
 62
     3
100
AcDbPolyline
 90
        4
 70
     0
 43
0.0
 10
244.7994505016
 20
169.016127015243
 10
239.865765790895
 20
169.016127015244
 42
0.4142135623731
 10
237.365765790895
 20
166.516127015244
 10
237.365765790895
 20
161.016127015244
  0
LWPOLYLINE
  5
2B1
330
1F
100
AcDbEntity
  8
2
  6
Continuous
 62
     3
100
AcDbPolyline
 90
       13
 70
     0
 43
0.0
 10
246.894821982256
 20
120.720943809
 10
245.939062975691
 20
121.517565763261
 10
245.098059091524
 20
122.05967164851
 10
244.694843272363
 20
122.252261040415
 10
244.3065411269
 20
122.389864222404
 10
243.933204274372
 20
122.472461792669
 10
243.575057934416
 20
122.5
 10
243.216911594461
 20
122.472461792669
 10
242.843574741932
 20
122.389864222404
 10
242.45527259647
 20
122.252261040415
 10
242.052056777308
 20
122.05967164851
 10
241.211052893141
 20
121.517565763261
 10
240.255293886576
 20
120.720943809
  0
LWPOLYLINE
  5
2B2
330
1F
100
AcDbEntity
  8
2
  6
Continuous
 62
     3
100
AcDbPolyline
 90
       13
 70
     0
 43
0.0
 10
226.97624195199
 20
120.720943809
 10
226.020481379617
 20
121.517565763261
 10
225.179476307708
 20
122.05967164851
 10
224.776259999629
 20
122.252261040415
 10
224.387957440593
 20
122.389864222404
 10
224.014620249892
 20
122.472461792669
 10
223.656473647374
 20
122.5
 10
223.298327110747
 20
122.472461792669
 10
222.924990117679
 20
122.389864222404
 10
222.536687887889
 20
122.252261040415
 10
222.13347204062
 20
122.05967164851
 10
221.292468265817
 20
121.517565763262
 10
220.336709599534
 20
120.720943809
  0
LWPOLYLINE
  5
2B3
330
1F
100
AcDbEntity
  8
2
  6
Continuous
 62
     3
100
AcDbPolyline
 90
       13
 70
     0
 43
0.0
 10
220.336709599534
 20
113.779056191
 10
221.292468265817
 20
112.982434236739
 10
222.13347204062
 20
112.44032835149
 10
222.536687887888
 20
112.247738959585
 10
222.924990117679
 20
112.110135777596
 10
223.298327110747
 20
112.027538207331
 10
223.656473647374
 20
112.0
 10
224.014620249892
 20
112.027538207331
 10
224.387957440593
 20
112.110135777596
 10
224.776259999628
 20
112.247738959585
 10
225.179476307708
 20
112.44032835149
 10
226.020481379616
 20
112.982434236739
 10
226.97624195199
 20
113.779056191
  0
LWPOLYLINE
  5
2B4
330
1F
100
AcDbEntity
  8
2
  6
Continuous
 62
     3
100
AcDbPolyline
 90
       15
 70
     0
 43
0.0
 10
226.97624195199
 20
113.779056191
 10
228.887758399314
 20
112.982434236739
 10
229.745103450976
 20
112.684119601166
 10
230.569764979905
 20
112.44032835149
 10
231.37619612931
 20
112.247738959585
 10
232.152800006661
 20
112.110135777596
 10
232.899473373546
 20
112.027538207331
 10
233.615765790895
 20
112.0
 10
234.332058274134
 20
112.027538207331
 10
235.078731838651
 20
112.110135777596
 10
235.855336045248
 20
112.247738959585
 10
236.661767655465
 20
112.44032835149
 10
237.486429767716
 20
112.684119601166
 10
238.34377553316
 20
112.982434236739
 10
240.255293886576
 20
113.779056191
  0
LWPOLYLINE
  5
2B5
330
1F
100
AcDbEntity
  8
2
  6
Continuous
 62
     3
100
AcDbPolyline
 90
       13
 70
     0
 43
0.0
 10
240.255293886576
 20
113.779056191
 10
241.211052893141
 20
112.982434236739
 10
242.052056777308
 20
112.44032835149
 10
242.45527259647
 20
112.247738959585
 10
242.843574741932
 20
112.110135777596
 10
243.21691159446
 20
112.027538207331
 10
243.575057934416
 20
112.0
 10
243.933204274371
 20
112.027538207331
 10
244.3065411269
 20
112.110135777596
 10
244.694843272362
 20
112.247738959585
 10
245.098059091524
 20
112.44032835149
 10
245.939062975691
 20
112.982434236739
 10
246.894821982256
 20
113.779056191
  0
LWPOLYLINE
  5
2B6
330
1F
100
AcDbEntity
  8
2
  6
Continuous
 62
     3
100
AcDbPolyline
 90
       15
 70
     0
 43
0.0
 10
240.255293886576
 20
120.720943809
 10
238.343775533162
 20
121.517565763261
 10
237.486429767717
 20
121.815880398834
 10
236.661767655466
 20
122.05967164851
 10
235.855336045249
 20
122.252261040415
 10
235.078731838652
 20
122.389864222404
 10
234.332058274135
 20
122.472461792669
 10
233.615765790895
 20
122.5
 10
232.899473373547
 20
122.472461792669
 10
232.152800006662
 20
122.389864222404
 10
231.376196129311
 20
122.252261040415
 10
230.569764979906
 20
122.05967164851
 10
229.745103450978
 20
121.815880398834
 10
228.887758399316
 20
121.517565763262
 10
226.97624195199
 20
120.720943809
  0
LWPOLYLINE
  5
2B7
330
1F
100
AcDbEntity
  8
2
  6
Continuous
 62
     3
100
AcDbPolyline
 90
        8
 70
     1
 43
0.0
 10
218.615765790895
 20
92.7735026918962
 10
218.615765790895
 20
92.7735026918962
 10
223.615765790895
 20
89.8867513459481
 10
223.615765790895
 20
84.1132486540519
 10
218.615765790895
 20
81.2264973081037
 10
213.615765790895
 20
84.1132486540519
 10
213.615765790895
 20
89.8867513459481
 10
218.615765790895
 20
92.7735026918962
  0
LWPOLYLINE
  5
2B8
330
1F
100
AcDbEntity
  8
2
  6
Continuous
 62
     3
100
AcDbPolyline
 90
       23
 70
     0
 43
0.0
 10
352.725079744383
 20
92.7088924499206
 10
352.926647031112
 20
90.6431919280039
 10
353.528549223126
 20
88.6267845401012
 10
354.521910877044
 20
86.6898061733074
 10
355.889248160589
 20
84.8666127833775
 10
357.608393545451
 20
83.1885498562532
 10
359.641859785693
 20
81.693679491329
 10
364.476956215759
 20
79.3734063123518
 10
366.678251685749
 20
78.7163481819923
 10
368.970116744852
 20
78.241918199471
 10
371.32668653241
 20
77.9554358410394
 10
373.725079744383
 20
77.8596500450032
 10
376.123472956357
 20
77.9554358410394
 10
378.480042743914
 20
78.241918199471
 10
380.771907803017
 20
78.7163481819923
 10
382.973203273008
 20
79.3734063123518
 10
387.808299703074
 20
81.693679491329
 10
389.841765943316
 20
83.1885498562532
 10
391.560911328178
 20
84.8666127833776
 10
392.928248611723
 20
86.6898061733074
 10
393.921610265641
 20
88.6267845401013
 10
394.523512457655
 20
90.6431919280041
 10
394.725079744383
 20
92.7088924499206
  0
LWPOLYLINE
  5
2B9
330
1F
100
AcDbEntity
  8
2
  6
Continuous
 62
     3
100
AcDbPolyline
 90
       22
 70
     0
 43
0.0
 10
357.725079744383
 20
104.094808434976
 10
355.583381971868
 20
101.960707533129
 10
354.00847035196
 20
99.5998975387372
 10
353.047777777698
 20
97.0841558410571
 10
352.805861802948
 20
95.7881561494068
 10
352.725079744383
 20
94.476659402887
 10
353.684832974559
 20
90.0255615802353
 10
356.491814611455
 20
85.9886749948913
 10
360.903906987358
 20
82.7152699723121
 10
366.485944069004
 20
80.5332959902216
 10
368.24165280129
 20
80.1387366399319
 10
370.040787086383
 20
79.8551903108679
 10
371.871999524807
 20
79.6844360978899
 10
373.725079744383
 20
79.6274169979695
 10
375.57815996396
 20
79.6844360978899
 10
377.409372402383
 20
79.8551903108678
 10
379.208506687477
 20
80.1387366399319
 10
380.964215419763
 20
80.5332959902217
 10
386.546252501409
 20
82.7152699723121
 10
390.958344877311
 20
85.9886749948913
 10
393.765326514208
 20
90.0255615802353
 10
394.725079744383
 20
94.476659402915
  0
LWPOLYLINE
  5
2BA
330
1F
100
AcDbEntity
  8
2
  6
Continuous
 62
     3
100
AcDbPolyline
 90
        6
 70
     0
 43
0.0
 10
394.725079744383
 20
94.476659402915
 10
394.644297685818
 20
95.7881561494068
 10
394.402381711069
 20
97.084155841057
 10
393.441689136807
 20
99.5998975387371
 10
391.866777516899
 20
101.960707533129
 10
389.725079744383
 20
104.094808434976
  0
LWPOLYLINE
  5
2BB
330
1F
100
AcDbEntity
  8
2
  6
Continuous
 62
     3
100
AcDbPolyline
 90
        6
 70
     0
 43
0.0
 10
272.704587736763
 20
277.493434545588
 10
270.571815133299
 20
279.635132318103
 10
268.212474544639
 20
281.210043938011
 10
265.69829868465
 20
282.170736512273
 10
264.403105643844
 20
282.412652487023
 10
263.092425193782
 20
282.493434545588
  0
LWPOLYLINE
  5
2BC
330
1F
100
AcDbEntity
  8
2
  6
Continuous
 62
     3
100
AcDbPolyline
 90
        5
 70
     0
 43
0.0
 10
263.092425193782
 20
282.493434545588
 10
261.572757885325
 20
282.384673981183
 10
260.075496786419
 20
282.059181813449
 10
258.612125786527
 20
281.519427573375
 10
255.880862442403
 20
280.074755034159
  0
LWPOLYLINE
  5
2BD
330
1F
100
AcDbEntity
  8
2
  6
Continuous
 62
     3
100
AcDbPolyline
 90
       10
 70
     0
 43
0.0
 10
255.880862442403
 20
242.912114057017
 10
258.612125786526
 20
241.467441517801
 10
260.075496786418
 20
240.927687277726
 10
261.572757885325
 20
240.602195109992
 10
263.092425193782
 20
240.493434545588
 10
264.403105643844
 20
240.574216604153
 10
265.69829868465
 20
240.816132578902
 10
268.212474544639
 20
241.776825153164
 10
270.571815133299
 20
243.351736773072
 10
272.704587736763
 20
245.493434545588
  0
LWPOLYLINE
  5
2BE
330
1F
100
AcDbEntity
  8
2
  6
Continuous
 62
     3
100
AcDbPolyline
 90
        9
 70
     0
 43
0.0
 10
262.20392051484
 20
282.45641639547
 10
262.093582323169
 20
282.465059272361
 10
261.983031264517
 20
282.472562976003
 10
261.872270216203
 20
282.478923434715
 10
261.761302055548
 20
282.484136576819
 10
261.65012965987
 20
282.488198330637
 10
261.538755906489
 20
282.491104624491
 10
261.427183672726
 20
282.4928513867
 10
261.315415835898
 20
282.493434545588
  0
LWPOLYLINE
  5
2BF
330
1F
100
AcDbEntity
  8
2
  6
Continuous
 62
     3
100
AcDbPolyline
 90
        5
 70
     0
 43
0.0
 10
261.315415835898
 20
282.493434545588
 10
260.184574749022
 20
282.433374303806
 10
259.064520847458
 20
282.253428842585
 10
257.959827702683
 20
281.954326785074
 10
255.17881353211
 20
280.88505572872
  0
LWPOLYLINE
  5
2C0
330
1F
100
AcDbEntity
  8
2
  6
Continuous
 62
     3
100
AcDbPolyline
 90
       13
 70
     0
 43
0.0
 10
255.17881353211
 20
242.101813362455
 10
257.959827702683
 20
241.032542306101
 10
259.064520847458
 20
240.73344024859
 10
260.184574749022
 20
240.55349478737
 10
261.315415835898
 20
240.493434545588
 10
261.427183672726
 20
240.494017704475
 10
261.538755906489
 20
240.495764466685
 10
261.65012965987
 20
240.498670760538
 10
261.761302055548
 20
240.502732514356
 10
261.872270216203
 20
240.50794565646
 10
261.983031264517
 20
240.514306115173
 10
262.093582323169
 20
240.521809818814
 10
262.20392051484
 20
240.530452695705
  0
LWPOLYLINE
  5
2C1
330
1F
100
AcDbEntity
  8
2
  6
Continuous
 62
     3
100
AcDbPolyline
 90
        4
 70
     0
 43
0.0
 10
384.908764455088
 20
169.016127015243
 10
379.975079744383
 20
169.016127015244
 42
0.4142135623731
 10
377.475079744383
 20
166.516127015244
 10
377.475079744383
 20
161.016127015244
  0
LWPOLYLINE
  5
2C2
330
1F
100
AcDbEntity
  8
2
  6
Continuous
 62
     3
100
AcDbPolyline
 90
        4
 70
     0
 43
0.0
 10
377.475082386105
 20
164.535023545167
 42
0.23185789477879
 10
376.3789062386439
 20
165.4190262307134
 42
0.11195568119145
 10
371.0712432747769
 20
165.4190109719242
 42
0.23187476391119
 10
369.9750671273152
 20
164.5350082863779
  0
LWPOLYLINE
  5
2C3
330
1F
100
AcDbEntity
  8
2
  6
Continuous
 62
     3
100
AcDbPolyline
 90
        2
 70
     0
 43
0.0
 10
377.475067127316
 20
162.71613011255
 10
369.975067127316
 20
162.71613011255
  0
LWPOLYLINE
  5
2C4
330
1F
100
AcDbEntity
  8
2
  6
Continuous
 62
     3
100
AcDbPolyline
 90
        4
 70
     0
 43
0.0
 10
362.541395033678
 20
169.016127015244
 10
367.475079744383
 20
169.016127015244
 42
-0.4142135623731
 10
369.975079744383
 20
166.516127015244
 10
369.975079744383
 20
161.016127015244
  0
LEADER
  5
2C5
330
1F
100
AcDbEntity
  8
1
  6
Continuous
 62
     4
100
AcDbLeader
  3
Standard
 71
     0
 76
     3
 10
290.792347825071
 20
36.2
 30
0.0
 10
300.784282340792
 20
10.148423681288
 30
0.0
 10
347.164754495852
 20
10.148423681288
 30
0.0
  0
LEADER
  5
2C6
330
1F
100
AcDbEntity
  8
1
  6
Continuous
 62
     4
100
AcDbLeader
  3
Standard
 71
     0
 76
     3
 10
197.311256739444
 20
36.2
 30
0.0
 10
178.779926056298
 20
12.3830095859265
 30
0.0
 10
131.499990475517
 20
12.3830095859265
 30
0.0
  0
DIMENSION
  5
2FC
330
1F
100
AcDbEntity
  8
1
100
AcDbDimension
  2
*D1
 10
298.615765790895
 20
-0.92251672403352
 30
0.0
 11
243.615765790895
 21
5.07748327596648
 31
0.0
 70
    32
  1
110
 71
     5
 42
-1.0
 53
0.00013888888889
  3
ME10_DIM_10
100
AcDbAlignedDimension
 13
188.615765790895
 23
36.2
 33
0.0
 14
298.615765790895
 24
36.2
 34
0.0
100
AcDbRotatedDimension
  0
DIMENSION
  5
309
330
1F
100
AcDbEntity
  8
1
100
AcDbDimension
  2
*D3
 10
316.096353245672
 20
169.016127015244
 30
0.0
 11
310.096353245672
 21
117.264463562847
 31
0.0
 70
    32
  1
112
 71
     5
 42
-1.0
 53
90.0
  3
ME10_DIM_11
100
AcDbAlignedDimension
 13
303.615765790895
 23
57.0
 33
0.0
 14
244.7994505016
 24
169.016127015243
 34
0.0
 50
90.0
100
AcDbRotatedDimension
  0
ENDSEC
  0
SECTION
  2
OBJECTS
  0
DICTIONARY
  5
C
330
0
100
AcDbDictionary
281
     1
  3
ACAD_GROUP
350
D
  3
ACAD_LAYOUT
350
1A
  3
ACAD_MATERIAL
350
3B
  3
ACAD_MLEADERSTYLE
350
30C
  3
ACAD_MLINESTYLE
350
17
  3
ACAD_PLOTSETTINGS
350
19
  3
ACAD_PLOTSTYLENAME
350
E
  3
ACAD_SCALELIST
350
2D0
  3
ACAD_VISUALSTYLE
350
2A
  3
AcDbVariableDictionary
350
30A
  0
DICTIONARY
  5
D
102
{ACAD_REACTORS
330
C
102
}
330
C
100
AcDbDictionary
281
     1
  0
DICTIONARY
  5
1A
102
{ACAD_REACTORS
330
C
102
}
330
C
100
AcDbDictionary
281
     1
  3
Layout1
350
1E
  3
Layout2
350
26
  3
Model
350
22
  0
DICTIONARY
  5
3B
102
{ACAD_REACTORS
330
C
102
}
330
C
100
AcDbDictionary
281
     1
  3
ByBlock
350
3D
  3
ByLayer
350
3C
  3
Global
350
3E
  0
DICTIONARY
  5
30C
102
{ACAD_REACTORS
330
C
102
}
330
C
100
AcDbDictionary
281
     1
  0
DICTIONARY
  5
17
102
{ACAD_REACTORS
330
C
102
}
330
C
100
AcDbDictionary
281
     1
  3
Standard
350
18
  0
DICTIONARY
  5
19
102
{ACAD_REACTORS
330
C
102
}
330
C
100
AcDbDictionary
281
     1
  0
ACDBDICTIONARYWDFLT
  5
E
102
{ACAD_REACTORS
330
C
102
}
330
C
100
AcDbDictionary
281
     1
  3
Normal
350
F
100
AcDbDictionaryWithDefault
340
F
  0
DICTIONARY
  5
2D0
102
{ACAD_REACTORS
330
C
102
}
330
C
100
AcDbDictionary
281
     1
  3
A0
350
2D1
  3
A1
350
2D2
  3
A2
350
2D3
  3
A3
350
2D4
  3
A4
350
2D5
  3
A5
350
2D6
  3
A6
350
2D7
  3
A7
350
2D8
  3
A8
350
2D9
  3
A9
350
2DA
  3
B0
350
2DB
  3
B1
350
2DC
  3
B2
350
2DD
  3
B3
350
2DE
  3
B4
350
2DF
  3
B5
350
2E0
  3
B6
350
2E1
  3
B7
350
2E2
  3
B8
350
2E3
  3
B9
350
2E4
  3
C0
350
2E5
  3
C1
350
2E6
  3
C2
350
2E7
  3
C3
350
2E8
  3
C4
350
2E9
  3
C5
350
2EA
  3
C6
350
2EB
  3
C7
350
2EC
  3
C8
350
2ED
  3
C9
350
2EE
  3
D0
350
2EF
  3
D1
350
2F0
  3
D2
350
2F1
  0
DICTIONARY
  5
2A
102
{ACAD_REACTORS
330
C
102
}
330
C
100
AcDbDictionary
281
     1
  3
2dWireframe
350
2F
  3
3D Hidden
350
31
  3
3dWireframe
350
30
  3
Basic
350
32
  3
Brighten
350
36
  3
ColorChange
350
3A
  3
Conceptual
350
34
  3
Dim
350
35
  3
Facepattern
350
39
  3
Flat
350
2B
  3
FlatWithEdges
350
2C
  3
Gouraud
350
2D
  3
GouraudWithEdges
350
2E
  3
Linepattern
350
38
  3
Realistic
350
33
  3
Thicken
350
37
  0
DICTIONARY
  5
30A
102
{ACAD_REACTORS
330
C
102
}
330
C
100
AcDbDictionary
281
     1
  3
CANNOSCALE
350
30D
  3
DIMASSOC
350
30E
  3
HIDETEXT
350
30F
  0
LAYOUT
  5
1E
102
{ACAD_REACTORS
330
1A
102
}
330
1A
100
AcDbPlotSettings
  1

  2
none_device
  4

  6

 40
0.0
 41
0.0
 42
0.0
 43
0.0
 44
0.0
 45
0.0
 46
0.0
 47
0.0
 48
0.0
 49
0.0
140
0.0
141
0.0
142
1.0
143
1.0
 70
   688
 72
     0
 73
     0
 74
     5
  7

 75
    16
147
1.0
148
0.0
149
0.0
100
AcDbLayout
  1
Layout1
 70
     1
 71
     1
 10
0.0
 20
0.0
 11
12.0
 21
9.0
 12
0.0
 22
0.0
 32
0.0
 14
1.00000000000000E+20
 24
1.00000000000000E+20
 34
1.00000000000000E+20
 15
-1.00000000000000E+20
 25
-1.00000000000000E+20
 35
-1.00000000000000E+20
146
0.0
 13
0.0
 23
0.0
 33
0.0
 16
1.0
 26
0.0
 36
0.0
 17
0.0
 27
1.0
 37
0.0
 76
     0
330
1B
  0
LAYOUT
  5
26
102
{ACAD_REACTORS
330
1A
102
}
330
1A
100
AcDbPlotSettings
  1

  2
none_device
  4

  6

 40
0.0
 41
0.0
 42
0.0
 43
0.0
 44
0.0
 45
0.0
 46
0.0
 47
0.0
 48
0.0
 49
0.0
140
0.0
141
0.0
142
1.0
143
1.0
 70
   688
 72
     0
 73
     0
 74
     5
  7

 75
    16
147
1.0
148
0.0
149
0.0
100
AcDbLayout
  1
Layout2
 70
     1
 71
     2
 10
0.0
 20
0.0
 11
0.0
 21
0.0
 12
0.0
 22
0.0
 32
0.0
 14
0.0
 24
0.0
 34
0.0
 15
0.0
 25
0.0
 35
0.0
146
0.0
 13
0.0
 23
0.0
 33
0.0
 16
1.0
 26
0.0
 36
0.0
 17
0.0
 27
1.0
 37
0.0
 76
     0
330
23
  0
LAYOUT
  5
22
102
{ACAD_REACTORS
330
1A
102
}
330
1A
100
AcDbPlotSettings
  1

  2
none_device
  4

  6

 40
0.0
 41
0.0
 42
0.0
 43
0.0
 44
0.0
 45
0.0
 46
0.0
 47
0.0
 48
0.0
 49
0.0
140
0.0
141
0.0
142
1.0
143
1.0
 70
  1712
 72
     0
 73
     0
 74
     0
  7

 75
     0
147
1.0
148
0.0
149
0.0
100
AcDbLayout
  1
Model
 70
     1
 71
     0
 10
0.0
 20
0.0
 11
12.0
 21
9.0
 12
0.0
 22
0.0
 32
0.0
 14
131.499990475517
 24
-3.0661102634825
 34
0.0
 15
410.319506741694
 25
296.493434545587
 35
0.0
146
0.0
 13
0.0
 23
0.0
 33
0.0
 16
1.0
 26
0.0
 36
0.0
 17
0.0
 27
1.0
 37
0.0
 76
     0
330
1F
331
29
  0
MATERIAL
  5
3D
102
{ACAD_REACTORS
330
3B
102
}
102
{ACAD_XDICTIONARY
360
332
102
}
330
3B
100
AcDbMaterial
  1
ByBlock
  0
MATERIAL
  5
3C
102
{ACAD_REACTORS
330
3B
102
}
102
{ACAD_XDICTIONARY
360
330
102
}
330
3B
100
AcDbMaterial
  1
ByLayer
  0
MATERIAL
  5
3E
102
{ACAD_REACTORS
330
3B
102
}
102
{ACAD_XDICTIONARY
360
334
102
}
330
3B
100
AcDbMaterial
  1
Global
  0
MLINESTYLE
  5
18
102
{ACAD_REACTORS
330
17
102
}
330
17
100
AcDbMlineStyle
  2
Standard
 70
     0
  3

 62
   256
 51
90.0
 52
90.0
 71
     2
 49
0.5
 62
   256
  6
BYLAYER
 49
-0.5
 62
   256
  6
BYLAYER
  0
ACDBPLACEHOLDER
  5
F
102
{ACAD_REACTORS
330
E
102
}
330
E
  0
SCALE
  5
2D1
102
{ACAD_REACTORS
330
2D0
102
}
330
2D0
100
AcDbScale
 70
     0
300
1:1
140
1.0
141
1.0
290
     1
  0
SCALE
  5
2D2
102
{ACAD_REACTORS
330
2D0
102
}
330
2D0
100
AcDbScale
 70
     0
300
1:2
140
1.0
141
2.0
290
     0
  0
SCALE
  5
2D3
102
{ACAD_REACTORS
330
2D0
102
}
330
2D0
100
AcDbScale
 70
     0
300
1:4
140
1.0
141
4.0
290
     0
  0
SCALE
  5
2D4
102
{ACAD_REACTORS
330
2D0
102
}
330
2D0
100
AcDbScale
 70
     0
300
1:5
140
1.0
141
5.0
290
     0
  0
SCALE
  5
2D5
102
{ACAD_REACTORS
330
2D0
102
}
330
2D0
100
AcDbScale
 70
     0
300
1:8
140
1.0
141
8.0
290
     0
  0
SCALE
  5
2D6
102
{ACAD_REACTORS
330
2D0
102
}
330
2D0
100
AcDbScale
 70
     0
300
1:10
140
1.0
141
10.0
290
     0
  0
SCALE
  5
2D7
102
{ACAD_REACTORS
330
2D0
102
}
330
2D0
100
AcDbScale
 70
     0
300
1:16
140
1.0
141
16.0
290
     0
  0
SCALE
  5
2D8
102
{ACAD_REACTORS
330
2D0
102
}
330
2D0
100
AcDbScale
 70
     0
300
1:20
140
1.0
141
20.0
290
     0
  0
SCALE
  5
2D9
102
{ACAD_REACTORS
330
2D0
102
}
330
2D0
100
AcDbScale
 70
     0
300
1:30
140
1.0
141
30.0
290
     0
  0
SCALE
  5
2DA
102
{ACAD_REACTORS
330
2D0
102
}
330
2D0
100
AcDbScale
 70
     0
300
1:40
140
1.0
141
40.0
290
     0
  0
SCALE
  5
2DB
102
{ACAD_REACTORS
330
2D0
102
}
330
2D0
100
AcDbScale
 70
     0
300
1:50
140
1.0
141
50.0
290
     0
  0
SCALE
  5
2DC
102
{ACAD_REACTORS
330
2D0
102
}
330
2D0
100
AcDbScale
 70
     0
300
1:100
140
1.0
141
100.0
290
     0
  0
SCALE
  5
2DD
102
{ACAD_REACTORS
330
2D0
102
}
330
2D0
100
AcDbScale
 70
     0
300
2:1
140
2.0
141
1.0
290
     0
  0
SCALE
  5
2DE
102
{ACAD_REACTORS
330
2D0
102
}
330
2D0
100
AcDbScale
 70
     0
300
4:1
140
4.0
141
1.0
290
     0
  0
SCALE
  5
2DF
102
{ACAD_REACTORS
330
2D0
102
}
330
2D0
100
AcDbScale
 70
     0
300
8:1
140
8.0
141
1.0
290
     0
  0
SCALE
  5
2E0
102
{ACAD_REACTORS
330
2D0
102
}
330
2D0
100
AcDbScale
 70
     0
300
10:1
140
10.0
141
1.0
290
     0
  0
SCALE
  5
2E1
102
{ACAD_REACTORS
330
2D0
102
}
330
2D0
100
AcDbScale
 70
     0
300
100:1
140
100.0
141
1.0
290
     0
  0
SCALE
  5
2E2
102
{ACAD_REACTORS
330
2D0
102
}
330
2D0
100
AcDbScale
 70
     0
300
1/128" = 1'-0"
140
0.0078125
141
12.0
290
     0
  0
SCALE
  5
2E3
102
{ACAD_REACTORS
330
2D0
102
}
330
2D0
100
AcDbScale
 70
     0
300
1/64" = 1'-0"
140
0.015625
141
12.0
290
     0
  0
SCALE
  5
2E4
102
{ACAD_REACTORS
330
2D0
102
}
330
2D0
100
AcDbScale
 70
     0
300
1/32" = 1'-0"
140
0.03125
141
12.0
290
     0
  0
SCALE
  5
2E5
102
{ACAD_REACTORS
330
2D0
102
}
330
2D0
100
AcDbScale
 70
     0
300
1/16" = 1'-0"
140
0.0625
141
12.0
290
     0
  0
SCALE
  5
2E6
102
{ACAD_REACTORS
330
2D0
102
}
330
2D0
100
AcDbScale
 70
     0
300
3/32" = 1'-0"
140
0.09375
141
12.0
290
     0
  0
SCALE
  5
2E7
102
{ACAD_REACTORS
330
2D0
102
}
330
2D0
100
AcDbScale
 70
     0
300
1/8" = 1'-0"
140
0.125
141
12.0
290
     0
  0
SCALE
  5
2E8
102
{ACAD_REACTORS
330
2D0
102
}
330
2D0
100
AcDbScale
 70
     0
300
3/16" = 1'-0"
140
0.1875
141
12.0
290
     0
  0
SCALE
  5
2E9
102
{ACAD_REACTORS
330
2D0
102
}
330
2D0
100
AcDbScale
 70
     0
300
1/4" = 1'-0"
140
0.25
141
12.0
290
     0
  0
SCALE
  5
2EA
102
{ACAD_REACTORS
330
2D0
102
}
330
2D0
100
AcDbScale
 70
     0
300
3/8" = 1'-0"
140
0.375
141
12.0
290
     0
  0
SCALE
  5
2EB
102
{ACAD_REACTORS
330
2D0
102
}
330
2D0
100
AcDbScale
 70
     0
300
1/2" = 1'-0"
140
0.5
141
12.0
290
     0
  0
SCALE
  5
2EC
102
{ACAD_REACTORS
330
2D0
102
}
330
2D0
100
AcDbScale
 70
     0
300
3/4" = 1'-0"
140
0.75
141
12.0
290
     0
  0
SCALE
  5
2ED
102
{ACAD_REACTORS
330
2D0
102
}
330
2D0
100
AcDbScale
 70
     0
300
1" = 1'-0"
140
1.0
141
12.0
290
     0
  0
SCALE
  5
2EE
102
{ACAD_REACTORS
330
2D0
102
}
330
2D0
100
AcDbScale
 70
     0
300
1-1/2" = 1'-0"
140
1.5
141
12.0
290
     0
  0
SCALE
  5
2EF
102
{ACAD_REACTORS
330
2D0
102
}
330
2D0
100
AcDbScale
 70
     0
300
3" = 1'-0"
140
3.0
141
12.0
290
     0
  0
SCALE
  5
2F0
102
{ACAD_REACTORS
330
2D0
102
}
330
2D0
100
AcDbScale
 70
     0
300
6" = 1'-0"
140
6.0
141
12.0
290
     0
  0
SCALE
  5
2F1
102
{ACAD_REACTORS
330
2D0
102
}
330
2D0
100
AcDbScale
 70
     0
300
1'-0" = 1'-0"
140
12.0
141
12.0
290
     0
  0
VISUALSTYLE
  5
2F
102
{ACAD_REACTORS
330
2A
102
}
102
{ACAD_XDICTIONARY
360
318
102
}
330
2A
100
AcDbVisualStyle
  2
2dWireframe
 70
     4
 71
     0
 72
     2
 73
     0
 90
        0
 40
-0.6
 41
-30.0
 62
     5
 63
     7
 74
     1
 91
        4
 64
     7
 65
   257
 75
     1
175
     1
 42
1.0
 92
        0
 66
   257
 43
1.0
 76
     1
 77
     6
 78
     2
 67
     7
 79
     5
170
     0
171
     0
290
     0
174
     0
 93
        1
 44
0.0
173
     0
291
     0
 45
0.0
1001
ACAD
1000
AcDbSavedByObjectVersion
1070
     0
  0
VISUALSTYLE
  5
31
102
{ACAD_REACTORS
330
2A
102
}
102
{ACAD_XDICTIONARY
360
31C
102
}
330
2A
100
AcDbVisualStyle
  2
3D Hidden
 70
     6
 71
     1
 72
     2
 73
     2
 90
        0
 40
-0.6
 41
-30.0
 62
     5
 63
     7
 74
     2
 91
        2
 64
     7
 65
   257
 75
     2
175
     1
 42
40.0
 92
        0
 66
   257
 43
1.0
 76
     1
 77
     6
 78
     2
 67
     7
 79
     3
170
     0
171
     0
290
     0
174
     0
 93
        1
 44
0.0
173
     0
291
     0
 45
0.0
1001
ACAD
1000
AcDbSavedByObjectVersion
1070
     0
  0
VISUALSTYLE
  5
30
102
{ACAD_REACTORS
330
2A
102
}
102
{ACAD_XDICTIONARY
360
31A
102
}
330
2A
100
AcDbVisualStyle
  2
3dWireframe
 70
     5
 71
     0
 72
     2
 73
     0
 90
        0
 40
-0.6
 41
-30.0
 62
     5
 63
     7
 74
     1
 91
        4
 64
     7
 65
   257
 75
     1
175
     1
 42
1.0
 92
        0
 66
   257
 43
1.0
 76
     1
 77
     6
 78
     2
 67
     7
 79
     5
170
     0
171
     0
290
     0
174
     0
 93
        1
 44
0.0
173
     0
291
     0
 45
0.0
1001
ACAD
1000
AcDbSavedByObjectVersion
1070
     0
  0
VISUALSTYLE
  5
32
102
{ACAD_REACTORS
330
2A
102
}
102
{ACAD_XDICTIONARY
360
31E
102
}
330
2A
100
AcDbVisualStyle
  2
Basic
 70
     7
 71
     1
 72
     0
 73
     1
 90
        0
 40
-0.6
 41
-30.0
 62
     5
 63
     7
 74
     0
 91
        4
 64
     7
 65
   257
 75
     1
175
     1
 42
1.0
 92
        8
 66
     7
 43
1.0
 76
     1
 77
     6
 78
     2
 67
     7
 79
     5
170
     0
171
     0
290
     0
174
     0
 93
        1
 44
0.0
173
     0
291
     1
 45
0.0
1001
ACAD
1000
AcDbSavedByObjectVersion
1070
     0
  0
VISUALSTYLE
  5
36
102
{ACAD_REACTORS
330
2A
102
}
102
{ACAD_XDICTIONARY
360
326
102
}
330
2A
100
AcDbVisualStyle
  2
Brighten
 70
    12
 71
     2
 72
     2
 73
     0
 90
        0
 40
-0.6
 41
-30.0
 62
     5
 63
     7
 74
     1
 91
        4
 64
     7
 65
   257
 75
     1
175
     1
 42
1.0
 92
        8
 66
     7
 43
1.0
 76
     1
 77
     6
 78
     2
 67
     7
 79
     5
170
     0
171
     0
290
     0
174
     0
 93
        1
 44
50.0
173
     0
291
     1
 45
0.0
1001
ACAD
1000
AcDbSavedByObjectVersion
1070
     0
  0
VISUALSTYLE
  5
3A
102
{ACAD_REACTORS
330
2A
102
}
102
{ACAD_XDICTIONARY
360
32E
102
}
330
2A
100
AcDbVisualStyle
  2
ColorChange
 70
    16
 71
     2
 72
     2
 73
     3
 90
        0
 40
-0.6
 41
-30.0
 62
     5
 63
     8
 74
     1
 91
        4
 64
     7
 65
   257
 75
     1
175
     1
 42
1.0
 92
        8
 66
     8
 43
1.0
 76
     1
 77
     6
 78
     2
 67
     7
 79
     5
170
     0
171
     0
290
     0
174
     0
 93
        1
 44
0.0
173
     0
291
     1
 45
0.0
1001
ACAD
1000
AcDbSavedByObjectVersion
1070
     0
  0
VISUALSTYLE
  5
34
102
{ACAD_REACTORS
330
2A
102
}
102
{ACAD_XDICTIONARY
360
322
102
}
330
2A
100
AcDbVisualStyle
  2
Conceptual
 70
     9
 71
     3
 72
     2
 73
     0
 90
        0
 40
-0.6
 41
-30.0
 62
     5
 63
     7
 74
     2
 91
        2
 64
     7
 65
   257
 75
     1
175
     1
 42
40.0
 92
        8
 66
     7
 43
1.0
 76
     1
 77
     6
 78
     2
 67
     7
 79
     3
170
     0
171
     0
290
     0
174
     0
 93
        1
 44
0.0
173
     0
291
     0
 45
0.0
1001
ACAD
1000
AcDbSavedByObjectVersion
1070
     0
  0
VISUALSTYLE
  5
35
102
{ACAD_REACTORS
330
2A
102
}
102
{ACAD_XDICTIONARY
360
324
102
}
330
2A
100
AcDbVisualStyle
  2
Dim
 70
    11
 71
     2
 72
     2
 73
     0
 90
        0
 40
-0.6
 41
-30.0
 62
     5
 63
     7
 74
     1
 91
        4
 64
     7
 65
   257
 75
     1
175
     1
 42
1.0
 92
        8
 66
     7
 43
1.0
 76
     1
 77
     6
 78
     2
 67
     7
 79
     5
170
     0
171
     0
290
     0
174
     0
 93
        1
 44
-50.0
173
     0
291
     1
 45
0.0
1001
ACAD
1000
AcDbSavedByObjectVersion
1070
     0
  0
VISUALSTYLE
  5
39
102
{ACAD_REACTORS
330
2A
102
}
102
{ACAD_XDICTIONARY
360
32C
102
}
330
2A
100
AcDbVisualStyle
  2
Facepattern
 70
    15
 71
     2
 72
     2
 73
     0
 90
        0
 40
-0.6
 41
-30.0
 62
     5
 63
     7
 74
     1
 91
        4
 64
     7
 65
   257
 75
     1
175
     1
 42
1.0
 92
        8
 66
     7
 43
1.0
 76
     1
 77
     6
 78
     2
 67
     7
 79
     5
170
     0
171
     0
290
     0
174
     0
 93
        1
 44
0.0
173
     0
291
     1
 45
0.0
1001
ACAD
1000
AcDbSavedByObjectVersion
1070
     0
  0
VISUALSTYLE
  5
2B
102
{ACAD_REACTORS
330
2A
102
}
102
{ACAD_XDICTIONARY
360
310
102
}
330
2A
100
AcDbVisualStyle
  2
Flat
 70
     0
 71
     2
 72
     1
 73
     1
 90
        2
 40
-0.6
 41
30.0
 62
     5
 63
     7
 74
     0
 91
        4
 64
     7
 65
   257
 75
     1
175
     1
 42
1.0
 92
        8
 66
     7
 43
1.0
 76
     1
 77
     6
 78
     2
 67
     7
 79
     5
170
     0
171
     0
290
     0
174
     0
 93
       13
 44
0.0
173
     0
291
     1
 45
0.0
1001
ACAD
1000
AcDbSavedByObjectVersion
1070
     0
  0
VISUALSTYLE
  5
2C
102
{ACAD_REACTORS
330
2A
102
}
102
{ACAD_XDICTIONARY
360
312
102
}
330
2A
100
AcDbVisualStyle
  2
FlatWithEdges
 70
     1
 71
     2
 72
     1
 73
     1
 90
        2
 40
-0.6
 41
30.0
 62
     5
 63
     7
 74
     1
 91
        4
 64
     7
 65
   257
 75
     1
175
     1
 42
1.0
 92
        0
 66
   257
 43
1.0
 76
     1
 77
     6
 78
     2
 67
     7
 79
     5
170
     0
171
     0
290
     0
174
     0
 93
       13
 44
0.0
173
     0
291
     1
 45
0.0
1001
ACAD
1000
AcDbSavedByObjectVersion
1070
     0
  0
VISUALSTYLE
  5
2D
102
{ACAD_REACTORS
330
2A
102
}
102
{ACAD_XDICTIONARY
360
314
102
}
330
2A
100
AcDbVisualStyle
  2
Gouraud
 70
     2
 71
     2
 72
     2
 73
     1
 90
        2
 40
-0.6
 41
30.0
 62
     5
 63
     7
 74
     0
 91
        4
 64
     7
 65
   257
 75
     1
175
     1
 42
1.0
 92
        0
 66
     7
 43
1.0
 76
     1
 77
     6
 78
     2
 67
     7
 79
     5
170
     0
171
     0
290
     0
174
     0
 93
       13
 44
0.0
173
     0
291
     1
 45
0.0
1001
ACAD
1000
AcDbSavedByObjectVersion
1070
     0
  0
VISUALSTYLE
  5
2E
102
{ACAD_REACTORS
330
2A
102
}
102
{ACAD_XDICTIONARY
360
316
102
}
330
2A
100
AcDbVisualStyle
  2
GouraudWithEdges
 70
     3
 71
     2
 72
     2
 73
     1
 90
        2
 40
-0.6
 41
30.0
 62
     5
 63
     7
 74
     1
 91
        4
 64
     7
 65
   257
 75
     1
175
     1
 42
1.0
 92
        0
 66
   257
 43
1.0
 76
     1
 77
     6
 78
     2
 67
     7
 79
     5
170
     0
171
     0
290
     0
174
     0
 93
       13
 44
0.0
173
     0
291
     1
 45
0.0
1001
ACAD
1000
AcDbSavedByObjectVersion
1070
     0
  0
VISUALSTYLE
  5
38
102
{ACAD_REACTORS
330
2A
102
}
102
{ACAD_XDICTIONARY
360
32A
102
}
330
2A
100
AcDbVisualStyle
  2
Linepattern
 70
    14
 71
     2
 72
     2
 73
     0
 90
        0
 40
-0.6
 41
-30.0
 62
     5
 63
     7
 74
     1
 91
        4
 64
     7
 65
   257
 75
     7
175
     7
 42
1.0
 92
        8
 66
     7
 43
1.0
 76
     1
 77
     6
 78
     2
 67
     7
 79
     5
170
     0
171
     0
290
     0
174
     0
 93
        1
 44
0.0
173
     0
291
     1
 45
0.0
1001
ACAD
1000
AcDbSavedByObjectVersion
1070
     0
  0
VISUALSTYLE
  5
33
102
{ACAD_REACTORS
330
2A
102
}
102
{ACAD_XDICTIONARY
360
320
102
}
330
2A
100
AcDbVisualStyle
  2
Realistic
 70
     8
 71
     2
 72
     2
 73
     0
 90
        0
 40
-0.6
 41
-30.0
 62
     5
 63
     7
 74
     1
 91
        0
 64
     7
 65
   257
 75
     1
175
     1
 42
1.0
 92
        8
 66
     8
 43
1.0
 76
     1
 77
     6
 78
     2
 67
     7
 79
     5
170
     0
171
     0
290
     0
174
     0
 93
       13
 44
0.0
173
     0
291
     0
 45
0.0
1001
ACAD
1000
AcDbSavedByObjectVersion
1070
     0
  0
VISUALSTYLE
  5
37
102
{ACAD_REACTORS
330
2A
102
}
102
{ACAD_XDICTIONARY
360
328
102
}
330
2A
100
AcDbVisualStyle
  2
Thicken
 70
    13
 71
     2
 72
     2
 73
     0
 90
        0
 40
-0.6
 41
-30.0
 62
     5
 63
     7
 74
     1
 91
        4
 64
     7
 65
   257
 75
     1
175
     1
 42
1.0
 92
       12
 66
     7
 43
1.0
 76
     1
 77
     6
 78
     2
 67
     7
 79
     5
170
     0
171
     0
290
     0
174
     0
 93
        1
 44
0.0
173
     0
291
     1
 45
0.0
1001
ACAD
1000
AcDbSavedByObjectVersion
1070
     0
  0
DICTIONARYVAR
  5
30D
102
{ACAD_REACTORS
330
30A
102
}
330
30A
100
DictionaryVariables
280
     0
  1
1:1
  0
DICTIONARYVAR
  5
30E
102
{ACAD_REACTORS
330
30A
102
}
330
30A
100
DictionaryVariables
280
     0
  1
2
  0
DICTIONARYVAR
  5
30F
102
{ACAD_REACTORS
330
30A
102
}
330
30A
100
DictionaryVariables
280
     0
  1
1
  0
DICTIONARY
  5
332
330
3D
100
AcDbDictionary
280
     1
281
     1
  3
ACAD_XREC_ROUNDTRIP
360
333
  0
DICTIONARY
  5
330
330
3C
100
AcDbDictionary
280
     1
281
     1
  3
ACAD_XREC_ROUNDTRIP
360
331
  0
DICTIONARY
  5
334
330
3E
100
AcDbDictionary
280
     1
281
     1
  3
ACAD_XREC_ROUNDTRIP
360
335
  0
DICTIONARY
  5
318
330
2F
100
AcDbDictionary
280
     1
281
     1
  3
ACAD_XREC_ROUNDTRIP
360
319
  0
DICTIONARY
  5
31C
330
31
100
AcDbDictionary
280
     1
281
     1
  3
ACAD_XREC_ROUNDTRIP
360
31D
  0
DICTIONARY
  5
31A
330
30
100
AcDbDictionary
280
     1
281
     1
  3
ACAD_XREC_ROUNDTRIP
360
31B
  0
DICTIONARY
  5
31E
330
32
100
AcDbDictionary
280
     1
281
     1
  3
ACAD_XREC_ROUNDTRIP
360
31F
  0
DICTIONARY
  5
326
330
36
100
AcDbDictionary
280
     1
281
     1
  3
ACAD_XREC_ROUNDTRIP
360
327
  0
DICTIONARY
  5
32E
330
3A
100
AcDbDictionary
280
     1
281
     1
  3
ACAD_XREC_ROUNDTRIP
360
32F
  0
DICTIONARY
  5
322
330
34
100
AcDbDictionary
280
     1
281
     1
  3
ACAD_XREC_ROUNDTRIP
360
323
  0
DICTIONARY
  5
324
330
35
100
AcDbDictionary
280
     1
281
     1
  3
ACAD_XREC_ROUNDTRIP
360
325
  0
DICTIONARY
  5
32C
330
39
100
AcDbDictionary
280
     1
281
     1
  3
ACAD_XREC_ROUNDTRIP
360
32D
  0
DICTIONARY
  5
310
330
2B
100
AcDbDictionary
280
     1
281
     1
  3
ACAD_XREC_ROUNDTRIP
360
311
  0
DICTIONARY
  5
312
330
2C
100
AcDbDictionary
280
     1
281
     1
  3
ACAD_XREC_ROUNDTRIP
360
313
  0
DICTIONARY
  5
314
330
2D
100
AcDbDictionary
280
     1
281
     1
  3
ACAD_XREC_ROUNDTRIP
360
315
  0
DICTIONARY
  5
316
330
2E
100
AcDbDictionary
280
     1
281
     1
  3
ACAD_XREC_ROUNDTRIP
360
317
  0
DICTIONARY
  5
32A
330
38
100
AcDbDictionary
280
     1
281
     1
  3
ACAD_XREC_ROUNDTRIP
360
32B
  0
DICTIONARY
  5
320
330
33
100
AcDbDictionary
280
     1
281
     1
  3
ACAD_XREC_ROUNDTRIP
360
321
  0
DICTIONARY
  5
328
330
37
100
AcDbDictionary
280
     1
281
     1
  3
ACAD_XREC_ROUNDTRIP
360
329
  0
XRECORD
  5
333
102
{ACAD_REACTORS
330
332
102
}
330
332
100
AcDbXrecord
280
     1
102
MATERIAL
148
0.0
149
0.0
149
0.0
 93
        0
 94
      127
282
     0
 72
     1
 77
     1
171
     1
175
     1
179
     1
273
     0
  0
XRECORD
  5
331
102
{ACAD_REACTORS
330
330
102
}
330
330
100
AcDbXrecord
280
     1
102
MATERIAL
148
0.0
149
0.0
149
0.0
 93
        0
 94
      127
282
     0
 72
     1
 77
     1
171
     1
175
     1
179
     1
273
     0
  0
XRECORD
  5
335
102
{ACAD_REACTORS
330
334
102
}
330
334
100
AcDbXrecord
280
     1
102
MATERIAL
148
0.0
149
0.0
149
0.0
 93
        0
 94
      127
282
     0
 72
     1
 77
     1
171
     1
175
     1
179
     1
273
     0
  0
XRECORD
  5
319
102
{ACAD_REACTORS
330
318
102
}
330
318
100
AcDbXrecord
280
     1
102
RTVSPropertyOp0
 70
     1
102
RTVSPropertyOp1
 70
     1
102
RTVSPropertyOp2
 70
     1
102
RTVSPropertyOp3
 70
     1
102
RTVSPropertyOp4
 70
     1
102
RTVSPropertyOp5
 70
     1
102
RTVSPropertyOp6
 70
     1
102
RTVSPropertyOp7
 70
     1
102
RTVSPropertyOp8
 70
     1
102
RTVSPropertyOp9
 70
     1
102
RTVSPropertyOp10
 70
     1
102
RTVSPropertyOp11
 70
     1
102
RTVSPropertyOp12
 70
     1
102
RTVSPropertyOp13
 70
     1
102
RTVSPropertyOp14
 70
     1
102
RTVSPropertyOp15
 70
     1
102
RTVSPropertyOp16
 70
     1
102
RTVSPropertyOp17
 70
     1
102
RTVSPropertyOp18
 70
     1
102
RTVSPropertyOp19
 70
     1
102
RTVSPropertyOp20
 70
     1
102
RTVSPropertyOp21
 70
     1
102
RTVSPropertyOp22
 70
     1
102
RTVSPropertyOp23
 70
     1
102
RTVSPropertyOp24
 70
     1
102
RTVSPropertyOp25
 70
     1
102
RTVSPropertyOp26
 70
     1
102
RTVSPropertyOp27
 70
     1
  0
XRECORD
  5
31D
102
{ACAD_REACTORS
330
31C
102
}
330
31C
100
AcDbXrecord
280
     1
102
RTVSPropertyOp0
 70
     1
102
RTVSPropertyOp1
 70
     1
102
RTVSPropertyOp2
 70
     1
102
RTVSPropertyOp3
 70
     1
102
RTVSPropertyOp4
 70
     1
102
RTVSPropertyOp5
 70
     1
102
RTVSPropertyOp6
 70
     1
102
RTVSPropertyOp7
 70
     1
102
RTVSPropertyOp8
 70
     1
102
RTVSPropertyOp9
 70
     1
102
RTVSPropertyOp10
 70
     1
102
RTVSPropertyOp11
 70
     1
102
RTVSPropertyOp12
 70
     1
102
RTVSPropertyOp13
 70
     1
102
RTVSPropertyOp14
 70
     1
102
RTVSPropertyOp15
 70
     1
102
RTVSPropertyOp16
 70
     1
102
RTVSPropertyOp17
 70
     1
102
RTVSPropertyOp18
 70
     1
102
RTVSPropertyOp19
 70
     1
102
RTVSPropertyOp20
 70
     1
102
RTVSPropertyOp21
 70
     1
102
RTVSPropertyOp22
 70
     1
102
RTVSPropertyOp23
 70
     1
102
RTVSPropertyOp24
 70
     1
102
RTVSPropertyOp25
 70
     1
102
RTVSPropertyOp26
 70
     1
102
RTVSPropertyOp27
 70
     1
  0
XRECORD
  5
31B
102
{ACAD_REACTORS
330
31A
102
}
330
31A
100
AcDbXrecord
280
     1
102
RTVSPropertyOp0
 70
     1
102
RTVSPropertyOp1
 70
     1
102
RTVSPropertyOp2
 70
     1
102
RTVSPropertyOp3
 70
     1
102
RTVSPropertyOp4
 70
     1
102
RTVSPropertyOp5
 70
     1
102
RTVSPropertyOp6
 70
     1
102
RTVSPropertyOp7
 70
     1
102
RTVSPropertyOp8
 70
     1
102
RTVSPropertyOp9
 70
     1
102
RTVSPropertyOp10
 70
     1
102
RTVSPropertyOp11
 70
     1
102
RTVSPropertyOp12
 70
     1
102
RTVSPropertyOp13
 70
     1
102
RTVSPropertyOp14
 70
     1
102
RTVSPropertyOp15
 70
     1
102
RTVSPropertyOp16
 70
     1
102
RTVSPropertyOp17
 70
     1
102
RTVSPropertyOp18
 70
     1
102
RTVSPropertyOp19
 70
     1
102
RTVSPropertyOp20
 70
     1
102
RTVSPropertyOp21
 70
     1
102
RTVSPropertyOp22
 70
     1
102
RTVSPropertyOp23
 70
     1
102
RTVSPropertyOp24
 70
     1
102
RTVSPropertyOp25
 70
     1
102
RTVSPropertyOp26
 70
     1
102
RTVSPropertyOp27
 70
     1
  0
XRECORD
  5
31F
102
{ACAD_REACTORS
330
31E
102
}
330
31E
100
AcDbXrecord
280
     1
102
RTVSPropertyOp0
 70
     1
102
RTVSPropertyOp1
 70
     1
102
RTVSPropertyOp2
 70
     1
102
RTVSPropertyOp3
 70
     1
102
RTVSPropertyOp4
 70
     1
102
RTVSPropertyOp5
 70
     1
102
RTVSPropertyOp6
 70
     1
102
RTVSPropertyOp7
 70
     1
102
RTVSPropertyOp8
 70
     1
102
RTVSPropertyOp9
 70
     1
102
RTVSPropertyOp10
 70
     1
102
RTVSPropertyOp11
 70
     1
102
RTVSPropertyOp12
 70
     1
102
RTVSPropertyOp13
 70
     1
102
RTVSPropertyOp14
 70
     1
102
RTVSPropertyOp15
 70
     1
102
RTVSPropertyOp16
 70
     1
102
RTVSPropertyOp17
 70
     1
102
RTVSPropertyOp18
 70
     1
102
RTVSPropertyOp19
 70
     1
102
RTVSPropertyOp20
 70
     1
102
RTVSPropertyOp21
 70
     1
102
RTVSPropertyOp22
 70
     1
102
RTVSPropertyOp23
 70
     1
102
RTVSPropertyOp24
 70
     1
102
RTVSPropertyOp25
 70
     1
102
RTVSPropertyOp26
 70
     1
102
RTVSPropertyOp27
 70
     1
  0
XRECORD
  5
327
102
{ACAD_REACTORS
330
326
102
}
330
326
100
AcDbXrecord
280
     1
102
RTVSPropertyOp0
 70
     1
102
RTVSPropertyOp1
 70
     1
102
RTVSPropertyOp2
 70
     1
102
RTVSPropertyOp3
 70
     1
102
RTVSPropertyOp4
 70
     1
102
RTVSPropertyOp5
 70
     1
102
RTVSPropertyOp6
 70
     1
102
RTVSPropertyOp7
 70
     1
102
RTVSPropertyOp8
 70
     1
102
RTVSPropertyOp9
 70
     1
102
RTVSPropertyOp10
 70
     1
102
RTVSPropertyOp11
 70
     1
102
RTVSPropertyOp12
 70
     1
102
RTVSPropertyOp13
 70
     1
102
RTVSPropertyOp14
 70
     1
102
RTVSPropertyOp15
 70
     1
102
RTVSPropertyOp16
 70
     1
102
RTVSPropertyOp17
 70
     1
102
RTVSPropertyOp18
 70
     1
102
RTVSPropertyOp19
 70
     1
102
RTVSPropertyOp20
 70
     1
102
RTVSPropertyOp21
 70
     1
102
RTVSPropertyOp22
 70
     1
102
RTVSPropertyOp23
 70
     1
102
RTVSPropertyOp24
 70
     1
102
RTVSPropertyOp25
 70
     1
102
RTVSPropertyOp26
 70
     1
102
RTVSPropertyOp27
 70
     1
  0
XRECORD
  5
32F
102
{ACAD_REACTORS
330
32E
102
}
330
32E
100
AcDbXrecord
280
     1
102
RTVSPropertyOp0
 70
     1
102
RTVSPropertyOp1
 70
     1
102
RTVSPropertyOp2
 70
     1
102
RTVSPropertyOp3
 70
     1
102
RTVSPropertyOp4
 70
     1
102
RTVSPropertyOp5
 70
     1
102
RTVSPropertyOp6
 70
     1
102
RTVSPropertyOp7
 70
     1
102
RTVSPropertyOp8
 70
     1
102
RTVSPropertyOp9
 70
     1
102
RTVSPropertyOp10
 70
     1
102
RTVSPropertyOp11
 70
     1
102
RTVSPropertyOp12
 70
     1
102
RTVSPropertyOp13
 70
     1
102
RTVSPropertyOp14
 70
     1
102
RTVSPropertyOp15
 70
     1
102
RTVSPropertyOp16
 70
     1
102
RTVSPropertyOp17
 70
     1
102
RTVSPropertyOp18
 70
     1
102
RTVSPropertyOp19
 70
     1
102
RTVSPropertyOp20
 70
     1
102
RTVSPropertyOp21
 70
     1
102
RTVSPropertyOp22
 70
     1
102
RTVSPropertyOp23
 70
     1
102
RTVSPropertyOp24
 70
     1
102
RTVSPropertyOp25
 70
     1
102
RTVSPropertyOp26
 70
     1
102
RTVSPropertyOp27
 70
     1
  0
XRECORD
  5
323
102
{ACAD_REACTORS
330
322
102
}
330
322
100
AcDbXrecord
280
     1
102
RTVSPropertyOp0
 70
     1
102
RTVSPropertyOp1
 70
     1
102
RTVSPropertyOp2
 70
     1
102
RTVSPropertyOp3
 70
     1
102
RTVSPropertyOp4
 70
     1
102
RTVSPropertyOp5
 70
     1
102
RTVSPropertyOp6
 70
     1
102
RTVSPropertyOp7
 70
     1
102
RTVSPropertyOp8
 70
     1
102
RTVSPropertyOp9
 70
     1
102
RTVSPropertyOp10
 70
     1
102
RTVSPropertyOp11
 70
     1
102
RTVSPropertyOp12
 70
     1
102
RTVSPropertyOp13
 70
     1
102
RTVSPropertyOp14
 70
     1
102
RTVSPropertyOp15
 70
     1
102
RTVSPropertyOp16
 70
     1
102
RTVSPropertyOp17
 70
     1
102
RTVSPropertyOp18
 70
     1
102
RTVSPropertyOp19
 70
     1
102
RTVSPropertyOp20
 70
     1
102
RTVSPropertyOp21
 70
     1
102
RTVSPropertyOp22
 70
     1
102
RTVSPropertyOp23
 70
     1
102
RTVSPropertyOp24
 70
     1
102
RTVSPropertyOp25
 70
     1
102
RTVSPropertyOp26
 70
     1
102
RTVSPropertyOp27
 70
     1
  0
XRECORD
  5
325
102
{ACAD_REACTORS
330
324
102
}
330
324
100
AcDbXrecord
280
     1
102
RTVSPropertyOp0
 70
     1
102
RTVSPropertyOp1
 70
     1
102
RTVSPropertyOp2
 70
     1
102
RTVSPropertyOp3
 70
     1
102
RTVSPropertyOp4
 70
     1
102
RTVSPropertyOp5
 70
     1
102
RTVSPropertyOp6
 70
     1
102
RTVSPropertyOp7
 70
     1
102
RTVSPropertyOp8
 70
     1
102
RTVSPropertyOp9
 70
     1
102
RTVSPropertyOp10
 70
     1
102
RTVSPropertyOp11
 70
     1
102
RTVSPropertyOp12
 70
     1
102
RTVSPropertyOp13
 70
     1
102
RTVSPropertyOp14
 70
     1
102
RTVSPropertyOp15
 70
     1
102
RTVSPropertyOp16
 70
     1
102
RTVSPropertyOp17
 70
     1
102
RTVSPropertyOp18
 70
     1
102
RTVSPropertyOp19
 70
     1
102
RTVSPropertyOp20
 70
     1
102
RTVSPropertyOp21
 70
     1
102
RTVSPropertyOp22
 70
     1
102
RTVSPropertyOp23
 70
     1
102
RTVSPropertyOp24
 70
     1
102
RTVSPropertyOp25
 70
     1
102
RTVSPropertyOp26
 70
     1
102
RTVSPropertyOp27
 70
     1
  0
XRECORD
  5
32D
102
{ACAD_REACTORS
330
32C
102
}
330
32C
100
AcDbXrecord
280
     1
102
RTVSPropertyOp0
 70
     1
102
RTVSPropertyOp1
 70
     1
102
RTVSPropertyOp2
 70
     1
102
RTVSPropertyOp3
 70
     1
102
RTVSPropertyOp4
 70
     1
102
RTVSPropertyOp5
 70
     1
102
RTVSPropertyOp6
 70
     1
102
RTVSPropertyOp7
 70
     1
102
RTVSPropertyOp8
 70
     1
102
RTVSPropertyOp9
 70
     1
102
RTVSPropertyOp10
 70
     1
102
RTVSPropertyOp11
 70
     1
102
RTVSPropertyOp12
 70
     1
102
RTVSPropertyOp13
 70
     1
102
RTVSPropertyOp14
 70
     1
102
RTVSPropertyOp15
 70
     1
102
RTVSPropertyOp16
 70
     1
102
RTVSPropertyOp17
 70
     1
102
RTVSPropertyOp18
 70
     1
102
RTVSPropertyOp19
 70
     1
102
RTVSPropertyOp20
 70
     1
102
RTVSPropertyOp21
 70
     1
102
RTVSPropertyOp22
 70
     1
102
RTVSPropertyOp23
 70
     1
102
RTVSPropertyOp24
 70
     1
102
RTVSPropertyOp25
 70
     1
102
RTVSPropertyOp26
 70
     1
102
RTVSPropertyOp27
 70
     1
  0
XRECORD
  5
311
102
{ACAD_REACTORS
330
310
102
}
330
310
100
AcDbXrecord
280
     1
102
RTVSPropertyOp0
 70
     1
102
RTVSPropertyOp1
 70
     1
102
RTVSPropertyOp2
 70
     1
102
RTVSPropertyOp3
 70
     1
102
RTVSPropertyOp4
 70
     1
102
RTVSPropertyOp5
 70
     1
102
RTVSPropertyOp6
 70
     1
102
RTVSPropertyOp7
 70
     1
102
RTVSPropertyOp8
 70
     1
102
RTVSPropertyOp9
 70
     1
102
RTVSPropertyOp10
 70
     1
102
RTVSPropertyOp11
 70
     1
102
RTVSPropertyOp12
 70
     1
102
RTVSPropertyOp13
 70
     1
102
RTVSPropertyOp14
 70
     1
102
RTVSPropertyOp15
 70
     1
102
RTVSPropertyOp16
 70
     1
102
RTVSPropertyOp17
 70
     1
102
RTVSPropertyOp18
 70
     1
102
RTVSPropertyOp19
 70
     1
102
RTVSPropertyOp20
 70
     1
102
RTVSPropertyOp21
 70
     1
102
RTVSPropertyOp22
 70
     1
102
RTVSPropertyOp23
 70
     1
102
RTVSPropertyOp24
 70
     1
102
RTVSPropertyOp25
 70
     1
102
RTVSPropertyOp26
 70
     1
102
RTVSPropertyOp27
 70
     1
  0
XRECORD
  5
313
102
{ACAD_REACTORS
330
312
102
}
330
312
100
AcDbXrecord
280
     1
102
RTVSPropertyOp0
 70
     1
102
RTVSPropertyOp1
 70
     1
102
RTVSPropertyOp2
 70
     1
102
RTVSPropertyOp3
 70
     1
102
RTVSPropertyOp4
 70
     1
102
RTVSPropertyOp5
 70
     1
102
RTVSPropertyOp6
 70
     1
102
RTVSPropertyOp7
 70
     1
102
RTVSPropertyOp8
 70
     1
102
RTVSPropertyOp9
 70
     1
102
RTVSPropertyOp10
 70
     1
102
RTVSPropertyOp11
 70
     1
102
RTVSPropertyOp12
 70
     1
102
RTVSPropertyOp13
 70
     1
102
RTVSPropertyOp14
 70
     1
102
RTVSPropertyOp15
 70
     1
102
RTVSPropertyOp16
 70
     1
102
RTVSPropertyOp17
 70
     1
102
RTVSPropertyOp18
 70
     1
102
RTVSPropertyOp19
 70
     1
102
RTVSPropertyOp20
 70
     1
102
RTVSPropertyOp21
 70
     1
102
RTVSPropertyOp22
 70
     1
102
RTVSPropertyOp23
 70
     1
102
RTVSPropertyOp24
 70
     1
102
RTVSPropertyOp25
 70
     1
102
RTVSPropertyOp26
 70
     1
102
RTVSPropertyOp27
 70
     1
  0
XRECORD
  5
315
102
{ACAD_REACTORS
330
314
102
}
330
314
100
AcDbXrecord
280
     1
102
RTVSPropertyOp0
 70
     1
102
RTVSPropertyOp1
 70
     1
102
RTVSPropertyOp2
 70
     1
102
RTVSPropertyOp3
 70
     1
102
RTVSPropertyOp4
 70
     1
102
RTVSPropertyOp5
 70
     1
102
RTVSPropertyOp6
 70
     1
102
RTVSPropertyOp7
 70
     1
102
RTVSPropertyOp8
 70
     1
102
RTVSPropertyOp9
 70
     1
102
RTVSPropertyOp10
 70
     1
102
RTVSPropertyOp11
 70
     1
102
RTVSPropertyOp12
 70
     1
102
RTVSPropertyOp13
 70
     1
102
RTVSPropertyOp14
 70
     1
102
RTVSPropertyOp15
 70
     1
102
RTVSPropertyOp16
 70
     1
102
RTVSPropertyOp17
 70
     1
102
RTVSPropertyOp18
 70
     1
102
RTVSPropertyOp19
 70
     1
102
RTVSPropertyOp20
 70
     1
102
RTVSPropertyOp21
 70
     1
102
RTVSPropertyOp22
 70
     1
102
RTVSPropertyOp23
 70
     1
102
RTVSPropertyOp24
 70
     1
102
RTVSPropertyOp25
 70
     1
102
RTVSPropertyOp26
 70
     1
102
RTVSPropertyOp27
 70
     1
  0
XRECORD
  5
317
102
{ACAD_REACTORS
330
316
102
}
330
316
100
AcDbXrecord
280
     1
102
RTVSPropertyOp0
 70
     1
102
RTVSPropertyOp1
 70
     1
102
RTVSPropertyOp2
 70
     1
102
RTVSPropertyOp3
 70
     1
102
RTVSPropertyOp4
 70
     1
102
RTVSPropertyOp5
 70
     1
102
RTVSPropertyOp6
 70
     1
102
RTVSPropertyOp7
 70
     1
102
RTVSPropertyOp8
 70
     1
102
RTVSPropertyOp9
 70
     1
102
RTVSPropertyOp10
 70
     1
102
RTVSPropertyOp11
 70
     1
102
RTVSPropertyOp12
 70
     1
102
RTVSPropertyOp13
 70
     1
102
RTVSPropertyOp14
 70
     1
102
RTVSPropertyOp15
 70
     1
102
RTVSPropertyOp16
 70
     1
102
RTVSPropertyOp17
 70
     1
102
RTVSPropertyOp18
 70
     1
102
RTVSPropertyOp19
 70
     1
102
RTVSPropertyOp20
 70
     1
102
RTVSPropertyOp21
 70
     1
102
RTVSPropertyOp22
 70
     1
102
RTVSPropertyOp23
 70
     1
102
RTVSPropertyOp24
 70
     1
102
RTVSPropertyOp25
 70
     1
102
RTVSPropertyOp26
 70
     1
102
RTVSPropertyOp27
 70
     1
  0
XRECORD
  5
32B
102
{ACAD_REACTORS
330
32A
102
}
330
32A
100
AcDbXrecord
280
     1
102
RTVSPropertyOp0
 70
     1
102
RTVSPropertyOp1
 70
     1
102
RTVSPropertyOp2
 70
     1
102
RTVSPropertyOp3
 70
     1
102
RTVSPropertyOp4
 70
     1
102
RTVSPropertyOp5
 70
     1
102
RTVSPropertyOp6
 70
     1
102
RTVSPropertyOp7
 70
     1
102
RTVSPropertyOp8
 70
     1
102
RTVSPropertyOp9
 70
     1
102
RTVSPropertyOp10
 70
     1
102
RTVSPropertyOp11
 70
     1
102
RTVSPropertyOp12
 70
     1
102
RTVSPropertyOp13
 70
     1
102
RTVSPropertyOp14
 70
     1
102
RTVSPropertyOp15
 70
     1
102
RTVSPropertyOp16
 70
     1
102
RTVSPropertyOp17
 70
     1
102
RTVSPropertyOp18
 70
     1
102
RTVSPropertyOp19
 70
     1
102
RTVSPropertyOp20
 70
     1
102
RTVSPropertyOp21
 70
     1
102
RTVSPropertyOp22
 70
     1
102
RTVSPropertyOp23
 70
     1
102
RTVSPropertyOp24
 70
     1
102
RTVSPropertyOp25
 70
     1
102
RTVSPropertyOp26
 70
     1
102
RTVSPropertyOp27
 70
     1
  0
XRECORD
  5
321
102
{ACAD_REACTORS
330
320
102
}
330
320
100
AcDbXrecord
280
     1
102
RTVSPropertyOp0
 70
     1
102
RTVSPropertyOp1
 70
     1
102
RTVSPropertyOp2
 70
     1
102
RTVSPropertyOp3
 70
     1
102
RTVSPropertyOp4
 70
     1
102
RTVSPropertyOp5
 70
     1
102
RTVSPropertyOp6
 70
     1
102
RTVSPropertyOp7
 70
     1
102
RTVSPropertyOp8
 70
     1
102
RTVSPropertyOp9
 70
     1
102
RTVSPropertyOp10
 70
     1
102
RTVSPropertyOp11
 70
     1
102
RTVSPropertyOp12
 70
     1
102
RTVSPropertyOp13
 70
     1
102
RTVSPropertyOp14
 70
     1
102
RTVSPropertyOp15
 70
     1
102
RTVSPropertyOp16
 70
     1
102
RTVSPropertyOp17
 70
     1
102
RTVSPropertyOp18
 70
     1
102
RTVSPropertyOp19
 70
     1
102
RTVSPropertyOp20
 70
     1
102
RTVSPropertyOp21
 70
     1
102
RTVSPropertyOp22
 70
     1
102
RTVSPropertyOp23
 70
     1
102
RTVSPropertyOp24
 70
     1
102
RTVSPropertyOp25
 70
     1
102
RTVSPropertyOp26
 70
     1
102
RTVSPropertyOp27
 70
     1
  0
XRECORD
  5
329
102
{ACAD_REACTORS
330
328
102
}
330
328
100
AcDbXrecord
280
     1
102
RTVSPropertyOp0
 70
     1
102
RTVSPropertyOp1
 70
     1
102
RTVSPropertyOp2
 70
     1
102
RTVSPropertyOp3
 70
     1
102
RTVSPropertyOp4
 70
     1
102
RTVSPropertyOp5
 70
     1
102
RTVSPropertyOp6
 70
     1
102
RTVSPropertyOp7
 70
     1
102
RTVSPropertyOp8
 70
     1
102
RTVSPropertyOp9
 70
     1
102
RTVSPropertyOp10
 70
     1
102
RTVSPropertyOp11
 70
     1
102
RTVSPropertyOp12
 70
     1
102
RTVSPropertyOp13
 70
     1
102
RTVSPropertyOp14
 70
     1
102
RTVSPropertyOp15
 70
     1
102
RTVSPropertyOp16
 70
     1
102
RTVSPropertyOp17
 70
     1
102
RTVSPropertyOp18
 70
     1
102
RTVSPropertyOp19
 70
     1
102
RTVSPropertyOp20
 70
     1
102
RTVSPropertyOp21
 70
     1
102
RTVSPropertyOp22
 70
     1
102
RTVSPropertyOp23
 70
     1
102
RTVSPropertyOp24
 70
     1
102
RTVSPropertyOp25
 70
     1
102
RTVSPropertyOp26
 70
     1
102
RTVSPropertyOp27
 70
     1
  0
ENDSEC
  0
EOF
