  0
SECTION
  2
HEADER
  9
$ACADVER
  1
AC1015
  9
$ACADMAINTVER
 70
     6
  9
$DWGCODEPAGE
  3
ANSI_932
  9
$INSBASE
 10
0.0
 20
0.0
 30
0.0
  9
$EXTMIN
 10
-28.752641557474
 20
1.11400396973662
 30
0.0
  9
$EXTMAX
 10
227.558716239733
 20
278.784772612172
 30
0.0
  9
$LIMMIN
 10
0.0
 20
0.0
  9
$LIMMAX
 10
12.0
 20
9.0
  9
$ORTHOMODE
 70
     0
  9
$REGENMODE
 70
     1
  9
$FILLMODE
 70
     1
  9
$QTEXTMODE
 70
     0
  9
$MIRRTEXT
 70
     1
  9
$LTSCALE
 40
1.0
  9
$ATTMODE
 70
     1
  9
$TEXTSIZE
 40
0.2
  9
$TRACEWID
 40
0.05
  9
$TEXTSTYLE
  7
Standard
  9
$CLAYER
  8
0
  9
$CELTYPE
  6
ByLayer
  9
$CECOLOR
 62
   256
  9
$CELTSCALE
 40
1.0
  9
$DISPSILH
 70
     0
  9
$DIMSCALE
 40
1.0
  9
$DIMASZ
 40
0.18
  9
$DIMEXO
 40
0.0625
  9
$DIMDLI
 40
0.38
  9
$DIMRND
 40
0.0
  9
$DIMDLE
 40
0.0
  9
$DIMEXE
 40
0.18
  9
$DIMTP
 40
0.0
  9
$DIMTM
 40
0.0
  9
$DIMTXT
 40
0.18
  9
$DIMCEN
 40
0.09
  9
$DIMTSZ
 40
0.0
  9
$DIMTOL
 70
     0
  9
$DIMLIM
 70
     0
  9
$DIMTIH
 70
     1
  9
$DIMTOH
 70
     1
  9
$DIMSE1
 70
     0
  9
$DIMSE2
 70
     0
  9
$DIMTAD
 70
     0
  9
$DIMZIN
 70
     0
  9
$DIMBLK
  1

  9
$DIMASO
 70
     1
  9
$DIMSHO
 70
     1
  9
$DIMPOST
  1

  9
$DIMAPOST
  1

  9
$DIMALT
 70
     0
  9
$DIMALTD
 70
     2
  9
$DIMALTF
 40
25.4
  9
$DIMLFAC
 40
1.0
  9
$DIMTOFL
 70
     0
  9
$DIMTVP
 40
0.0
  9
$DIMTIX
 70
     0
  9
$DIMSOXD
 70
     0
  9
$DIMSAH
 70
     0
  9
$DIMBLK1
  1

  9
$DIMBLK2
  1

  9
$DIMSTYLE
  2
Standard
  9
$DIMCLRD
 70
     0
  9
$DIMCLRE
 70
     0
  9
$DIMCLRT
 70
     0
  9
$DIMTFAC
 40
1.0
  9
$DIMGAP
 40
0.09
  9
$DIMJUST
 70
     0
  9
$DIMSD1
 70
     0
  9
$DIMSD2
 70
     0
  9
$DIMTOLJ
 70
     1
  9
$DIMTZIN
 70
     0
  9
$DIMALTZ
 70
     0
  9
$DIMALTTZ
 70
     0
  9
$DIMUPT
 70
     0
  9
$DIMDEC
 70
     4
  9
$DIMTDEC
 70
     4
  9
$DIMALTU
 70
     2
  9
$DIMALTTD
 70
     2
  9
$DIMTXSTY
  7
Standard
  9
$DIMAUNIT
 70
     0
  9
$DIMADEC
 70
     0
  9
$DIMALTRND
 40
0.0
  9
$DIMAZIN
 70
     0
  9
$DIMDSEP
 70
    46
  9
$DIMATFIT
 70
     3
  9
$DIMFRAC
 70
     0
  9
$DIMLDRBLK
  1

  9
$DIMLUNIT
 70
     2
  9
$DIMLWD
 70
    -2
  9
$DIMLWE
 70
    -2
  9
$DIMTMOVE
 70
     0
  9
$LUNITS
 70
     2
  9
$LUPREC
 70
     4
  9
$SKETCHINC
 40
0.1
  9
$FILLETRAD
 40
0.5
  9
$AUNITS
 70
     0
  9
$AUPREC
 70
     0
  9
$MENU
  1
.
  9
$ELEVATION
 40
0.0
  9
$PELEVATION
 40
0.0
  9
$THICKNESS
 40
0.0
  9
$LIMCHECK
 70
     0
  9
$CHAMFERA
 40
0.5
  9
$CHAMFERB
 40
0.5
  9
$CHAMFERC
 40
1.0
  9
$CHAMFERD
 40
0.0
  9
$SKPOLY
 70
     0
  9
$TDCREATE
 40
2457624.602873623
  9
$TDUCREATE
 40
2457624.227873623
  9
$TDUPDATE
 40
2457624.602873634
  9
$TDUUPDATE
 40
2457624.227873634
  9
$TDINDWG
 40
0.0000000116
  9
$TDUSRTIMER
 40
0.0000000116
  9
$USRTIMER
 70
     1
  9
$ANGBASE
 50
0.0
  9
$ANGDIR
 70
     0
  9
$PDMODE
 70
     0
  9
$PDSIZE
 40
0.0
  9
$PLINEWID
 40
0.0
  9
$SPLFRAME
 70
     0
  9
$SPLINETYPE
 70
     6
  9
$SPLINESEGS
 70
     8
  9
$HANDSEED
  5
2EF
  9
$SURFTAB1
 70
     6
  9
$SURFTAB2
 70
     6
  9
$SURFTYPE
 70
     6
  9
$SURFU
 70
     6
  9
$SURFV
 70
     6
  9
$UCSBASE
  2

  9
$UCSNAME
  2

  9
$UCSORG
 10
0.0
 20
0.0
 30
0.0
  9
$UCSXDIR
 10
1.0
 20
0.0
 30
0.0
  9
$UCSYDIR
 10
0.0
 20
1.0
 30
0.0
  9
$UCSORTHOREF
  2

  9
$UCSORTHOVIEW
 70
     0
  9
$UCSORGTOP
 10
0.0
 20
0.0
 30
0.0
  9
$UCSORGBOTTOM
 10
0.0
 20
0.0
 30
0.0
  9
$UCSORGLEFT
 10
0.0
 20
0.0
 30
0.0
  9
$UCSORGRIGHT
 10
0.0
 20
0.0
 30
0.0
  9
$UCSORGFRONT
 10
0.0
 20
0.0
 30
0.0
  9
$UCSORGBACK
 10
0.0
 20
0.0
 30
0.0
  9
$PUCSBASE
  2

  9
$PUCSNAME
  2

  9
$PUCSORG
 10
0.0
 20
0.0
 30
0.0
  9
$PUCSXDIR
 10
1.0
 20
0.0
 30
0.0
  9
$PUCSYDIR
 10
0.0
 20
1.0
 30
0.0
  9
$PUCSORTHOREF
  2

  9
$PUCSORTHOVIEW
 70
     0
  9
$PUCSORGTOP
 10
0.0
 20
0.0
 30
0.0
  9
$PUCSORGBOTTOM
 10
0.0
 20
0.0
 30
0.0
  9
$PUCSORGLEFT
 10
0.0
 20
0.0
 30
0.0
  9
$PUCSORGRIGHT
 10
0.0
 20
0.0
 30
0.0
  9
$PUCSORGFRONT
 10
0.0
 20
0.0
 30
0.0
  9
$PUCSORGBACK
 10
0.0
 20
0.0
 30
0.0
  9
$USERI1
 70
     0
  9
$USERI2
 70
     0
  9
$USERI3
 70
     0
  9
$USERI4
 70
     0
  9
$USERI5
 70
     0
  9
$USERR1
 40
18.0
  9
$USERR2
 40
0.0
  9
$USERR3
 40
0.0
  9
$USERR4
 40
0.0
  9
$USERR5
 40
0.0
  9
$WORLDVIEW
 70
     1
  9
$SHADEDGE
 70
     3
  9
$SHADEDIF
 70
    70
  9
$TILEMODE
 70
     1
  9
$MAXACTVP
 70
    64
  9
$PINSBASE
 10
0.0
 20
0.0
 30
0.0
  9
$PLIMCHECK
 70
     0
  9
$PEXTMIN
 10
1.00000000000000E+20
 20
1.00000000000000E+20
 30
1.00000000000000E+20
  9
$PEXTMAX
 10
-1.00000000000000E+20
 20
-1.00000000000000E+20
 30
-1.00000000000000E+20
  9
$PLIMMIN
 10
0.0
 20
0.0
  9
$PLIMMAX
 10
12.0
 20
9.0
  9
$UNITMODE
 70
     0
  9
$VISRETAIN
 70
     1
  9
$PLINEGEN
 70
     0
  9
$PSLTSCALE
 70
     1
  9
$TREEDEPTH
 70
  3020
  9
$CMLSTYLE
  2
Standard
  9
$CMLJUST
 70
     0
  9
$CMLSCALE
 40
1.0
  9
$PROXYGRAPHICS
 70
     1
  9
$MEASUREMENT
 70
     1
  9
$CELWEIGHT
370
    -1
  9
$ENDCAPS
280
     0
  9
$JOINSTYLE
280
     0
  9
$LWDISPLAY
290
     0
  9
$INSUNITS
 70
     1
  9
$HYPERLINKBASE
  1

  9
$STYLESHEET
  1

  9
$XEDIT
290
     1
  9
$CEPSNTYPE
380
     0
  9
$PSTYLEMODE
290
     1
  9
$FINGERPRINTGUID
  2
{FBE077E0-EF5A-4CC8-AB4B-34FBF95457A7}
  9
$VERSIONGUID
  2
{FAEB1C32-E019-11D5-929B-00C0DF256EC4}
  9
$EXTNAMES
290
     1
  9
$PSVPSCALE
 40
0.0
  9
$OLESTARTUP
290
     0
  0
ENDSEC
  0
SECTION
  2
CLASSES
  0
CLASS
  1
ACDBDICTIONARYWDFLT
  2
AcDbDictionaryWithDefault
  3
ObjectDBX Classes
 90
        0
280
     0
281
     0
  0
CLASS
  1
VISUALSTYLE
  2
AcDbVisualStyle
  3
ObjectDBX Classes
 90
     4095
280
     0
281
     0
  0
CLASS
  1
MATERIAL
  2
AcDbMaterial
  3
ObjectDBX Classes
 90
     1153
280
     0
281
     0
  0
CLASS
  1

  2
exOdDbCircle
  3

 90
        0
280
     0
281
     1
  0
CLASS
  1

  2
exOdDbPolyline
  3

 90
        0
280
     0
281
     1
  0
CLASS
  1
SCALE
  2
AcDbScale
  3
ObjectDBX Classes
 90
     1153
280
     0
281
     0
  0
CLASS
  1
DICTIONARYVAR
  2
AcDbDictionaryVar
  3
ObjectDBX Classes
 90
        0
280
     0
281
     0
  0
CLASS
  1
ACDBPLACEHOLDER
  2
AcDbPlaceHolder
  3
ObjectDBX Classes
 90
        0
280
     0
281
     0
  0
CLASS
  1
LAYOUT
  2
AcDbLayout
  3
ObjectDBX Classes
 90
        0
280
     0
281
     0
  0
ENDSEC
  0
SECTION
  2
TABLES
  0
TABLE
  2
VPORT
  5
8
330
0
100
AcDbSymbolTable
 70
     1
  0
VPORT
  5
29
330
8
100
AcDbSymbolTableRecord
100
AcDbViewportTableRecord
  2
*Active
 70
     0
 10
0.0
 20
0.0
 11
1.0
 21
1.0
 12
99.4030373411295
 22
139.9493882909543
 13
0.0
 23
0.0
 14
0.5
 24
0.5
 15
0.5
 25
0.5
 16
0.0
 26
0.0
 36
1.0
 17
0.0
 27
0.0
 37
0.0
 40
305.4378455066789
 41
1.60267857142857
 42
50.0
 43
0.0
 44
0.0
 50
0.0
 51
0.0
 71
     0
 72
   100
 73
     1
 74
     3
 75
     0
 76
     0
 77
     0
 78
     0
281
     0
 65
     1
110
0.0
120
0.0
130
0.0
111
1.0
121
0.0
131
0.0
112
0.0
122
1.0
132
0.0
 79
     0
146
0.0
  0
ENDTAB
  0
TABLE
  2
LTYPE
  5
5
330
0
100
AcDbSymbolTable
 70
     9
  0
LTYPE
  5
14
330
5
100
AcDbSymbolTableRecord
100
AcDbLinetypeTableRecord
  2
ByBlock
 70
     0
  3

 72
    65
 73
     0
 40
0.0
  0
LTYPE
  5
15
330
5
100
AcDbSymbolTableRecord
100
AcDbLinetypeTableRecord
  2
ByLayer
 70
     0
  3

 72
    65
 73
     0
 40
0.0
  0
LTYPE
  5
16
330
5
100
AcDbSymbolTableRecord
100
AcDbLinetypeTableRecord
  2
Continuous
 70
     0
  3
Solid line
 72
    65
 73
     0
 40
0.0
  0
LTYPE
  5
3F
330
5
100
AcDbSymbolTableRecord
100
AcDbLinetypeTableRecord
  2
DASHED
 70
     0
  3
Dashed
 72
    65
 73
     2
 40
15.0
 49
7.0
 74
     0
 49
-8.0
 74
     0
  0
LTYPE
  5
40
330
5
100
AcDbSymbolTableRecord
100
AcDbLinetypeTableRecord
  2
DOTTED
 70
     0
  3
Dotted
 72
    65
 73
     2
 40
1.0
 49
0.0
 74
     0
 49
-1.0
 74
     0
  0
LTYPE
  5
41
330
5
100
AcDbSymbolTableRecord
100
AcDbLinetypeTableRecord
  2
DOT_CENTER
 70
     0
  3
Dot_Center
 72
    65
 73
     4
 40
14.0
 49
12.0
 74
     0
 49
-1.0
 74
     0
 49
0.0
 74
     0
 49
-1.0
 74
     0
  0
LTYPE
  5
42
330
5
100
AcDbSymbolTableRecord
100
AcDbLinetypeTableRecord
  2
LONG_DASHED
 70
     0
  3
Long_Dashed
 72
    65
 73
     2
 40
15.0
 49
10.0
 74
     0
 49
-5.0
 74
     0
  0
LTYPE
  5
43
330
5
100
AcDbSymbolTableRecord
100
AcDbLinetypeTableRecord
  2
DASH_CENTER
 70
     0
  3
Dash_Center
 72
    65
 73
     4
 40
14.0
 49
11.0
 74
     0
 49
-1.0
 74
     0
 49
1.0
 74
     0
 49
-1.0
 74
     0
  0
LTYPE
  5
44
330
5
100
AcDbSymbolTableRecord
100
AcDbLinetypeTableRecord
  2
PHANTOM
 70
     0
  3
Phantom
 72
    65
 73
     6
 40
13.0
 49
10.0
 74
     0
 49
-1.0
 74
     0
 49
0.0
 74
     0
 49
-1.0
 74
     0
 49
0.0
 74
     0
 49
-1.0
 74
     0
  0
LTYPE
  5
45
330
5
100
AcDbSymbolTableRecord
100
AcDbLinetypeTableRecord
  2
CENTER_DASH_DASH
 70
     0
  3
Center_Dash_Dash
 72
    65
 73
     6
 40
14.0
 49
9.0
 74
     0
 49
-1.0
 74
     0
 49
1.0
 74
     0
 49
-1.0
 74
     0
 49
1.0
 74
     0
 49
-1.0
 74
     0
  0
LTYPE
  5
46
330
5
100
AcDbSymbolTableRecord
100
AcDbLinetypeTableRecord
  2
CENTER
 70
     0
  3
CENTER
 72
    65
 73
     4
 40
6.0
 49
3.0
 74
     0
 49
-1.0
 74
     0
 49
1.0
 74
     0
 49
-1.0
 74
     0
  0
ENDTAB
  0
TABLE
  2
LAYER
  5
2
330
0
100
AcDbSymbolTable
 70
     5
  0
LAYER
  5
10
330
2
100
AcDbSymbolTableRecord
100
AcDbLayerTableRecord
  2
0
 70
     0
 62
     7
  6
Continuous
370
    -3
390
F
  0
LAYER
  5
47
330
2
100
AcDbSymbolTableRecord
100
AcDbLayerTableRecord
  2
1
 70
     0
 62
     7
  6
Continuous
370
    -3
390
F
  0
LAYER
  5
48
330
2
100
AcDbSymbolTableRecord
100
AcDbLayerTableRecord
  2
2
 70
     0
 62
     7
  6
Continuous
370
    -3
390
F
  0
LAYER
  5
49
330
2
100
AcDbSymbolTableRecord
100
AcDbLayerTableRecord
  2
4
 70
     0
 62
     7
  6
Continuous
370
    -3
390
F
  0
LAYER
  5
4A
330
2
100
AcDbSymbolTableRecord
100
AcDbLayerTableRecord
  2
5
 70
     0
 62
     7
  6
Continuous
370
    -3
390
F
  0
ENDTAB
  0
TABLE
  2
STYLE
  5
3
330
0
100
AcDbSymbolTable
 70
     2
  0
STYLE
  5
11
330
3
100
AcDbSymbolTableRecord
100
AcDbTextStyleTableRecord
  2
Standard
 70
     0
 40
0.0
 41
1.0
 50
0.0
 71
     0
 42
0.2
  3
txt
  4

  0
STYLE
  5
288
330
3
100
AcDbSymbolTableRecord
100
AcDbTextStyleTableRecord
  2
CONVERTER_11
 70
     0
 40
0.0
 41
0.9
 50
0.0
 71
     0
 42
0.2
  3
txt.shx
  4

  0
ENDTAB
  0
TABLE
  2
VIEW
  5
6
330
0
100
AcDbSymbolTable
 70
     0
  0
ENDTAB
  0
TABLE
  2
UCS
  5
7
330
0
100
AcDbSymbolTable
 70
     0
  0
ENDTAB
  0
TABLE
  2
APPID
  5
9
330
0
100
AcDbSymbolTable
 70
     1
  0
APPID
  5
12
330
9
100
AcDbSymbolTableRecord
100
AcDbRegAppTableRecord
  2
ACAD
 70
     0
  0
ENDTAB
  0
TABLE
  2
DIMSTYLE
  5
A
330
0
100
AcDbSymbolTable
 70
     3
100
AcDbDimStyleTable
  0
DIMSTYLE
105
27
330
A
100
AcDbSymbolTableRecord
100
AcDbDimStyleTableRecord
  2
Standard
 70
     0
340
11
  0
DIMSTYLE
105
2B4
102
{ACAD_REACTORS
330
2B5
102
}
330
A
100
AcDbSymbolTableRecord
100
AcDbDimStyleTableRecord
  2
ME10_DIM_10
 70
     0
 41
8.0
 42
1.0
 44
1.0
 73
     0
 74
     0
 77
     1
 78
    12
140
10.0
147
1.0
172
     1
173
     1
174
     1
175
     1
176
     2
177
     2
178
     2
271
     3
340
288
343
2AE
344
2AE
  0
DIMSTYLE
105
2C1
102
{ACAD_REACTORS
330
2C2
102
}
330
A
100
AcDbSymbolTableRecord
100
AcDbDimStyleTableRecord
  2
ME10_DIM_11
 70
     0
 41
8.0
 42
1.0
 44
1.0
 73
     0
 74
     0
 77
     1
 78
    12
140
10.0
147
1.0
172
     1
173
     1
174
     1
175
     1
176
     2
177
     2
178
     2
271
     3
340
288
343
2AE
344
2AE
  0
ENDTAB
  0
TABLE
  2
BLOCK_RECORD
  5
1
330
0
100
AcDbSymbolTable
 70
     4
  0
BLOCK_RECORD
  5
1F
330
1
100
AcDbSymbolTableRecord
100
AcDbBlockTableRecord
  2
*Model_Space
340
22
  0
BLOCK_RECORD
  5
1B
330
1
100
AcDbSymbolTableRecord
100
AcDbBlockTableRecord
  2
*Paper_Space
340
1E
  0
BLOCK_RECORD
  5
23
330
1
100
AcDbSymbolTableRecord
100
AcDbBlockTableRecord
  2
*Paper_Space0
340
26
  0
BLOCK_RECORD
  5
280
330
1
100
AcDbSymbolTableRecord
100
AcDbBlockTableRecord
  2
*D1
340
0
  0
BLOCK_RECORD
  5
2AE
330
1
100
AcDbSymbolTableRecord
100
AcDbBlockTableRecord
  2
_OPEN30
340
0
  0
BLOCK_RECORD
  5
2B6
330
1
100
AcDbSymbolTableRecord
100
AcDbBlockTableRecord
  2
*D3
340
0
  0
ENDTAB
  0
ENDSEC
  0
SECTION
  2
BLOCKS
  0
BLOCK
  5
20
330
1F
100
AcDbEntity
  8
0
100
AcDbBlockBegin
  2
*Model_Space
 70
     0
 10
0.0
 20
0.0
 30
0.0
  3
*Model_Space
  1

  0
ENDBLK
  5
21
330
1F
100
AcDbEntity
  8
0
100
AcDbBlockEnd
  0
BLOCK
  5
1C
330
1B
100
AcDbEntity
 67
     1
  8
0
100
AcDbBlockBegin
  2
*Paper_Space
 70
     0
 10
0.0
 20
0.0
 30
0.0
  3
*Paper_Space
  1

  0
ENDBLK
  5
1D
330
1B
100
AcDbEntity
 67
     1
  8
0
100
AcDbBlockEnd
  0
BLOCK
  5
24
330
23
100
AcDbEntity
  8
0
100
AcDbBlockBegin
  2
*Paper_Space0
 70
     0
 10
0.0
 20
0.0
 30
0.0
  3
*Paper_Space0
  1

  0
ENDBLK
  5
25
330
23
100
AcDbEntity
  8
0
100
AcDbBlockEnd
  0
BLOCK
  5
2AC
330
280
100
AcDbEntity
  8
0
100
AcDbBlockBegin
  2
*D1
 70
     1
 10
0.0
 20
0.0
 30
0.0
  3
*D1
  1

  0
LINE
  5
281
330
280
100
AcDbEntity
  8
1
  6
Continuous
 62
     2
100
AcDbLine
 10
19.0
 20
3.2575975091856
 30
0.0
 11
99.0
 21
3.2575975091856
 31
0.0
  0
LINE
  5
282
330
280
100
AcDbEntity
  8
1
  6
Continuous
 62
     2
100
AcDbLine
 10
19.0
 20
39.90000000000001
 30
0.0
 11
19.0
 21
2.2575975091856
 31
0.0
  0
LINE
  5
283
330
280
100
AcDbEntity
  8
1
  6
Continuous
 62
     2
100
AcDbLine
 10
99.0
 20
39.90000000000001
 30
0.0
 11
99.0
 21
2.2575975091856
 31
0.0
  0
LINE
  5
284
330
280
100
AcDbEntity
  8
1
 62
     2
100
AcDbLine
 10
99.0
 20
3.2575975091856
 30
0.0
 11
91.0
 21
1.11400396973662
 31
0.0
  0
LINE
  5
285
330
280
100
AcDbEntity
  8
1
 62
     2
100
AcDbLine
 10
99.0
 20
3.2575975091856
 30
0.0
 11
91.0
 21
5.40119104863459
 31
0.0
  0
LINE
  5
286
330
280
100
AcDbEntity
  8
1
 62
     2
100
AcDbLine
 10
19.0
 20
3.2575975091856
 30
0.0
 11
27.0
 21
5.40119104863458
 31
0.0
  0
LINE
  5
287
330
280
100
AcDbEntity
  8
1
 62
     2
100
AcDbLine
 10
19.0
 20
3.2575975091856
 30
0.0
 11
27.0
 21
1.11400396973662
 31
0.0
  0
MTEXT
  5
2AB
330
280
100
AcDbEntity
  8
1
 62
     2
100
AcDbMText
 10
51.62001212036371
 20
4.25757961957546
 30
0.0
 40
10.0
 41
0.0
 71
     7
 72
     1
  1
80
  7
CONVERTER_11
 11
0.9999999999882478
 21
4.848136811095759E-6
 31
0.0
 73
     1
 44
0.60024009603842
  0
ENDBLK
  5
2AD
330
280
100
AcDbEntity
  8
0
100
AcDbBlockEnd
  0
BLOCK
  5
2AF
330
2AE
100
AcDbEntity
  8
0
100
AcDbBlockBegin
  2
_OPEN30
 70
     0
 10
0.0
 20
0.0
 30
0.0
  3
_OPEN30
  1

  0
LINE
  5
2B1
330
2AE
100
AcDbEntity
  8
0
  6
ByBlock
 62
     0
370
    -2
100
AcDbLine
 10
-1.0
 20
0.267949
 30
0.0
 11
0.0
 21
0.0
 31
0.0
  0
LINE
  5
2B2
330
2AE
100
AcDbEntity
  8
0
  6
ByBlock
 62
     0
370
    -2
100
AcDbLine
 10
0.0
 20
0.0
 30
0.0
 11
-1.0
 21
-0.267949
 31
0.0
  0
LINE
  5
2B3
330
2AE
100
AcDbEntity
  8
0
  6
ByBlock
 62
     0
370
    -2
100
AcDbLine
 10
0.0
 20
0.0
 30
0.0
 11
-1.0
 21
0.0
 31
0.0
  0
ENDBLK
  5
2B0
330
2AE
100
AcDbEntity
  8
0
100
AcDbBlockEnd
  0
BLOCK
  5
2BF
330
2B6
100
AcDbEntity
  8
0
100
AcDbBlockBegin
  2
*D3
 70
     1
 10
0.0
 20
0.0
 30
0.0
  3
*D3
  1

  0
LINE
  5
2B7
330
2B6
100
AcDbEntity
  8
1
  6
Continuous
 62
     2
100
AcDbLine
 10
131.230482768477
 20
54.0
 30
0.0
 11
131.230482768477
 21
159.0
 31
0.0
  0
LINE
  5
2B8
330
2B6
100
AcDbEntity
  8
1
  6
Continuous
 62
     2
100
AcDbLine
 10
104.995691232053
 20
54.0
 30
0.0
 11
132.230482768477
 21
54.0
 31
0.0
  0
LINE
  5
2B9
330
2B6
100
AcDbEntity
  8
1
  6
Continuous
 62
     2
100
AcDbLine
 10
63.1836847107048
 20
159.0
 30
0.0
 11
132.230482768477
 21
159.0
 31
0.0
  0
LINE
  5
2BA
330
2B6
100
AcDbEntity
  8
1
 62
     2
100
AcDbLine
 10
131.230482768477
 20
159.0
 30
0.0
 11
133.374076307926
 21
151.0
 31
0.0
  0
LINE
  5
2BB
330
2B6
100
AcDbEntity
  8
1
 62
     2
100
AcDbLine
 10
131.230482768477
 20
159.0
 30
0.0
 11
129.086889229028
 21
151.0
 31
0.0
  0
LINE
  5
2BC
330
2B6
100
AcDbEntity
  8
1
 62
     2
100
AcDbLine
 10
131.230482768477
 20
54.0
 30
0.0
 11
129.086889229028
 21
62.0
 31
0.0
  0
LINE
  5
2BD
330
2B6
100
AcDbEntity
  8
1
 62
     2
100
AcDbLine
 10
131.230482768477
 20
54.0
 30
0.0
 11
133.374076307926
 21
62.0
 31
0.0
  0
MTEXT
  5
2BE
330
2B6
100
AcDbEntity
  8
1
 62
     2
100
AcDbMText
 10
130.230482768477
 20
95.43
 30
0.0
 40
10.0
 41
0.0
 71
     7
 72
     1
  1
105
  7
CONVERTER_11
 11
0.0
 21
1.0
 31
0.0
 73
     1
 44
0.60024009603842
  0
ENDBLK
  5
2C0
330
2B6
100
AcDbEntity
  8
0
100
AcDbBlockEnd
  0
ENDSEC
  0
SECTION
  2
ENTITIES
  0
POINT
  5
4B
330
1F
100
AcDbEntity
  8
1
 62
     7
100
AcDbPoint
 10
19.0
 20
40.9
 30
0.0
  0
POINT
  5
4C
330
1F
100
AcDbEntity
  8
1
 62
     7
100
AcDbPoint
 10
99.0
 20
40.9
 30
0.0
  0
POINT
  5
4D
330
1F
100
AcDbEntity
  8
1
 62
     7
100
AcDbPoint
 10
103.995691232053
 20
54.0
 30
0.0
  0
POINT
  5
4E
330
1F
100
AcDbEntity
  8
1
 62
     7
100
AcDbPoint
 10
62.1836847107048
 20
159.0
 30
0.0
  0
LINE
  5
4F
330
1F
100
AcDbEntity
  8
1
  6
Continuous
 62
     4
100
AcDbLine
 10
78.0515244092925
 20
25.5398259452785
 30
0.0
 11
77.2594244092925
 21
24.2898259452785
 31
0.0
  0
LINE
  5
50
330
1F
100
AcDbEntity
  8
1
  6
Continuous
 62
     4
100
AcDbLine
 10
77.2594244092925
 20
26.7898259452785
 30
0.0
 11
78.0515244092925
 21
25.5398259452785
 31
0.0
  0
LINE
  5
51
330
1F
100
AcDbEntity
  8
1
  6
Continuous
 62
     4
100
AcDbLine
 10
72.1107744092925
 20
25.5398259452785
 30
0.0
 11
78.0515244092925
 21
25.5398259452785
 31
0.0
  0
LINE
  5
52
330
1F
100
AcDbEntity
  8
1
  6
Continuous
 62
     4
100
AcDbLine
 10
65.5759494092925
 20
28.4148259452785
 30
0.0
 11
70.1305244092925
 21
28.4148259452785
 31
0.0
  0
LINE
  5
53
330
1F
100
AcDbEntity
  8
1
  6
Continuous
 62
     4
100
AcDbLine
 10
65.5759494092925
 20
28.4148259452785
 30
0.0
 11
66.66508690929251
 21
30.2898259452785
 31
0.0
  0
LINE
  5
54
330
1F
100
AcDbEntity
  8
1
  6
Continuous
 62
     4
100
AcDbLine
 10
68.1502744092925
 20
23.6648259452785
 30
0.0
 11
66.46706190929251
 21
23.6648259452785
 31
0.0
  0
LINE
  5
55
330
1F
100
AcDbEntity
  8
1
  6
Continuous
 62
     4
100
AcDbLine
 10
68.1502744092925
 20
26.1648259452785
 30
0.0
 11
68.1502744092925
 21
23.6648259452785
 31
0.0
  0
LINE
  5
56
330
1F
100
AcDbEntity
  8
1
  6
Continuous
 62
     4
100
AcDbLine
 10
66.46706190929251
 20
26.1648259452785
 30
0.0
 11
68.1502744092925
 21
26.1648259452785
 31
0.0
  0
LINE
  5
57
330
1F
100
AcDbEntity
  8
1
  6
Continuous
 62
     4
100
AcDbLine
 10
66.46706190929251
 20
23.6648259452785
 30
0.0
 11
66.46706190929251
 21
26.1648259452785
 31
0.0
  0
LINE
  5
58
330
1F
100
AcDbEntity
  8
1
  6
Continuous
 62
     4
100
AcDbLine
 10
70.1305244092925
 20
20.9148259452785
 30
0.0
 11
69.04138690929251
 21
20.9148259452785
 31
0.0
  0
LINE
  5
59
330
1F
100
AcDbEntity
  8
1
  6
Continuous
 62
     4
100
AcDbLine
 10
70.1305244092925
 20
28.4148259452785
 30
0.0
 11
70.1305244092925
 21
20.9148259452785
 31
0.0
  0
LINE
  5
5A
330
1F
100
AcDbEntity
  8
1
  6
Continuous
 62
     4
100
AcDbLine
 10
64.48681190929251
 20
28.4148259452785
 30
0.0
 11
65.5759494092925
 21
28.4148259452785
 31
0.0
  0
LINE
  5
5B
330
1F
100
AcDbEntity
  8
1
  6
Continuous
 62
     4
100
AcDbLine
 10
64.48681190929251
 20
20.9148259452785
 30
0.0
 11
64.48681190929251
 21
28.4148259452785
 31
0.0
  0
LINE
  5
5C
330
1F
100
AcDbEntity
  8
1
  6
Continuous
 62
     4
100
AcDbLine
 10
60.2292744092925
 20
20.5398259452785
 30
0.0
 11
59.4371744092925
 21
21.1648259452785
 31
0.0
  0
LINE
  5
5D
330
1F
100
AcDbEntity
  8
1
  6
Continuous
 62
     4
100
AcDbLine
 10
60.7243369092925
 20
21.5398259452785
 30
0.0
 11
60.2292744092925
 21
20.5398259452785
 31
0.0
  0
LINE
  5
5E
330
1F
100
AcDbEntity
  8
1
  6
Continuous
 62
     4
100
AcDbLine
 10
61.1203869092925
 20
23.0398259452785
 30
0.0
 11
60.7243369092925
 21
21.5398259452785
 31
0.0
  0
LINE
  5
5F
330
1F
100
AcDbEntity
  8
1
  6
Continuous
 62
     4
100
AcDbLine
 10
61.6154494092925
 20
25.2898259452785
 30
0.0
 11
61.1203869092925
 21
23.0398259452785
 31
0.0
  0
LINE
  5
60
330
1F
100
AcDbEntity
  8
1
  6
Continuous
 62
     4
100
AcDbLine
 10
61.6154494092925
 20
26.1648259452785
 30
0.0
 11
61.6154494092925
 21
25.2898259452785
 31
0.0
  0
LINE
  5
61
330
1F
100
AcDbEntity
  8
1
  6
Continuous
 62
     4
100
AcDbLine
 10
58.74408690929251
 20
26.1648259452785
 30
0.0
 11
61.6154494092925
 21
26.1648259452785
 31
0.0
  0
LINE
  5
62
330
1F
100
AcDbEntity
  8
1
  6
Continuous
 62
     4
100
AcDbLine
 10
56.0707494092925
 20
28.6648259452785
 30
0.0
 11
62.7045869092925
 21
28.6648259452785
 31
0.0
  0
LINE
  5
63
330
1F
100
AcDbEntity
  8
1
  6
Continuous
 62
     4
100
AcDbLine
 10
58.9421119092925
 20
27.7898259452785
 30
0.0
 11
59.1401369092925
 21
30.2898259452785
 31
0.0
  0
LINE
  5
64
330
1F
100
AcDbEntity
  8
1
  6
Continuous
 62
     4
100
AcDbLine
 10
58.5460619092925
 20
25.2898259452785
 30
0.0
 11
58.9421119092925
 21
27.7898259452785
 31
0.0
  0
LINE
  5
65
330
1F
100
AcDbEntity
  8
1
  6
Continuous
 62
     4
100
AcDbLine
 10
58.0509994092925
 20
23.6648259452785
 30
0.0
 11
58.5460619092925
 21
25.2898259452785
 31
0.0
  0
LINE
  5
66
330
1F
100
AcDbEntity
  8
1
  6
Continuous
 62
     4
100
AcDbLine
 10
57.45692440929251
 20
22.1648259452785
 30
0.0
 11
58.0509994092925
 21
23.6648259452785
 31
0.0
  0
LINE
  5
67
330
1F
100
AcDbEntity
  8
1
  6
Continuous
 62
     4
100
AcDbLine
 10
56.5658119092925
 20
20.9148259452785
 30
0.0
 11
57.45692440929251
 21
22.1648259452785
 31
0.0
  0
LINE
  5
68
330
1F
100
AcDbEntity
  8
1
  6
Continuous
 62
     4
100
AcDbLine
 10
53.8924744092925
 20
23.6648259452785
 30
0.0
 11
54.9816119092925
 21
22.1648259452785
 31
0.0
  0
LINE
  5
69
330
1F
100
AcDbEntity
  8
1
  6
Continuous
 62
     4
100
AcDbLine
 10
53.00136190929251
 20
25.5398259452785
 30
0.0
 11
53.8924744092925
 21
23.6648259452785
 31
0.0
  0
LINE
  5
6A
330
1F
100
AcDbEntity
  8
1
  6
Continuous
 62
     4
100
AcDbLine
 10
52.3082744092925
 20
27.7898259452785
 30
0.0
 11
53.00136190929251
 21
25.5398259452785
 31
0.0
  0
LINE
  5
6B
330
1F
100
AcDbEntity
  8
1
  6
Continuous
 62
     4
100
AcDbLine
 10
54.28852440929251
 20
28.0398259452785
 30
0.0
 11
52.8033369092925
 21
26.5398259452785
 31
0.0
  0
LINE
  5
6C
330
1F
100
AcDbEntity
  8
1
  6
Continuous
 62
     4
100
AcDbLine
 10
51.71419940929251
 20
20.5398259452785
 30
0.0
 11
51.0211119092925
 21
20.9148259452785
 31
0.0
  0
LINE
  5
6D
330
1F
100
AcDbEntity
  8
1
  6
Continuous
 62
     4
100
AcDbLine
 10
51.71419940929251
 20
30.2898259452785
 30
0.0
 11
51.71419940929251
 21
20.5398259452785
 31
0.0
  0
LINE
  5
6E
330
1F
100
AcDbEntity
  8
1
  6
Continuous
 62
     4
100
AcDbLine
 10
50.62506190929251
 20
27.1648259452785
 30
0.0
 11
48.34777440929251
 21
27.1648259452785
 31
0.0
  0
LINE
  5
6F
330
1F
100
AcDbEntity
  8
1
  6
Continuous
 62
     4
100
AcDbLine
 10
50.1299994092925
 20
25.2898259452785
 30
0.0
 11
50.62506190929251
 21
27.1648259452785
 31
0.0
  0
LINE
  5
70
330
1F
100
AcDbEntity
  8
1
  6
Continuous
 62
     4
100
AcDbLine
 10
49.2388869092925
 20
23.4148259452785
 30
0.0
 11
50.1299994092925
 21
25.2898259452785
 31
0.0
  0
LINE
  5
71
330
1F
100
AcDbEntity
  8
1
  6
Continuous
 62
     4
100
AcDbLine
 10
48.34777440929251
 20
22.1648259452785
 30
0.0
 11
49.2388869092925
 21
23.4148259452785
 31
0.0
  0
LINE
  5
72
330
1F
100
AcDbEntity
  8
1
  6
Continuous
 62
     4
100
AcDbLine
 10
43.99122440929251
 20
29.0398259452785
 30
0.0
 11
46.6645619092925
 21
29.0398259452785
 31
0.0
  0
LINE
  5
73
330
1F
100
AcDbEntity
  8
1
  6
Continuous
 62
     4
100
AcDbLine
 10
47.0606119092925
 20
21.5398259452785
 30
0.0
 11
47.0606119092925
 21
22.1648259452785
 31
0.0
  0
LINE
  5
74
330
1F
100
AcDbEntity
  8
1
  6
Continuous
 62
     4
100
AcDbLine
 10
46.6645619092925
 20
20.9148259452785
 30
0.0
 11
47.0606119092925
 21
21.5398259452785
 31
0.0
  0
LINE
  5
75
330
1F
100
AcDbEntity
  8
1
  6
Continuous
 62
     4
100
AcDbLine
 10
45.7734494092925
 20
20.9148259452785
 30
0.0
 11
46.6645619092925
 21
20.9148259452785
 31
0.0
  0
LINE
  5
76
330
1F
100
AcDbEntity
  8
1
  6
Continuous
 62
     4
100
AcDbLine
 10
45.2783869092925
 20
21.7898259452785
 30
0.0
 11
45.7734494092925
 21
20.9148259452785
 31
0.0
  0
LINE
  5
77
330
1F
100
AcDbEntity
  8
1
  6
Continuous
 62
     4
100
AcDbLine
 10
45.2783869092925
 20
24.9148259452785
 30
0.0
 11
45.2783869092925
 21
21.7898259452785
 31
0.0
  0
LINE
  5
78
330
1F
100
AcDbEntity
  8
1
  6
Continuous
 62
     4
100
AcDbLine
 10
43.99122440929251
 20
20.9148259452785
 30
0.0
 11
43.99122440929251
 21
24.9148259452785
 31
0.0
  0
LINE
  5
79
330
1F
100
AcDbEntity
  8
1
  6
Continuous
 62
     4
100
AcDbLine
 10
42.0109744092925
 20
21.1648259452785
 30
0.0
 11
41.3178869092925
 21
20.5398259452785
 31
0.0
  0
LINE
  5
7A
330
1F
100
AcDbEntity
  8
1
  6
Continuous
 62
     4
100
AcDbLine
 10
42.4070244092925
 20
21.7898259452785
 30
0.0
 11
42.0109744092925
 21
21.1648259452785
 31
0.0
  0
LINE
  5
7B
330
1F
100
AcDbEntity
  8
1
  6
Continuous
 62
     4
100
AcDbLine
 10
42.70406190929251
 20
22.7898259452785
 30
0.0
 11
42.4070244092925
 21
21.7898259452785
 31
0.0
  0
LINE
  5
7C
330
1F
100
AcDbEntity
  8
1
  6
Continuous
 62
     4
100
AcDbLine
 10
42.90208690929251
 20
24.9148259452785
 30
0.0
 11
42.70406190929251
 21
22.7898259452785
 31
0.0
  0
LINE
  5
7D
330
1F
100
AcDbEntity
  8
1
  6
Continuous
 62
     4
100
AcDbLine
 10
45.08036190929251
 20
28.0398259452785
 30
0.0
 11
45.97147440929251
 21
25.9148259452785
 31
0.0
  0
LINE
  5
7E
330
1F
100
AcDbEntity
  8
1
  6
Continuous
 62
     4
100
AcDbLine
 10
42.2089994092925
 20
26.5398259452785
 30
0.0
 11
45.5754244092925
 21
26.7898259452785
 31
0.0
  0
LINE
  5
7F
330
1F
100
AcDbEntity
  8
1
  6
Continuous
 62
     4
100
AcDbLine
 10
43.99122440929251
 20
29.0398259452785
 30
0.0
 11
43.1001119092925
 21
26.5398259452785
 31
0.0
  0
LINE
  5
80
330
1F
100
AcDbEntity
  8
1
  6
Continuous
 62
     4
100
AcDbLine
 10
44.1892494092925
 20
30.5398259452785
 30
0.0
 11
44.1892494092925
 21
29.0398259452785
 31
0.0
  0
LINE
  5
81
330
1F
100
AcDbEntity
  8
1
  6
Continuous
 62
     4
100
AcDbLine
 10
41.8129494092925
 20
29.0398259452785
 30
0.0
 11
43.99122440929251
 21
29.0398259452785
 31
0.0
  0
LINE
  5
82
330
1F
100
AcDbEntity
  8
1
  6
Continuous
 62
     4
100
AcDbLine
 10
40.2287494092925
 20
20.9148259452785
 30
0.0
 11
41.1198619092925
 21
24.9148259452785
 31
0.0
  0
LINE
  5
83
330
1F
100
AcDbEntity
  8
1
  6
Continuous
 62
     4
100
AcDbLine
 10
40.0307244092925
 20
27.4148259452785
 30
0.0
 11
40.7238119092925
 21
26.5398259452785
 31
0.0
  0
LINE
  5
84
330
1F
100
AcDbEntity
  8
1
  6
Continuous
 62
     4
100
AcDbLine
 10
40.7238119092925
 20
30.2898259452785
 30
0.0
 11
41.1198619092925
 21
29.2898259452785
 31
0.0
  0
LINE
  5
85
330
1F
100
AcDbEntity
  8
1
  6
Continuous
 62
     4
100
AcDbLine
 10
225.308716239733
 20
227.493123375668
 30
0.0
 11
221.558716239733
 21
227.493123375668
 31
0.0
  0
LINE
  5
86
330
1F
100
AcDbEntity
  8
1
  6
Continuous
 62
     4
100
AcDbLine
 10
226.058716239733
 20
227.743123375668
 30
0.0
 11
225.308716239733
 21
227.493123375668
 31
0.0
  0
LINE
  5
87
330
1F
100
AcDbEntity
  8
1
  6
Continuous
 62
     4
100
AcDbLine
 10
226.808716239733
 20
228.243123375668
 30
0.0
 11
226.058716239733
 21
227.743123375668
 31
0.0
  0
LINE
  5
88
330
1F
100
AcDbEntity
  8
1
  6
Continuous
 62
     4
100
AcDbLine
 10
227.308716239733
 20
228.993123375668
 30
0.0
 11
226.808716239733
 21
228.243123375668
 31
0.0
  0
LINE
  5
89
330
1F
100
AcDbEntity
  8
1
  6
Continuous
 62
     4
100
AcDbLine
 10
227.558716239733
 20
229.993123375668
 30
0.0
 11
227.308716239733
 21
228.993123375668
 31
0.0
  0
LINE
  5
8A
330
1F
100
AcDbEntity
  8
1
  6
Continuous
 62
     4
100
AcDbLine
 10
227.558716239733
 20
231.243123375668
 30
0.0
 11
227.558716239733
 21
229.993123375668
 31
0.0
  0
LINE
  5
8B
330
1F
100
AcDbEntity
  8
1
  6
Continuous
 62
     4
100
AcDbLine
 10
227.308716239733
 20
232.243123375668
 30
0.0
 11
227.558716239733
 21
231.243123375668
 31
0.0
  0
LINE
  5
8C
330
1F
100
AcDbEntity
  8
1
  6
Continuous
 62
     4
100
AcDbLine
 10
227.058716239733
 20
232.743123375668
 30
0.0
 11
227.308716239733
 21
232.243123375668
 31
0.0
  0
LINE
  5
8D
330
1F
100
AcDbEntity
  8
1
  6
Continuous
 62
     4
100
AcDbLine
 10
226.558716239733
 20
233.243123375668
 30
0.0
 11
227.058716239733
 21
232.743123375668
 31
0.0
  0
LINE
  5
8E
330
1F
100
AcDbEntity
  8
1
  6
Continuous
 62
     4
100
AcDbLine
 10
225.558716239733
 20
233.493123375668
 30
0.0
 11
226.558716239733
 21
233.243123375668
 31
0.0
  0
LINE
  5
8F
330
1F
100
AcDbEntity
  8
1
  6
Continuous
 62
     4
100
AcDbLine
 10
226.308716239733
 20
233.743123375668
 30
0.0
 11
225.558716239733
 21
233.493123375668
 31
0.0
  0
LINE
  5
90
330
1F
100
AcDbEntity
  8
1
  6
Continuous
 62
     4
100
AcDbLine
 10
226.808716239733
 20
233.993123375668
 30
0.0
 11
226.308716239733
 21
233.743123375668
 31
0.0
  0
LINE
  5
91
330
1F
100
AcDbEntity
  8
1
  6
Continuous
 62
     4
100
AcDbLine
 10
227.308716239733
 20
234.493123375668
 30
0.0
 11
226.808716239733
 21
233.993123375668
 31
0.0
  0
LINE
  5
92
330
1F
100
AcDbEntity
  8
1
  6
Continuous
 62
     4
100
AcDbLine
 10
227.558716239733
 20
235.243123375668
 30
0.0
 11
227.308716239733
 21
234.493123375668
 31
0.0
  0
LINE
  5
93
330
1F
100
AcDbEntity
  8
1
  6
Continuous
 62
     4
100
AcDbLine
 10
227.558716239733
 20
235.993123375668
 30
0.0
 11
227.558716239733
 21
235.243123375668
 31
0.0
  0
LINE
  5
94
330
1F
100
AcDbEntity
  8
1
  6
Continuous
 62
     4
100
AcDbLine
 10
227.308716239733
 20
236.743123375668
 30
0.0
 11
227.558716239733
 21
235.993123375668
 31
0.0
  0
LINE
  5
95
330
1F
100
AcDbEntity
  8
1
  6
Continuous
 62
     4
100
AcDbLine
 10
226.558716239733
 20
237.243123375668
 30
0.0
 11
227.308716239733
 21
236.743123375668
 31
0.0
  0
LINE
  5
96
330
1F
100
AcDbEntity
  8
1
  6
Continuous
 62
     4
100
AcDbLine
 10
225.308716239733
 20
237.493123375668
 30
0.0
 11
226.558716239733
 21
237.243123375668
 31
0.0
  0
LINE
  5
97
330
1F
100
AcDbEntity
  8
1
  6
Continuous
 62
     4
100
AcDbLine
 10
221.558716239733
 20
237.493123375668
 30
0.0
 11
225.308716239733
 21
237.493123375668
 31
0.0
  0
LINE
  5
98
330
1F
100
AcDbEntity
  8
1
  6
Continuous
 62
     4
100
AcDbLine
 10
223.058716239733
 20
233.493123375668
 30
0.0
 11
225.558716239733
 21
233.493123375668
 31
0.0
  0
LINE
  5
99
330
1F
100
AcDbEntity
  8
1
  6
Continuous
 62
     4
100
AcDbLine
 10
218.558716239733
 20
237.493123375668
 30
0.0
 11
218.558716239733
 21
227.493123375668
 31
0.0
  0
LINE
  5
9A
330
1F
100
AcDbEntity
  8
1
  6
Continuous
 62
     4
100
AcDbLine
 10
215.558716239733
 20
234.493123375668
 30
0.0
 11
218.558716239733
 21
237.493123375668
 31
0.0
  0
LINE
  5
9B
330
1F
100
AcDbEntity
  8
1
  6
Continuous
 62
     4
100
AcDbLine
 10
207.558716239733
 20
230.993123375668
 30
0.0
 11
212.558716239733
 21
230.993123375668
 31
0.0
  0
LINE
  5
9C
330
1F
100
AcDbEntity
  8
1
  6
Continuous
 62
     4
100
AcDbLine
 10
201.308716239733
 20
237.493123375668
 30
0.0
 11
204.558716239733
 21
237.493123375668
 31
0.0
  0
LINE
  5
9D
330
1F
100
AcDbEntity
  8
1
  6
Continuous
 62
     4
100
AcDbLine
 10
200.308716239733
 20
237.243123375668
 30
0.0
 11
201.308716239733
 21
237.493123375668
 31
0.0
  0
LINE
  5
9E
330
1F
100
AcDbEntity
  8
1
  6
Continuous
 62
     4
100
AcDbLine
 10
199.558716239733
 20
236.743123375668
 30
0.0
 11
200.308716239733
 21
237.243123375668
 31
0.0
  0
LINE
  5
9F
330
1F
100
AcDbEntity
  8
1
  6
Continuous
 62
     4
100
AcDbLine
 10
199.058716239733
 20
236.243123375668
 30
0.0
 11
199.558716239733
 21
236.743123375668
 31
0.0
  0
LINE
  5
A0
330
1F
100
AcDbEntity
  8
1
  6
Continuous
 62
     4
100
AcDbLine
 10
198.808716239733
 20
235.493123375668
 30
0.0
 11
199.058716239733
 21
236.243123375668
 31
0.0
  0
LINE
  5
A1
330
1F
100
AcDbEntity
  8
1
  6
Continuous
 62
     4
100
AcDbLine
 10
198.558716239733
 20
234.493123375668
 30
0.0
 11
198.808716239733
 21
235.493123375668
 31
0.0
  0
LINE
  5
A2
330
1F
100
AcDbEntity
  8
1
  6
Continuous
 62
     4
100
AcDbLine
 10
198.558716239733
 20
230.493123375668
 30
0.0
 11
198.558716239733
 21
234.493123375668
 31
0.0
  0
LINE
  5
A3
330
1F
100
AcDbEntity
  8
1
  6
Continuous
 62
     4
100
AcDbLine
 10
198.808716239733
 20
229.493123375668
 30
0.0
 11
198.558716239733
 21
230.493123375668
 31
0.0
  0
LINE
  5
A4
330
1F
100
AcDbEntity
  8
1
  6
Continuous
 62
     4
100
AcDbLine
 10
199.058716239733
 20
228.743123375668
 30
0.0
 11
198.808716239733
 21
229.493123375668
 31
0.0
  0
LINE
  5
A5
330
1F
100
AcDbEntity
  8
1
  6
Continuous
 62
     4
100
AcDbLine
 10
199.558716239733
 20
228.243123375668
 30
0.0
 11
199.058716239733
 21
228.743123375668
 31
0.0
  0
LINE
  5
A6
330
1F
100
AcDbEntity
  8
1
  6
Continuous
 62
     4
100
AcDbLine
 10
200.308716239733
 20
227.743123375668
 30
0.0
 11
199.558716239733
 21
228.243123375668
 31
0.0
  0
LINE
  5
A7
330
1F
100
AcDbEntity
  8
1
  6
Continuous
 62
     4
100
AcDbLine
 10
201.308716239733
 20
227.493123375668
 30
0.0
 11
200.308716239733
 21
227.743123375668
 31
0.0
  0
LINE
  5
A8
330
1F
100
AcDbEntity
  8
1
  6
Continuous
 62
     4
100
AcDbLine
 10
204.558716239733
 20
227.493123375668
 30
0.0
 11
201.308716239733
 21
227.493123375668
 31
0.0
  0
LINE
  5
A9
330
1F
100
AcDbEntity
  8
1
  6
Continuous
 62
     4
100
AcDbLine
 10
194.308716239733
 20
228.243123375668
 30
0.0
 11
193.558716239733
 21
227.743123375668
 31
0.0
  0
LINE
  5
AA
330
1F
100
AcDbEntity
  8
1
  6
Continuous
 62
     4
100
AcDbLine
 10
194.808716239733
 20
228.743123375668
 30
0.0
 11
194.308716239733
 21
228.243123375668
 31
0.0
  0
LINE
  5
AB
330
1F
100
AcDbEntity
  8
1
  6
Continuous
 62
     4
100
AcDbLine
 10
195.308716239733
 20
229.493123375668
 30
0.0
 11
194.808716239733
 21
228.743123375668
 31
0.0
  0
LINE
  5
AC
330
1F
100
AcDbEntity
  8
1
  6
Continuous
 62
     4
100
AcDbLine
 10
195.558716239733
 20
230.493123375668
 30
0.0
 11
195.308716239733
 21
229.493123375668
 31
0.0
  0
LINE
  5
AD
330
1F
100
AcDbEntity
  8
1
  6
Continuous
 62
     4
100
AcDbLine
 10
195.558716239733
 20
234.493123375668
 30
0.0
 11
195.558716239733
 21
230.493123375668
 31
0.0
  0
LINE
  5
AE
330
1F
100
AcDbEntity
  8
1
  6
Continuous
 62
     4
100
AcDbLine
 10
195.308716239733
 20
235.493123375668
 30
0.0
 11
195.558716239733
 21
234.493123375668
 31
0.0
  0
LINE
  5
AF
330
1F
100
AcDbEntity
  8
1
  6
Continuous
 62
     4
100
AcDbLine
 10
194.808716239733
 20
236.243123375668
 30
0.0
 11
195.308716239733
 21
235.493123375668
 31
0.0
  0
LINE
  5
B0
330
1F
100
AcDbEntity
  8
1
  6
Continuous
 62
     4
100
AcDbLine
 10
194.308716239733
 20
236.743123375668
 30
0.0
 11
194.808716239733
 21
236.243123375668
 31
0.0
  0
LINE
  5
B1
330
1F
100
AcDbEntity
  8
1
  6
Continuous
 62
     4
100
AcDbLine
 10
193.558716239733
 20
237.243123375668
 30
0.0
 11
194.308716239733
 21
236.743123375668
 31
0.0
  0
LINE
  5
B2
330
1F
100
AcDbEntity
  8
1
  6
Continuous
 62
     4
100
AcDbLine
 10
192.808716239733
 20
237.493123375668
 30
0.0
 11
193.558716239733
 21
237.243123375668
 31
0.0
  0
LINE
  5
B3
330
1F
100
AcDbEntity
  8
1
  6
Continuous
 62
     4
100
AcDbLine
 10
191.308716239733
 20
237.493123375668
 30
0.0
 11
192.808716239733
 21
237.493123375668
 31
0.0
  0
LINE
  5
B4
330
1F
100
AcDbEntity
  8
1
  6
Continuous
 62
     4
100
AcDbLine
 10
190.558716239733
 20
237.243123375668
 30
0.0
 11
191.308716239733
 21
237.493123375668
 31
0.0
  0
LINE
  5
B5
330
1F
100
AcDbEntity
  8
1
  6
Continuous
 62
     4
100
AcDbLine
 10
189.808716239733
 20
236.743123375668
 30
0.0
 11
190.558716239733
 21
237.243123375668
 31
0.0
  0
LINE
  5
B6
330
1F
100
AcDbEntity
  8
1
  6
Continuous
 62
     4
100
AcDbLine
 10
189.308716239733
 20
236.243123375668
 30
0.0
 11
189.808716239733
 21
236.743123375668
 31
0.0
  0
LINE
  5
B7
330
1F
100
AcDbEntity
  8
1
  6
Continuous
 62
     4
100
AcDbLine
 10
188.808716239733
 20
235.493123375668
 30
0.0
 11
189.308716239733
 21
236.243123375668
 31
0.0
  0
LINE
  5
B8
330
1F
100
AcDbEntity
  8
1
  6
Continuous
 62
     4
100
AcDbLine
 10
188.558716239733
 20
234.493123375668
 30
0.0
 11
188.808716239733
 21
235.493123375668
 31
0.0
  0
LINE
  5
B9
330
1F
100
AcDbEntity
  8
1
  6
Continuous
 62
     4
100
AcDbLine
 10
188.558716239733
 20
230.493123375668
 30
0.0
 11
188.558716239733
 21
234.493123375668
 31
0.0
  0
LINE
  5
BA
330
1F
100
AcDbEntity
  8
1
  6
Continuous
 62
     4
100
AcDbLine
 10
188.808716239733
 20
229.493123375668
 30
0.0
 11
188.558716239733
 21
230.493123375668
 31
0.0
  0
LINE
  5
BB
330
1F
100
AcDbEntity
  8
1
  6
Continuous
 62
     4
100
AcDbLine
 10
189.308716239733
 20
228.743123375668
 30
0.0
 11
188.808716239733
 21
229.493123375668
 31
0.0
  0
LINE
  5
BC
330
1F
100
AcDbEntity
  8
1
  6
Continuous
 62
     4
100
AcDbLine
 10
189.808716239733
 20
228.243123375668
 30
0.0
 11
189.308716239733
 21
228.743123375668
 31
0.0
  0
LINE
  5
BD
330
1F
100
AcDbEntity
  8
1
  6
Continuous
 62
     4
100
AcDbLine
 10
190.558716239733
 20
227.743123375668
 30
0.0
 11
189.808716239733
 21
228.243123375668
 31
0.0
  0
LINE
  5
BE
330
1F
100
AcDbEntity
  8
1
  6
Continuous
 62
     4
100
AcDbLine
 10
191.308716239733
 20
227.493123375668
 30
0.0
 11
190.558716239733
 21
227.743123375668
 31
0.0
  0
LINE
  5
BF
330
1F
100
AcDbEntity
  8
1
  6
Continuous
 62
     4
100
AcDbLine
 10
192.808716239733
 20
227.493123375668
 30
0.0
 11
191.308716239733
 21
227.493123375668
 31
0.0
  0
LINE
  5
C0
330
1F
100
AcDbEntity
  8
1
  6
Continuous
 62
     4
100
AcDbLine
 10
193.558716239733
 20
227.743123375668
 30
0.0
 11
192.808716239733
 21
227.493123375668
 31
0.0
  0
LINE
  5
C1
330
1F
100
AcDbEntity
  8
1
  6
Continuous
 62
     4
100
AcDbLine
 10
193.558716239733
 20
229.493123375668
 30
0.0
 11
195.558716239733
 21
227.493123375668
 31
0.0
  0
LINE
  5
C2
330
1F
100
AcDbEntity
  8
1
  6
Continuous
 62
     4
100
AcDbLine
 10
180.558716239733
 20
230.993123375668
 30
0.0
 11
185.558716239733
 21
230.993123375668
 31
0.0
  0
LINE
  5
C3
330
1F
100
AcDbEntity
  8
1
  6
Continuous
 62
     4
100
AcDbLine
 10
170.558716239733
 20
227.493123375668
 30
0.0
 11
170.558716239733
 21
232.493123375668
 31
0.0
  0
LINE
  5
C4
330
1F
100
AcDbEntity
  8
1
  6
Continuous
 62
     4
100
AcDbLine
 10
174.558716239733
 20
232.493123375668
 30
0.0
 11
177.558716239733
 21
227.493123375668
 31
0.0
  0
LINE
  5
C5
330
1F
100
AcDbEntity
  8
1
  6
Continuous
 62
     4
100
AcDbLine
 10
175.308716239733
 20
232.493123375668
 30
0.0
 11
174.558716239733
 21
232.493123375668
 31
0.0
  0
LINE
  5
C6
330
1F
100
AcDbEntity
  8
1
  6
Continuous
 62
     4
100
AcDbLine
 10
176.308716239733
 20
232.743123375668
 30
0.0
 11
175.308716239733
 21
232.493123375668
 31
0.0
  0
LINE
  5
C7
330
1F
100
AcDbEntity
  8
1
  6
Continuous
 62
     4
100
AcDbLine
 10
177.058716239733
 20
233.243123375668
 30
0.0
 11
176.308716239733
 21
232.743123375668
 31
0.0
  0
LINE
  5
C8
330
1F
100
AcDbEntity
  8
1
  6
Continuous
 62
     4
100
AcDbLine
 10
177.308716239733
 20
233.743123375668
 30
0.0
 11
177.058716239733
 21
233.243123375668
 31
0.0
  0
LINE
  5
C9
330
1F
100
AcDbEntity
  8
1
  6
Continuous
 62
     4
100
AcDbLine
 10
177.558716239733
 20
234.493123375668
 30
0.0
 11
177.308716239733
 21
233.743123375668
 31
0.0
  0
LINE
  5
CA
330
1F
100
AcDbEntity
  8
1
  6
Continuous
 62
     4
100
AcDbLine
 10
177.558716239733
 20
235.493123375668
 30
0.0
 11
177.558716239733
 21
234.493123375668
 31
0.0
  0
LINE
  5
CB
330
1F
100
AcDbEntity
  8
1
  6
Continuous
 62
     4
100
AcDbLine
 10
177.308716239733
 20
236.243123375668
 30
0.0
 11
177.558716239733
 21
235.493123375668
 31
0.0
  0
LINE
  5
CC
330
1F
100
AcDbEntity
  8
1
  6
Continuous
 62
     4
100
AcDbLine
 10
177.058716239733
 20
236.743123375668
 30
0.0
 11
177.308716239733
 21
236.243123375668
 31
0.0
  0
LINE
  5
CD
330
1F
100
AcDbEntity
  8
1
  6
Continuous
 62
     4
100
AcDbLine
 10
176.308716239733
 20
237.243123375668
 30
0.0
 11
177.058716239733
 21
236.743123375668
 31
0.0
  0
LINE
  5
CE
330
1F
100
AcDbEntity
  8
1
  6
Continuous
 62
     4
100
AcDbLine
 10
175.308716239733
 20
237.493123375668
 30
0.0
 11
176.308716239733
 21
237.243123375668
 31
0.0
  0
LINE
  5
CF
330
1F
100
AcDbEntity
  8
1
  6
Continuous
 62
     4
100
AcDbLine
 10
170.558716239733
 20
237.493123375668
 30
0.0
 11
175.308716239733
 21
237.493123375668
 31
0.0
  0
LINE
  5
D0
330
1F
100
AcDbEntity
  8
1
  6
Continuous
 62
     4
100
AcDbLine
 10
170.558716239733
 20
232.493123375668
 30
0.0
 11
170.558716239733
 21
237.493123375668
 31
0.0
  0
LINE
  5
D1
330
1F
100
AcDbEntity
  8
1
  6
Continuous
 62
     4
100
AcDbLine
 10
174.558716239733
 20
232.493123375668
 30
0.0
 11
170.558716239733
 21
232.493123375668
 31
0.0
  0
LINE
  5
D2
330
1F
100
AcDbEntity
  8
1
  6
Continuous
 62
     4
100
AcDbLine
 10
162.558716239733
 20
230.993123375668
 30
0.0
 11
167.558716239733
 21
230.993123375668
 31
0.0
  0
LINE
  5
D3
330
1F
100
AcDbEntity
  8
1
  6
Continuous
 62
     4
100
AcDbLine
 10
152.558716239733
 20
230.493123375668
 30
0.0
 11
152.558716239733
 21
237.493123375668
 31
0.0
  0
LINE
  5
D4
330
1F
100
AcDbEntity
  8
1
  6
Continuous
 62
     4
100
AcDbLine
 10
152.558716239733
 20
227.493123375668
 30
0.0
 11
152.558716239733
 21
230.493123375668
 31
0.0
  0
LINE
  5
D5
330
1F
100
AcDbEntity
  8
1
  6
Continuous
 62
     4
100
AcDbLine
 10
154.558716239733
 20
232.493123375668
 30
0.0
 11
159.558716239733
 21
227.493123375668
 31
0.0
  0
LINE
  5
D6
330
1F
100
AcDbEntity
  8
1
  6
Continuous
 62
     4
100
AcDbLine
 10
159.558716239733
 20
237.493123375668
 30
0.0
 11
154.558716239733
 21
232.493123375668
 31
0.0
  0
LINE
  5
D7
330
1F
100
AcDbEntity
  8
1
  6
Continuous
 62
     4
100
AcDbLine
 10
154.558716239733
 20
232.493123375668
 30
0.0
 11
152.558716239733
 21
230.493123375668
 31
0.0
  0
LINE
  5
D8
330
1F
100
AcDbEntity
  8
1
  6
Continuous
 62
     4
100
AcDbLine
 10
140.115483830908
 20
23.8478164972541
 30
0.0
 11
140.115483830908
 21
19.8478164972541
 31
0.0
  0
LINE
  5
D9
330
1F
100
AcDbEntity
  8
1
  6
Continuous
 62
     4
100
AcDbLine
 10
135.615483830908
 20
21.8478164972541
 30
0.0
 11
141.615483830908
 21
21.8478164972541
 31
0.0
  0
LINE
  5
DA
330
1F
100
AcDbEntity
  8
1
  6
Continuous
 62
     4
100
AcDbLine
 10
140.115483830908
 20
29.8478164972541
 30
0.0
 11
135.615483830908
 21
21.8478164972541
 31
0.0
  0
LINE
  5
DB
330
1F
100
AcDbEntity
  8
1
  6
Continuous
 62
     4
100
AcDbLine
 10
128.615483830908
 20
19.8478164972541
 30
0.0
 11
132.615483830908
 21
29.8478164972541
 31
0.0
  0
LINE
  5
DC
330
1F
100
AcDbEntity
  8
1
  6
Continuous
 62
     4
100
AcDbLine
 10
123.365483830908
 20
19.8478164972541
 30
0.0
 11
119.615483830908
 21
19.8478164972541
 31
0.0
  0
LINE
  5
DD
330
1F
100
AcDbEntity
  8
1
  6
Continuous
 62
     4
100
AcDbLine
 10
124.115483830908
 20
20.0978164972541
 30
0.0
 11
123.365483830908
 21
19.8478164972541
 31
0.0
  0
LINE
  5
DE
330
1F
100
AcDbEntity
  8
1
  6
Continuous
 62
     4
100
AcDbLine
 10
124.865483830908
 20
20.5978164972541
 30
0.0
 11
124.115483830908
 21
20.0978164972541
 31
0.0
  0
LINE
  5
DF
330
1F
100
AcDbEntity
  8
1
  6
Continuous
 62
     4
100
AcDbLine
 10
125.365483830908
 20
21.3478164972541
 30
0.0
 11
124.865483830908
 21
20.5978164972541
 31
0.0
  0
LINE
  5
E0
330
1F
100
AcDbEntity
  8
1
  6
Continuous
 62
     4
100
AcDbLine
 10
125.615483830908
 20
22.3478164972541
 30
0.0
 11
125.365483830908
 21
21.3478164972541
 31
0.0
  0
LINE
  5
E1
330
1F
100
AcDbEntity
  8
1
  6
Continuous
 62
     4
100
AcDbLine
 10
125.615483830908
 20
23.5978164972541
 30
0.0
 11
125.615483830908
 21
22.3478164972541
 31
0.0
  0
LINE
  5
E2
330
1F
100
AcDbEntity
  8
1
  6
Continuous
 62
     4
100
AcDbLine
 10
125.365483830908
 20
24.5978164972541
 30
0.0
 11
125.615483830908
 21
23.5978164972541
 31
0.0
  0
LINE
  5
E3
330
1F
100
AcDbEntity
  8
1
  6
Continuous
 62
     4
100
AcDbLine
 10
125.115483830908
 20
25.0978164972541
 30
0.0
 11
125.365483830908
 21
24.5978164972541
 31
0.0
  0
LINE
  5
E4
330
1F
100
AcDbEntity
  8
1
  6
Continuous
 62
     4
100
AcDbLine
 10
124.615483830908
 20
25.5978164972541
 30
0.0
 11
125.115483830908
 21
25.0978164972541
 31
0.0
  0
LINE
  5
E5
330
1F
100
AcDbEntity
  8
1
  6
Continuous
 62
     4
100
AcDbLine
 10
123.615483830908
 20
25.8478164972541
 30
0.0
 11
124.615483830908
 21
25.5978164972541
 31
0.0
  0
LINE
  5
E6
330
1F
100
AcDbEntity
  8
1
  6
Continuous
 62
     4
100
AcDbLine
 10
124.365483830908
 20
26.0978164972541
 30
0.0
 11
123.615483830908
 21
25.8478164972541
 31
0.0
  0
LINE
  5
E7
330
1F
100
AcDbEntity
  8
1
  6
Continuous
 62
     4
100
AcDbLine
 10
124.865483830908
 20
26.3478164972541
 30
0.0
 11
124.365483830908
 21
26.0978164972541
 31
0.0
  0
LINE
  5
E8
330
1F
100
AcDbEntity
  8
1
  6
Continuous
 62
     4
100
AcDbLine
 10
125.365483830908
 20
26.8478164972541
 30
0.0
 11
124.865483830908
 21
26.3478164972541
 31
0.0
  0
LINE
  5
E9
330
1F
100
AcDbEntity
  8
1
  6
Continuous
 62
     4
100
AcDbLine
 10
125.615483830908
 20
27.5978164972541
 30
0.0
 11
125.365483830908
 21
26.8478164972541
 31
0.0
  0
LINE
  5
EA
330
1F
100
AcDbEntity
  8
1
  6
Continuous
 62
     4
100
AcDbLine
 10
125.615483830908
 20
28.3478164972541
 30
0.0
 11
125.615483830908
 21
27.5978164972541
 31
0.0
  0
LINE
  5
EB
330
1F
100
AcDbEntity
  8
1
  6
Continuous
 62
     4
100
AcDbLine
 10
125.365483830908
 20
29.0978164972541
 30
0.0
 11
125.615483830908
 21
28.3478164972541
 31
0.0
  0
LINE
  5
EC
330
1F
100
AcDbEntity
  8
1
  6
Continuous
 62
     4
100
AcDbLine
 10
124.615483830908
 20
29.5978164972541
 30
0.0
 11
125.365483830908
 21
29.0978164972541
 31
0.0
  0
LINE
  5
ED
330
1F
100
AcDbEntity
  8
1
  6
Continuous
 62
     4
100
AcDbLine
 10
123.365483830908
 20
29.8478164972541
 30
0.0
 11
124.615483830908
 21
29.5978164972541
 31
0.0
  0
LINE
  5
EE
330
1F
100
AcDbEntity
  8
1
  6
Continuous
 62
     4
100
AcDbLine
 10
119.615483830908
 20
29.8478164972541
 30
0.0
 11
123.365483830908
 21
29.8478164972541
 31
0.0
  0
LINE
  5
EF
330
1F
100
AcDbEntity
  8
1
  6
Continuous
 62
     4
100
AcDbLine
 10
121.115483830908
 20
25.8478164972541
 30
0.0
 11
123.615483830908
 21
25.8478164972541
 31
0.0
  0
LINE
  5
F0
330
1F
100
AcDbEntity
  8
1
  6
Continuous
 62
     4
100
AcDbLine
 10
116.615483830908
 20
25.3478164972541
 30
0.0
 11
114.115483830908
 21
25.3478164972541
 31
0.0
  0
LINE
  5
F1
330
1F
100
AcDbEntity
  8
1
  6
Continuous
 62
     4
100
AcDbLine
 10
116.615483830908
 20
19.8478164972541
 30
0.0
 11
116.615483830908
 21
25.3478164972541
 31
0.0
  0
LINE
  5
F2
330
1F
100
AcDbEntity
  8
1
  6
Continuous
 62
     4
100
AcDbLine
 10
112.365483830908
 20
19.8478164972541
 30
0.0
 11
116.615483830908
 21
19.8478164972541
 31
0.0
  0
LINE
  5
F3
330
1F
100
AcDbEntity
  8
1
  6
Continuous
 62
     4
100
AcDbLine
 10
111.615483830908
 20
20.0978164972541
 30
0.0
 11
112.365483830908
 21
19.8478164972541
 31
0.0
  0
LINE
  5
F4
330
1F
100
AcDbEntity
  8
1
  6
Continuous
 62
     4
100
AcDbLine
 10
110.615483830908
 20
20.5978164972541
 30
0.0
 11
111.615483830908
 21
20.0978164972541
 31
0.0
  0
LINE
  5
F5
330
1F
100
AcDbEntity
  8
1
  6
Continuous
 62
     4
100
AcDbLine
 10
110.115483830908
 20
21.0978164972541
 30
0.0
 11
110.615483830908
 21
20.5978164972541
 31
0.0
  0
LINE
  5
F6
330
1F
100
AcDbEntity
  8
1
  6
Continuous
 62
     4
100
AcDbLine
 10
109.865483830908
 20
21.8478164972541
 30
0.0
 11
110.115483830908
 21
21.0978164972541
 31
0.0
  0
LINE
  5
F7
330
1F
100
AcDbEntity
  8
1
  6
Continuous
 62
     4
100
AcDbLine
 10
109.615483830908
 20
22.8478164972541
 30
0.0
 11
109.865483830908
 21
21.8478164972541
 31
0.0
  0
LINE
  5
F8
330
1F
100
AcDbEntity
  8
1
  6
Continuous
 62
     4
100
AcDbLine
 10
109.615483830908
 20
26.8478164972541
 30
0.0
 11
109.615483830908
 21
22.8478164972541
 31
0.0
  0
LINE
  5
F9
330
1F
100
AcDbEntity
  8
1
  6
Continuous
 62
     4
100
AcDbLine
 10
109.865483830908
 20
27.8478164972541
 30
0.0
 11
109.615483830908
 21
26.8478164972541
 31
0.0
  0
LINE
  5
FA
330
1F
100
AcDbEntity
  8
1
  6
Continuous
 62
     4
100
AcDbLine
 10
110.115483830908
 20
28.5978164972541
 30
0.0
 11
109.865483830908
 21
27.8478164972541
 31
0.0
  0
LINE
  5
FB
330
1F
100
AcDbEntity
  8
1
  6
Continuous
 62
     4
100
AcDbLine
 10
110.615483830908
 20
29.0978164972541
 30
0.0
 11
110.115483830908
 21
28.5978164972541
 31
0.0
  0
LINE
  5
FC
330
1F
100
AcDbEntity
  8
1
  6
Continuous
 62
     4
100
AcDbLine
 10
111.365483830908
 20
29.5978164972541
 30
0.0
 11
110.615483830908
 21
29.0978164972541
 31
0.0
  0
LINE
  5
FD
330
1F
100
AcDbEntity
  8
1
  6
Continuous
 62
     4
100
AcDbLine
 10
112.365483830908
 20
29.8478164972541
 30
0.0
 11
111.365483830908
 21
29.5978164972541
 31
0.0
  0
LINE
  5
FE
330
1F
100
AcDbEntity
  8
1
  6
Continuous
 62
     4
100
AcDbLine
 10
116.615483830908
 20
29.8478164972541
 30
0.0
 11
112.365483830908
 21
29.8478164972541
 31
0.0
  0
LINE
  5
FF
330
1F
100
AcDbEntity
  8
1
  6
Continuous
 62
     4
100
AcDbLine
 10
6.0542704065634
 20
23.0846119717927
 30
0.0
 11
6.0542704065634
 21
19.0846119717927
 31
0.0
  0
LINE
  5
100
330
1F
100
AcDbEntity
  8
1
  6
Continuous
 62
     4
100
AcDbLine
 10
1.5542704065634
 20
21.0846119717927
 30
0.0
 11
7.5542704065634
 21
21.0846119717927
 31
0.0
  0
LINE
  5
101
330
1F
100
AcDbEntity
  8
1
  6
Continuous
 62
     4
100
AcDbLine
 10
6.0542704065634
 20
29.0846119717927
 30
0.0
 11
1.5542704065634
 21
21.0846119717927
 31
0.0
  0
LINE
  5
102
330
1F
100
AcDbEntity
  8
1
  6
Continuous
 62
     4
100
AcDbLine
 10
-5.4457295934366
 20
19.0846119717927
 30
0.0
 11
-1.4457295934366
 21
29.0846119717927
 31
0.0
  0
LINE
  5
103
330
1F
100
AcDbEntity
  8
1
  6
Continuous
 62
     4
100
AcDbLine
 10
-10.6957295934366
 20
19.0846119717927
 30
0.0
 11
-14.4457295934366
 21
19.0846119717927
 31
0.0
  0
LINE
  5
104
330
1F
100
AcDbEntity
  8
1
  6
Continuous
 62
     4
100
AcDbLine
 10
-9.9457295934366
 20
19.3346119717927
 30
0.0
 11
-10.6957295934366
 21
19.0846119717927
 31
0.0
  0
LINE
  5
105
330
1F
100
AcDbEntity
  8
1
  6
Continuous
 62
     4
100
AcDbLine
 10
-9.1957295934366
 20
19.8346119717927
 30
0.0
 11
-9.9457295934366
 21
19.3346119717927
 31
0.0
  0
LINE
  5
106
330
1F
100
AcDbEntity
  8
1
  6
Continuous
 62
     4
100
AcDbLine
 10
-8.6957295934366
 20
20.5846119717927
 30
0.0
 11
-9.1957295934366
 21
19.8346119717927
 31
0.0
  0
LINE
  5
107
330
1F
100
AcDbEntity
  8
1
  6
Continuous
 62
     4
100
AcDbLine
 10
-8.4457295934366
 20
21.5846119717927
 30
0.0
 11
-8.6957295934366
 21
20.5846119717927
 31
0.0
  0
LINE
  5
108
330
1F
100
AcDbEntity
  8
1
  6
Continuous
 62
     4
100
AcDbLine
 10
-8.4457295934366
 20
22.8346119717927
 30
0.0
 11
-8.4457295934366
 21
21.5846119717927
 31
0.0
  0
LINE
  5
109
330
1F
100
AcDbEntity
  8
1
  6
Continuous
 62
     4
100
AcDbLine
 10
-8.6957295934366
 20
23.8346119717927
 30
0.0
 11
-8.4457295934366
 21
22.8346119717927
 31
0.0
  0
LINE
  5
10A
330
1F
100
AcDbEntity
  8
1
  6
Continuous
 62
     4
100
AcDbLine
 10
-8.9457295934366
 20
24.3346119717927
 30
0.0
 11
-8.6957295934366
 21
23.8346119717927
 31
0.0
  0
LINE
  5
10B
330
1F
100
AcDbEntity
  8
1
  6
Continuous
 62
     4
100
AcDbLine
 10
-9.4457295934366
 20
24.8346119717927
 30
0.0
 11
-8.9457295934366
 21
24.3346119717927
 31
0.0
  0
LINE
  5
10C
330
1F
100
AcDbEntity
  8
1
  6
Continuous
 62
     4
100
AcDbLine
 10
-10.4457295934366
 20
25.0846119717927
 30
0.0
 11
-9.4457295934366
 21
24.8346119717927
 31
0.0
  0
LINE
  5
10D
330
1F
100
AcDbEntity
  8
1
  6
Continuous
 62
     4
100
AcDbLine
 10
-9.6957295934366
 20
25.3346119717927
 30
0.0
 11
-10.4457295934366
 21
25.0846119717927
 31
0.0
  0
LINE
  5
10E
330
1F
100
AcDbEntity
  8
1
  6
Continuous
 62
     4
100
AcDbLine
 10
-9.1957295934366
 20
25.5846119717927
 30
0.0
 11
-9.6957295934366
 21
25.3346119717927
 31
0.0
  0
LINE
  5
10F
330
1F
100
AcDbEntity
  8
1
  6
Continuous
 62
     4
100
AcDbLine
 10
-8.6957295934366
 20
26.0846119717927
 30
0.0
 11
-9.1957295934366
 21
25.5846119717927
 31
0.0
  0
LINE
  5
110
330
1F
100
AcDbEntity
  8
1
  6
Continuous
 62
     4
100
AcDbLine
 10
-8.4457295934366
 20
26.8346119717927
 30
0.0
 11
-8.6957295934366
 21
26.0846119717927
 31
0.0
  0
LINE
  5
111
330
1F
100
AcDbEntity
  8
1
  6
Continuous
 62
     4
100
AcDbLine
 10
-8.4457295934366
 20
27.5846119717927
 30
0.0
 11
-8.4457295934366
 21
26.8346119717927
 31
0.0
  0
LINE
  5
112
330
1F
100
AcDbEntity
  8
1
  6
Continuous
 62
     4
100
AcDbLine
 10
-8.6957295934366
 20
28.3346119717927
 30
0.0
 11
-8.4457295934366
 21
27.5846119717927
 31
0.0
  0
LINE
  5
113
330
1F
100
AcDbEntity
  8
1
  6
Continuous
 62
     4
100
AcDbLine
 10
-9.4457295934366
 20
28.8346119717927
 30
0.0
 11
-8.6957295934366
 21
28.3346119717927
 31
0.0
  0
LINE
  5
114
330
1F
100
AcDbEntity
  8
1
  6
Continuous
 62
     4
100
AcDbLine
 10
-10.6957295934366
 20
29.0846119717927
 30
0.0
 11
-9.4457295934366
 21
28.8346119717927
 31
0.0
  0
LINE
  5
115
330
1F
100
AcDbEntity
  8
1
  6
Continuous
 62
     4
100
AcDbLine
 10
-14.4457295934366
 20
29.0846119717927
 30
0.0
 11
-10.6957295934366
 21
29.0846119717927
 31
0.0
  0
LINE
  5
116
330
1F
100
AcDbEntity
  8
1
  6
Continuous
 62
     4
100
AcDbLine
 10
-12.9457295934366
 20
25.0846119717927
 30
0.0
 11
-10.4457295934366
 21
25.0846119717927
 31
0.0
  0
LINE
  5
117
330
1F
100
AcDbEntity
  8
1
  6
Continuous
 62
     4
100
AcDbLine
 10
-17.4457295934366
 20
24.5846119717927
 30
0.0
 11
-19.9457295934366
 21
24.5846119717927
 31
0.0
  0
LINE
  5
118
330
1F
100
AcDbEntity
  8
1
  6
Continuous
 62
     4
100
AcDbLine
 10
-17.4457295934366
 20
19.0846119717927
 30
0.0
 11
-17.4457295934366
 21
24.5846119717927
 31
0.0
  0
LINE
  5
119
330
1F
100
AcDbEntity
  8
1
  6
Continuous
 62
     4
100
AcDbLine
 10
-21.6957295934366
 20
19.0846119717927
 30
0.0
 11
-17.4457295934366
 21
19.0846119717927
 31
0.0
  0
LINE
  5
11A
330
1F
100
AcDbEntity
  8
1
  6
Continuous
 62
     4
100
AcDbLine
 10
-22.4457295934366
 20
19.3346119717927
 30
0.0
 11
-21.6957295934366
 21
19.0846119717927
 31
0.0
  0
LINE
  5
11B
330
1F
100
AcDbEntity
  8
1
  6
Continuous
 62
     4
100
AcDbLine
 10
-23.4457295934366
 20
19.8346119717927
 30
0.0
 11
-22.4457295934366
 21
19.3346119717927
 31
0.0
  0
LINE
  5
11C
330
1F
100
AcDbEntity
  8
1
  6
Continuous
 62
     4
100
AcDbLine
 10
-23.9457295934366
 20
20.3346119717927
 30
0.0
 11
-23.4457295934366
 21
19.8346119717927
 31
0.0
  0
LINE
  5
11D
330
1F
100
AcDbEntity
  8
1
  6
Continuous
 62
     4
100
AcDbLine
 10
-24.1957295934366
 20
21.0846119717927
 30
0.0
 11
-23.9457295934366
 21
20.3346119717927
 31
0.0
  0
LINE
  5
11E
330
1F
100
AcDbEntity
  8
1
  6
Continuous
 62
     4
100
AcDbLine
 10
-24.4457295934366
 20
22.0846119717927
 30
0.0
 11
-24.1957295934366
 21
21.0846119717927
 31
0.0
  0
LINE
  5
11F
330
1F
100
AcDbEntity
  8
1
  6
Continuous
 62
     4
100
AcDbLine
 10
-24.4457295934366
 20
26.0846119717927
 30
0.0
 11
-24.4457295934366
 21
22.0846119717927
 31
0.0
  0
LINE
  5
120
330
1F
100
AcDbEntity
  8
1
  6
Continuous
 62
     4
100
AcDbLine
 10
-24.1957295934366
 20
27.0846119717927
 30
0.0
 11
-24.4457295934366
 21
26.0846119717927
 31
0.0
  0
LINE
  5
121
330
1F
100
AcDbEntity
  8
1
  6
Continuous
 62
     4
100
AcDbLine
 10
-23.9457295934366
 20
27.8346119717927
 30
0.0
 11
-24.1957295934366
 21
27.0846119717927
 31
0.0
  0
LINE
  5
122
330
1F
100
AcDbEntity
  8
1
  6
Continuous
 62
     4
100
AcDbLine
 10
-23.4457295934366
 20
28.3346119717927
 30
0.0
 11
-23.9457295934366
 21
27.8346119717927
 31
0.0
  0
LINE
  5
123
330
1F
100
AcDbEntity
  8
1
  6
Continuous
 62
     4
100
AcDbLine
 10
-22.6957295934366
 20
28.8346119717927
 30
0.0
 11
-23.4457295934366
 21
28.3346119717927
 31
0.0
  0
LINE
  5
124
330
1F
100
AcDbEntity
  8
1
  6
Continuous
 62
     4
100
AcDbLine
 10
-21.6957295934366
 20
29.0846119717927
 30
0.0
 11
-22.6957295934366
 21
28.8346119717927
 31
0.0
  0
LINE
  5
125
330
1F
100
AcDbEntity
  8
1
  6
Continuous
 62
     4
100
AcDbLine
 10
-17.4457295934366
 20
29.0846119717927
 30
0.0
 11
-21.6957295934366
 21
29.0846119717927
 31
0.0
  0
LINE
  5
16B
330
1F
100
AcDbEntity
  8
1
  6
Continuous
 62
     4
100
AcDbLine
 10
94.1993506749877
 20
40.9
 30
0.0
 11
96.3429442144367
 21
32.9
 31
0.0
  0
LINE
  5
16C
330
1F
100
AcDbEntity
  8
1
  6
Continuous
 62
     4
100
AcDbLine
 10
94.1993506749877
 20
40.9
 30
0.0
 11
100.055757135539
 21
35.043593539449
 31
0.0
  0
LINE
  5
16D
330
1F
100
AcDbEntity
  8
1
  6
Continuous
 62
     4
100
AcDbLine
 10
23.8006493250123
 20
40.9
 30
0.0
 11
17.9442428644612
 21
35.043593539449
 31
0.0
  0
LINE
  5
16E
330
1F
100
AcDbEntity
  8
1
  6
Continuous
 62
     4
100
AcDbLine
 10
23.8006493250123
 20
40.9
 30
0.0
 11
21.6570557855633
 21
32.9
 31
0.0
  0
LINE
  5
16F
330
1F
100
AcDbEntity
  8
2
  6
Continuous
 62
     3
100
AcDbLine
 10
43.5
 20
120.0
 30
0.0
 11
58.5
 21
120.0
 31
0.0
  0
LINE
  5
170
330
1F
100
AcDbEntity
  8
2
  6
Continuous
 62
     3
100
AcDbLine
 10
60.5
 20
118.0
 30
0.0
 11
60.5
 21
112.5
 31
0.0
  0
LINE
  5
171
330
1F
100
AcDbEntity
  8
2
  6
Continuous
 62
     3
100
AcDbLine
 10
41.5
 20
118.0
 30
0.0
 11
41.5
 21
112.5
 31
0.0
  0
LINE
  5
172
330
1F
100
AcDbEntity
  8
2
  6
Continuous
 62
     3
100
AcDbLine
 10
46.0
 20
139.0
 30
0.0
 11
46.0
 21
120.0
 31
0.0
  0
LINE
  5
173
330
1F
100
AcDbEntity
  8
2
  6
Continuous
 62
     3
100
AcDbLine
 10
56.0
 20
139.0
 30
0.0
 11
56.0
 21
120.0
 31
0.0
  0
LINE
  5
174
330
1F
100
AcDbEntity
  8
2
  6
Continuous
 62
     3
100
AcDbLine
 10
47.5
 20
141.0
 30
0.0
 11
47.5
 21
140.5
 31
0.0
  0
LINE
  5
175
330
1F
100
AcDbEntity
  8
2
  6
Continuous
 62
     3
100
AcDbLine
 10
54.5
 20
141.0
 30
0.0
 11
54.5
 21
140.5
 31
0.0
  0
LINE
  5
176
330
1F
100
AcDbEntity
  8
2
  6
Continuous
 62
     3
100
AcDbLine
 10
54.5
 20
140.5
 30
0.0
 11
56.0
 21
139.0
 31
0.0
  0
LINE
  5
177
330
1F
100
AcDbEntity
  8
2
  6
Continuous
 62
     3
100
AcDbLine
 10
47.5
 20
140.5
 30
0.0
 11
46.0
 21
139.0
 31
0.0
  0
LINE
  5
178
330
1F
100
AcDbEntity
  8
2
  6
Continuous
 62
     3
100
AcDbLine
 10
56.0
 20
139.0
 30
0.0
 11
46.0
 21
139.0
 31
0.0
  0
LINE
  5
179
330
1F
100
AcDbEntity
  8
2
  6
Continuous
 62
     3
100
AcDbLine
 10
47.5
 20
140.5
 30
0.0
 11
54.5
 21
140.5
 31
0.0
  0
LINE
  5
17A
330
1F
100
AcDbEntity
  8
2
  6
Continuous
 62
     3
100
AcDbLine
 10
47.2499961853027
 20
151.0
 30
0.0
 11
54.7499961853027
 21
151.0
 31
0.0
  0
LINE
  5
17B
330
1F
100
AcDbEntity
  8
2
  6
Continuous
 62
     3
100
AcDbLine
 10
22.0
 20
149.976991029251
 30
0.0
 11
22.0
 21
141.0
 31
0.0
  0
LINE
  5
17C
330
1F
100
AcDbEntity
  8
2
  6
Continuous
 62
     3
100
AcDbLine
 10
80.0
 20
141.0
 30
0.0
 11
80.0
 21
149.976991029251
 31
0.0
  0
LINE
  5
17D
330
1F
100
AcDbEntity
  8
2
  6
Continuous
 62
     3
100
AcDbLine
 10
54.75
 20
151.0
 30
0.0
 11
47.25
 21
151.0
 31
0.0
  0
LINE
  5
17E
330
1F
100
AcDbEntity
  8
2
  6
Continuous
 62
     3
100
AcDbLine
 10
47.2499961853027
 20
151.5
 30
0.0
 11
54.7499961853027
 21
151.5
 31
0.0
  0
LINE
  5
17F
330
1F
100
AcDbEntity
  8
5
  6
PHANTOM
 62
     6
100
AcDbLine
 10
22.0
 20
140.201299852738
 30
0.0
 11
22.0
 21
131.224308823487
 31
0.0
  0
LINE
  5
180
330
1F
100
AcDbEntity
  8
5
  6
PHANTOM
 62
     6
100
AcDbLine
 10
80.0
 20
131.224308823487
 30
0.0
 11
80.0
 21
140.201299852738
 31
0.0
  0
LINE
  5
181
330
1F
100
AcDbEntity
  8
5
  6
PHANTOM
 62
     6
100
AcDbLine
 10
22.0
 20
131.224308823487
 30
0.0
 11
80.0
 21
131.224308823487
 31
0.0
  0
LINE
  5
182
330
1F
100
AcDbEntity
  8
5
  6
PHANTOM
 62
     6
100
AcDbLine
 10
39.8163152892952
 20
149.224308823487
 30
0.0
 11
62.1836847107048
 21
149.224308823487
 31
0.0
  0
LINE
  5
183
330
1F
100
AcDbEntity
  8
4
  6
CENTER
 62
     1
100
AcDbLine
 10
103.995691232053
 20
54.0
 30
0.0
 11
13.6238001352454
 21
54.0
 31
0.0
  0
LINE
  5
184
330
1F
100
AcDbEntity
  8
2
  6
Continuous
 62
     3
100
AcDbLine
 10
39.4999999996386
 20
102.0
 30
0.0
 11
62.5000000003614
 21
102.0
 31
0.0
  0
LINE
  5
185
330
1F
100
AcDbEntity
  8
2
  6
Continuous
 62
     3
100
AcDbLine
 10
64.2790561913614
 20
110.720943809
 30
0.0
 11
64.2790561913614
 21
103.779056191
 31
0.0
  0
LINE
  5
186
330
1F
100
AcDbEntity
  8
2
  6
Continuous
 62
     3
100
AcDbLine
 10
37.7209438086386
 20
110.720943809
 30
0.0
 11
37.7209438086386
 21
103.779056191
 31
0.0
  0
LINE
  5
187
330
1F
100
AcDbEntity
  8
2
  6
Continuous
 62
     3
100
AcDbLine
 10
39.4999999996386
 20
112.5
 30
0.0
 11
62.5000000003614
 21
112.5
 31
0.0
  0
LINE
  5
188
330
1F
100
AcDbEntity
  8
2
  6
Continuous
 62
     3
100
AcDbLine
 10
65.2132034355963
 20
97.1335136523793
 30
0.0
 11
63.44543648263
 21
95.365746699413
 31
0.0
  0
LINE
  5
189
330
1F
100
AcDbEntity
  8
2
  6
Continuous
 62
     3
100
AcDbLine
 10
87.1335136523794
 20
75.2132034355964
 30
0.0
 11
85.365746699413
 21
73.44543648263
 31
0.0
  0
LINE
  5
18A
330
1F
100
AcDbEntity
  8
2
  6
Continuous
 62
     3
100
AcDbLine
 10
87.7644684594567
 20
83.0675300027577
 30
0.0
 11
83.5218277723374
 21
78.8248893156384
 31
0.0
  0
LINE
  5
18B
330
1F
100
AcDbEntity
  8
2
  6
Continuous
 62
     3
100
AcDbLine
 10
87.7644684594567
 20
83.0675300027577
 30
0.0
 11
73.0675300027577
 21
97.7644684594567
 31
0.0
  0
LINE
  5
18C
330
1F
100
AcDbEntity
  8
2
  6
Continuous
 62
     3
100
AcDbLine
 10
87.1335136523794
 20
75.2132034355964
 30
0.0
 11
65.2132034355963
 21
97.1335136523793
 31
0.0
  0
LINE
  5
18D
330
1F
100
AcDbEntity
  8
2
  6
Continuous
 62
     3
100
AcDbLine
 10
19.0
 20
40.9
 30
0.0
 11
19.0
 21
67.1
 31
0.0
  0
LINE
  5
18E
330
1F
100
AcDbEntity
  8
2
  6
Continuous
 62
     3
100
AcDbLine
 10
29.0
 20
67.1
 30
0.0
 11
19.0
 21
67.1
 31
0.0
  0
LINE
  5
18F
330
1F
100
AcDbEntity
  8
2
  6
Continuous
 62
     3
100
AcDbLine
 10
29.0
 20
40.9
 30
0.0
 11
19.0
 21
40.9
 31
0.0
  0
LINE
  5
190
330
1F
100
AcDbEntity
  8
2
  6
Continuous
 62
     3
100
AcDbLine
 10
30.35
 20
65.75
 30
0.0
 11
29.0
 21
67.1
 31
0.0
  0
LINE
  5
191
330
1F
100
AcDbEntity
  8
2
  6
Continuous
 62
     3
100
AcDbLine
 10
30.35
 20
42.25
 30
0.0
 11
29.0
 21
40.9
 31
0.0
  0
LINE
  5
192
330
1F
100
AcDbEntity
  8
4
  6
Continuous
 62
     3
100
AcDbLine
 10
30.0415
 20
66.0585
 30
0.0
 11
19.0
 21
66.0585
 31
0.0
  0
LINE
  5
193
330
1F
100
AcDbEntity
  8
4
  6
Continuous
 62
     3
100
AcDbLine
 10
30.0415
 20
41.9415
 30
0.0
 11
19.0
 21
41.9415
 31
0.0
  0
LINE
  5
194
330
1F
100
AcDbEntity
  8
2
  6
Continuous
 62
     3
100
AcDbLine
 10
32.89785924262
 20
65.75
 30
0.0
 11
30.35
 21
65.75
 31
0.0
  0
LINE
  5
195
330
1F
100
AcDbEntity
  8
2
  6
Continuous
 62
     3
100
AcDbLine
 10
36.4292778139467
 20
42.25
 30
0.0
 11
30.35
 21
42.25
 31
0.0
  0
LINE
  5
196
330
1F
100
AcDbEntity
  8
4
  6
CENTER
 62
     1
100
AcDbLine
 10
59.0
 20
35.7904011803152
 30
0.0
 11
59.0
 21
63.2100565804249
 31
0.0
  0
LINE
  5
197
330
1F
100
AcDbEntity
  8
2
  6
Continuous
 62
     3
100
AcDbLine
 10
87.65
 20
65.75
 30
0.0
 11
89.0
 21
67.1
 31
0.0
  0
LINE
  5
198
330
1F
100
AcDbEntity
  8
4
  6
Continuous
 62
     3
100
AcDbLine
 10
87.9585
 20
66.0585
 30
0.0
 11
99.0
 21
66.0585
 31
0.0
  0
LINE
  5
199
330
1F
100
AcDbEntity
  8
2
  6
Continuous
 62
     3
100
AcDbLine
 10
86.7376193732347
 20
65.75
 30
0.0
 11
87.65
 21
65.75
 31
0.0
  0
LINE
  5
19A
330
1F
100
AcDbEntity
  8
2
  6
Continuous
 62
     3
100
AcDbLine
 10
87.65
 20
42.25
 30
0.0
 11
89.0
 21
40.9
 31
0.0
  0
LINE
  5
19B
330
1F
100
AcDbEntity
  8
4
  6
Continuous
 62
     3
100
AcDbLine
 10
87.9585
 20
41.9415
 30
0.0
 11
99.0
 21
41.9415
 31
0.0
  0
LINE
  5
19C
330
1F
100
AcDbEntity
  8
2
  6
Continuous
 62
     3
100
AcDbLine
 10
81.5707221860533
 20
42.25
 30
0.0
 11
87.65
 21
42.25
 31
0.0
  0
LINE
  5
19D
330
1F
100
AcDbEntity
  8
2
  6
Continuous
 62
     3
100
AcDbLine
 10
60.0
 20
97.9320508075689
 30
0.0
 11
60.0
 21
101.2
 31
0.0
  0
LINE
  5
19E
330
1F
100
AcDbEntity
  8
2
  6
Continuous
 62
     3
100
AcDbLine
 10
42.0
 20
97.9320508075689
 30
0.0
 11
42.0
 21
101.2
 31
0.0
  0
LINE
  5
19F
330
1F
100
AcDbEntity
  8
2
  6
Continuous
 62
     3
100
AcDbLine
 10
41.0
 20
90.8508674841473
 30
0.0
 11
41.0
 21
96.2
 31
0.0
  0
LINE
  5
1A0
330
1F
100
AcDbEntity
  8
2
  6
Continuous
 62
     3
100
AcDbLine
 10
63.19696961967
 20
95.2
 30
0.0
 11
62.0
 21
95.2
 31
0.0
  0
LINE
  5
1A1
330
1F
100
AcDbEntity
  8
2
  6
Continuous
 62
     3
100
AcDbLine
 10
42.0
 20
101.2
 30
0.0
 11
41.2
 21
102.0
 31
0.0
  0
LINE
  5
1A2
330
1F
100
AcDbEntity
  8
2
  6
Continuous
 62
     3
100
AcDbLine
 10
60.8
 20
102.0
 30
0.0
 11
60.0
 21
101.2
 31
0.0
  0
LINE
  5
1A3
330
1F
100
AcDbEntity
  8
2
  6
Continuous
 62
     3
100
AcDbLine
 10
85.3119202244168
 20
72.966984506205
 30
0.0
 11
84.7501570305648
 21
67.9735921207664
 31
0.0
  0
LINE
  5
1A4
330
1F
100
AcDbEntity
  8
2
  6
Continuous
 62
     3
100
AcDbLine
 10
85.0252958342684
 20
73.7858873477747
 30
0.0
 11
63.44543648263
 21
95.365746699413
 31
0.0
  0
LINE
  5
1A5
330
1F
100
AcDbEntity
  8
2
  6
Continuous
 62
     3
100
AcDbLine
 10
60.0
 20
101.2
 30
0.0
 11
42.0
 21
101.2
 31
0.0
  0
LINE
  5
1A6
330
1F
100
AcDbEntity
  8
2
  6
Continuous
 62
     3
100
AcDbLine
 10
42.0
 20
97.9320508075689
 30
0.0
 11
60.0
 21
97.9320508075689
 31
0.0
  0
LINE
  5
1A7
330
1F
100
AcDbEntity
  8
2
  6
Continuous
 62
     3
100
AcDbLine
 10
89.0
 20
40.9
 30
0.0
 11
89.0
 21
67.1
 31
0.0
  0
LINE
  5
1A8
330
1F
100
AcDbEntity
  8
2
  6
Continuous
 62
     3
100
AcDbLine
 10
29.0
 20
67.1
 30
0.0
 11
29.0
 21
40.9
 31
0.0
  0
LINE
  5
1A9
330
1F
100
AcDbEntity
  8
2
  6
Continuous
 62
     3
100
AcDbLine
 10
84.0902338452819
 20
86.7417646169325
 30
0.0
 11
79.8475931581626
 21
82.4991239298132
 31
0.0
  0
LINE
  5
1AA
330
1F
100
AcDbEntity
  8
2
  6
Continuous
 62
     3
100
AcDbLine
 10
76.7417646169324
 20
94.0902338452819
 30
0.0
 11
72.4991239298132
 21
89.8475931581626
 31
0.0
  0
LINE
  5
1AB
330
1F
100
AcDbEntity
  8
2
  6
Continuous
 62
     3
100
AcDbLine
 10
73.0675300027577
 20
97.7644684594567
 30
0.0
 11
68.8248893156384
 21
93.5218277723374
 31
0.0
  0
LINE
  5
1AC
330
1F
100
AcDbEntity
  8
2
  6
Continuous
 62
     3
100
AcDbLine
 10
44.3604761610948
 20
103.779056191
 30
0.0
 11
44.3604761610948
 21
110.720943809
 31
0.0
  0
LINE
  5
1AD
330
1F
100
AcDbEntity
  8
2
  6
Continuous
 62
     3
100
AcDbLine
 10
57.6395280956807
 20
103.779056191
 30
0.0
 11
57.6395280956807
 21
110.720943809
 31
0.0
  0
LINE
  5
1AE
330
1F
100
AcDbEntity
  8
4
  6
CENTER
 62
     1
100
AcDbLine
 10
51.0
 20
84.3052941921145
 30
0.0
 11
51.0
 21
166.0
 31
0.0
  0
LINE
  5
1AF
330
1F
100
AcDbEntity
  8
2
  6
Continuous
 62
     3
100
AcDbLine
 10
89.0
 20
67.1
 30
0.0
 11
99.0
 21
67.1
 31
0.0
  0
LINE
  5
1B0
330
1F
100
AcDbEntity
  8
2
  6
Continuous
 62
     3
100
AcDbLine
 10
89.0
 20
40.9
 30
0.0
 11
99.0
 21
40.9
 31
0.0
  0
LINE
  5
1B1
330
1F
100
AcDbEntity
  8
2
  6
Continuous
 62
     3
100
AcDbLine
 10
99.0
 20
40.9
 30
0.0
 11
99.0
 21
67.1
 31
0.0
  0
LINE
  5
1B2
330
1F
100
AcDbEntity
  8
4
  6
CENTER
 62
     1
100
AcDbLine
 10
191.109313953488
 20
36.0
 30
0.0
 11
191.109313953488
 21
166.0
 31
0.0
  0
LINE
  5
1B3
330
1F
100
AcDbEntity
  8
2
  6
Continuous
 62
     3
100
AcDbLine
 10
179.609313953127
 20
102.0
 30
0.0
 11
202.60931395385
 21
102.0
 31
0.0
  0
LINE
  5
1B4
330
1F
100
AcDbEntity
  8
2
  6
Continuous
 62
     3
100
AcDbLine
 10
179.609313953127
 20
112.5
 30
0.0
 11
202.60931395385
 21
112.5
 31
0.0
  0
LINE
  5
1B5
330
1F
100
AcDbEntity
  8
2
  6
Continuous
 62
     3
100
AcDbLine
 10
200.109313953488
 20
97.9320508075689
 30
0.0
 11
200.109313953488
 21
102.0
 31
0.0
  0
LINE
  5
1B6
330
1F
100
AcDbEntity
  8
2
  6
Continuous
 62
     3
100
AcDbLine
 10
182.109313953488
 20
97.9320508075689
 30
0.0
 11
182.109313953488
 21
102.0
 31
0.0
  0
LINE
  5
1B7
330
1F
100
AcDbEntity
  8
4
  6
CENTER
 62
     1
100
AcDbLine
 10
170.761336925204
 20
54.0
 30
0.0
 11
211.014247131574
 21
54.0
 31
0.0
  0
LINE
  5
1B8
330
1F
100
AcDbEntity
  8
2
  6
Continuous
 62
     3
100
AcDbLine
 10
202.60931395385
 20
102.0
 30
0.0
 11
202.60931395385
 21
112.5
 31
0.0
  0
LINE
  5
1B9
330
1F
100
AcDbEntity
  8
2
  6
Continuous
 62
     3
100
AcDbLine
 10
179.609313953127
 20
102.0
 30
0.0
 11
179.609313953127
 21
112.5
 31
0.0
  0
LINE
  5
1BA
330
1F
100
AcDbEntity
  8
2
  6
Continuous
 62
     3
100
AcDbLine
 10
206.609313953488
 20
54.5
 30
0.0
 11
206.609313953488
 21
86.2607127871428
 31
0.0
  0
LINE
  5
1BB
330
1F
100
AcDbEntity
  8
2
  6
Continuous
 62
     3
100
AcDbLine
 10
175.609313953488
 20
54.5
 30
0.0
 11
175.609313953488
 21
86.2607129047774
 31
0.0
  0
LINE
  5
1BC
330
1F
100
AcDbEntity
  8
2
  6
Continuous
 62
     3
100
AcDbLine
 10
200.109313953488
 20
82.4987646169325
 30
0.0
 11
200.109313953488
 21
94.0902338452819
 31
0.0
  0
LINE
  5
1BD
330
1F
100
AcDbEntity
  8
2
  6
Continuous
 62
     3
100
AcDbLine
 10
182.109313953488
 20
82.4987646169325
 30
0.0
 11
182.109313953488
 21
94.0902338452819
 31
0.0
  0
LINE
  5
1BE
330
1F
100
AcDbEntity
  8
2
  6
Continuous
 62
     3
100
AcDbLine
 10
191.109313953488
 20
97.7644684594567
 30
0.0
 11
182.109313953488
 21
94.0902338452819
 31
0.0
  0
LINE
  5
1BF
330
1F
100
AcDbEntity
  8
2
  6
Continuous
 62
     3
100
AcDbLine
 10
182.109313953488
 20
86.7417646169325
 30
0.0
 11
191.109313953488
 21
83.0675300027577
 31
0.0
  0
LINE
  5
1C0
330
1F
100
AcDbEntity
  8
2
  6
Continuous
 62
     3
100
AcDbLine
 10
191.109313953488
 20
83.0675300027577
 30
0.0
 11
200.109313953488
 21
86.7417646169325
 31
0.0
  0
LINE
  5
1C1
330
1F
100
AcDbEntity
  8
2
  6
Continuous
 62
     3
100
AcDbLine
 10
200.109313953488
 20
94.0902338452819
 30
0.0
 11
191.109313953488
 21
97.7644684594567
 31
0.0
  0
LINE
  5
1C2
330
1F
100
AcDbEntity
  8
2
  6
Continuous
 62
     3
100
AcDbLine
 10
191.109313953488
 20
78.8245300027577
 30
0.0
 11
200.109313953488
 21
82.4987646169325
 31
0.0
  0
LINE
  5
1C3
330
1F
100
AcDbEntity
  8
2
  6
Continuous
 62
     3
100
AcDbLine
 10
182.109313953488
 20
82.4987646169325
 30
0.0
 11
191.109313953488
 21
78.8245300027577
 31
0.0
  0
LINE
  5
1C4
330
1F
100
AcDbEntity
  8
2
  6
Continuous
 62
     3
100
AcDbLine
 10
181.109313953488
 20
94.6273302111594
 30
0.0
 11
181.109313953488
 21
96.2
 31
0.0
  0
LINE
  5
1C5
330
1F
100
AcDbEntity
  8
2
  6
Continuous
 62
     3
100
AcDbLine
 10
182.109313953488
 20
97.9320508075689
 30
0.0
 11
200.109313953488
 21
97.9320508075689
 31
0.0
  0
LINE
  5
1C6
330
1F
100
AcDbEntity
  8
2
  6
Continuous
 62
     3
100
AcDbLine
 10
201.109313953488
 20
94.6273302111593
 30
0.0
 11
201.109313953488
 21
96.2
 31
0.0
  0
LINE
  5
1C7
330
1F
100
AcDbEntity
  8
2
  6
Continuous
 62
     3
100
AcDbLine
 10
175.609313953488
 20
80.7735026918962
 30
0.0
 11
172.609313953488
 21
80.7735026918962
 31
0.0
  0
LINE
  5
1C8
330
1F
100
AcDbEntity
  8
2
  6
Continuous
 62
     3
100
AcDbLine
 10
175.609313953488
 20
69.2264973081038
 30
0.0
 11
172.609313953488
 21
69.2264973081038
 31
0.0
  0
LINE
  5
1C9
330
1F
100
AcDbEntity
  8
2
  6
Continuous
 62
     3
100
AcDbLine
 10
175.609313953488
 20
72.1132486540519
 30
0.0
 11
172.609313953488
 21
72.1132486540519
 31
0.0
  0
LINE
  5
1CA
330
1F
100
AcDbEntity
  8
2
  6
Continuous
 62
     3
100
AcDbLine
 10
175.609313953488
 20
77.8867513459481
 30
0.0
 11
172.609313953488
 21
77.8867513459481
 31
0.0
  0
LINE
  5
1CB
330
1F
100
AcDbEntity
  8
2
  6
Continuous
 62
     3
100
AcDbLine
 10
172.609313953488
 20
69.2264973081038
 30
0.0
 11
172.609313953488
 21
80.7735026918962
 31
0.0
  0
LINE
  5
1CC
330
1F
100
AcDbEntity
  8
2
  6
Continuous
 62
     3
100
AcDbLine
 10
191.109313953488
 20
110.720943809
 30
0.0
 11
191.109313953488
 21
103.779056191
 31
0.0
  0
LINE
  5
1CD
330
1F
100
AcDbEntity
  8
4
  6
CENTER
 62
     1
100
AcDbLine
 10
15.0
 20
243.784772612173
 30
0.0
 11
103.0
 21
243.784772612173
 31
0.0
  0
LINE
  5
1CE
330
1F
100
AcDbEntity
  8
4
  6
CENTER
 62
     1
100
AcDbLine
 10
51.0
 20
278.784772612172
 30
0.0
 11
51.0
 21
208.784772612174
 31
0.0
  0
LINE
  5
1CF
330
1F
100
AcDbEntity
  8
2
  6
Continuous
 62
     3
100
AcDbLine
 10
87.65
 20
255.534772612173
 30
0.0
 11
89.0
 21
256.884772612173
 31
0.0
  0
LINE
  5
1D0
330
1F
100
AcDbEntity
  8
4
  6
Continuous
 62
     3
100
AcDbLine
 10
87.9585
 20
255.843272612173
 30
0.0
 11
99.0
 21
255.843272612173
 31
0.0
  0
LINE
  5
1D1
330
1F
100
AcDbEntity
  8
2
  6
Continuous
 62
     3
100
AcDbLine
 10
83.3150133032063
 20
255.534772612173
 30
0.0
 11
87.65
 21
255.534772612173
 31
0.0
  0
LINE
  5
1D2
330
1F
100
AcDbEntity
  8
2
  6
Continuous
 62
     3
100
AcDbLine
 10
89.0
 20
230.684772612173
 30
0.0
 11
89.0
 21
256.884772612173
 31
0.0
  0
LINE
  5
1D3
330
1F
100
AcDbEntity
  8
2
  6
Continuous
 62
     3
100
AcDbLine
 10
89.0
 20
256.884772612173
 30
0.0
 11
99.0
 21
256.884772612173
 31
0.0
  0
LINE
  5
1D4
330
1F
100
AcDbEntity
  8
2
  6
Continuous
 62
     3
100
AcDbLine
 10
99.0
 20
230.684772612173
 30
0.0
 11
99.0
 21
256.884772612173
 31
0.0
  0
LINE
  5
1D5
330
1F
100
AcDbEntity
  8
2
  6
Continuous
 62
     3
100
AcDbLine
 10
87.65
 20
232.034772612173
 30
0.0
 11
89.0
 21
230.684772612173
 31
0.0
  0
LINE
  5
1D6
330
1F
100
AcDbEntity
  8
4
  6
Continuous
 62
     3
100
AcDbLine
 10
87.9585
 20
231.726272612173
 30
0.0
 11
99.0
 21
231.726272612173
 31
0.0
  0
LINE
  5
1D7
330
1F
100
AcDbEntity
  8
2
  6
Continuous
 62
     3
100
AcDbLine
 10
83.3150133032063
 20
232.034772612173
 30
0.0
 11
87.65
 21
232.034772612173
 31
0.0
  0
LINE
  5
1D8
330
1F
100
AcDbEntity
  8
2
  6
Continuous
 62
     3
100
AcDbLine
 10
89.0
 20
230.684772612173
 30
0.0
 11
99.0
 21
230.684772612173
 31
0.0
  0
LINE
  5
1D9
330
1F
100
AcDbEntity
  8
2
  6
Continuous
 62
     3
100
AcDbLine
 10
19.0
 20
230.684772612173
 30
0.0
 11
19.0
 21
256.884772612173
 31
0.0
  0
LINE
  5
1DA
330
1F
100
AcDbEntity
  8
2
  6
Continuous
 62
     3
100
AcDbLine
 10
26.760194575234
 20
256.884772612173
 30
0.0
 11
19.0
 21
256.884772612173
 31
0.0
  0
LINE
  5
1DB
330
1F
100
AcDbEntity
  8
4
  6
Continuous
 62
     3
100
AcDbLine
 10
26.5933020841848
 20
255.843272612173
 30
0.0
 11
19.0
 21
255.843272612173
 31
0.0
  0
LINE
  5
1DC
330
1F
100
AcDbEntity
  8
2
  6
Continuous
 62
     3
100
AcDbLine
 10
26.760194575234
 20
230.684772612173
 30
0.0
 11
19.0
 21
230.684772612173
 31
0.0
  0
LINE
  5
1DD
330
1F
100
AcDbEntity
  8
4
  6
Continuous
 62
     3
100
AcDbLine
 10
26.5933020841848
 20
231.726272612173
 30
0.0
 11
19.0
 21
231.726272612173
 31
0.0
  0
LINE
  5
1DE
330
1F
100
AcDbEntity
  8
2
  6
Continuous
 62
     3
100
AcDbLine
 10
75.0675193506614
 20
259.284772612173
 30
0.0
 11
76.1733585439878
 21
259.284772612173
 31
0.0
  0
LINE
  5
1DF
330
1F
100
AcDbEntity
  8
2
  6
Continuous
 62
     3
100
AcDbLine
 10
75.0675193506614
 20
228.284772612173
 30
0.0
 11
76.1733585439878
 21
228.284772612173
 31
0.0
  0
LINE
  5
1E0
330
1F
100
AcDbEntity
  8
2
  6
Continuous
 62
     3
100
AcDbLine
 10
76.6172274111862
 20
252.784772612173
 30
0.0
 11
84.0902338452819
 21
252.784772612173
 31
0.0
  0
LINE
  5
1E1
330
1F
100
AcDbEntity
  8
2
  6
Continuous
 62
     3
100
AcDbLine
 10
76.6172274111861
 20
234.784772612173
 30
0.0
 11
84.0902338452819
 21
234.784772612173
 31
0.0
  0
LINE
  5
1E2
330
1F
100
AcDbEntity
  8
2
  6
Continuous
 62
     3
100
AcDbLine
 10
87.7644684594567
 20
243.784772612173
 30
0.0
 11
84.0902338452819
 21
252.784772612173
 31
0.0
  0
LINE
  5
1E3
330
1F
100
AcDbEntity
  8
2
  6
Continuous
 62
     3
100
AcDbLine
 10
87.7644684594567
 20
243.784772612173
 30
0.0
 11
84.0902338452819
 21
234.784772612173
 31
0.0
  0
LINE
  5
1E4
330
1F
100
AcDbEntity
  8
2
  6
Continuous
 62
     3
100
AcDbLine
 10
55.9999999999999
 20
215.295565572865
 30
0.0
 11
54.4999999999997
 21
234.417275614575
 31
0.0
  0
LINE
  5
1E5
330
1F
100
AcDbEntity
  8
2
  6
Continuous
 62
     3
100
AcDbLine
 10
60.3674969975976
 20
240.284772612173
 30
0.0
 11
79.4892070393085
 21
238.784772612173
 31
0.0
  0
LINE
  5
1E6
330
1F
100
AcDbEntity
  8
2
  6
Continuous
 62
     3
100
AcDbLine
 10
79.4892070393086
 20
248.784772612173
 30
0.0
 11
60.3674969975976
 21
247.284772612173
 31
0.0
  0
LINE
  5
1E7
330
1F
100
AcDbEntity
  8
2
  6
Continuous
 62
     3
100
AcDbLine
 10
54.4999999999997
 20
253.152269609771
 30
0.0
 11
55.9999999999999
 21
272.273979651481
 31
0.0
  0
LINE
  5
1E8
330
1F
100
AcDbEntity
  8
2
  6
Continuous
 62
     3
100
AcDbLine
 10
46.0
 20
272.273979651481
 30
0.0
 11
47.5000000000002
 21
253.152269609771
 31
0.0
  0
LINE
  5
1E9
330
1F
100
AcDbEntity
  8
2
  6
Continuous
 62
     3
100
AcDbLine
 10
41.6325030024024
 20
247.284772612173
 30
0.0
 11
22.5107929606914
 21
248.784772612173
 31
0.0
  0
LINE
  5
1EA
330
1F
100
AcDbEntity
  8
2
  6
Continuous
 62
     3
100
AcDbLine
 10
22.5107929606914
 20
238.784772612173
 30
0.0
 11
41.6325030024024
 21
240.284772612173
 31
0.0
  0
LINE
  5
1EB
330
1F
100
AcDbEntity
  8
2
  6
Continuous
 62
     3
100
AcDbLine
 10
47.5000000000002
 20
234.417275614575
 30
0.0
 11
46.0
 21
215.295565572864
 31
0.0
  0
LINE
  5
1EC
330
1F
100
AcDbEntity
  8
5
  6
PHANTOM
 62
     6
100
AcDbLine
 10
220.109313953488
 20
131.224308823487
 30
0.0
 11
220.109313953488
 21
140.201299852738
 31
0.0
  0
LINE
  5
1ED
330
1F
100
AcDbEntity
  8
5
  6
PHANTOM
 62
     6
100
AcDbLine
 10
162.109313953488
 20
131.224308823487
 30
0.0
 11
220.109313953488
 21
131.224308823487
 31
0.0
  0
LINE
  5
1EE
330
1F
100
AcDbEntity
  8
5
  6
PHANTOM
 62
     6
100
AcDbLine
 10
179.925629242784
 20
149.224308823487
 30
0.0
 11
202.292998664193
 21
149.224308823487
 31
0.0
  0
LINE
  5
1EF
330
1F
100
AcDbEntity
  8
2
  6
Continuous
 62
     3
100
AcDbLine
 10
187.359313964844
 20
151.0
 30
0.0
 11
194.859313964844
 21
151.0
 31
0.0
  0
LINE
  5
1F0
330
1F
100
AcDbEntity
  8
2
  6
Continuous
 62
     3
100
AcDbLine
 10
194.859313953488
 20
151.0
 30
0.0
 11
187.359313953488
 21
151.0
 31
0.0
  0
LINE
  5
1F1
330
1F
100
AcDbEntity
  8
2
  6
Continuous
 62
     3
100
AcDbLine
 10
187.359313964844
 20
151.5
 30
0.0
 11
194.859313964844
 21
151.5
 31
0.0
  0
LINE
  5
1F2
330
1F
100
AcDbEntity
  8
2
  6
Continuous
 62
     3
100
AcDbLine
 10
162.109313953488
 20
141.0
 30
0.0
 11
220.109313953488
 21
141.0
 31
0.0
  0
LINE
  5
1F3
330
1F
100
AcDbEntity
  8
2
  6
Continuous
 62
     3
100
AcDbLine
 10
220.109313953488
 20
141.0
 30
0.0
 11
220.109313953488
 21
149.976991029251
 31
0.0
  0
LINE
  5
1F4
330
1F
100
AcDbEntity
  8
2
  6
Continuous
 62
     3
100
AcDbLine
 10
196.109313953488
 20
139.0
 30
0.0
 11
196.109313953488
 21
120.0
 31
0.0
  0
LINE
  5
1F5
330
1F
100
AcDbEntity
  8
2
  6
Continuous
 62
     3
100
AcDbLine
 10
194.609313953488
 20
141.0
 30
0.0
 11
194.609313953488
 21
140.5
 31
0.0
  0
LINE
  5
1F6
330
1F
100
AcDbEntity
  8
2
  6
Continuous
 62
     3
100
AcDbLine
 10
194.609313953488
 20
140.5
 30
0.0
 11
196.109313953488
 21
139.0
 31
0.0
  0
LINE
  5
1F7
330
1F
100
AcDbEntity
  8
2
  6
Continuous
 62
     3
100
AcDbLine
 10
196.109313953488
 20
139.0
 30
0.0
 11
186.109313953488
 21
139.0
 31
0.0
  0
LINE
  5
1F8
330
1F
100
AcDbEntity
  8
2
  6
Continuous
 62
     3
100
AcDbLine
 10
187.609313953488
 20
140.5
 30
0.0
 11
194.609313953488
 21
140.5
 31
0.0
  0
LINE
  5
1F9
330
1F
100
AcDbEntity
  8
2
  6
Continuous
 62
     3
100
AcDbLine
 10
183.609313953488
 20
120.0
 30
0.0
 11
198.609313953488
 21
120.0
 31
0.0
  0
LINE
  5
1FA
330
1F
100
AcDbEntity
  8
2
  6
Continuous
 62
     3
100
AcDbLine
 10
200.609313953488
 20
118.0
 30
0.0
 11
200.609313953488
 21
112.5
 31
0.0
  0
LINE
  5
1FB
330
1F
100
AcDbEntity
  8
5
  6
PHANTOM
 62
     6
100
AcDbLine
 10
162.109313953488
 20
140.201299852738
 30
0.0
 11
162.109313953488
 21
131.224308823487
 31
0.0
  0
LINE
  5
1FC
330
1F
100
AcDbEntity
  8
2
  6
Continuous
 62
     3
100
AcDbLine
 10
162.109313953488
 20
149.976991029251
 30
0.0
 11
162.109313953488
 21
141.0
 31
0.0
  0
LINE
  5
1FD
330
1F
100
AcDbEntity
  8
2
  6
Continuous
 62
     3
100
AcDbLine
 10
186.109313953488
 20
139.0
 30
0.0
 11
186.109313953488
 21
120.0
 31
0.0
  0
LINE
  5
1FE
330
1F
100
AcDbEntity
  8
2
  6
Continuous
 62
     3
100
AcDbLine
 10
187.609313953488
 20
141.0
 30
0.0
 11
187.609313953488
 21
140.5
 31
0.0
  0
LINE
  5
1FF
330
1F
100
AcDbEntity
  8
2
  6
Continuous
 62
     3
100
AcDbLine
 10
187.609313953488
 20
140.5
 30
0.0
 11
186.109313953488
 21
139.0
 31
0.0
  0
LINE
  5
200
330
1F
100
AcDbEntity
  8
2
  6
Continuous
 62
     3
100
AcDbLine
 10
181.609313953488
 20
118.0
 30
0.0
 11
181.609313953488
 21
112.5
 31
0.0
  0
LINE
  5
201
330
1F
100
AcDbEntity
  8
2
  6
Continuous
 62
     3
100
AcDbLine
 10
22.0
 20
141.0
 30
0.0
 11
80.0
 21
141.0
 31
0.0
  0
ARC
  5
20C
330
1F
100
AcDbEntity
  8
2
  6
Continuous
 62
     3
100
AcDbCircle
 10
58.5
 20
118.0
 30
0.0
 40
2.0
100
AcDbArc
 50
0.0
 51
90.0
  0
ARC
  5
20D
330
1F
100
AcDbEntity
  8
2
  6
Continuous
 62
     3
100
AcDbCircle
 10
43.5
 20
118.0
 30
0.0
 40
2.0
100
AcDbArc
 50
90.0
 51
180.0
  0
ARC
  5
20E
330
1F
100
AcDbEntity
  8
2
  6
Continuous
 62
     3
100
AcDbCircle
 10
50.4712800225444
 20
90.0516910788263
 30
0.0
 40
70.0
100
AcDbArc
 50
101.2741638648806
 51
110.5554521953941
  0
ARC
  5
20F
330
1F
100
AcDbEntity
  8
2
  6
Continuous
 62
     3
100
AcDbCircle
 10
28.0
 20
149.976991029251
 30
0.0
 40
6.000000000000548
100
AcDbArc
 50
110.55545219539
 51
180.0
  0
ARC
  5
210
330
1F
100
AcDbEntity
  8
2
  6
Continuous
 62
     3
100
AcDbCircle
 10
74.0
 20
149.976991029251
 30
0.0
 40
6.0
100
AcDbArc
 50
0.0
 51
69.44454780460667
  0
ARC
  5
211
330
1F
100
AcDbEntity
  8
2
  6
Continuous
 62
     3
100
AcDbCircle
 10
51.5287199774556
 20
90.0516910788263
 30
0.0
 40
69.99999999999942
100
AcDbArc
 50
69.44454780460565
 51
78.72583613511934
  0
ARC
  5
212
330
1F
100
AcDbEntity
  8
2
  6
Continuous
 62
     3
100
AcDbCircle
 10
62.1836847107048
 20
143.5
 30
0.0
 40
15.50000000000002
100
AcDbArc
 50
78.72583613511902
 51
90.0
  0
ARC
  5
213
330
1F
100
AcDbEntity
  8
2
  6
Continuous
 62
     3
100
AcDbCircle
 10
39.8163152892952
 20
143.5
 30
0.0
 40
15.5
100
AcDbArc
 50
90.0
 51
101.2741638648806
  0
ARC
  5
214
330
1F
100
AcDbEntity
  8
5
  6
PHANTOM
 62
     6
100
AcDbCircle
 10
28.0
 20
140.201299852738
 30
0.0
 40
6.000000000000512
100
AcDbArc
 50
110.5554521953891
 51
180.0
  0
ARC
  5
215
330
1F
100
AcDbEntity
  8
5
  6
PHANTOM
 62
     6
100
AcDbCircle
 10
50.4712800225444
 20
80.2759999023133
 30
0.0
 40
70.0
100
AcDbArc
 50
101.2741638648806
 51
110.555452195394
  0
ARC
  5
216
330
1F
100
AcDbEntity
  8
5
  6
PHANTOM
 62
     6
100
AcDbCircle
 10
39.8163152892952
 20
133.724308823487
 30
0.0
 40
15.5
100
AcDbArc
 50
90.0
 51
101.2741638648806
  0
ARC
  5
217
330
1F
100
AcDbEntity
  8
5
  6
PHANTOM
 62
     6
100
AcDbCircle
 10
62.1836847107048
 20
133.724308823487
 30
0.0
 40
15.49999999999902
100
AcDbArc
 50
78.72583613511868
 51
90.0
  0
ARC
  5
218
330
1F
100
AcDbEntity
  8
5
  6
PHANTOM
 62
     6
100
AcDbCircle
 10
51.5287199774556
 20
80.2759999023133
 30
0.0
 40
69.99999999999942
100
AcDbArc
 50
69.44454780460558
 51
78.72583613511925
  0
ARC
  5
219
330
1F
100
AcDbEntity
  8
2
  6
Continuous
 62
     3
100
AcDbCircle
 10
39.4999999996386
 20
110.720943809
 30
0.0
 40
1.779056190999995
100
AcDbArc
 50
90.0
 51
180.0
  0
ARC
  5
21A
330
1F
100
AcDbEntity
  8
2
  6
Continuous
 62
     3
100
AcDbCircle
 10
39.4999999996386
 20
103.779056191
 30
0.0
 40
1.779056190999995
100
AcDbArc
 50
180.0
 51
270.0
  0
ARC
  5
21B
330
1F
100
AcDbEntity
  8
2
  6
Continuous
 62
     3
100
AcDbCircle
 10
62.5000000003614
 20
103.779056191
 30
0.0
 40
1.779056190999995
100
AcDbArc
 50
270.0
 51
0.0
  0
ARC
  5
21C
330
1F
100
AcDbEntity
  8
2
  6
Continuous
 62
     3
100
AcDbCircle
 10
62.5000000003614
 20
110.720943809
 30
0.0
 40
1.779056191000002
100
AcDbArc
 50
0.0
 51
90.0
  0
ARC
  5
21D
330
1F
100
AcDbEntity
  8
2
  6
Continuous
 62
     3
100
AcDbCircle
 10
59.0
 20
119.0
 30
0.0
 40
80.0
100
AcDbArc
 50
253.612388496514
 51
286.387611503486
  0
ARC
  5
21E
330
1F
100
AcDbEntity
  8
2
  6
Continuous
 62
     3
100
AcDbCircle
 10
51.0
 20
75.0
 30
0.0
 40
17.50000000000003
100
AcDbArc
 50
129.3566989272613
 51
201.8263543347342
  0
ARC
  5
21F
330
1F
100
AcDbEntity
  8
2
  6
Continuous
 62
     3
100
AcDbCircle
 10
62.0
 20
96.2
 30
0.0
 40
1.0
100
AcDbArc
 50
180.0
 51
270.0
  0
ARC
  5
220
330
1F
100
AcDbEntity
  8
2
  6
Continuous
 62
     3
100
AcDbCircle
 10
60.0000000000001
 20
96.2
 30
0.0
 40
0.9999999999999005
100
AcDbArc
 50
0.0
 51
60.00000000000358
  0
ARC
  5
221
330
1F
100
AcDbEntity
  8
2
  6
Continuous
 62
     3
100
AcDbCircle
 10
61.0
 20
97.9320508075689
 30
0.0
 40
1.0
100
AcDbArc
 50
180.0
 51
240.0000000000019
  0
ARC
  5
222
330
1F
100
AcDbEntity
  8
2
  6
Continuous
 62
     3
100
AcDbCircle
 10
42.0
 20
96.2
 30
0.0
 40
1.000000000000045
100
AcDbArc
 50
119.9999999999985
 51
180.0
  0
ARC
  5
223
330
1F
100
AcDbEntity
  8
2
  6
Continuous
 62
     3
100
AcDbCircle
 10
41.0
 20
97.9320508075689
 30
0.0
 40
0.9999999999999712
100
AcDbArc
 50
300.0000000000009
 51
0.0
  0
ARC
  5
224
330
1F
100
AcDbEntity
  8
2
  6
Continuous
 62
     3
100
AcDbCircle
 10
32.89785924262
 20
67.75
 30
0.0
 40
2.0
100
AcDbArc
 50
270.0
 51
21.82635433473219
  0
ARC
  5
225
330
1F
100
AcDbEntity
  8
2
  6
Continuous
 62
     3
100
AcDbCircle
 10
38.0
 20
90.8508674841473
 30
0.0
 40
2.999999999999927
100
AcDbArc
 50
309.3566989272612
 51
0.0
  0
ARC
  5
226
330
1F
100
AcDbEntity
  8
2
  6
Continuous
 62
     3
100
AcDbCircle
 10
86.7376193732347
 20
67.75
 30
0.0
 40
1.999999999999936
100
AcDbArc
 50
173.5811390467395
 51
270.0
  0
ARC
  5
227
330
1F
100
AcDbEntity
  8
2
  6
Continuous
 62
     3
100
AcDbCircle
 10
63.19696961967
 20
94.2000000000001
 30
0.0
 40
0.9999999999999327
100
AcDbArc
 50
44.99999999999972
 51
90.0
  0
ARC
  5
228
330
1F
100
AcDbEntity
  8
2
  6
Continuous
 62
     3
100
AcDbCircle
 10
84.3181890530817
 20
73.0787805665882
 30
0.0
 40
1.000000000000116
100
AcDbArc
 50
353.5811390467404
 51
44.99999999999194
  0
ARC
  5
229
330
1F
100
AcDbEntity
  8
2
  6
Continuous
 62
     3
100
AcDbCircle
 10
191.109313953488
 20
54.5
 30
0.0
 40
15.5
100
AcDbArc
 50
180.0
 51
0.0
  0
ARC
  5
22A
330
1F
100
AcDbEntity
  8
2
  6
Continuous
 62
     3
100
AcDbCircle
 10
181.109313953489
 20
97.9320508075688
 30
0.0
 40
0.9999999999993877
100
AcDbArc
 50
299.9999999999544
 51
0.0000000000057
  0
ARC
  5
22B
330
1F
100
AcDbEntity
  8
2
  6
Continuous
 62
     3
100
AcDbCircle
 10
182.109313953488
 20
96.2
 30
0.0
 40
1.000000000000045
100
AcDbArc
 50
119.9999999999985
 51
180.0
  0
ARC
  5
22C
330
1F
100
AcDbEntity
  8
2
  6
Continuous
 62
     3
100
AcDbCircle
 10
201.109313953488
 20
97.9320508075688
 30
0.0
 40
1.0
100
AcDbArc
 50
179.9999999999943
 51
239.999999999999
  0
ARC
  5
22D
330
1F
100
AcDbEntity
  8
2
  6
Continuous
 62
     3
100
AcDbCircle
 10
200.109313953488
 20
96.2
 30
0.0
 40
1.0
100
AcDbArc
 50
0.0
 51
59.99999999999865
  0
ARC
  5
22E
330
1F
100
AcDbEntity
  8
2
  6
Continuous
 62
     3
100
AcDbCircle
 10
51.0
 20
243.784772612173
 30
0.0
 40
25.0
100
AcDbArc
 50
169.1838626983026
 51
190.8161373016974
  0
ARC
  5
22F
330
1F
100
AcDbEntity
  8
2
  6
Continuous
 62
     3
100
AcDbCircle
 10
51.0
 20
243.784772612173
 30
0.0
 40
25.00000000000007
100
AcDbArc
 50
259.1838626983026
 51
280.8161373016974
  0
ARC
  5
230
330
1F
100
AcDbEntity
  8
2
  6
Continuous
 62
     3
100
AcDbCircle
 10
51.0
 20
243.784772612173
 30
0.0
 40
25.0
100
AcDbArc
 50
349.1838626983026
 51
10.81613730169745
  0
ARC
  5
231
330
1F
100
AcDbEntity
  8
2
  6
Continuous
 62
     3
100
AcDbCircle
 10
51.0
 20
243.784772612173
 30
0.0
 40
25.00000000000013
100
AcDbArc
 50
79.18386269830265
 51
100.8161373016974
  0
ARC
  5
232
330
1F
100
AcDbEntity
  8
2
  6
Continuous
 62
     3
100
AcDbCircle
 10
51.0
 20
243.784772612173
 30
0.0
 40
11.49999999999999
100
AcDbArc
 50
251.6450253534814
 51
288.3549746465186
  0
ARC
  5
233
330
1F
100
AcDbEntity
  8
2
  6
Continuous
 62
     3
100
AcDbCircle
 10
51.0
 20
243.784772612173
 30
0.0
 40
11.5000000000001
100
AcDbArc
 50
341.6450253534817
 51
18.35497464651843
  0
ARC
  5
234
330
1F
100
AcDbEntity
  8
2
  6
Continuous
 62
     3
100
AcDbCircle
 10
51.0
 20
243.784772612173
 30
0.0
 40
11.49999999999998
100
AcDbArc
 50
71.64502535348196
 51
108.3549746465185
  0
ARC
  5
235
330
1F
100
AcDbEntity
  8
2
  6
Continuous
 62
     3
100
AcDbCircle
 10
51.0
 20
243.784772612173
 30
0.0
 40
11.50000000000011
100
AcDbArc
 50
161.6450253534816
 51
198.3549746465183
  0
ARC
  5
236
330
1F
100
AcDbEntity
  8
2
  6
Continuous
 62
     3
100
AcDbCircle
 10
51.0
 20
243.784772612173
 30
0.0
 40
29.0
100
AcDbArc
 50
270.0
 51
278.0735995924416
  0
ARC
  5
237
330
1F
100
AcDbEntity
  8
2
  6
Continuous
 62
     3
100
AcDbCircle
 10
54.370680955197
 20
220.022649182263
 30
0.0
 40
4.999999999999863
100
AcDbArc
 50
278.0735995924477
 51
315.9918022488999
  0
ARC
  5
238
330
1F
100
AcDbEntity
  8
2
  6
Continuous
 62
     3
100
AcDbCircle
 10
65.159286997508
 20
209.601229909255
 30
0.0
 40
10.00000000000066
100
AcDbArc
 50
89.00819775111246
 51
135.9918022488823
  0
ARC
  5
239
330
1F
100
AcDbEntity
  8
2
  6
Continuous
 62
     3
100
AcDbCircle
 10
65.418927252044
 20
224.598982638855
 30
0.0
 40
4.999999999999323
100
AcDbArc
 50
269.0081977511122
 51
306.9264004075583
  0
ARC
  5
23A
330
1F
100
AcDbEntity
  8
2
  6
Continuous
 62
     3
100
AcDbCircle
 10
51.0
 20
243.784772612173
 30
0.0
 40
28.99999999999954
100
AcDbArc
 50
306.9264004075571
 51
323.0735995924407
  0
ARC
  5
23B
330
1F
100
AcDbEntity
  8
2
  6
Continuous
 62
     3
100
AcDbCircle
 10
70.185789973317
 20
229.365845360129
 30
0.0
 40
5.000000000000541
100
AcDbArc
 50
323.0735995924357
 51
0.99180224888762
  0
ARC
  5
23C
330
1F
100
AcDbEntity
  8
2
  6
Continuous
 62
     3
100
AcDbCircle
 10
85.183542702917
 20
229.625485614665
 30
0.0
 40
9.999999999999673
100
AcDbArc
 50
134.0081977511111
 51
180.9918022488877
  0
ARC
  5
23D
330
1F
100
AcDbEntity
  8
2
  6
Continuous
 62
     3
100
AcDbCircle
 10
74.76212342991
 20
240.414091656975
 30
0.0
 40
4.999999999999301
100
AcDbArc
 50
314.008197751113
 51
351.9264004075629
  0
ARC
  5
23E
330
1F
100
AcDbEntity
  8
2
  6
Continuous
 62
     3
100
AcDbCircle
 10
51.0
 20
243.784772612173
 30
0.0
 40
28.99999999999959
100
AcDbArc
 50
351.9264004075583
 51
8.07359959244151
  0
ARC
  5
23F
330
1F
100
AcDbEntity
  8
2
  6
Continuous
 62
     3
100
AcDbCircle
 10
74.76212342991
 20
247.155453567371
 30
0.0
 40
4.999999999999917
100
AcDbArc
 50
8.07359959243581
 51
45.99180224888701
  0
ARC
  5
240
330
1F
100
AcDbEntity
  8
2
  6
Continuous
 62
     3
100
AcDbCircle
 10
85.183542702917
 20
257.944059609681
 30
0.0
 40
9.999999999999954
100
AcDbArc
 50
179.0081977511123
 51
225.9918022488889
  0
ARC
  5
241
330
1F
100
AcDbEntity
  8
2
  6
Continuous
 62
     3
100
AcDbCircle
 10
70.185789973317
 20
258.203699864217
 30
0.0
 40
5.000000000000034
100
AcDbArc
 50
359.0081977511123
 51
36.92640040755425
  0
ARC
  5
242
330
1F
100
AcDbEntity
  8
2
  6
Continuous
 62
     3
100
AcDbCircle
 10
51.0
 20
243.784772612173
 30
0.0
 40
28.99999999999936
100
AcDbArc
 50
36.92640040755762
 51
53.0735995924429
  0
ARC
  5
243
330
1F
100
AcDbEntity
  8
2
  6
Continuous
 62
     3
100
AcDbCircle
 10
65.418927252044
 20
262.970562585491
 30
0.0
 40
4.999999999999394
100
AcDbArc
 50
53.07359959244152
 51
90.99180224888764
  0
ARC
  5
244
330
1F
100
AcDbEntity
  8
2
  6
Continuous
 62
     3
100
AcDbCircle
 10
65.159286997508
 20
277.968315315091
 30
0.0
 40
10.00000000000004
100
AcDbArc
 50
224.0081977511132
 51
270.9918022488877
  0
ARC
  5
245
330
1F
100
AcDbEntity
  8
2
  6
Continuous
 62
     3
100
AcDbCircle
 10
54.370680955197
 20
267.546896042083
 30
0.0
 40
5.000000000000353
100
AcDbArc
 50
44.00819775110907
 51
81.92640040755109
  0
ARC
  5
246
330
1F
100
AcDbEntity
  8
2
  6
Continuous
 62
     3
100
AcDbCircle
 10
51.0
 20
243.784772612173
 30
0.0
 40
28.99999999999999
100
AcDbArc
 50
81.92640040755825
 51
98.07359959244158
  0
ARC
  5
247
330
1F
100
AcDbEntity
  8
2
  6
Continuous
 62
     3
100
AcDbCircle
 10
47.629319044802
 20
267.546896042083
 30
0.0
 40
4.999999999999695
100
AcDbArc
 50
98.07359959243651
 51
135.9918022488839
  0
ARC
  5
248
330
1F
100
AcDbEntity
  8
2
  6
Continuous
 62
     3
100
AcDbCircle
 10
36.840713002491
 20
277.968315315091
 30
0.0
 40
10.00000000000064
100
AcDbArc
 50
269.0081977511124
 51
315.9918022488903
  0
ARC
  5
249
330
1F
100
AcDbEntity
  8
2
  6
Continuous
 62
     3
100
AcDbCircle
 10
36.581072747955
 20
262.970562585491
 30
0.0
 40
4.999999999999352
100
AcDbArc
 50
89.00819775111218
 51
126.9264004075594
  0
ARC
  5
24A
330
1F
100
AcDbEntity
  8
2
  6
Continuous
 62
     3
100
AcDbCircle
 10
51.0
 20
243.784772612173
 30
0.0
 40
29.0000000000002
100
AcDbArc
 50
126.9264004075589
 51
143.0735995924412
  0
ARC
  5
24B
330
1F
100
AcDbEntity
  8
2
  6
Continuous
 62
     3
100
AcDbCircle
 10
31.814210026682
 20
258.203699864217
 30
0.0
 40
5.000000000000143
100
AcDbArc
 50
143.0735995924323
 51
180.9918022488877
  0
ARC
  5
24C
330
1F
100
AcDbEntity
  8
2
  6
Continuous
 62
     3
100
AcDbCircle
 10
16.816457297082
 20
257.944059609681
 30
0.0
 40
10.00000000000002
100
AcDbArc
 50
314.0081977511132
 51
0.99180224888768
  0
ARC
  5
24D
330
1F
100
AcDbEntity
  8
2
  6
Continuous
 62
     3
100
AcDbCircle
 10
27.23787657009
 20
247.155453567371
 30
0.0
 40
4.999999999999652
100
AcDbArc
 50
134.0081977511172
 51
171.9264004075637
  0
ARC
  5
24E
330
1F
100
AcDbEntity
  8
2
  6
Continuous
 62
     3
100
AcDbCircle
 10
51.0
 20
243.784772612173
 30
0.0
 40
28.99999999999988
100
AcDbArc
 50
171.9264004075584
 51
188.0735995924415
  0
ARC
  5
24F
330
1F
100
AcDbEntity
  8
2
  6
Continuous
 62
     3
100
AcDbCircle
 10
27.23787657009
 20
240.414091656975
 30
0.0
 40
4.99999999999992
100
AcDbArc
 50
188.0735995924362
 51
225.991802248882
  0
ARC
  5
250
330
1F
100
AcDbEntity
  8
2
  6
Continuous
 62
     3
100
AcDbCircle
 10
16.816457297082
 20
229.625485614665
 30
0.0
 40
9.999999999999961
100
AcDbArc
 50
359.0081977511123
 51
45.99180224888719
  0
ARC
  5
251
330
1F
100
AcDbEntity
  8
2
  6
Continuous
 62
     3
100
AcDbCircle
 10
31.814210026682
 20
229.365845360129
 30
0.0
 40
5.000000000000034
100
AcDbArc
 50
179.0081977511123
 51
216.9264004075677
  0
ARC
  5
252
330
1F
100
AcDbEntity
  8
2
  6
Continuous
 62
     3
100
AcDbCircle
 10
51.0
 20
243.784772612173
 30
0.0
 40
29.00000000000028
100
AcDbArc
 50
216.9264004075587
 51
233.073599592441
  0
ARC
  5
253
330
1F
100
AcDbEntity
  8
2
  6
Continuous
 62
     3
100
AcDbCircle
 10
36.581072747955
 20
224.598982638855
 30
0.0
 40
4.999999999999536
100
AcDbArc
 50
233.0735995924398
 51
270.9918022488993
  0
ARC
  5
254
330
1F
100
AcDbEntity
  8
2
  6
Continuous
 62
     3
100
AcDbCircle
 10
36.840713002491
 20
209.601229909255
 30
0.0
 40
10.0000000000003
100
AcDbArc
 50
44.00819775111152
 51
90.99180224888187
  0
ARC
  5
255
330
1F
100
AcDbEntity
  8
2
  6
Continuous
 62
     3
100
AcDbCircle
 10
47.629319044802
 20
220.022649182263
 30
0.0
 40
5.000000000000091
100
AcDbArc
 50
224.0081977511124
 51
261.9264004075636
  0
ARC
  5
256
330
1F
100
AcDbEntity
  8
2
  6
Continuous
 62
     3
100
AcDbCircle
 10
51.0
 20
243.784772612173
 30
0.0
 40
28.99999999999997
100
AcDbArc
 50
261.9264004075584
 51
270.0
  0
ARC
  5
257
330
1F
100
AcDbEntity
  8
2
  6
Continuous
 62
     3
100
AcDbCircle
 10
51.0
 20
243.784772612173
 30
0.0
 40
10.00000000000026
100
AcDbArc
 50
290.4873151147203
 51
339.5126848852773
  0
ARC
  5
258
330
1F
100
AcDbEntity
  8
2
  6
Continuous
 62
     3
100
AcDbCircle
 10
51.0
 20
243.784772612173
 30
0.0
 40
10.0
100
AcDbArc
 50
20.48731511472266
 51
69.51268488527977
  0
ARC
  5
259
330
1F
100
AcDbEntity
  8
2
  6
Continuous
 62
     3
100
AcDbCircle
 10
51.0
 20
243.784772612173
 30
0.0
 40
10.00000000000032
100
AcDbArc
 50
110.4873151147208
 51
159.5126848852773
  0
ARC
  5
25A
330
1F
100
AcDbEntity
  8
2
  6
Continuous
 62
     3
100
AcDbCircle
 10
51.0
 20
243.784772612173
 30
0.0
 40
10.0
100
AcDbArc
 50
200.4873151147226
 51
249.5126848852792
  0
ARC
  5
25B
330
1F
100
AcDbEntity
  8
5
  6
PHANTOM
 62
     6
100
AcDbCircle
 10
214.109313953488
 20
140.201299852738
 30
0.0
 40
6.0
100
AcDbArc
 50
0.0
 51
69.44454780460022
  0
ARC
  5
25C
330
1F
100
AcDbEntity
  8
5
  6
PHANTOM
 62
     6
100
AcDbCircle
 10
191.638033930944
 20
80.2759999023133
 30
0.0
 40
69.99999999999949
100
AcDbArc
 50
69.4445478046054
 51
78.72583613511982
  0
ARC
  5
25D
330
1F
100
AcDbEntity
  8
5
  6
PHANTOM
 62
     6
100
AcDbCircle
 10
202.292998664193
 20
133.724308823487
 30
0.0
 40
15.50000000000096
100
AcDbArc
 50
78.72583613512045
 51
90.0
  0
ARC
  5
25E
330
1F
100
AcDbEntity
  8
2
  6
Continuous
 62
     3
100
AcDbCircle
 10
214.109313953488
 20
149.976991029251
 30
0.0
 40
6.0
100
AcDbArc
 50
0.0
 51
69.4445478046003
  0
ARC
  5
25F
330
1F
100
AcDbEntity
  8
2
  6
Continuous
 62
     3
100
AcDbCircle
 10
191.638033930944
 20
90.0516910788263
 30
0.0
 40
69.99999999999952
100
AcDbArc
 50
69.44454780460542
 51
78.72583613511966
  0
ARC
  5
260
330
1F
100
AcDbEntity
  8
2
  6
Continuous
 62
     3
100
AcDbCircle
 10
202.292998664193
 20
143.5
 30
0.0
 40
15.49999999999998
100
AcDbArc
 50
78.72583613511974
 51
90.0
  0
ARC
  5
261
330
1F
100
AcDbEntity
  8
2
  6
Continuous
 62
     3
100
AcDbCircle
 10
198.609313953488
 20
118.0
 30
0.0
 40
2.0
100
AcDbArc
 50
0.0
 51
90.0
  0
ARC
  5
262
330
1F
100
AcDbEntity
  8
5
  6
PHANTOM
 62
     6
100
AcDbCircle
 10
190.580593976033
 20
80.2759999023133
 30
0.0
 40
70.00000000000014
100
AcDbArc
 50
101.2741638648811
 51
110.5554521953943
  0
ARC
  5
263
330
1F
100
AcDbEntity
  8
5
  6
PHANTOM
 62
     6
100
AcDbCircle
 10
179.925629242784
 20
133.724308823487
 30
0.0
 40
15.5
100
AcDbArc
 50
90.0
 51
101.2741638648839
  0
ARC
  5
264
330
1F
100
AcDbEntity
  8
5
  6
PHANTOM
 62
     6
100
AcDbCircle
 10
168.109313953488
 20
140.201299852738
 30
0.0
 40
6.000000000000439
100
AcDbArc
 50
110.5554521953872
 51
180.0
  0
ARC
  5
265
330
1F
100
AcDbEntity
  8
2
  6
Continuous
 62
     3
100
AcDbCircle
 10
190.580593976033
 20
90.0516910788263
 30
0.0
 40
70.00000000000014
100
AcDbArc
 50
101.2741638648811
 51
110.5554521953943
  0
ARC
  5
266
330
1F
100
AcDbEntity
  8
2
  6
Continuous
 62
     3
100
AcDbCircle
 10
168.109313953488
 20
149.976991029251
 30
0.0
 40
6.000000000000439
100
AcDbArc
 50
110.5554521953872
 51
180.0
  0
ARC
  5
267
330
1F
100
AcDbEntity
  8
2
  6
Continuous
 62
     3
100
AcDbCircle
 10
179.925629242784
 20
143.5
 30
0.0
 40
15.5
100
AcDbArc
 50
90.0
 51
101.2741638648839
  0
ARC
  5
268
330
1F
100
AcDbEntity
  8
2
  6
Continuous
 62
     3
100
AcDbCircle
 10
183.609313953488
 20
118.0
 30
0.0
 40
2.0
100
AcDbArc
 50
90.0
 51
180.0
  0
ARC
  5
269
330
1F
100
AcDbEntity
  8
5
  6
PHANTOM
 62
     6
100
AcDbCircle
 10
74.0
 20
140.201299852738
 30
0.0
 40
6.0
100
AcDbArc
 50
0.0
 51
69.44454780460568
  0
CIRCLE
  5
26A
330
1F
100
AcDbEntity
  8
2
  6
Continuous
 62
     3
100
AcDbCircle
 10
42.0
 20
75.0
 30
0.0
 40
6.0
  0
CIRCLE
  5
26B
330
1F
100
AcDbEntity
  8
2
  6
Continuous
 62
     3
100
AcDbCircle
 10
191.109313953488
 20
54.0
 30
0.0
 40
13.09999999999999
  0
CIRCLE
  5
26C
330
1F
100
AcDbEntity
  8
4
  6
Continuous
 62
     3
100
AcDbCircle
 10
191.109313953488
 20
54.0
 30
0.0
 40
12.05850000000001
  0
CIRCLE
  5
26D
330
1F
100
AcDbEntity
  8
2
  6
Continuous
 62
     3
100
AcDbCircle
 10
191.109313953488
 20
54.0
 30
0.0
 40
9.25
  0
CIRCLE
  5
26E
330
1F
100
AcDbEntity
  8
2
  6
Continuous
 62
     3
100
AcDbCircle
 10
51.0
 20
243.784772612173
 30
0.0
 40
3.899986872799097
  0
LWPOLYLINE
  5
26F
330
1F
100
AcDbEntity
  8
2
  6
Continuous
 62
     3
100
AcDbPolyline
 90
        4
 70
     0
 43
0.0
 10
54.7500038146973
 20
154.518890380859
 42
0.23185547147658
 10
53.65383529663127
 20
155.4028930664063
 42
0.11195568115454
 10
48.34617233276404
 20
155.4028778076158
 42
0.23187476391122
 10
47.24999618530205
 20
154.5188751220701
  0
LWPOLYLINE
  5
270
330
1F
100
AcDbEntity
  8
2
  6
Continuous
 62
     3
100
AcDbPolyline
 90
        2
 70
     0
 43
0.0
 10
54.7499961853027
 20
152.699996948242
 10
47.2499961853027
 20
152.699996948242
  0
LWPOLYLINE
  5
271
330
1F
100
AcDbEntity
  8
2
  6
Continuous
 62
     3
100
AcDbPolyline
 90
        4
 70
     0
 43
0.0
 10
39.8163152892952
 20
159.0
 10
44.75
 20
159.0
 42
-0.41421356237311
 10
47.25
 20
156.5
 10
47.25
 20
151.0
  0
LWPOLYLINE
  5
272
330
1F
100
AcDbEntity
  8
2
  6
Continuous
 62
     3
100
AcDbPolyline
 90
        4
 70
     0
 43
0.0
 10
62.1836847107048
 20
159.0
 10
57.25
 20
159.0
 42
0.4142135623731
 10
54.75
 20
156.5
 10
54.75
 20
151.0
  0
LWPOLYLINE
  5
273
330
1F
100
AcDbEntity
  8
2
  6
Continuous
 62
     3
100
AcDbPolyline
 90
        8
 70
     1
 43
0.0
 10
37.0
 20
77.8867513459481
 10
37.0
 20
77.8867513459481
 10
42.0
 20
80.7735026918962
 10
47.0
 20
77.8867513459481
 10
47.0
 20
72.1132486540519
 10
42.0
 20
69.2264973081037
 10
37.0
 20
72.1132486540519
 10
37.0
 20
77.8867513459481
  0
LWPOLYLINE
  5
274
330
1F
100
AcDbEntity
  8
2
  6
Continuous
 62
     3
100
AcDbPolyline
 90
       17
 70
     0
 43
0.0
 10
175.664141055288
 20
85.3331521890719
 10
175.651361131489
 20
85.2183160469911
 10
175.640257317217
 20
85.1031509255764
 10
175.630838205719
 20
84.987662895541
 10
175.623112390242
 20
84.8718580275983
 10
175.617088464033
 20
84.7557423924616
 10
175.61277502034
 20
84.6393220608444
 10
175.610180652409
 20
84.5226031034599
 10
175.609313953488
 20
84.4055915910215
 10
176.783097571984
 20
80.2180952994153
 10
180.149158845097
 20
76.6627723370288
 10
185.181807787288
 20
74.284812921507
 10
191.109313953488
 20
73.4555915910215
 10
197.036820119689
 20
74.284812921507
 10
202.06946906188
 20
76.6627723370288
 10
205.435530334993
 20
80.2180952994153
 10
206.609313953488
 20
84.4055915910215
  0
LWPOLYLINE
  5
275
330
1F
100
AcDbEntity
  8
2
  6
Continuous
 62
     3
100
AcDbPolyline
 90
        9
 70
     0
 43
0.0
 10
206.609313953488
 20
84.4055915910215
 10
206.608447254568
 20
84.5226031034599
 10
206.605852886637
 20
84.6393220608444
 10
206.601539442944
 20
84.7557423924616
 10
206.595515516735
 20
84.8718580275983
 10
206.587789701258
 20
84.987662895541
 10
206.57837058976
 20
85.1031509255764
 10
206.567266775488
 20
85.2183160469911
 10
206.554486851689
 20
85.3331521890719
  0
LWPOLYLINE
  5
276
330
1F
100
AcDbEntity
  8
2
  6
Continuous
 62
     3
100
AcDbPolyline
 90
       13
 70
     0
 43
0.0
 10
189.632778907742
 20
97.1616755512206
 10
184.17505654344
 20
96.0565037194181
 10
179.635479291221
 20
93.6228928060408
 10
176.645669371224
 20
90.205620742534
 10
175.609313953488
 20
86.2607127871222
 10
176.783097571984
 20
82.073216495516
 10
180.149158845097
 20
78.5178935331295
 10
185.181807787288
 20
76.1399341176077
 10
191.109313953488
 20
75.3107127871222
 10
197.036820119689
 20
76.1399341176077
 10
202.06946906188
 20
78.5178935331295
 10
205.435530334993
 20
82.073216495516
 10
206.609313953488
 20
86.2607127871428
  0
LWPOLYLINE
  5
277
330
1F
100
AcDbEntity
  8
2
  6
Continuous
 62
     3
100
AcDbPolyline
 90
        5
 70
     0
 43
0.0
 10
206.609313953488
 20
86.2607127871428
 10
205.572958535753
 20
90.205620742534
 10
202.583148615756
 20
93.6228928060408
 10
198.043571363537
 20
96.0565037194181
 10
192.585848999235
 20
97.1616755512206
  0
LWPOLYLINE
  5
278
330
1F
100
AcDbEntity
  8
2
  6
Continuous
 62
     3
100
AcDbPolyline
 90
       11
 70
     0
 43
0.0
 10
75.0851743128844
 20
228.367830784483
 10
75.4823737633982
 20
228.315133696471
 10
76.1733585439878
 20
228.284772612173
 10
80.360854835594
 20
229.458556230668
 10
83.9161777979805
 20
232.824617503781
 10
86.2941372135024
 20
237.857266445972
 10
87.1233585439878
 20
243.784772612173
 10
86.2941372135024
 20
249.712278778374
 10
83.9161777979805
 20
254.744927720564
 10
80.360854835594
 20
258.110988993677
 10
76.1733585439878
 20
259.284772612173
  0
LWPOLYLINE
  5
279
330
1F
100
AcDbEntity
  8
2
  6
Continuous
 62
     3
100
AcDbPolyline
 90
        3
 70
     0
 43
0.0
 10
76.1733585439878
 20
259.284772612173
 10
75.4823737633984
 20
259.254411527875
 10
75.0851743128844
 20
259.201714439863
  0
LWPOLYLINE
  5
27A
330
1F
100
AcDbEntity
  8
2
  6
Continuous
 62
     3
100
AcDbPolyline
 90
        4
 70
     0
 43
0.0
 10
194.859313964844
 20
154.518890380859
 42
0.23185304822788
 10
193.7631530761721
 20
155.4028930664063
 42
0.11195568119146
 10
188.4554901123051
 20
155.4028778076158
 42
0.23187476391124
 10
187.3593139648439
 20
154.51887512207
  0
LWPOLYLINE
  5
27B
330
1F
100
AcDbEntity
  8
2
  6
Continuous
 62
     3
100
AcDbPolyline
 90
        2
 70
     0
 43
0.0
 10
194.859313964844
 20
152.699996948242
 10
187.359313964844
 20
152.699996948242
  0
LWPOLYLINE
  5
27C
330
1F
100
AcDbEntity
  8
2
  6
Continuous
 62
     3
100
AcDbPolyline
 90
        4
 70
     0
 43
0.0
 10
202.292998664193
 20
159.0
 10
197.359313953488
 20
159.0
 42
0.4142135623731
 10
194.859313953488
 20
156.5
 10
194.859313953488
 20
151.0
  0
LWPOLYLINE
  5
27D
330
1F
100
AcDbEntity
  8
2
  6
Continuous
 62
     3
100
AcDbPolyline
 90
        4
 70
     0
 43
0.0
 10
179.925629242784
 20
159.0
 10
184.859313953488
 20
159.0
 42
-0.4142135623731
 10
187.359313953488
 20
156.5
 10
187.359313953488
 20
151.0
  0
LEADER
  5
27E
330
1F
100
AcDbEntity
  8
1
  6
Continuous
 62
     4
100
AcDbLeader
  3
Standard
 71
     0
 76
     3
 10
94.1993506749877
 20
40.9
 30
0.0
 10
108.067678234448
 20
16.8793520510075
 30
0.0
 10
146.752641557474
 20
16.8793520510075
 30
0.0
  0
LEADER
  5
27F
330
1F
100
AcDbEntity
  8
1
  6
Continuous
 62
     4
100
AcDbLeader
  3
Standard
 71
     0
 76
     3
 10
23.8006493250123
 20
40.9
 30
0.0
 10
9.932321765552
 20
16.8793520510075
 30
0.0
 10
-28.752641557474
 20
16.8793520510075
 30
0.0
  0
DIMENSION
  5
2B5
330
1F
100
AcDbEntity
  8
1
100
AcDbDimension
  2
*D1
 10
99.0
 20
3.2575975091856
 30
0.0
 11
59.0
 21
9.2575975091856
 31
0.0
 70
    32
  1
80
 71
     5
 42
-1.0
 53
0.00013888888889
  3
ME10_DIM_10
100
AcDbAlignedDimension
 13
19.0
 23
40.9
 33
0.0
 14
99.0
 24
40.9
 34
0.0
100
AcDbRotatedDimension
  0
DIMENSION
  5
2C2
330
1F
100
AcDbEntity
  8
1
100
AcDbDimension
  2
*D3
 10
131.230482768477
 20
159.0
 30
0.0
 11
125.230482768477
 21
106.5
 31
0.0
 70
    32
  1
105
 71
     5
 42
-1.0
 53
90.0
  3
ME10_DIM_11
100
AcDbAlignedDimension
 13
103.995691232053
 23
54.0
 33
0.0
 14
62.1836847107048
 24
159.0
 34
0.0
 50
90.0
100
AcDbRotatedDimension
  0
ENDSEC
  0
SECTION
  2
OBJECTS
  0
DICTIONARY
  5
C
330
0
100
AcDbDictionary
281
     1
  3
ACAD_GROUP
350
D
  3
ACAD_LAYOUT
350
1A
  3
ACAD_MATERIAL
350
3B
  3
ACAD_MLEADERSTYLE
350
2C5
  3
ACAD_MLINESTYLE
350
17
  3
ACAD_PLOTSETTINGS
350
19
  3
ACAD_PLOTSTYLENAME
350
E
  3
ACAD_SCALELIST
350
289
  3
ACAD_VISUALSTYLE
350
2A
  3
AcDbVariableDictionary
350
2C3
  0
DICTIONARY
  5
D
102
{ACAD_REACTORS
330
C
102
}
330
C
100
AcDbDictionary
281
     1
  0
DICTIONARY
  5
1A
102
{ACAD_REACTORS
330
C
102
}
330
C
100
AcDbDictionary
281
     1
  3
Layout1
350
1E
  3
Layout2
350
26
  3
Model
350
22
  0
DICTIONARY
  5
3B
102
{ACAD_REACTORS
330
C
102
}
330
C
100
AcDbDictionary
281
     1
  3
ByBlock
350
3D
  3
ByLayer
350
3C
  3
Global
350
3E
  0
DICTIONARY
  5
2C5
102
{ACAD_REACTORS
330
C
102
}
330
C
100
AcDbDictionary
281
     1
  0
DICTIONARY
  5
17
102
{ACAD_REACTORS
330
C
102
}
330
C
100
AcDbDictionary
281
     1
  3
Standard
350
18
  0
DICTIONARY
  5
19
102
{ACAD_REACTORS
330
C
102
}
330
C
100
AcDbDictionary
281
     1
  0
ACDBDICTIONARYWDFLT
  5
E
102
{ACAD_REACTORS
330
C
102
}
330
C
100
AcDbDictionary
281
     1
  3
Normal
350
F
100
AcDbDictionaryWithDefault
340
F
  0
DICTIONARY
  5
289
102
{ACAD_REACTORS
330
C
102
}
330
C
100
AcDbDictionary
281
     1
  3
A0
350
28A
  3
A1
350
28B
  3
A2
350
28C
  3
A3
350
28D
  3
A4
350
28E
  3
A5
350
28F
  3
A6
350
290
  3
A7
350
291
  3
A8
350
292
  3
A9
350
293
  3
B0
350
294
  3
B1
350
295
  3
B2
350
296
  3
B3
350
297
  3
B4
350
298
  3
B5
350
299
  3
B6
350
29A
  3
B7
350
29B
  3
B8
350
29C
  3
B9
350
29D
  3
C0
350
29E
  3
C1
350
29F
  3
C2
350
2A0
  3
C3
350
2A1
  3
C4
350
2A2
  3
C5
350
2A3
  3
C6
350
2A4
  3
C7
350
2A5
  3
C8
350
2A6
  3
C9
350
2A7
  3
D0
350
2A8
  3
D1
350
2A9
  3
D2
350
2AA
  0
DICTIONARY
  5
2A
102
{ACAD_REACTORS
330
C
102
}
330
C
100
AcDbDictionary
281
     1
  3
2dWireframe
350
2F
  3
3D Hidden
350
31
  3
3dWireframe
350
30
  3
Basic
350
32
  3
Brighten
350
36
  3
ColorChange
350
3A
  3
Conceptual
350
34
  3
Dim
350
35
  3
Facepattern
350
39
  3
Flat
350
2B
  3
FlatWithEdges
350
2C
  3
Gouraud
350
2D
  3
GouraudWithEdges
350
2E
  3
Linepattern
350
38
  3
Realistic
350
33
  3
Thicken
350
37
  0
DICTIONARY
  5
2C3
102
{ACAD_REACTORS
330
C
102
}
330
C
100
AcDbDictionary
281
     1
  3
CANNOSCALE
350
2C6
  3
DIMASSOC
350
2C7
  3
HIDETEXT
350
2C8
  0
LAYOUT
  5
1E
102
{ACAD_REACTORS
330
1A
102
}
330
1A
100
AcDbPlotSettings
  1

  2
none_device
  4

  6

 40
0.0
 41
0.0
 42
0.0
 43
0.0
 44
0.0
 45
0.0
 46
0.0
 47
0.0
 48
0.0
 49
0.0
140
0.0
141
0.0
142
1.0
143
1.0
 70
   688
 72
     0
 73
     0
 74
     5
  7

 75
    16
147
1.0
148
0.0
149
0.0
100
AcDbLayout
  1
Layout1
 70
     1
 71
     1
 10
0.0
 20
0.0
 11
12.0
 21
9.0
 12
0.0
 22
0.0
 32
0.0
 14
1.00000000000000E+20
 24
1.00000000000000E+20
 34
1.00000000000000E+20
 15
-1.00000000000000E+20
 25
-1.00000000000000E+20
 35
-1.00000000000000E+20
146
0.0
 13
0.0
 23
0.0
 33
0.0
 16
1.0
 26
0.0
 36
0.0
 17
0.0
 27
1.0
 37
0.0
 76
     0
330
1B
  0
LAYOUT
  5
26
102
{ACAD_REACTORS
330
1A
102
}
330
1A
100
AcDbPlotSettings
  1

  2
none_device
  4

  6

 40
0.0
 41
0.0
 42
0.0
 43
0.0
 44
0.0
 45
0.0
 46
0.0
 47
0.0
 48
0.0
 49
0.0
140
0.0
141
0.0
142
1.0
143
1.0
 70
   688
 72
     0
 73
     0
 74
     5
  7

 75
    16
147
1.0
148
0.0
149
0.0
100
AcDbLayout
  1
Layout2
 70
     1
 71
     2
 10
0.0
 20
0.0
 11
0.0
 21
0.0
 12
0.0
 22
0.0
 32
0.0
 14
0.0
 24
0.0
 34
0.0
 15
0.0
 25
0.0
 35
0.0
146
0.0
 13
0.0
 23
0.0
 33
0.0
 16
1.0
 26
0.0
 36
0.0
 17
0.0
 27
1.0
 37
0.0
 76
     0
330
23
  0
LAYOUT
  5
22
102
{ACAD_REACTORS
330
1A
102
}
330
1A
100
AcDbPlotSettings
  1

  2
none_device
  4

  6

 40
0.0
 41
0.0
 42
0.0
 43
0.0
 44
0.0
 45
0.0
 46
0.0
 47
0.0
 48
0.0
 49
0.0
140
0.0
141
0.0
142
1.0
143
1.0
 70
  1712
 72
     0
 73
     0
 74
     0
  7

 75
     0
147
1.0
148
0.0
149
0.0
100
AcDbLayout
  1
Model
 70
     1
 71
     0
 10
0.0
 20
0.0
 11
12.0
 21
9.0
 12
0.0
 22
0.0
 32
0.0
 14
-28.752641557474
 24
1.11400396973662
 34
0.0
 15
227.558716239733
 25
278.784772612172
 35
0.0
146
0.0
 13
0.0
 23
0.0
 33
0.0
 16
1.0
 26
0.0
 36
0.0
 17
0.0
 27
1.0
 37
0.0
 76
     0
330
1F
331
29
  0
MATERIAL
  5
3D
102
{ACAD_REACTORS
330
3B
102
}
102
{ACAD_XDICTIONARY
360
2EB
102
}
330
3B
100
AcDbMaterial
  1
ByBlock
  0
MATERIAL
  5
3C
102
{ACAD_REACTORS
330
3B
102
}
102
{ACAD_XDICTIONARY
360
2E9
102
}
330
3B
100
AcDbMaterial
  1
ByLayer
  0
MATERIAL
  5
3E
102
{ACAD_REACTORS
330
3B
102
}
102
{ACAD_XDICTIONARY
360
2ED
102
}
330
3B
100
AcDbMaterial
  1
Global
  0
MLINESTYLE
  5
18
102
{ACAD_REACTORS
330
17
102
}
330
17
100
AcDbMlineStyle
  2
Standard
 70
     0
  3

 62
   256
 51
90.0
 52
90.0
 71
     2
 49
0.5
 62
   256
  6
BYLAYER
 49
-0.5
 62
   256
  6
BYLAYER
  0
ACDBPLACEHOLDER
  5
F
102
{ACAD_REACTORS
330
E
102
}
330
E
  0
SCALE
  5
28A
102
{ACAD_REACTORS
330
289
102
}
330
289
100
AcDbScale
 70
     0
300
1:1
140
1.0
141
1.0
290
     1
  0
SCALE
  5
28B
102
{ACAD_REACTORS
330
289
102
}
330
289
100
AcDbScale
 70
     0
300
1:2
140
1.0
141
2.0
290
     0
  0
SCALE
  5
28C
102
{ACAD_REACTORS
330
289
102
}
330
289
100
AcDbScale
 70
     0
300
1:4
140
1.0
141
4.0
290
     0
  0
SCALE
  5
28D
102
{ACAD_REACTORS
330
289
102
}
330
289
100
AcDbScale
 70
     0
300
1:5
140
1.0
141
5.0
290
     0
  0
SCALE
  5
28E
102
{ACAD_REACTORS
330
289
102
}
330
289
100
AcDbScale
 70
     0
300
1:8
140
1.0
141
8.0
290
     0
  0
SCALE
  5
28F
102
{ACAD_REACTORS
330
289
102
}
330
289
100
AcDbScale
 70
     0
300
1:10
140
1.0
141
10.0
290
     0
  0
SCALE
  5
290
102
{ACAD_REACTORS
330
289
102
}
330
289
100
AcDbScale
 70
     0
300
1:16
140
1.0
141
16.0
290
     0
  0
SCALE
  5
291
102
{ACAD_REACTORS
330
289
102
}
330
289
100
AcDbScale
 70
     0
300
1:20
140
1.0
141
20.0
290
     0
  0
SCALE
  5
292
102
{ACAD_REACTORS
330
289
102
}
330
289
100
AcDbScale
 70
     0
300
1:30
140
1.0
141
30.0
290
     0
  0
SCALE
  5
293
102
{ACAD_REACTORS
330
289
102
}
330
289
100
AcDbScale
 70
     0
300
1:40
140
1.0
141
40.0
290
     0
  0
SCALE
  5
294
102
{ACAD_REACTORS
330
289
102
}
330
289
100
AcDbScale
 70
     0
300
1:50
140
1.0
141
50.0
290
     0
  0
SCALE
  5
295
102
{ACAD_REACTORS
330
289
102
}
330
289
100
AcDbScale
 70
     0
300
1:100
140
1.0
141
100.0
290
     0
  0
SCALE
  5
296
102
{ACAD_REACTORS
330
289
102
}
330
289
100
AcDbScale
 70
     0
300
2:1
140
2.0
141
1.0
290
     0
  0
SCALE
  5
297
102
{ACAD_REACTORS
330
289
102
}
330
289
100
AcDbScale
 70
     0
300
4:1
140
4.0
141
1.0
290
     0
  0
SCALE
  5
298
102
{ACAD_REACTORS
330
289
102
}
330
289
100
AcDbScale
 70
     0
300
8:1
140
8.0
141
1.0
290
     0
  0
SCALE
  5
299
102
{ACAD_REACTORS
330
289
102
}
330
289
100
AcDbScale
 70
     0
300
10:1
140
10.0
141
1.0
290
     0
  0
SCALE
  5
29A
102
{ACAD_REACTORS
330
289
102
}
330
289
100
AcDbScale
 70
     0
300
100:1
140
100.0
141
1.0
290
     0
  0
SCALE
  5
29B
102
{ACAD_REACTORS
330
289
102
}
330
289
100
AcDbScale
 70
     0
300
1/128" = 1'-0"
140
0.0078125
141
12.0
290
     0
  0
SCALE
  5
29C
102
{ACAD_REACTORS
330
289
102
}
330
289
100
AcDbScale
 70
     0
300
1/64" = 1'-0"
140
0.015625
141
12.0
290
     0
  0
SCALE
  5
29D
102
{ACAD_REACTORS
330
289
102
}
330
289
100
AcDbScale
 70
     0
300
1/32" = 1'-0"
140
0.03125
141
12.0
290
     0
  0
SCALE
  5
29E
102
{ACAD_REACTORS
330
289
102
}
330
289
100
AcDbScale
 70
     0
300
1/16" = 1'-0"
140
0.0625
141
12.0
290
     0
  0
SCALE
  5
29F
102
{ACAD_REACTORS
330
289
102
}
330
289
100
AcDbScale
 70
     0
300
3/32" = 1'-0"
140
0.09375
141
12.0
290
     0
  0
SCALE
  5
2A0
102
{ACAD_REACTORS
330
289
102
}
330
289
100
AcDbScale
 70
     0
300
1/8" = 1'-0"
140
0.125
141
12.0
290
     0
  0
SCALE
  5
2A1
102
{ACAD_REACTORS
330
289
102
}
330
289
100
AcDbScale
 70
     0
300
3/16" = 1'-0"
140
0.1875
141
12.0
290
     0
  0
SCALE
  5
2A2
102
{ACAD_REACTORS
330
289
102
}
330
289
100
AcDbScale
 70
     0
300
1/4" = 1'-0"
140
0.25
141
12.0
290
     0
  0
SCALE
  5
2A3
102
{ACAD_REACTORS
330
289
102
}
330
289
100
AcDbScale
 70
     0
300
3/8" = 1'-0"
140
0.375
141
12.0
290
     0
  0
SCALE
  5
2A4
102
{ACAD_REACTORS
330
289
102
}
330
289
100
AcDbScale
 70
     0
300
1/2" = 1'-0"
140
0.5
141
12.0
290
     0
  0
SCALE
  5
2A5
102
{ACAD_REACTORS
330
289
102
}
330
289
100
AcDbScale
 70
     0
300
3/4" = 1'-0"
140
0.75
141
12.0
290
     0
  0
SCALE
  5
2A6
102
{ACAD_REACTORS
330
289
102
}
330
289
100
AcDbScale
 70
     0
300
1" = 1'-0"
140
1.0
141
12.0
290
     0
  0
SCALE
  5
2A7
102
{ACAD_REACTORS
330
289
102
}
330
289
100
AcDbScale
 70
     0
300
1-1/2" = 1'-0"
140
1.5
141
12.0
290
     0
  0
SCALE
  5
2A8
102
{ACAD_REACTORS
330
289
102
}
330
289
100
AcDbScale
 70
     0
300
3" = 1'-0"
140
3.0
141
12.0
290
     0
  0
SCALE
  5
2A9
102
{ACAD_REACTORS
330
289
102
}
330
289
100
AcDbScale
 70
     0
300
6" = 1'-0"
140
6.0
141
12.0
290
     0
  0
SCALE
  5
2AA
102
{ACAD_REACTORS
330
289
102
}
330
289
100
AcDbScale
 70
     0
300
1'-0" = 1'-0"
140
12.0
141
12.0
290
     0
  0
VISUALSTYLE
  5
2F
102
{ACAD_REACTORS
330
2A
102
}
102
{ACAD_XDICTIONARY
360
2D1
102
}
330
2A
100
AcDbVisualStyle
  2
2dWireframe
 70
     4
 71
     0
 72
     2
 73
     0
 90
        0
 40
-0.6
 41
-30.0
 62
     5
 63
     7
 74
     1
 91
        4
 64
     7
 65
   257
 75
     1
175
     1
 42
1.0
 92
        0
 66
   257
 43
1.0
 76
     1
 77
     6
 78
     2
 67
     7
 79
     5
170
     0
171
     0
290
     0
174
     0
 93
        1
 44
0.0
173
     0
291
     0
 45
0.0
1001
ACAD
1000
AcDbSavedByObjectVersion
1070
     0
  0
VISUALSTYLE
  5
31
102
{ACAD_REACTORS
330
2A
102
}
102
{ACAD_XDICTIONARY
360
2D5
102
}
330
2A
100
AcDbVisualStyle
  2
3D Hidden
 70
     6
 71
     1
 72
     2
 73
     2
 90
        0
 40
-0.6
 41
-30.0
 62
     5
 63
     7
 74
     2
 91
        2
 64
     7
 65
   257
 75
     2
175
     1
 42
40.0
 92
        0
 66
   257
 43
1.0
 76
     1
 77
     6
 78
     2
 67
     7
 79
     3
170
     0
171
     0
290
     0
174
     0
 93
        1
 44
0.0
173
     0
291
     0
 45
0.0
1001
ACAD
1000
AcDbSavedByObjectVersion
1070
     0
  0
VISUALSTYLE
  5
30
102
{ACAD_REACTORS
330
2A
102
}
102
{ACAD_XDICTIONARY
360
2D3
102
}
330
2A
100
AcDbVisualStyle
  2
3dWireframe
 70
     5
 71
     0
 72
     2
 73
     0
 90
        0
 40
-0.6
 41
-30.0
 62
     5
 63
     7
 74
     1
 91
        4
 64
     7
 65
   257
 75
     1
175
     1
 42
1.0
 92
        0
 66
   257
 43
1.0
 76
     1
 77
     6
 78
     2
 67
     7
 79
     5
170
     0
171
     0
290
     0
174
     0
 93
        1
 44
0.0
173
     0
291
     0
 45
0.0
1001
ACAD
1000
AcDbSavedByObjectVersion
1070
     0
  0
VISUALSTYLE
  5
32
102
{ACAD_REACTORS
330
2A
102
}
102
{ACAD_XDICTIONARY
360
2D7
102
}
330
2A
100
AcDbVisualStyle
  2
Basic
 70
     7
 71
     1
 72
     0
 73
     1
 90
        0
 40
-0.6
 41
-30.0
 62
     5
 63
     7
 74
     0
 91
        4
 64
     7
 65
   257
 75
     1
175
     1
 42
1.0
 92
        8
 66
     7
 43
1.0
 76
     1
 77
     6
 78
     2
 67
     7
 79
     5
170
     0
171
     0
290
     0
174
     0
 93
        1
 44
0.0
173
     0
291
     1
 45
0.0
1001
ACAD
1000
AcDbSavedByObjectVersion
1070
     0
  0
VISUALSTYLE
  5
36
102
{ACAD_REACTORS
330
2A
102
}
102
{ACAD_XDICTIONARY
360
2DF
102
}
330
2A
100
AcDbVisualStyle
  2
Brighten
 70
    12
 71
     2
 72
     2
 73
     0
 90
        0
 40
-0.6
 41
-30.0
 62
     5
 63
     7
 74
     1
 91
        4
 64
     7
 65
   257
 75
     1
175
     1
 42
1.0
 92
        8
 66
     7
 43
1.0
 76
     1
 77
     6
 78
     2
 67
     7
 79
     5
170
     0
171
     0
290
     0
174
     0
 93
        1
 44
50.0
173
     0
291
     1
 45
0.0
1001
ACAD
1000
AcDbSavedByObjectVersion
1070
     0
  0
VISUALSTYLE
  5
3A
102
{ACAD_REACTORS
330
2A
102
}
102
{ACAD_XDICTIONARY
360
2E7
102
}
330
2A
100
AcDbVisualStyle
  2
ColorChange
 70
    16
 71
     2
 72
     2
 73
     3
 90
        0
 40
-0.6
 41
-30.0
 62
     5
 63
     8
 74
     1
 91
        4
 64
     7
 65
   257
 75
     1
175
     1
 42
1.0
 92
        8
 66
     8
 43
1.0
 76
     1
 77
     6
 78
     2
 67
     7
 79
     5
170
     0
171
     0
290
     0
174
     0
 93
        1
 44
0.0
173
     0
291
     1
 45
0.0
1001
ACAD
1000
AcDbSavedByObjectVersion
1070
     0
  0
VISUALSTYLE
  5
34
102
{ACAD_REACTORS
330
2A
102
}
102
{ACAD_XDICTIONARY
360
2DB
102
}
330
2A
100
AcDbVisualStyle
  2
Conceptual
 70
     9
 71
     3
 72
     2
 73
     0
 90
        0
 40
-0.6
 41
-30.0
 62
     5
 63
     7
 74
     2
 91
        2
 64
     7
 65
   257
 75
     1
175
     1
 42
40.0
 92
        8
 66
     7
 43
1.0
 76
     1
 77
     6
 78
     2
 67
     7
 79
     3
170
     0
171
     0
290
     0
174
     0
 93
        1
 44
0.0
173
     0
291
     0
 45
0.0
1001
ACAD
1000
AcDbSavedByObjectVersion
1070
     0
  0
VISUALSTYLE
  5
35
102
{ACAD_REACTORS
330
2A
102
}
102
{ACAD_XDICTIONARY
360
2DD
102
}
330
2A
100
AcDbVisualStyle
  2
Dim
 70
    11
 71
     2
 72
     2
 73
     0
 90
        0
 40
-0.6
 41
-30.0
 62
     5
 63
     7
 74
     1
 91
        4
 64
     7
 65
   257
 75
     1
175
     1
 42
1.0
 92
        8
 66
     7
 43
1.0
 76
     1
 77
     6
 78
     2
 67
     7
 79
     5
170
     0
171
     0
290
     0
174
     0
 93
        1
 44
-50.0
173
     0
291
     1
 45
0.0
1001
ACAD
1000
AcDbSavedByObjectVersion
1070
     0
  0
VISUALSTYLE
  5
39
102
{ACAD_REACTORS
330
2A
102
}
102
{ACAD_XDICTIONARY
360
2E5
102
}
330
2A
100
AcDbVisualStyle
  2
Facepattern
 70
    15
 71
     2
 72
     2
 73
     0
 90
        0
 40
-0.6
 41
-30.0
 62
     5
 63
     7
 74
     1
 91
        4
 64
     7
 65
   257
 75
     1
175
     1
 42
1.0
 92
        8
 66
     7
 43
1.0
 76
     1
 77
     6
 78
     2
 67
     7
 79
     5
170
     0
171
     0
290
     0
174
     0
 93
        1
 44
0.0
173
     0
291
     1
 45
0.0
1001
ACAD
1000
AcDbSavedByObjectVersion
1070
     0
  0
VISUALSTYLE
  5
2B
102
{ACAD_REACTORS
330
2A
102
}
102
{ACAD_XDICTIONARY
360
2C9
102
}
330
2A
100
AcDbVisualStyle
  2
Flat
 70
     0
 71
     2
 72
     1
 73
     1
 90
        2
 40
-0.6
 41
30.0
 62
     5
 63
     7
 74
     0
 91
        4
 64
     7
 65
   257
 75
     1
175
     1
 42
1.0
 92
        8
 66
     7
 43
1.0
 76
     1
 77
     6
 78
     2
 67
     7
 79
     5
170
     0
171
     0
290
     0
174
     0
 93
       13
 44
0.0
173
     0
291
     1
 45
0.0
1001
ACAD
1000
AcDbSavedByObjectVersion
1070
     0
  0
VISUALSTYLE
  5
2C
102
{ACAD_REACTORS
330
2A
102
}
102
{ACAD_XDICTIONARY
360
2CB
102
}
330
2A
100
AcDbVisualStyle
  2
FlatWithEdges
 70
     1
 71
     2
 72
     1
 73
     1
 90
        2
 40
-0.6
 41
30.0
 62
     5
 63
     7
 74
     1
 91
        4
 64
     7
 65
   257
 75
     1
175
     1
 42
1.0
 92
        0
 66
   257
 43
1.0
 76
     1
 77
     6
 78
     2
 67
     7
 79
     5
170
     0
171
     0
290
     0
174
     0
 93
       13
 44
0.0
173
     0
291
     1
 45
0.0
1001
ACAD
1000
AcDbSavedByObjectVersion
1070
     0
  0
VISUALSTYLE
  5
2D
102
{ACAD_REACTORS
330
2A
102
}
102
{ACAD_XDICTIONARY
360
2CD
102
}
330
2A
100
AcDbVisualStyle
  2
Gouraud
 70
     2
 71
     2
 72
     2
 73
     1
 90
        2
 40
-0.6
 41
30.0
 62
     5
 63
     7
 74
     0
 91
        4
 64
     7
 65
   257
 75
     1
175
     1
 42
1.0
 92
        0
 66
     7
 43
1.0
 76
     1
 77
     6
 78
     2
 67
     7
 79
     5
170
     0
171
     0
290
     0
174
     0
 93
       13
 44
0.0
173
     0
291
     1
 45
0.0
1001
ACAD
1000
AcDbSavedByObjectVersion
1070
     0
  0
VISUALSTYLE
  5
2E
102
{ACAD_REACTORS
330
2A
102
}
102
{ACAD_XDICTIONARY
360
2CF
102
}
330
2A
100
AcDbVisualStyle
  2
GouraudWithEdges
 70
     3
 71
     2
 72
     2
 73
     1
 90
        2
 40
-0.6
 41
30.0
 62
     5
 63
     7
 74
     1
 91
        4
 64
     7
 65
   257
 75
     1
175
     1
 42
1.0
 92
        0
 66
   257
 43
1.0
 76
     1
 77
     6
 78
     2
 67
     7
 79
     5
170
     0
171
     0
290
     0
174
     0
 93
       13
 44
0.0
173
     0
291
     1
 45
0.0
1001
ACAD
1000
AcDbSavedByObjectVersion
1070
     0
  0
VISUALSTYLE
  5
38
102
{ACAD_REACTORS
330
2A
102
}
102
{ACAD_XDICTIONARY
360
2E3
102
}
330
2A
100
AcDbVisualStyle
  2
Linepattern
 70
    14
 71
     2
 72
     2
 73
     0
 90
        0
 40
-0.6
 41
-30.0
 62
     5
 63
     7
 74
     1
 91
        4
 64
     7
 65
   257
 75
     7
175
     7
 42
1.0
 92
        8
 66
     7
 43
1.0
 76
     1
 77
     6
 78
     2
 67
     7
 79
     5
170
     0
171
     0
290
     0
174
     0
 93
        1
 44
0.0
173
     0
291
     1
 45
0.0
1001
ACAD
1000
AcDbSavedByObjectVersion
1070
     0
  0
VISUALSTYLE
  5
33
102
{ACAD_REACTORS
330
2A
102
}
102
{ACAD_XDICTIONARY
360
2D9
102
}
330
2A
100
AcDbVisualStyle
  2
Realistic
 70
     8
 71
     2
 72
     2
 73
     0
 90
        0
 40
-0.6
 41
-30.0
 62
     5
 63
     7
 74
     1
 91
        0
 64
     7
 65
   257
 75
     1
175
     1
 42
1.0
 92
        8
 66
     8
 43
1.0
 76
     1
 77
     6
 78
     2
 67
     7
 79
     5
170
     0
171
     0
290
     0
174
     0
 93
       13
 44
0.0
173
     0
291
     0
 45
0.0
1001
ACAD
1000
AcDbSavedByObjectVersion
1070
     0
  0
VISUALSTYLE
  5
37
102
{ACAD_REACTORS
330
2A
102
}
102
{ACAD_XDICTIONARY
360
2E1
102
}
330
2A
100
AcDbVisualStyle
  2
Thicken
 70
    13
 71
     2
 72
     2
 73
     0
 90
        0
 40
-0.6
 41
-30.0
 62
     5
 63
     7
 74
     1
 91
        4
 64
     7
 65
   257
 75
     1
175
     1
 42
1.0
 92
       12
 66
     7
 43
1.0
 76
     1
 77
     6
 78
     2
 67
     7
 79
     5
170
     0
171
     0
290
     0
174
     0
 93
        1
 44
0.0
173
     0
291
     1
 45
0.0
1001
ACAD
1000
AcDbSavedByObjectVersion
1070
     0
  0
DICTIONARYVAR
  5
2C6
102
{ACAD_REACTORS
330
2C3
102
}
330
2C3
100
DictionaryVariables
280
     0
  1
1:1
  0
DICTIONARYVAR
  5
2C7
102
{ACAD_REACTORS
330
2C3
102
}
330
2C3
100
DictionaryVariables
280
     0
  1
2
  0
DICTIONARYVAR
  5
2C8
102
{ACAD_REACTORS
330
2C3
102
}
330
2C3
100
DictionaryVariables
280
     0
  1
1
  0
DICTIONARY
  5
2EB
330
3D
100
AcDbDictionary
280
     1
281
     1
  3
ACAD_XREC_ROUNDTRIP
360
2EC
  0
DICTIONARY
  5
2E9
330
3C
100
AcDbDictionary
280
     1
281
     1
  3
ACAD_XREC_ROUNDTRIP
360
2EA
  0
DICTIONARY
  5
2ED
330
3E
100
AcDbDictionary
280
     1
281
     1
  3
ACAD_XREC_ROUNDTRIP
360
2EE
  0
DICTIONARY
  5
2D1
330
2F
100
AcDbDictionary
280
     1
281
     1
  3
ACAD_XREC_ROUNDTRIP
360
2D2
  0
DICTIONARY
  5
2D5
330
31
100
AcDbDictionary
280
     1
281
     1
  3
ACAD_XREC_ROUNDTRIP
360
2D6
  0
DICTIONARY
  5
2D3
330
30
100
AcDbDictionary
280
     1
281
     1
  3
ACAD_XREC_ROUNDTRIP
360
2D4
  0
DICTIONARY
  5
2D7
330
32
100
AcDbDictionary
280
     1
281
     1
  3
ACAD_XREC_ROUNDTRIP
360
2D8
  0
DICTIONARY
  5
2DF
330
36
100
AcDbDictionary
280
     1
281
     1
  3
ACAD_XREC_ROUNDTRIP
360
2E0
  0
DICTIONARY
  5
2E7
330
3A
100
AcDbDictionary
280
     1
281
     1
  3
ACAD_XREC_ROUNDTRIP
360
2E8
  0
DICTIONARY
  5
2DB
330
34
100
AcDbDictionary
280
     1
281
     1
  3
ACAD_XREC_ROUNDTRIP
360
2DC
  0
DICTIONARY
  5
2DD
330
35
100
AcDbDictionary
280
     1
281
     1
  3
ACAD_XREC_ROUNDTRIP
360
2DE
  0
DICTIONARY
  5
2E5
330
39
100
AcDbDictionary
280
     1
281
     1
  3
ACAD_XREC_ROUNDTRIP
360
2E6
  0
DICTIONARY
  5
2C9
330
2B
100
AcDbDictionary
280
     1
281
     1
  3
ACAD_XREC_ROUNDTRIP
360
2CA
  0
DICTIONARY
  5
2CB
330
2C
100
AcDbDictionary
280
     1
281
     1
  3
ACAD_XREC_ROUNDTRIP
360
2CC
  0
DICTIONARY
  5
2CD
330
2D
100
AcDbDictionary
280
     1
281
     1
  3
ACAD_XREC_ROUNDTRIP
360
2CE
  0
DICTIONARY
  5
2CF
330
2E
100
AcDbDictionary
280
     1
281
     1
  3
ACAD_XREC_ROUNDTRIP
360
2D0
  0
DICTIONARY
  5
2E3
330
38
100
AcDbDictionary
280
     1
281
     1
  3
ACAD_XREC_ROUNDTRIP
360
2E4
  0
DICTIONARY
  5
2D9
330
33
100
AcDbDictionary
280
     1
281
     1
  3
ACAD_XREC_ROUNDTRIP
360
2DA
  0
DICTIONARY
  5
2E1
330
37
100
AcDbDictionary
280
     1
281
     1
  3
ACAD_XREC_ROUNDTRIP
360
2E2
  0
XRECORD
  5
2EC
102
{ACAD_REACTORS
330
2EB
102
}
330
2EB
100
AcDbXrecord
280
     1
102
MATERIAL
148
0.0
149
0.0
149
0.0
 93
        0
 94
      127
282
     0
 72
     1
 77
     1
171
     1
175
     1
179
     1
273
     0
  0
XRECORD
  5
2EA
102
{ACAD_REACTORS
330
2E9
102
}
330
2E9
100
AcDbXrecord
280
     1
102
MATERIAL
148
0.0
149
0.0
149
0.0
 93
        0
 94
      127
282
     0
 72
     1
 77
     1
171
     1
175
     1
179
     1
273
     0
  0
XRECORD
  5
2EE
102
{ACAD_REACTORS
330
2ED
102
}
330
2ED
100
AcDbXrecord
280
     1
102
MATERIAL
148
0.0
149
0.0
149
0.0
 93
        0
 94
      127
282
     0
 72
     1
 77
     1
171
     1
175
     1
179
     1
273
     0
  0
XRECORD
  5
2D2
102
{ACAD_REACTORS
330
2D1
102
}
330
2D1
100
AcDbXrecord
280
     1
102
RTVSPropertyOp0
 70
     1
102
RTVSPropertyOp1
 70
     1
102
RTVSPropertyOp2
 70
     1
102
RTVSPropertyOp3
 70
     1
102
RTVSPropertyOp4
 70
     1
102
RTVSPropertyOp5
 70
     1
102
RTVSPropertyOp6
 70
     1
102
RTVSPropertyOp7
 70
     1
102
RTVSPropertyOp8
 70
     1
102
RTVSPropertyOp9
 70
     1
102
RTVSPropertyOp10
 70
     1
102
RTVSPropertyOp11
 70
     1
102
RTVSPropertyOp12
 70
     1
102
RTVSPropertyOp13
 70
     1
102
RTVSPropertyOp14
 70
     1
102
RTVSPropertyOp15
 70
     1
102
RTVSPropertyOp16
 70
     1
102
RTVSPropertyOp17
 70
     1
102
RTVSPropertyOp18
 70
     1
102
RTVSPropertyOp19
 70
     1
102
RTVSPropertyOp20
 70
     1
102
RTVSPropertyOp21
 70
     1
102
RTVSPropertyOp22
 70
     1
102
RTVSPropertyOp23
 70
     1
102
RTVSPropertyOp24
 70
     1
102
RTVSPropertyOp25
 70
     1
102
RTVSPropertyOp26
 70
     1
102
RTVSPropertyOp27
 70
     1
  0
XRECORD
  5
2D6
102
{ACAD_REACTORS
330
2D5
102
}
330
2D5
100
AcDbXrecord
280
     1
102
RTVSPropertyOp0
 70
     1
102
RTVSPropertyOp1
 70
     1
102
RTVSPropertyOp2
 70
     1
102
RTVSPropertyOp3
 70
     1
102
RTVSPropertyOp4
 70
     1
102
RTVSPropertyOp5
 70
     1
102
RTVSPropertyOp6
 70
     1
102
RTVSPropertyOp7
 70
     1
102
RTVSPropertyOp8
 70
     1
102
RTVSPropertyOp9
 70
     1
102
RTVSPropertyOp10
 70
     1
102
RTVSPropertyOp11
 70
     1
102
RTVSPropertyOp12
 70
     1
102
RTVSPropertyOp13
 70
     1
102
RTVSPropertyOp14
 70
     1
102
RTVSPropertyOp15
 70
     1
102
RTVSPropertyOp16
 70
     1
102
RTVSPropertyOp17
 70
     1
102
RTVSPropertyOp18
 70
     1
102
RTVSPropertyOp19
 70
     1
102
RTVSPropertyOp20
 70
     1
102
RTVSPropertyOp21
 70
     1
102
RTVSPropertyOp22
 70
     1
102
RTVSPropertyOp23
 70
     1
102
RTVSPropertyOp24
 70
     1
102
RTVSPropertyOp25
 70
     1
102
RTVSPropertyOp26
 70
     1
102
RTVSPropertyOp27
 70
     1
  0
XRECORD
  5
2D4
102
{ACAD_REACTORS
330
2D3
102
}
330
2D3
100
AcDbXrecord
280
     1
102
RTVSPropertyOp0
 70
     1
102
RTVSPropertyOp1
 70
     1
102
RTVSPropertyOp2
 70
     1
102
RTVSPropertyOp3
 70
     1
102
RTVSPropertyOp4
 70
     1
102
RTVSPropertyOp5
 70
     1
102
RTVSPropertyOp6
 70
     1
102
RTVSPropertyOp7
 70
     1
102
RTVSPropertyOp8
 70
     1
102
RTVSPropertyOp9
 70
     1
102
RTVSPropertyOp10
 70
     1
102
RTVSPropertyOp11
 70
     1
102
RTVSPropertyOp12
 70
     1
102
RTVSPropertyOp13
 70
     1
102
RTVSPropertyOp14
 70
     1
102
RTVSPropertyOp15
 70
     1
102
RTVSPropertyOp16
 70
     1
102
RTVSPropertyOp17
 70
     1
102
RTVSPropertyOp18
 70
     1
102
RTVSPropertyOp19
 70
     1
102
RTVSPropertyOp20
 70
     1
102
RTVSPropertyOp21
 70
     1
102
RTVSPropertyOp22
 70
     1
102
RTVSPropertyOp23
 70
     1
102
RTVSPropertyOp24
 70
     1
102
RTVSPropertyOp25
 70
     1
102
RTVSPropertyOp26
 70
     1
102
RTVSPropertyOp27
 70
     1
  0
XRECORD
  5
2D8
102
{ACAD_REACTORS
330
2D7
102
}
330
2D7
100
AcDbXrecord
280
     1
102
RTVSPropertyOp0
 70
     1
102
RTVSPropertyOp1
 70
     1
102
RTVSPropertyOp2
 70
     1
102
RTVSPropertyOp3
 70
     1
102
RTVSPropertyOp4
 70
     1
102
RTVSPropertyOp5
 70
     1
102
RTVSPropertyOp6
 70
     1
102
RTVSPropertyOp7
 70
     1
102
RTVSPropertyOp8
 70
     1
102
RTVSPropertyOp9
 70
     1
102
RTVSPropertyOp10
 70
     1
102
RTVSPropertyOp11
 70
     1
102
RTVSPropertyOp12
 70
     1
102
RTVSPropertyOp13
 70
     1
102
RTVSPropertyOp14
 70
     1
102
RTVSPropertyOp15
 70
     1
102
RTVSPropertyOp16
 70
     1
102
RTVSPropertyOp17
 70
     1
102
RTVSPropertyOp18
 70
     1
102
RTVSPropertyOp19
 70
     1
102
RTVSPropertyOp20
 70
     1
102
RTVSPropertyOp21
 70
     1
102
RTVSPropertyOp22
 70
     1
102
RTVSPropertyOp23
 70
     1
102
RTVSPropertyOp24
 70
     1
102
RTVSPropertyOp25
 70
     1
102
RTVSPropertyOp26
 70
     1
102
RTVSPropertyOp27
 70
     1
  0
XRECORD
  5
2E0
102
{ACAD_REACTORS
330
2DF
102
}
330
2DF
100
AcDbXrecord
280
     1
102
RTVSPropertyOp0
 70
     1
102
RTVSPropertyOp1
 70
     1
102
RTVSPropertyOp2
 70
     1
102
RTVSPropertyOp3
 70
     1
102
RTVSPropertyOp4
 70
     1
102
RTVSPropertyOp5
 70
     1
102
RTVSPropertyOp6
 70
     1
102
RTVSPropertyOp7
 70
     1
102
RTVSPropertyOp8
 70
     1
102
RTVSPropertyOp9
 70
     1
102
RTVSPropertyOp10
 70
     1
102
RTVSPropertyOp11
 70
     1
102
RTVSPropertyOp12
 70
     1
102
RTVSPropertyOp13
 70
     1
102
RTVSPropertyOp14
 70
     1
102
RTVSPropertyOp15
 70
     1
102
RTVSPropertyOp16
 70
     1
102
RTVSPropertyOp17
 70
     1
102
RTVSPropertyOp18
 70
     1
102
RTVSPropertyOp19
 70
     1
102
RTVSPropertyOp20
 70
     1
102
RTVSPropertyOp21
 70
     1
102
RTVSPropertyOp22
 70
     1
102
RTVSPropertyOp23
 70
     1
102
RTVSPropertyOp24
 70
     1
102
RTVSPropertyOp25
 70
     1
102
RTVSPropertyOp26
 70
     1
102
RTVSPropertyOp27
 70
     1
  0
XRECORD
  5
2E8
102
{ACAD_REACTORS
330
2E7
102
}
330
2E7
100
AcDbXrecord
280
     1
102
RTVSPropertyOp0
 70
     1
102
RTVSPropertyOp1
 70
     1
102
RTVSPropertyOp2
 70
     1
102
RTVSPropertyOp3
 70
     1
102
RTVSPropertyOp4
 70
     1
102
RTVSPropertyOp5
 70
     1
102
RTVSPropertyOp6
 70
     1
102
RTVSPropertyOp7
 70
     1
102
RTVSPropertyOp8
 70
     1
102
RTVSPropertyOp9
 70
     1
102
RTVSPropertyOp10
 70
     1
102
RTVSPropertyOp11
 70
     1
102
RTVSPropertyOp12
 70
     1
102
RTVSPropertyOp13
 70
     1
102
RTVSPropertyOp14
 70
     1
102
RTVSPropertyOp15
 70
     1
102
RTVSPropertyOp16
 70
     1
102
RTVSPropertyOp17
 70
     1
102
RTVSPropertyOp18
 70
     1
102
RTVSPropertyOp19
 70
     1
102
RTVSPropertyOp20
 70
     1
102
RTVSPropertyOp21
 70
     1
102
RTVSPropertyOp22
 70
     1
102
RTVSPropertyOp23
 70
     1
102
RTVSPropertyOp24
 70
     1
102
RTVSPropertyOp25
 70
     1
102
RTVSPropertyOp26
 70
     1
102
RTVSPropertyOp27
 70
     1
  0
XRECORD
  5
2DC
102
{ACAD_REACTORS
330
2DB
102
}
330
2DB
100
AcDbXrecord
280
     1
102
RTVSPropertyOp0
 70
     1
102
RTVSPropertyOp1
 70
     1
102
RTVSPropertyOp2
 70
     1
102
RTVSPropertyOp3
 70
     1
102
RTVSPropertyOp4
 70
     1
102
RTVSPropertyOp5
 70
     1
102
RTVSPropertyOp6
 70
     1
102
RTVSPropertyOp7
 70
     1
102
RTVSPropertyOp8
 70
     1
102
RTVSPropertyOp9
 70
     1
102
RTVSPropertyOp10
 70
     1
102
RTVSPropertyOp11
 70
     1
102
RTVSPropertyOp12
 70
     1
102
RTVSPropertyOp13
 70
     1
102
RTVSPropertyOp14
 70
     1
102
RTVSPropertyOp15
 70
     1
102
RTVSPropertyOp16
 70
     1
102
RTVSPropertyOp17
 70
     1
102
RTVSPropertyOp18
 70
     1
102
RTVSPropertyOp19
 70
     1
102
RTVSPropertyOp20
 70
     1
102
RTVSPropertyOp21
 70
     1
102
RTVSPropertyOp22
 70
     1
102
RTVSPropertyOp23
 70
     1
102
RTVSPropertyOp24
 70
     1
102
RTVSPropertyOp25
 70
     1
102
RTVSPropertyOp26
 70
     1
102
RTVSPropertyOp27
 70
     1
  0
XRECORD
  5
2DE
102
{ACAD_REACTORS
330
2DD
102
}
330
2DD
100
AcDbXrecord
280
     1
102
RTVSPropertyOp0
 70
     1
102
RTVSPropertyOp1
 70
     1
102
RTVSPropertyOp2
 70
     1
102
RTVSPropertyOp3
 70
     1
102
RTVSPropertyOp4
 70
     1
102
RTVSPropertyOp5
 70
     1
102
RTVSPropertyOp6
 70
     1
102
RTVSPropertyOp7
 70
     1
102
RTVSPropertyOp8
 70
     1
102
RTVSPropertyOp9
 70
     1
102
RTVSPropertyOp10
 70
     1
102
RTVSPropertyOp11
 70
     1
102
RTVSPropertyOp12
 70
     1
102
RTVSPropertyOp13
 70
     1
102
RTVSPropertyOp14
 70
     1
102
RTVSPropertyOp15
 70
     1
102
RTVSPropertyOp16
 70
     1
102
RTVSPropertyOp17
 70
     1
102
RTVSPropertyOp18
 70
     1
102
RTVSPropertyOp19
 70
     1
102
RTVSPropertyOp20
 70
     1
102
RTVSPropertyOp21
 70
     1
102
RTVSPropertyOp22
 70
     1
102
RTVSPropertyOp23
 70
     1
102
RTVSPropertyOp24
 70
     1
102
RTVSPropertyOp25
 70
     1
102
RTVSPropertyOp26
 70
     1
102
RTVSPropertyOp27
 70
     1
  0
XRECORD
  5
2E6
102
{ACAD_REACTORS
330
2E5
102
}
330
2E5
100
AcDbXrecord
280
     1
102
RTVSPropertyOp0
 70
     1
102
RTVSPropertyOp1
 70
     1
102
RTVSPropertyOp2
 70
     1
102
RTVSPropertyOp3
 70
     1
102
RTVSPropertyOp4
 70
     1
102
RTVSPropertyOp5
 70
     1
102
RTVSPropertyOp6
 70
     1
102
RTVSPropertyOp7
 70
     1
102
RTVSPropertyOp8
 70
     1
102
RTVSPropertyOp9
 70
     1
102
RTVSPropertyOp10
 70
     1
102
RTVSPropertyOp11
 70
     1
102
RTVSPropertyOp12
 70
     1
102
RTVSPropertyOp13
 70
     1
102
RTVSPropertyOp14
 70
     1
102
RTVSPropertyOp15
 70
     1
102
RTVSPropertyOp16
 70
     1
102
RTVSPropertyOp17
 70
     1
102
RTVSPropertyOp18
 70
     1
102
RTVSPropertyOp19
 70
     1
102
RTVSPropertyOp20
 70
     1
102
RTVSPropertyOp21
 70
     1
102
RTVSPropertyOp22
 70
     1
102
RTVSPropertyOp23
 70
     1
102
RTVSPropertyOp24
 70
     1
102
RTVSPropertyOp25
 70
     1
102
RTVSPropertyOp26
 70
     1
102
RTVSPropertyOp27
 70
     1
  0
XRECORD
  5
2CA
102
{ACAD_REACTORS
330
2C9
102
}
330
2C9
100
AcDbXrecord
280
     1
102
RTVSPropertyOp0
 70
     1
102
RTVSPropertyOp1
 70
     1
102
RTVSPropertyOp2
 70
     1
102
RTVSPropertyOp3
 70
     1
102
RTVSPropertyOp4
 70
     1
102
RTVSPropertyOp5
 70
     1
102
RTVSPropertyOp6
 70
     1
102
RTVSPropertyOp7
 70
     1
102
RTVSPropertyOp8
 70
     1
102
RTVSPropertyOp9
 70
     1
102
RTVSPropertyOp10
 70
     1
102
RTVSPropertyOp11
 70
     1
102
RTVSPropertyOp12
 70
     1
102
RTVSPropertyOp13
 70
     1
102
RTVSPropertyOp14
 70
     1
102
RTVSPropertyOp15
 70
     1
102
RTVSPropertyOp16
 70
     1
102
RTVSPropertyOp17
 70
     1
102
RTVSPropertyOp18
 70
     1
102
RTVSPropertyOp19
 70
     1
102
RTVSPropertyOp20
 70
     1
102
RTVSPropertyOp21
 70
     1
102
RTVSPropertyOp22
 70
     1
102
RTVSPropertyOp23
 70
     1
102
RTVSPropertyOp24
 70
     1
102
RTVSPropertyOp25
 70
     1
102
RTVSPropertyOp26
 70
     1
102
RTVSPropertyOp27
 70
     1
  0
XRECORD
  5
2CC
102
{ACAD_REACTORS
330
2CB
102
}
330
2CB
100
AcDbXrecord
280
     1
102
RTVSPropertyOp0
 70
     1
102
RTVSPropertyOp1
 70
     1
102
RTVSPropertyOp2
 70
     1
102
RTVSPropertyOp3
 70
     1
102
RTVSPropertyOp4
 70
     1
102
RTVSPropertyOp5
 70
     1
102
RTVSPropertyOp6
 70
     1
102
RTVSPropertyOp7
 70
     1
102
RTVSPropertyOp8
 70
     1
102
RTVSPropertyOp9
 70
     1
102
RTVSPropertyOp10
 70
     1
102
RTVSPropertyOp11
 70
     1
102
RTVSPropertyOp12
 70
     1
102
RTVSPropertyOp13
 70
     1
102
RTVSPropertyOp14
 70
     1
102
RTVSPropertyOp15
 70
     1
102
RTVSPropertyOp16
 70
     1
102
RTVSPropertyOp17
 70
     1
102
RTVSPropertyOp18
 70
     1
102
RTVSPropertyOp19
 70
     1
102
RTVSPropertyOp20
 70
     1
102
RTVSPropertyOp21
 70
     1
102
RTVSPropertyOp22
 70
     1
102
RTVSPropertyOp23
 70
     1
102
RTVSPropertyOp24
 70
     1
102
RTVSPropertyOp25
 70
     1
102
RTVSPropertyOp26
 70
     1
102
RTVSPropertyOp27
 70
     1
  0
XRECORD
  5
2CE
102
{ACAD_REACTORS
330
2CD
102
}
330
2CD
100
AcDbXrecord
280
     1
102
RTVSPropertyOp0
 70
     1
102
RTVSPropertyOp1
 70
     1
102
RTVSPropertyOp2
 70
     1
102
RTVSPropertyOp3
 70
     1
102
RTVSPropertyOp4
 70
     1
102
RTVSPropertyOp5
 70
     1
102
RTVSPropertyOp6
 70
     1
102
RTVSPropertyOp7
 70
     1
102
RTVSPropertyOp8
 70
     1
102
RTVSPropertyOp9
 70
     1
102
RTVSPropertyOp10
 70
     1
102
RTVSPropertyOp11
 70
     1
102
RTVSPropertyOp12
 70
     1
102
RTVSPropertyOp13
 70
     1
102
RTVSPropertyOp14
 70
     1
102
RTVSPropertyOp15
 70
     1
102
RTVSPropertyOp16
 70
     1
102
RTVSPropertyOp17
 70
     1
102
RTVSPropertyOp18
 70
     1
102
RTVSPropertyOp19
 70
     1
102
RTVSPropertyOp20
 70
     1
102
RTVSPropertyOp21
 70
     1
102
RTVSPropertyOp22
 70
     1
102
RTVSPropertyOp23
 70
     1
102
RTVSPropertyOp24
 70
     1
102
RTVSPropertyOp25
 70
     1
102
RTVSPropertyOp26
 70
     1
102
RTVSPropertyOp27
 70
     1
  0
XRECORD
  5
2D0
102
{ACAD_REACTORS
330
2CF
102
}
330
2CF
100
AcDbXrecord
280
     1
102
RTVSPropertyOp0
 70
     1
102
RTVSPropertyOp1
 70
     1
102
RTVSPropertyOp2
 70
     1
102
RTVSPropertyOp3
 70
     1
102
RTVSPropertyOp4
 70
     1
102
RTVSPropertyOp5
 70
     1
102
RTVSPropertyOp6
 70
     1
102
RTVSPropertyOp7
 70
     1
102
RTVSPropertyOp8
 70
     1
102
RTVSPropertyOp9
 70
     1
102
RTVSPropertyOp10
 70
     1
102
RTVSPropertyOp11
 70
     1
102
RTVSPropertyOp12
 70
     1
102
RTVSPropertyOp13
 70
     1
102
RTVSPropertyOp14
 70
     1
102
RTVSPropertyOp15
 70
     1
102
RTVSPropertyOp16
 70
     1
102
RTVSPropertyOp17
 70
     1
102
RTVSPropertyOp18
 70
     1
102
RTVSPropertyOp19
 70
     1
102
RTVSPropertyOp20
 70
     1
102
RTVSPropertyOp21
 70
     1
102
RTVSPropertyOp22
 70
     1
102
RTVSPropertyOp23
 70
     1
102
RTVSPropertyOp24
 70
     1
102
RTVSPropertyOp25
 70
     1
102
RTVSPropertyOp26
 70
     1
102
RTVSPropertyOp27
 70
     1
  0
XRECORD
  5
2E4
102
{ACAD_REACTORS
330
2E3
102
}
330
2E3
100
AcDbXrecord
280
     1
102
RTVSPropertyOp0
 70
     1
102
RTVSPropertyOp1
 70
     1
102
RTVSPropertyOp2
 70
     1
102
RTVSPropertyOp3
 70
     1
102
RTVSPropertyOp4
 70
     1
102
RTVSPropertyOp5
 70
     1
102
RTVSPropertyOp6
 70
     1
102
RTVSPropertyOp7
 70
     1
102
RTVSPropertyOp8
 70
     1
102
RTVSPropertyOp9
 70
     1
102
RTVSPropertyOp10
 70
     1
102
RTVSPropertyOp11
 70
     1
102
RTVSPropertyOp12
 70
     1
102
RTVSPropertyOp13
 70
     1
102
RTVSPropertyOp14
 70
     1
102
RTVSPropertyOp15
 70
     1
102
RTVSPropertyOp16
 70
     1
102
RTVSPropertyOp17
 70
     1
102
RTVSPropertyOp18
 70
     1
102
RTVSPropertyOp19
 70
     1
102
RTVSPropertyOp20
 70
     1
102
RTVSPropertyOp21
 70
     1
102
RTVSPropertyOp22
 70
     1
102
RTVSPropertyOp23
 70
     1
102
RTVSPropertyOp24
 70
     1
102
RTVSPropertyOp25
 70
     1
102
RTVSPropertyOp26
 70
     1
102
RTVSPropertyOp27
 70
     1
  0
XRECORD
  5
2DA
102
{ACAD_REACTORS
330
2D9
102
}
330
2D9
100
AcDbXrecord
280
     1
102
RTVSPropertyOp0
 70
     1
102
RTVSPropertyOp1
 70
     1
102
RTVSPropertyOp2
 70
     1
102
RTVSPropertyOp3
 70
     1
102
RTVSPropertyOp4
 70
     1
102
RTVSPropertyOp5
 70
     1
102
RTVSPropertyOp6
 70
     1
102
RTVSPropertyOp7
 70
     1
102
RTVSPropertyOp8
 70
     1
102
RTVSPropertyOp9
 70
     1
102
RTVSPropertyOp10
 70
     1
102
RTVSPropertyOp11
 70
     1
102
RTVSPropertyOp12
 70
     1
102
RTVSPropertyOp13
 70
     1
102
RTVSPropertyOp14
 70
     1
102
RTVSPropertyOp15
 70
     1
102
RTVSPropertyOp16
 70
     1
102
RTVSPropertyOp17
 70
     1
102
RTVSPropertyOp18
 70
     1
102
RTVSPropertyOp19
 70
     1
102
RTVSPropertyOp20
 70
     1
102
RTVSPropertyOp21
 70
     1
102
RTVSPropertyOp22
 70
     1
102
RTVSPropertyOp23
 70
     1
102
RTVSPropertyOp24
 70
     1
102
RTVSPropertyOp25
 70
     1
102
RTVSPropertyOp26
 70
     1
102
RTVSPropertyOp27
 70
     1
  0
XRECORD
  5
2E2
102
{ACAD_REACTORS
330
2E1
102
}
330
2E1
100
AcDbXrecord
280
     1
102
RTVSPropertyOp0
 70
     1
102
RTVSPropertyOp1
 70
     1
102
RTVSPropertyOp2
 70
     1
102
RTVSPropertyOp3
 70
     1
102
RTVSPropertyOp4
 70
     1
102
RTVSPropertyOp5
 70
     1
102
RTVSPropertyOp6
 70
     1
102
RTVSPropertyOp7
 70
     1
102
RTVSPropertyOp8
 70
     1
102
RTVSPropertyOp9
 70
     1
102
RTVSPropertyOp10
 70
     1
102
RTVSPropertyOp11
 70
     1
102
RTVSPropertyOp12
 70
     1
102
RTVSPropertyOp13
 70
     1
102
RTVSPropertyOp14
 70
     1
102
RTVSPropertyOp15
 70
     1
102
RTVSPropertyOp16
 70
     1
102
RTVSPropertyOp17
 70
     1
102
RTVSPropertyOp18
 70
     1
102
RTVSPropertyOp19
 70
     1
102
RTVSPropertyOp20
 70
     1
102
RTVSPropertyOp21
 70
     1
102
RTVSPropertyOp22
 70
     1
102
RTVSPropertyOp23
 70
     1
102
RTVSPropertyOp24
 70
     1
102
RTVSPropertyOp25
 70
     1
102
RTVSPropertyOp26
 70
     1
102
RTVSPropertyOp27
 70
     1
  0
ENDSEC
  0
EOF
