  0
SECTION
  2
HEADER
  9
$ACADVER
  1
AC1015
  9
$ACADMAINTVER
 70
     6
  9
$DWGCODEPAGE
  3
ANSI_932
  9
$INSBASE
 10
0.0
 20
0.0
 30
0.0
  9
$EXTMIN
 10
241.104190239254
 20
-26.30297655877278
 30
0.0
  9
$EXTMAX
 10
911.1272852815375
 20
493.74351573997
 30
0.0
  9
$LIMMIN
 10
0.0
 20
0.0
  9
$LIMMAX
 10
12.0
 20
9.0
  9
$ORTHOMODE
 70
     0
  9
$REGENMODE
 70
     1
  9
$FILLMODE
 70
     1
  9
$QTEXTMODE
 70
     0
  9
$MIRRTEXT
 70
     1
  9
$LTSCALE
 40
1.0
  9
$ATTMODE
 70
     1
  9
$TEXTSIZE
 40
0.2
  9
$TRACEWID
 40
0.05
  9
$TEXTSTYLE
  7
Standard
  9
$CLAYER
  8
0
  9
$CELTYPE
  6
ByLayer
  9
$CECOLOR
 62
   256
  9
$CELTSCALE
 40
1.0
  9
$DISPSILH
 70
     0
  9
$DIMSCALE
 40
1.0
  9
$DIMASZ
 40
0.18
  9
$DIMEXO
 40
0.0625
  9
$DIMDLI
 40
0.38
  9
$DIMRND
 40
0.0
  9
$DIMDLE
 40
0.0
  9
$DIMEXE
 40
0.18
  9
$DIMTP
 40
0.0
  9
$DIMTM
 40
0.0
  9
$DIMTXT
 40
0.18
  9
$DIMCEN
 40
0.09
  9
$DIMTSZ
 40
0.0
  9
$DIMTOL
 70
     0
  9
$DIMLIM
 70
     0
  9
$DIMTIH
 70
     1
  9
$DIMTOH
 70
     1
  9
$DIMSE1
 70
     0
  9
$DIMSE2
 70
     0
  9
$DIMTAD
 70
     0
  9
$DIMZIN
 70
     0
  9
$DIMBLK
  1

  9
$DIMASO
 70
     1
  9
$DIMSHO
 70
     1
  9
$DIMPOST
  1

  9
$DIMAPOST
  1

  9
$DIMALT
 70
     0
  9
$DIMALTD
 70
     2
  9
$DIMALTF
 40
25.4
  9
$DIMLFAC
 40
1.0
  9
$DIMTOFL
 70
     0
  9
$DIMTVP
 40
0.0
  9
$DIMTIX
 70
     0
  9
$DIMSOXD
 70
     0
  9
$DIMSAH
 70
     0
  9
$DIMBLK1
  1

  9
$DIMBLK2
  1

  9
$DIMSTYLE
  2
Standard
  9
$DIMCLRD
 70
     0
  9
$DIMCLRE
 70
     0
  9
$DIMCLRT
 70
     0
  9
$DIMTFAC
 40
1.0
  9
$DIMGAP
 40
0.09
  9
$DIMJUST
 70
     0
  9
$DIMSD1
 70
     0
  9
$DIMSD2
 70
     0
  9
$DIMTOLJ
 70
     1
  9
$DIMTZIN
 70
     0
  9
$DIMALTZ
 70
     0
  9
$DIMALTTZ
 70
     0
  9
$DIMUPT
 70
     0
  9
$DIMDEC
 70
     4
  9
$DIMTDEC
 70
     4
  9
$DIMALTU
 70
     2
  9
$DIMALTTD
 70
     2
  9
$DIMTXSTY
  7
Standard
  9
$DIMAUNIT
 70
     0
  9
$DIMADEC
 70
     0
  9
$DIMALTRND
 40
0.0
  9
$DIMAZIN
 70
     0
  9
$DIMDSEP
 70
    46
  9
$DIMATFIT
 70
     3
  9
$DIMFRAC
 70
     0
  9
$DIMLDRBLK
  1

  9
$DIMLUNIT
 70
     2
  9
$DIMLWD
 70
    -2
  9
$DIMLWE
 70
    -2
  9
$DIMTMOVE
 70
     0
  9
$LUNITS
 70
     2
  9
$LUPREC
 70
     4
  9
$SKETCHINC
 40
0.1
  9
$FILLETRAD
 40
0.5
  9
$AUNITS
 70
     0
  9
$AUPREC
 70
     0
  9
$MENU
  1
.
  9
$ELEVATION
 40
0.0
  9
$PELEVATION
 40
0.0
  9
$THICKNESS
 40
0.0
  9
$LIMCHECK
 70
     0
  9
$CHAMFERA
 40
0.5
  9
$CHAMFERB
 40
0.5
  9
$CHAMFERC
 40
1.0
  9
$CHAMFERD
 40
0.0
  9
$SKPOLY
 70
     0
  9
$TDCREATE
 40
2457624.58048772
  9
$TDUCREATE
 40
2457624.20548772
  9
$TDUPDATE
 40
2457624.580487731
  9
$TDUUPDATE
 40
2457624.205487731
  9
$TDINDWG
 40
0.0000000116
  9
$TDUSRTIMER
 40
0.0000000116
  9
$USRTIMER
 70
     1
  9
$ANGBASE
 50
0.0
  9
$ANGDIR
 70
     0
  9
$PDMODE
 70
     0
  9
$PDSIZE
 40
0.0
  9
$PLINEWID
 40
0.0
  9
$SPLFRAME
 70
     0
  9
$SPLINETYPE
 70
     6
  9
$SPLINESEGS
 70
     8
  9
$HANDSEED
  5
3FF
  9
$SURFTAB1
 70
     6
  9
$SURFTAB2
 70
     6
  9
$SURFTYPE
 70
     6
  9
$SURFU
 70
     6
  9
$SURFV
 70
     6
  9
$UCSBASE
  2

  9
$UCSNAME
  2

  9
$UCSORG
 10
0.0
 20
0.0
 30
0.0
  9
$UCSXDIR
 10
1.0
 20
0.0
 30
0.0
  9
$UCSYDIR
 10
0.0
 20
1.0
 30
0.0
  9
$UCSORTHOREF
  2

  9
$UCSORTHOVIEW
 70
     0
  9
$UCSORGTOP
 10
0.0
 20
0.0
 30
0.0
  9
$UCSORGBOTTOM
 10
0.0
 20
0.0
 30
0.0
  9
$UCSORGLEFT
 10
0.0
 20
0.0
 30
0.0
  9
$UCSORGRIGHT
 10
0.0
 20
0.0
 30
0.0
  9
$UCSORGFRONT
 10
0.0
 20
0.0
 30
0.0
  9
$UCSORGBACK
 10
0.0
 20
0.0
 30
0.0
  9
$PUCSBASE
  2

  9
$PUCSNAME
  2

  9
$PUCSORG
 10
0.0
 20
0.0
 30
0.0
  9
$PUCSXDIR
 10
1.0
 20
0.0
 30
0.0
  9
$PUCSYDIR
 10
0.0
 20
1.0
 30
0.0
  9
$PUCSORTHOREF
  2

  9
$PUCSORTHOVIEW
 70
     0
  9
$PUCSORGTOP
 10
0.0
 20
0.0
 30
0.0
  9
$PUCSORGBOTTOM
 10
0.0
 20
0.0
 30
0.0
  9
$PUCSORGLEFT
 10
0.0
 20
0.0
 30
0.0
  9
$PUCSORGRIGHT
 10
0.0
 20
0.0
 30
0.0
  9
$PUCSORGFRONT
 10
0.0
 20
0.0
 30
0.0
  9
$PUCSORGBACK
 10
0.0
 20
0.0
 30
0.0
  9
$USERI1
 70
     0
  9
$USERI2
 70
     0
  9
$USERI3
 70
     0
  9
$USERI4
 70
     0
  9
$USERI5
 70
     0
  9
$USERR1
 40
18.0
  9
$USERR2
 40
0.0
  9
$USERR3
 40
0.0
  9
$USERR4
 40
0.0
  9
$USERR5
 40
0.0
  9
$WORLDVIEW
 70
     1
  9
$SHADEDGE
 70
     3
  9
$SHADEDIF
 70
    70
  9
$TILEMODE
 70
     1
  9
$MAXACTVP
 70
    64
  9
$PINSBASE
 10
0.0
 20
0.0
 30
0.0
  9
$PLIMCHECK
 70
     0
  9
$PEXTMIN
 10
1.00000000000000E+20
 20
1.00000000000000E+20
 30
1.00000000000000E+20
  9
$PEXTMAX
 10
-1.00000000000000E+20
 20
-1.00000000000000E+20
 30
-1.00000000000000E+20
  9
$PLIMMIN
 10
0.0
 20
0.0
  9
$PLIMMAX
 10
12.0
 20
9.0
  9
$UNITMODE
 70
     0
  9
$VISRETAIN
 70
     1
  9
$PLINEGEN
 70
     0
  9
$PSLTSCALE
 70
     1
  9
$TREEDEPTH
 70
  3020
  9
$CMLSTYLE
  2
Standard
  9
$CMLJUST
 70
     0
  9
$CMLSCALE
 40
1.0
  9
$PROXYGRAPHICS
 70
     1
  9
$MEASUREMENT
 70
     1
  9
$CELWEIGHT
370
    -1
  9
$ENDCAPS
280
     0
  9
$JOINSTYLE
280
     0
  9
$LWDISPLAY
290
     0
  9
$INSUNITS
 70
     1
  9
$HYPERLINKBASE
  1

  9
$STYLESHEET
  1

  9
$XEDIT
290
     1
  9
$CEPSNTYPE
380
     0
  9
$PSTYLEMODE
290
     1
  9
$FINGERPRINTGUID
  2
{5D848AB6-8565-431A-A5BA-ED524DB1F650}
  9
$VERSIONGUID
  2
{FAEB1C32-E019-11D5-929B-00C0DF256EC4}
  9
$EXTNAMES
290
     1
  9
$PSVPSCALE
 40
0.0
  9
$OLESTARTUP
290
     0
  0
ENDSEC
  0
SECTION
  2
CLASSES
  0
CLASS
  1
ACDBDICTIONARYWDFLT
  2
AcDbDictionaryWithDefault
  3
ObjectDBX Classes
 90
        0
280
     0
281
     0
  0
CLASS
  1
VISUALSTYLE
  2
AcDbVisualStyle
  3
ObjectDBX Classes
 90
     4095
280
     0
281
     0
  0
CLASS
  1
MATERIAL
  2
AcDbMaterial
  3
ObjectDBX Classes
 90
     1153
280
     0
281
     0
  0
CLASS
  1

  2
exOdDbCircle
  3

 90
        0
280
     0
281
     1
  0
CLASS
  1
SCALE
  2
AcDbScale
  3
ObjectDBX Classes
 90
     1153
280
     0
281
     0
  0
CLASS
  1
DICTIONARYVAR
  2
AcDbDictionaryVar
  3
ObjectDBX Classes
 90
        0
280
     0
281
     0
  0
CLASS
  1
ACDBPLACEHOLDER
  2
AcDbPlaceHolder
  3
ObjectDBX Classes
 90
        0
280
     0
281
     0
  0
CLASS
  1
LAYOUT
  2
AcDbLayout
  3
ObjectDBX Classes
 90
        0
280
     0
281
     0
  0
ENDSEC
  0
SECTION
  2
TABLES
  0
TABLE
  2
VPORT
  5
8
330
0
100
AcDbSymbolTable
 70
     1
  0
VPORT
  5
29
330
8
100
AcDbSymbolTableRecord
100
AcDbViewportTableRecord
  2
*Active
 70
     0
 10
0.0
 20
0.0
 11
1.0
 21
1.0
 12
576.1157377603957
 22
233.7202695905986
 13
0.0
 23
0.0
 14
0.5
 24
0.5
 15
0.5
 25
0.5
 16
0.0
 26
0.0
 36
1.0
 17
0.0
 27
0.0
 37
0.0
 40
572.0511415286171
 41
1.60267857142857
 42
50.0
 43
0.0
 44
0.0
 50
0.0
 51
0.0
 71
     0
 72
   100
 73
     1
 74
     3
 75
     0
 76
     0
 77
     0
 78
     0
281
     0
 65
     1
110
0.0
120
0.0
130
0.0
111
1.0
121
0.0
131
0.0
112
0.0
122
1.0
132
0.0
 79
     0
146
0.0
  0
ENDTAB
  0
TABLE
  2
LTYPE
  5
5
330
0
100
AcDbSymbolTable
 70
     9
  0
LTYPE
  5
14
330
5
100
AcDbSymbolTableRecord
100
AcDbLinetypeTableRecord
  2
ByBlock
 70
     0
  3

 72
    65
 73
     0
 40
0.0
  0
LTYPE
  5
15
330
5
100
AcDbSymbolTableRecord
100
AcDbLinetypeTableRecord
  2
ByLayer
 70
     0
  3

 72
    65
 73
     0
 40
0.0
  0
LTYPE
  5
16
330
5
100
AcDbSymbolTableRecord
100
AcDbLinetypeTableRecord
  2
Continuous
 70
     0
  3
Solid line
 72
    65
 73
     0
 40
0.0
  0
LTYPE
  5
3F
330
5
100
AcDbSymbolTableRecord
100
AcDbLinetypeTableRecord
  2
DASHED
 70
     0
  3
Dashed
 72
    65
 73
     2
 40
15.0
 49
7.0
 74
     0
 49
-8.0
 74
     0
  0
LTYPE
  5
40
330
5
100
AcDbSymbolTableRecord
100
AcDbLinetypeTableRecord
  2
DOTTED
 70
     0
  3
Dotted
 72
    65
 73
     2
 40
1.0
 49
0.0
 74
     0
 49
-1.0
 74
     0
  0
LTYPE
  5
41
330
5
100
AcDbSymbolTableRecord
100
AcDbLinetypeTableRecord
  2
DOT_CENTER
 70
     0
  3
Dot_Center
 72
    65
 73
     4
 40
14.0
 49
12.0
 74
     0
 49
-1.0
 74
     0
 49
0.0
 74
     0
 49
-1.0
 74
     0
  0
LTYPE
  5
42
330
5
100
AcDbSymbolTableRecord
100
AcDbLinetypeTableRecord
  2
LONG_DASHED
 70
     0
  3
Long_Dashed
 72
    65
 73
     2
 40
15.0
 49
10.0
 74
     0
 49
-5.0
 74
     0
  0
LTYPE
  5
43
330
5
100
AcDbSymbolTableRecord
100
AcDbLinetypeTableRecord
  2
DASH_CENTER
 70
     0
  3
Dash_Center
 72
    65
 73
     4
 40
14.0
 49
11.0
 74
     0
 49
-1.0
 74
     0
 49
1.0
 74
     0
 49
-1.0
 74
     0
  0
LTYPE
  5
44
330
5
100
AcDbSymbolTableRecord
100
AcDbLinetypeTableRecord
  2
PHANTOM
 70
     0
  3
Phantom
 72
    65
 73
     6
 40
13.0
 49
10.0
 74
     0
 49
-1.0
 74
     0
 49
0.0
 74
     0
 49
-1.0
 74
     0
 49
0.0
 74
     0
 49
-1.0
 74
     0
  0
LTYPE
  5
45
330
5
100
AcDbSymbolTableRecord
100
AcDbLinetypeTableRecord
  2
CENTER_DASH_DASH
 70
     0
  3
Center_Dash_Dash
 72
    65
 73
     6
 40
14.0
 49
9.0
 74
     0
 49
-1.0
 74
     0
 49
1.0
 74
     0
 49
-1.0
 74
     0
 49
1.0
 74
     0
 49
-1.0
 74
     0
  0
LTYPE
  5
46
330
5
100
AcDbSymbolTableRecord
100
AcDbLinetypeTableRecord
  2
CENTER
 70
     0
  3
CENTER
 72
    65
 73
     4
 40
6.0
 49
3.0
 74
     0
 49
-1.0
 74
     0
 49
1.0
 74
     0
 49
-1.0
 74
     0
  0
ENDTAB
  0
TABLE
  2
LAYER
  5
2
330
0
100
AcDbSymbolTable
 70
     4
  0
LAYER
  5
10
330
2
100
AcDbSymbolTableRecord
100
AcDbLayerTableRecord
  2
0
 70
     0
 62
     7
  6
Continuous
370
    -3
390
F
  0
LAYER
  5
47
330
2
100
AcDbSymbolTableRecord
100
AcDbLayerTableRecord
  2
1
 70
     0
 62
     7
  6
Continuous
370
    -3
390
F
  0
LAYER
  5
48
330
2
100
AcDbSymbolTableRecord
100
AcDbLayerTableRecord
  2
100
 70
     0
 62
     7
  6
Continuous
370
    -3
390
F
  0
LAYER
  5
49
330
2
100
AcDbSymbolTableRecord
100
AcDbLayerTableRecord
  2
2
 70
     0
 62
     7
  6
Continuous
370
    -3
390
F
  0
ENDTAB
  0
TABLE
  2
STYLE
  5
3
330
0
100
AcDbSymbolTable
 70
     2
  0
STYLE
  5
11
330
3
100
AcDbSymbolTableRecord
100
AcDbTextStyleTableRecord
  2
Standard
 70
     0
 40
0.0
 41
1.0
 50
0.0
 71
     0
 42
0.2
  3
txt
  4

  0
STYLE
  5
38B
330
3
100
AcDbSymbolTableRecord
100
AcDbTextStyleTableRecord
  2
CONVERTER_11
 70
     0
 40
0.0
 41
0.9
 50
0.0
 71
     0
 42
0.2
  3
txt.shx
  4

  0
ENDTAB
  0
TABLE
  2
VIEW
  5
6
330
0
100
AcDbSymbolTable
 70
     0
  0
ENDTAB
  0
TABLE
  2
UCS
  5
7
330
0
100
AcDbSymbolTable
 70
     0
  0
ENDTAB
  0
TABLE
  2
APPID
  5
9
330
0
100
AcDbSymbolTable
 70
     1
  0
APPID
  5
12
330
9
100
AcDbSymbolTableRecord
100
AcDbRegAppTableRecord
  2
ACAD
 70
     0
  0
ENDTAB
  0
TABLE
  2
DIMSTYLE
  5
A
330
0
100
AcDbSymbolTable
 70
     4
100
AcDbDimStyleTable
  0
DIMSTYLE
105
27
330
A
100
AcDbSymbolTableRecord
100
AcDbDimStyleTableRecord
  2
Standard
 70
     0
340
11
  0
DIMSTYLE
105
3B7
102
{ACAD_REACTORS
330
3B8
102
}
330
A
100
AcDbSymbolTableRecord
100
AcDbDimStyleTableRecord
  2
ME10_DIM_10
 70
     0
 41
8.0
 42
1.0
 44
1.0
 73
     0
 74
     0
 77
     1
 78
    12
140
10.0
147
1.0
172
     1
173
     1
174
     1
175
     1
176
     2
177
     2
178
     2
271
     3
340
38B
343
3B1
344
3B1
  0
DIMSTYLE
105
3C4
102
{ACAD_REACTORS
330
3C5
102
}
330
A
100
AcDbSymbolTableRecord
100
AcDbDimStyleTableRecord
  2
ME10_DIM_11
 70
     0
 41
8.0
 42
1.0
 44
1.0
 73
     0
 74
     0
 77
     1
 78
    12
140
10.0
147
1.0
172
     1
173
     1
174
     1
175
     1
176
     2
177
     2
178
     2
271
     3
340
38B
343
3B1
344
3B1
  0
DIMSTYLE
105
3D1
102
{ACAD_REACTORS
330
3D2
102
}
330
A
100
AcDbSymbolTableRecord
100
AcDbDimStyleTableRecord
  2
ME10_DIM_12
 70
     0
 41
8.0
 42
1.0
 44
1.0
 73
     0
 74
     0
 77
     1
 78
    12
140
10.0
147
1.0
172
     1
173
     1
174
     1
175
     1
176
     2
177
     2
178
     2
271
     3
340
38B
343
3B1
344
3B1
  0
ENDTAB
  0
TABLE
  2
BLOCK_RECORD
  5
1
330
0
100
AcDbSymbolTable
 70
     5
  0
BLOCK_RECORD
  5
1F
330
1
100
AcDbSymbolTableRecord
100
AcDbBlockTableRecord
  2
*Model_Space
340
22
  0
BLOCK_RECORD
  5
1B
330
1
100
AcDbSymbolTableRecord
100
AcDbBlockTableRecord
  2
*Paper_Space
340
1E
  0
BLOCK_RECORD
  5
23
330
1
100
AcDbSymbolTableRecord
100
AcDbBlockTableRecord
  2
*Paper_Space0
340
26
  0
BLOCK_RECORD
  5
383
330
1
100
AcDbSymbolTableRecord
100
AcDbBlockTableRecord
  2
*D1
340
0
  0
BLOCK_RECORD
  5
3B1
330
1
100
AcDbSymbolTableRecord
100
AcDbBlockTableRecord
  2
_OPEN30
340
0
  0
BLOCK_RECORD
  5
3B9
330
1
100
AcDbSymbolTableRecord
100
AcDbBlockTableRecord
  2
*D3
340
0
  0
BLOCK_RECORD
  5
3C6
330
1
100
AcDbSymbolTableRecord
100
AcDbBlockTableRecord
  2
*D4
340
0
  0
ENDTAB
  0
ENDSEC
  0
SECTION
  2
BLOCKS
  0
BLOCK
  5
20
330
1F
100
AcDbEntity
  8
0
100
AcDbBlockBegin
  2
*Model_Space
 70
     0
 10
0.0
 20
0.0
 30
0.0
  3
*Model_Space
  1

  0
ENDBLK
  5
21
330
1F
100
AcDbEntity
  8
0
100
AcDbBlockEnd
  0
BLOCK
  5
1C
330
1B
100
AcDbEntity
 67
     1
  8
0
100
AcDbBlockBegin
  2
*Paper_Space
 70
     0
 10
0.0
 20
0.0
 30
0.0
  3
*Paper_Space
  1

  0
ENDBLK
  5
1D
330
1B
100
AcDbEntity
 67
     1
  8
0
100
AcDbBlockEnd
  0
BLOCK
  5
24
330
23
100
AcDbEntity
  8
0
100
AcDbBlockBegin
  2
*Paper_Space0
 70
     0
 10
0.0
 20
0.0
 30
0.0
  3
*Paper_Space0
  1

  0
ENDBLK
  5
25
330
23
100
AcDbEntity
  8
0
100
AcDbBlockEnd
  0
BLOCK
  5
3AF
330
383
100
AcDbEntity
  8
0
100
AcDbBlockBegin
  2
*D1
 70
     1
 10
0.0
 20
0.0
 30
0.0
  3
*D1
  1

  0
LINE
  5
384
330
383
100
AcDbEntity
  8
1
  6
Continuous
 62
     2
100
AcDbLine
 10
681.837897465983
 20
297.931952933113
 30
0.0
 11
681.837897465983
 21
94.936889020546
 31
0.0
  0
LINE
  5
385
330
383
100
AcDbEntity
  8
1
  6
Continuous
 62
     2
100
AcDbLine
 10
448.6149416463981
 20
297.931952933113
 30
0.0
 11
682.837897465983
 21
297.931952933113
 31
0.0
  0
LINE
  5
386
330
383
100
AcDbEntity
  8
1
  6
Continuous
 62
     2
100
AcDbLine
 10
639.655609669651
 20
94.936889020546
 30
0.0
 11
682.837897465983
 21
94.936889020546
 31
0.0
  0
LINE
  5
387
330
383
100
AcDbEntity
  8
1
 62
     2
100
AcDbLine
 10
681.837897465983
 20
94.936889020546
 30
0.0
 11
679.6943039265341
 21
102.936889020546
 31
0.0
  0
LINE
  5
388
330
383
100
AcDbEntity
  8
1
 62
     2
100
AcDbLine
 10
681.837897465983
 20
94.936889020546
 30
0.0
 11
683.981491005432
 21
102.936889020546
 31
0.0
  0
LINE
  5
389
330
383
100
AcDbEntity
  8
1
 62
     2
100
AcDbLine
 10
681.837897465983
 20
297.931952933113
 30
0.0
 11
683.981491005432
 21
289.931952933113
 31
0.0
  0
LINE
  5
38A
330
383
100
AcDbEntity
  8
1
 62
     2
100
AcDbLine
 10
681.837897465983
 20
297.931952933113
 30
0.0
 11
679.6943039265341
 21
289.931952933113
 31
0.0
  0
MTEXT
  5
3AE
330
383
100
AcDbEntity
  8
1
 62
     2
100
AcDbMText
 10
680.837897465983
 20
195.142642505936
 30
0.0
 40
10.0
 41
0.0
 71
     7
 72
     1
  1
202
  7
CONVERTER_11
 11
0.0
 21
1.0
 31
0.0
 73
     1
 44
0.60024009603842
  0
ENDBLK
  5
3B0
330
383
100
AcDbEntity
  8
0
100
AcDbBlockEnd
  0
BLOCK
  5
3B2
330
3B1
100
AcDbEntity
  8
0
100
AcDbBlockBegin
  2
_OPEN30
 70
     0
 10
0.0
 20
0.0
 30
0.0
  3
_OPEN30
  1

  0
LINE
  5
3B4
330
3B1
100
AcDbEntity
  8
0
  6
ByBlock
 62
     0
370
    -2
100
AcDbLine
 10
-1.0
 20
0.267949
 30
0.0
 11
0.0
 21
0.0
 31
0.0
  0
LINE
  5
3B5
330
3B1
100
AcDbEntity
  8
0
  6
ByBlock
 62
     0
370
    -2
100
AcDbLine
 10
0.0
 20
0.0
 30
0.0
 11
-1.0
 21
-0.267949
 31
0.0
  0
LINE
  5
3B6
330
3B1
100
AcDbEntity
  8
0
  6
ByBlock
 62
     0
370
    -2
100
AcDbLine
 10
0.0
 20
0.0
 30
0.0
 11
-1.0
 21
0.0
 31
0.0
  0
ENDBLK
  5
3B3
330
3B1
100
AcDbEntity
  8
0
100
AcDbBlockEnd
  0
BLOCK
  5
3C2
330
3B9
100
AcDbEntity
  8
0
100
AcDbBlockBegin
  2
*D3
 70
     1
 10
0.0
 20
0.0
 30
0.0
  3
*D3
  1

  0
LINE
  5
3BA
330
3B9
100
AcDbEntity
  8
1
  6
Continuous
 62
     2
100
AcDbLine
 10
478.011365953178
 20
10.2879469814793
 30
0.0
 11
303.011365953178
 21
10.2879469814793
 31
0.0
  0
LINE
  5
3BB
330
3B9
100
AcDbEntity
  8
1
  6
Continuous
 62
     2
100
AcDbLine
 10
478.011365953178
 20
56.536889020546
 30
0.0
 11
478.011365953178
 21
9.2879469814793
 31
0.0
  0
LINE
  5
3BC
330
3B9
100
AcDbEntity
  8
1
  6
Continuous
 62
     2
100
AcDbLine
 10
303.011365953178
 20
56.536889020546
 30
0.0
 11
303.011365953178
 21
9.2879469814793
 31
0.0
  0
LINE
  5
3BD
330
3B9
100
AcDbEntity
  8
1
 62
     2
100
AcDbLine
 10
303.011365953178
 20
10.2879469814793
 30
0.0
 11
311.011365953178
 21
12.43154052092828
 31
0.0
  0
LINE
  5
3BE
330
3B9
100
AcDbEntity
  8
1
 62
     2
100
AcDbLine
 10
303.011365953178
 20
10.2879469814793
 30
0.0
 11
311.011365953178
 21
8.14435344203032
 31
0.0
  0
LINE
  5
3BF
330
3B9
100
AcDbEntity
  8
1
 62
     2
100
AcDbLine
 10
478.011365953178
 20
10.2879469814793
 30
0.0
 11
470.011365953178
 21
8.14435344203032
 31
0.0
  0
LINE
  5
3C0
330
3B9
100
AcDbEntity
  8
1
 62
     2
100
AcDbLine
 10
478.011365953178
 20
10.2879469814793
 30
0.0
 11
470.011365953178
 21
12.43154052092829
 31
0.0
  0
MTEXT
  5
3C1
330
3B9
100
AcDbEntity
  8
1
 62
     2
100
AcDbMText
 10
381.4495010516506
 20
11.28792014705674
 30
0.0
 40
10.0
 41
0.0
 71
     7
 72
     1
  1
175
  7
CONVERTER_11
 11
0.9999999999882478
 21
4.848136811095759E-6
 31
0.0
 73
     1
 44
0.60024009603842
  0
ENDBLK
  5
3C3
330
3B9
100
AcDbEntity
  8
0
100
AcDbBlockEnd
  0
BLOCK
  5
3CF
330
3C6
100
AcDbEntity
  8
0
100
AcDbBlockBegin
  2
*D4
 70
     1
 10
0.0
 20
0.0
 30
0.0
  3
*D4
  1

  0
LINE
  5
3C7
330
3C6
100
AcDbEntity
  8
1
  6
Continuous
 62
     2
100
AcDbLine
 10
601.011365953178
 20
-24.15938301932379
 30
0.0
 11
303.011365953178
 21
-24.1593830193238
 31
0.0
  0
LINE
  5
3C8
330
3C6
100
AcDbEntity
  8
1
  6
Continuous
 62
     2
100
AcDbLine
 10
601.011365953178
 20
63.43688902054599
 30
0.0
 11
601.011365953178
 21
-25.15938301932379
 31
0.0
  0
LINE
  5
3C9
330
3C6
100
AcDbEntity
  8
1
  6
Continuous
 62
     2
100
AcDbLine
 10
303.011365953178
 20
56.536889020546
 30
0.0
 11
303.011365953178
 21
-25.1593830193238
 31
0.0
  0
LINE
  5
3CA
330
3C6
100
AcDbEntity
  8
1
 62
     2
100
AcDbLine
 10
303.011365953178
 20
-24.1593830193238
 30
0.0
 11
311.011365953178
 21
-22.01578947987482
 31
0.0
  0
LINE
  5
3CB
330
3C6
100
AcDbEntity
  8
1
 62
     2
100
AcDbLine
 10
303.011365953178
 20
-24.1593830193238
 30
0.0
 11
311.011365953178
 21
-26.30297655877278
 31
0.0
  0
LINE
  5
3CC
330
3C6
100
AcDbEntity
  8
1
 62
     2
100
AcDbLine
 10
601.011365953178
 20
-24.15938301932379
 30
0.0
 11
593.011365953178
 21
-26.30297655877277
 31
0.0
  0
LINE
  5
3CD
330
3C6
100
AcDbEntity
  8
1
 62
     2
100
AcDbLine
 10
601.011365953178
 20
-24.15938301932379
 30
0.0
 11
593.011365953178
 21
-22.01578947987481
 31
0.0
  0
MTEXT
  5
3CE
330
3C6
100
AcDbEntity
  8
1
 62
     2
100
AcDbMText
 10
381.2387063828381
 20
-22.99293102812281
 30
0.0
 40
10.0
 41
0.0
 71
     7
 72
     1
  1
\U+53ef\U+52d5\U+7bc4\U+56f2\U+3000273\U+ff5e298
  7
CONVERTER_11
 11
0.9999999999882478
 21
4.848136811095759E-6
 31
0.0
 73
     1
 44
0.60024009603842
  0
ENDBLK
  5
3D0
330
3C6
100
AcDbEntity
  8
0
100
AcDbBlockEnd
  0
ENDSEC
  0
SECTION
  2
ENTITIES
  0
POINT
  5
4A
330
1F
100
AcDbEntity
  8
1
 62
     7
100
AcDbPoint
 10
447.614941646398
 20
297.931952933113
 30
0.0
  0
POINT
  5
4B
330
1F
100
AcDbEntity
  8
1
 62
     7
100
AcDbPoint
 10
638.655609669651
 20
94.936889020546
 30
0.0
  0
POINT
  5
4C
330
1F
100
AcDbEntity
  8
1
 62
     7
100
AcDbPoint
 10
478.011365953178
 20
57.536889020546
 30
0.0
  0
POINT
  5
4D
330
1F
100
AcDbEntity
  8
1
 62
     7
100
AcDbPoint
 10
303.011365953178
 20
57.536889020546
 30
0.0
  0
POINT
  5
4E
330
1F
100
AcDbEntity
  8
1
 62
     7
100
AcDbPoint
 10
601.011365953178
 20
64.436889020546
 30
0.0
  0
POINT
  5
4F
330
1F
100
AcDbEntity
  8
1
 62
     7
100
AcDbPoint
 10
303.011365953178
 20
57.536889020546
 30
0.0
  0
POINT
  5
50
330
1F
100
AcDbEntity
  8
1
 62
     7
100
AcDbPoint
 10
447.614941646398
 20
297.931952933113
 30
0.0
  0
POINT
  5
51
330
1F
100
AcDbEntity
  8
1
 62
     7
100
AcDbPoint
 10
638.655609669651
 20
94.936889020546
 30
0.0
  0
POINT
  5
52
330
1F
100
AcDbEntity
  8
1
 62
     7
100
AcDbPoint
 10
478.011365953178
 20
57.536889020546
 30
0.0
  0
POINT
  5
53
330
1F
100
AcDbEntity
  8
1
 62
     7
100
AcDbPoint
 10
303.011365953178
 20
57.536889020546
 30
0.0
  0
POINT
  5
54
330
1F
100
AcDbEntity
  8
1
 62
     7
100
AcDbPoint
 10
601.011365953178
 20
64.436889020546
 30
0.0
  0
POINT
  5
55
330
1F
100
AcDbEntity
  8
1
 62
     7
100
AcDbPoint
 10
303.011365953178
 20
57.536889020546
 30
0.0
  0
LINE
  5
56
330
1F
100
AcDbEntity
  8
1
  6
Continuous
 62
     4
100
AcDbLine
 10
408.696919921983
 20
38.7575093556406
 30
0.0
 11
408.069497511983
 21
37.5075093556406
 31
0.0
  0
LINE
  5
57
330
1F
100
AcDbEntity
  8
1
  6
Continuous
 62
     4
100
AcDbLine
 10
408.069497511983
 20
40.0075093556406
 30
0.0
 11
408.696919921983
 21
38.7575093556406
 31
0.0
  0
LINE
  5
58
330
1F
100
AcDbEntity
  8
1
  6
Continuous
 62
     4
100
AcDbLine
 10
403.991251846983
 20
38.7575093556406
 30
0.0
 11
408.696919921983
 21
38.7575093556406
 31
0.0
  0
LINE
  5
59
330
1F
100
AcDbEntity
  8
1
  6
Continuous
 62
     4
100
AcDbLine
 10
398.8150169644831
 20
41.6325093556406
 30
0.0
 11
402.422695821983
 21
41.6325093556406
 31
0.0
  0
LINE
  5
5A
330
1F
100
AcDbEntity
  8
1
  6
Continuous
 62
     4
100
AcDbLine
 10
398.8150169644831
 20
41.6325093556406
 30
0.0
 11
399.677722778233
 21
43.5075093556406
 31
0.0
  0
LINE
  5
5B
330
1F
100
AcDbEntity
  8
1
  6
Continuous
 62
     4
100
AcDbLine
 10
400.854139796983
 20
36.8825093556406
 30
0.0
 11
399.520867175733
 21
36.8825093556406
 31
0.0
  0
LINE
  5
5C
330
1F
100
AcDbEntity
  8
1
  6
Continuous
 62
     4
100
AcDbLine
 10
400.854139796983
 20
39.3825093556406
 30
0.0
 11
400.854139796983
 21
36.8825093556406
 31
0.0
  0
LINE
  5
5D
330
1F
100
AcDbEntity
  8
1
  6
Continuous
 62
     4
100
AcDbLine
 10
399.520867175733
 20
39.3825093556406
 30
0.0
 11
400.854139796983
 21
39.3825093556406
 31
0.0
  0
LINE
  5
5E
330
1F
100
AcDbEntity
  8
1
  6
Continuous
 62
     4
100
AcDbLine
 10
399.520867175733
 20
36.8825093556406
 30
0.0
 11
399.520867175733
 21
39.3825093556406
 31
0.0
  0
LINE
  5
5F
330
1F
100
AcDbEntity
  8
1
  6
Continuous
 62
     4
100
AcDbLine
 10
402.422695821983
 20
34.1325093556406
 30
0.0
 11
401.5599900082331
 21
34.1325093556406
 31
0.0
  0
LINE
  5
60
330
1F
100
AcDbEntity
  8
1
  6
Continuous
 62
     4
100
AcDbLine
 10
402.422695821983
 20
41.6325093556406
 30
0.0
 11
402.422695821983
 21
34.1325093556406
 31
0.0
  0
LINE
  5
61
330
1F
100
AcDbEntity
  8
1
  6
Continuous
 62
     4
100
AcDbLine
 10
397.952311150733
 20
41.6325093556406
 30
0.0
 11
398.8150169644831
 21
41.6325093556406
 31
0.0
  0
LINE
  5
62
330
1F
100
AcDbEntity
  8
1
  6
Continuous
 62
     4
100
AcDbLine
 10
397.952311150733
 20
34.1325093556406
 30
0.0
 11
397.952311150733
 21
41.6325093556406
 31
0.0
  0
LINE
  5
63
330
1F
100
AcDbEntity
  8
1
  6
Continuous
 62
     4
100
AcDbLine
 10
394.579915696983
 20
33.7575093556406
 30
0.0
 11
393.952493286983
 21
34.3825093556406
 31
0.0
  0
LINE
  5
64
330
1F
100
AcDbEntity
  8
1
  6
Continuous
 62
     4
100
AcDbLine
 10
394.972054703233
 20
34.7575093556406
 30
0.0
 11
394.579915696983
 21
33.7575093556406
 31
0.0
  0
LINE
  5
65
330
1F
100
AcDbEntity
  8
1
  6
Continuous
 62
     4
100
AcDbLine
 10
395.285765908233
 20
36.2575093556406
 30
0.0
 11
394.972054703233
 21
34.7575093556406
 31
0.0
  0
LINE
  5
66
330
1F
100
AcDbEntity
  8
1
  6
Continuous
 62
     4
100
AcDbLine
 10
395.677904914483
 20
38.5075093556406
 30
0.0
 11
395.285765908233
 21
36.2575093556406
 31
0.0
  0
LINE
  5
67
330
1F
100
AcDbEntity
  8
1
  6
Continuous
 62
     4
100
AcDbLine
 10
395.677904914483
 20
39.3825093556406
 30
0.0
 11
395.677904914483
 21
38.5075093556406
 31
0.0
  0
LINE
  5
68
330
1F
100
AcDbEntity
  8
1
  6
Continuous
 62
     4
100
AcDbLine
 10
393.403498678233
 20
39.3825093556406
 30
0.0
 11
395.677904914483
 21
39.3825093556406
 31
0.0
  0
LINE
  5
69
330
1F
100
AcDbEntity
  8
1
  6
Continuous
 62
     4
100
AcDbLine
 10
391.285948044483
 20
41.8825093556406
 30
0.0
 11
396.540610728233
 21
41.8825093556406
 31
0.0
  0
LINE
  5
6A
330
1F
100
AcDbEntity
  8
1
  6
Continuous
 62
     4
100
AcDbLine
 10
393.560354280733
 20
41.0075093556406
 30
0.0
 11
393.717209883233
 21
43.5075093556406
 31
0.0
  0
LINE
  5
6B
330
1F
100
AcDbEntity
  8
1
  6
Continuous
 62
     4
100
AcDbLine
 10
393.246643075733
 20
38.5075093556406
 30
0.0
 11
393.560354280733
 21
41.0075093556406
 31
0.0
  0
LINE
  5
6C
330
1F
100
AcDbEntity
  8
1
  6
Continuous
 62
     4
100
AcDbLine
 10
392.854504069483
 20
36.8825093556406
 30
0.0
 11
393.246643075733
 21
38.5075093556406
 31
0.0
  0
LINE
  5
6D
330
1F
100
AcDbEntity
  8
1
  6
Continuous
 62
     4
100
AcDbLine
 10
392.383937261983
 20
35.3825093556406
 30
0.0
 11
392.854504069483
 21
36.8825093556406
 31
0.0
  0
LINE
  5
6E
330
1F
100
AcDbEntity
  8
1
  6
Continuous
 62
     4
100
AcDbLine
 10
391.678087050733
 20
34.1325093556406
 30
0.0
 11
392.383937261983
 21
35.3825093556406
 31
0.0
  0
LINE
  5
6F
330
1F
100
AcDbEntity
  8
1
  6
Continuous
 62
     4
100
AcDbLine
 10
389.560536416983
 20
36.8825093556406
 30
0.0
 11
390.423242230733
 21
35.3825093556406
 31
0.0
  0
LINE
  5
70
330
1F
100
AcDbEntity
  8
1
  6
Continuous
 62
     4
100
AcDbLine
 10
388.8546862057331
 20
38.7575093556406
 30
0.0
 11
389.560536416983
 21
36.8825093556406
 31
0.0
  0
LINE
  5
71
330
1F
100
AcDbEntity
  8
1
  6
Continuous
 62
     4
100
AcDbLine
 10
388.305691596983
 20
41.0075093556406
 30
0.0
 11
388.8546862057331
 21
38.7575093556406
 31
0.0
  0
LINE
  5
72
330
1F
100
AcDbEntity
  8
1
  6
Continuous
 62
     4
100
AcDbLine
 10
389.8742476219831
 20
41.2575093556406
 30
0.0
 11
388.6978306032331
 21
39.7575093556406
 31
0.0
  0
LINE
  5
73
330
1F
100
AcDbEntity
  8
1
  6
Continuous
 62
     4
100
AcDbLine
 10
387.835124789483
 20
33.7575093556406
 30
0.0
 11
387.286130180733
 21
34.1325093556406
 31
0.0
  0
LINE
  5
74
330
1F
100
AcDbEntity
  8
1
  6
Continuous
 62
     4
100
AcDbLine
 10
387.835124789483
 20
43.5075093556406
 30
0.0
 11
387.835124789483
 21
33.7575093556406
 31
0.0
  0
LINE
  5
75
330
1F
100
AcDbEntity
  8
1
  6
Continuous
 62
     4
100
AcDbLine
 10
386.972418975733
 20
40.3825093556406
 30
0.0
 11
385.168579546983
 21
40.3825093556406
 31
0.0
  0
LINE
  5
76
330
1F
100
AcDbEntity
  8
1
  6
Continuous
 62
     4
100
AcDbLine
 10
386.5802799694831
 20
38.5075093556406
 30
0.0
 11
386.972418975733
 21
40.3825093556406
 31
0.0
  0
LINE
  5
77
330
1F
100
AcDbEntity
  8
1
  6
Continuous
 62
     4
100
AcDbLine
 10
385.874429758233
 20
36.6325093556406
 30
0.0
 11
386.5802799694831
 21
38.5075093556406
 31
0.0
  0
LINE
  5
78
330
1F
100
AcDbEntity
  8
1
  6
Continuous
 62
     4
100
AcDbLine
 10
385.168579546983
 20
35.3825093556406
 30
0.0
 11
385.874429758233
 21
36.6325093556406
 31
0.0
  0
LINE
  5
79
330
1F
100
AcDbEntity
  8
1
  6
Continuous
 62
     4
100
AcDbLine
 10
381.717756291983
 20
42.2575093556406
 30
0.0
 11
383.835306925733
 21
42.2575093556406
 31
0.0
  0
LINE
  5
7A
330
1F
100
AcDbEntity
  8
1
  6
Continuous
 62
     4
100
AcDbLine
 10
384.149018130733
 20
34.7575093556406
 30
0.0
 11
384.149018130733
 21
35.3825093556406
 31
0.0
  0
LINE
  5
7B
330
1F
100
AcDbEntity
  8
1
  6
Continuous
 62
     4
100
AcDbLine
 10
383.835306925733
 20
34.1325093556406
 30
0.0
 11
384.149018130733
 21
34.7575093556406
 31
0.0
  0
LINE
  5
7C
330
1F
100
AcDbEntity
  8
1
  6
Continuous
 62
     4
100
AcDbLine
 10
383.129456714483
 20
34.1325093556406
 30
0.0
 11
383.835306925733
 21
34.1325093556406
 31
0.0
  0
LINE
  5
7D
330
1F
100
AcDbEntity
  8
1
  6
Continuous
 62
     4
100
AcDbLine
 10
382.737317708233
 20
35.0075093556406
 30
0.0
 11
383.129456714483
 21
34.1325093556406
 31
0.0
  0
LINE
  5
7E
330
1F
100
AcDbEntity
  8
1
  6
Continuous
 62
     4
100
AcDbLine
 10
382.737317708233
 20
38.1325093556406
 30
0.0
 11
382.737317708233
 21
35.0075093556406
 31
0.0
  0
LINE
  5
7F
330
1F
100
AcDbEntity
  8
1
  6
Continuous
 62
     4
100
AcDbLine
 10
381.717756291983
 20
34.1325093556406
 30
0.0
 11
381.717756291983
 21
38.1325093556406
 31
0.0
  0
LINE
  5
80
330
1F
100
AcDbEntity
  8
1
  6
Continuous
 62
     4
100
AcDbLine
 10
380.149200266983
 20
34.3825093556406
 30
0.0
 11
379.600205658233
 21
33.7575093556406
 31
0.0
  0
LINE
  5
81
330
1F
100
AcDbEntity
  8
1
  6
Continuous
 62
     4
100
AcDbLine
 10
380.462911471983
 20
35.0075093556406
 30
0.0
 11
380.149200266983
 21
34.3825093556406
 31
0.0
  0
LINE
  5
82
330
1F
100
AcDbEntity
  8
1
  6
Continuous
 62
     4
100
AcDbLine
 10
380.698194875733
 20
36.0075093556406
 30
0.0
 11
380.462911471983
 21
35.0075093556406
 31
0.0
  0
LINE
  5
83
330
1F
100
AcDbEntity
  8
1
  6
Continuous
 62
     4
100
AcDbLine
 10
380.855050478233
 20
38.1325093556406
 30
0.0
 11
380.698194875733
 21
36.0075093556406
 31
0.0
  0
LINE
  5
84
330
1F
100
AcDbEntity
  8
1
  6
Continuous
 62
     4
100
AcDbLine
 10
382.580462105733
 20
41.2575093556406
 30
0.0
 11
383.286312316983
 21
39.1325093556406
 31
0.0
  0
LINE
  5
85
330
1F
100
AcDbEntity
  8
1
  6
Continuous
 62
     4
100
AcDbLine
 10
380.306055869483
 20
39.7575093556406
 30
0.0
 11
382.972601111983
 21
40.0075093556406
 31
0.0
  0
LINE
  5
86
330
1F
100
AcDbEntity
  8
1
  6
Continuous
 62
     4
100
AcDbLine
 10
381.717756291983
 20
42.2575093556406
 30
0.0
 11
381.011906080733
 21
39.7575093556406
 31
0.0
  0
LINE
  5
87
330
1F
100
AcDbEntity
  8
1
  6
Continuous
 62
     4
100
AcDbLine
 10
381.874611894483
 20
43.7575093556406
 30
0.0
 11
381.874611894483
 21
42.2575093556406
 31
0.0
  0
LINE
  5
88
330
1F
100
AcDbEntity
  8
1
  6
Continuous
 62
     4
100
AcDbLine
 10
379.992344664483
 20
42.2575093556406
 30
0.0
 11
381.717756291983
 21
42.2575093556406
 31
0.0
  0
LINE
  5
89
330
1F
100
AcDbEntity
  8
1
  6
Continuous
 62
     4
100
AcDbLine
 10
378.737499844483
 20
34.1325093556406
 30
0.0
 11
379.443350055733
 21
38.1325093556406
 31
0.0
  0
LINE
  5
8A
330
1F
100
AcDbEntity
  8
1
  6
Continuous
 62
     4
100
AcDbLine
 10
378.580644241983
 20
40.6325093556406
 30
0.0
 11
379.129638850733
 21
39.7575093556406
 31
0.0
  0
LINE
  5
8B
330
1F
100
AcDbEntity
  8
1
  6
Continuous
 62
     4
100
AcDbLine
 10
379.129638850733
 20
43.5075093556406
 30
0.0
 11
379.443350055733
 21
42.5075093556406
 31
0.0
  0
LINE
  5
8C
330
1F
100
AcDbEntity
  8
1
  6
Continuous
 62
     4
100
AcDbLine
 10
684.754804070861
 20
61.4654999076162
 30
0.0
 11
690.754804070861
 21
61.4654999076162
 31
0.0
  0
LINE
  5
8D
330
1F
100
AcDbEntity
  8
1
  6
Continuous
 62
     4
100
AcDbLine
 10
690.254804070861
 20
67.96549990761619
 30
0.0
 11
684.754804070861
 21
61.4654999076162
 31
0.0
  0
LINE
  5
8E
330
1F
100
AcDbEntity
  8
1
  6
Continuous
 62
     4
100
AcDbLine
 10
690.754804070861
 20
68.96549990761619
 30
0.0
 11
690.254804070861
 21
67.96549990761619
 31
0.0
  0
LINE
  5
8F
330
1F
100
AcDbEntity
  8
1
  6
Continuous
 62
     4
100
AcDbLine
 10
690.754804070861
 20
69.96549990761619
 30
0.0
 11
690.754804070861
 21
68.96549990761619
 31
0.0
  0
LINE
  5
90
330
1F
100
AcDbEntity
  8
1
  6
Continuous
 62
     4
100
AcDbLine
 10
690.254804070861
 20
70.71549990761619
 30
0.0
 11
690.754804070861
 21
69.96549990761619
 31
0.0
  0
LINE
  5
91
330
1F
100
AcDbEntity
  8
1
  6
Continuous
 62
     4
100
AcDbLine
 10
689.504804070861
 20
71.21549990761619
 30
0.0
 11
690.254804070861
 21
70.71549990761619
 31
0.0
  0
LINE
  5
92
330
1F
100
AcDbEntity
  8
1
  6
Continuous
 62
     4
100
AcDbLine
 10
688.504804070861
 20
71.46549990761619
 30
0.0
 11
689.504804070861
 21
71.21549990761619
 31
0.0
  0
LINE
  5
93
330
1F
100
AcDbEntity
  8
1
  6
Continuous
 62
     4
100
AcDbLine
 10
687.004804070861
 20
71.46549990761619
 30
0.0
 11
688.504804070861
 21
71.46549990761619
 31
0.0
  0
LINE
  5
94
330
1F
100
AcDbEntity
  8
1
  6
Continuous
 62
     4
100
AcDbLine
 10
686.004804070861
 20
71.21549990761619
 30
0.0
 11
687.004804070861
 21
71.46549990761619
 31
0.0
  0
LINE
  5
95
330
1F
100
AcDbEntity
  8
1
  6
Continuous
 62
     4
100
AcDbLine
 10
685.254804070861
 20
70.71549990761619
 30
0.0
 11
686.004804070861
 21
71.21549990761619
 31
0.0
  0
LINE
  5
96
330
1F
100
AcDbEntity
  8
1
  6
Continuous
 62
     4
100
AcDbLine
 10
684.754804070861
 20
69.96549990761619
 30
0.0
 11
685.254804070861
 21
70.71549990761619
 31
0.0
  0
LINE
  5
97
330
1F
100
AcDbEntity
  8
1
  6
Continuous
 62
     4
100
AcDbLine
 10
677.754804070861
 20
61.4654999076162
 30
0.0
 11
681.754804070861
 21
71.46549990761619
 31
0.0
  0
LINE
  5
98
330
1F
100
AcDbEntity
  8
1
  6
Continuous
 62
     4
100
AcDbLine
 10
674.754804070861
 20
71.46549990761619
 30
0.0
 11
674.754804070861
 21
61.4654999076162
 31
0.0
  0
LINE
  5
99
330
1F
100
AcDbEntity
  8
1
  6
Continuous
 62
     4
100
AcDbLine
 10
671.754804070861
 20
68.46549990761619
 30
0.0
 11
674.754804070861
 21
71.46549990761619
 31
0.0
  0
LINE
  5
9A
330
1F
100
AcDbEntity
  8
1
  6
Continuous
 62
     4
100
AcDbLine
 10
654.754804070861
 20
61.4654999076162
 30
0.0
 11
660.754804070861
 21
61.4654999076162
 31
0.0
  0
LINE
  5
9B
330
1F
100
AcDbEntity
  8
1
  6
Continuous
 62
     4
100
AcDbLine
 10
660.254804070861
 20
67.96549990761619
 30
0.0
 11
654.754804070861
 21
61.4654999076162
 31
0.0
  0
LINE
  5
9C
330
1F
100
AcDbEntity
  8
1
  6
Continuous
 62
     4
100
AcDbLine
 10
660.754804070861
 20
68.96549990761619
 30
0.0
 11
660.254804070861
 21
67.96549990761619
 31
0.0
  0
LINE
  5
9D
330
1F
100
AcDbEntity
  8
1
  6
Continuous
 62
     4
100
AcDbLine
 10
660.754804070861
 20
69.96549990761619
 30
0.0
 11
660.754804070861
 21
68.96549990761619
 31
0.0
  0
LINE
  5
9E
330
1F
100
AcDbEntity
  8
1
  6
Continuous
 62
     4
100
AcDbLine
 10
660.254804070861
 20
70.71549990761619
 30
0.0
 11
660.754804070861
 21
69.96549990761619
 31
0.0
  0
LINE
  5
9F
330
1F
100
AcDbEntity
  8
1
  6
Continuous
 62
     4
100
AcDbLine
 10
659.504804070861
 20
71.21549990761619
 30
0.0
 11
660.254804070861
 21
70.71549990761619
 31
0.0
  0
LINE
  5
A0
330
1F
100
AcDbEntity
  8
1
  6
Continuous
 62
     4
100
AcDbLine
 10
658.504804070861
 20
71.46549990761619
 30
0.0
 11
659.504804070861
 21
71.21549990761619
 31
0.0
  0
LINE
  5
A1
330
1F
100
AcDbEntity
  8
1
  6
Continuous
 62
     4
100
AcDbLine
 10
657.004804070861
 20
71.46549990761619
 30
0.0
 11
658.504804070861
 21
71.46549990761619
 31
0.0
  0
LINE
  5
A2
330
1F
100
AcDbEntity
  8
1
  6
Continuous
 62
     4
100
AcDbLine
 10
656.004804070861
 20
71.21549990761619
 30
0.0
 11
657.004804070861
 21
71.46549990761619
 31
0.0
  0
LINE
  5
A3
330
1F
100
AcDbEntity
  8
1
  6
Continuous
 62
     4
100
AcDbLine
 10
655.254804070861
 20
70.71549990761619
 30
0.0
 11
656.004804070861
 21
71.21549990761619
 31
0.0
  0
LINE
  5
A4
330
1F
100
AcDbEntity
  8
1
  6
Continuous
 62
     4
100
AcDbLine
 10
654.754804070861
 20
69.96549990761619
 30
0.0
 11
655.254804070861
 21
70.71549990761619
 31
0.0
  0
LINE
  5
A5
330
1F
100
AcDbEntity
  8
1
  6
Continuous
 62
     4
100
AcDbLine
 10
651.754804070861
 20
66.96549990761619
 30
0.0
 11
649.254804070861
 21
66.96549990761619
 31
0.0
  0
LINE
  5
A6
330
1F
100
AcDbEntity
  8
1
  6
Continuous
 62
     4
100
AcDbLine
 10
651.754804070861
 20
61.4654999076162
 30
0.0
 11
651.754804070861
 21
66.96549990761619
 31
0.0
  0
LINE
  5
A7
330
1F
100
AcDbEntity
  8
1
  6
Continuous
 62
     4
100
AcDbLine
 10
647.504804070861
 20
61.4654999076162
 30
0.0
 11
651.754804070861
 21
61.4654999076162
 31
0.0
  0
LINE
  5
A8
330
1F
100
AcDbEntity
  8
1
  6
Continuous
 62
     4
100
AcDbLine
 10
646.754804070861
 20
61.7154999076162
 30
0.0
 11
647.504804070861
 21
61.4654999076162
 31
0.0
  0
LINE
  5
A9
330
1F
100
AcDbEntity
  8
1
  6
Continuous
 62
     4
100
AcDbLine
 10
645.754804070861
 20
62.2154999076162
 30
0.0
 11
646.754804070861
 21
61.7154999076162
 31
0.0
  0
LINE
  5
AA
330
1F
100
AcDbEntity
  8
1
  6
Continuous
 62
     4
100
AcDbLine
 10
645.254804070861
 20
62.7154999076162
 30
0.0
 11
645.754804070861
 21
62.2154999076162
 31
0.0
  0
LINE
  5
AB
330
1F
100
AcDbEntity
  8
1
  6
Continuous
 62
     4
100
AcDbLine
 10
645.004804070861
 20
63.4654999076162
 30
0.0
 11
645.254804070861
 21
62.7154999076162
 31
0.0
  0
LINE
  5
AC
330
1F
100
AcDbEntity
  8
1
  6
Continuous
 62
     4
100
AcDbLine
 10
644.754804070861
 20
64.46549990761619
 30
0.0
 11
645.004804070861
 21
63.4654999076162
 31
0.0
  0
LINE
  5
AD
330
1F
100
AcDbEntity
  8
1
  6
Continuous
 62
     4
100
AcDbLine
 10
644.754804070861
 20
68.46549990761619
 30
0.0
 11
644.754804070861
 21
64.46549990761619
 31
0.0
  0
LINE
  5
AE
330
1F
100
AcDbEntity
  8
1
  6
Continuous
 62
     4
100
AcDbLine
 10
645.004804070861
 20
69.46549990761619
 30
0.0
 11
644.754804070861
 21
68.46549990761619
 31
0.0
  0
LINE
  5
AF
330
1F
100
AcDbEntity
  8
1
  6
Continuous
 62
     4
100
AcDbLine
 10
645.254804070861
 20
70.21549990761619
 30
0.0
 11
645.004804070861
 21
69.46549990761619
 31
0.0
  0
LINE
  5
B0
330
1F
100
AcDbEntity
  8
1
  6
Continuous
 62
     4
100
AcDbLine
 10
645.754804070861
 20
70.71549990761619
 30
0.0
 11
645.254804070861
 21
70.21549990761619
 31
0.0
  0
LINE
  5
B1
330
1F
100
AcDbEntity
  8
1
  6
Continuous
 62
     4
100
AcDbLine
 10
646.504804070861
 20
71.21549990761619
 30
0.0
 11
645.754804070861
 21
70.71549990761619
 31
0.0
  0
LINE
  5
B2
330
1F
100
AcDbEntity
  8
1
  6
Continuous
 62
     4
100
AcDbLine
 10
647.504804070861
 20
71.46549990761619
 30
0.0
 11
646.504804070861
 21
71.21549990761619
 31
0.0
  0
LINE
  5
B3
330
1F
100
AcDbEntity
  8
1
  6
Continuous
 62
     4
100
AcDbLine
 10
651.754804070861
 20
71.46549990761619
 30
0.0
 11
647.504804070861
 21
71.46549990761619
 31
0.0
  0
LINE
  5
B4
330
1F
100
AcDbEntity
  8
1
  6
Continuous
 62
     4
100
AcDbLine
 10
281.104190239254
 20
25.3022953821548
 30
0.0
 11
287.104190239254
 21
25.3022953821548
 31
0.0
  0
LINE
  5
B5
330
1F
100
AcDbEntity
  8
1
  6
Continuous
 62
     4
100
AcDbLine
 10
286.604190239254
 20
31.8022953821548
 30
0.0
 11
281.104190239254
 21
25.3022953821548
 31
0.0
  0
LINE
  5
B6
330
1F
100
AcDbEntity
  8
1
  6
Continuous
 62
     4
100
AcDbLine
 10
287.104190239254
 20
32.8022953821548
 30
0.0
 11
286.604190239254
 21
31.8022953821548
 31
0.0
  0
LINE
  5
B7
330
1F
100
AcDbEntity
  8
1
  6
Continuous
 62
     4
100
AcDbLine
 10
287.104190239254
 20
33.8022953821548
 30
0.0
 11
287.104190239254
 21
32.8022953821548
 31
0.0
  0
LINE
  5
B8
330
1F
100
AcDbEntity
  8
1
  6
Continuous
 62
     4
100
AcDbLine
 10
286.604190239254
 20
34.5522953821548
 30
0.0
 11
287.104190239254
 21
33.8022953821548
 31
0.0
  0
LINE
  5
B9
330
1F
100
AcDbEntity
  8
1
  6
Continuous
 62
     4
100
AcDbLine
 10
285.854190239254
 20
35.0522953821548
 30
0.0
 11
286.604190239254
 21
34.5522953821548
 31
0.0
  0
LINE
  5
BA
330
1F
100
AcDbEntity
  8
1
  6
Continuous
 62
     4
100
AcDbLine
 10
284.854190239254
 20
35.3022953821548
 30
0.0
 11
285.854190239254
 21
35.0522953821548
 31
0.0
  0
LINE
  5
BB
330
1F
100
AcDbEntity
  8
1
  6
Continuous
 62
     4
100
AcDbLine
 10
283.354190239254
 20
35.3022953821548
 30
0.0
 11
284.854190239254
 21
35.3022953821548
 31
0.0
  0
LINE
  5
BC
330
1F
100
AcDbEntity
  8
1
  6
Continuous
 62
     4
100
AcDbLine
 10
282.354190239254
 20
35.0522953821548
 30
0.0
 11
283.354190239254
 21
35.3022953821548
 31
0.0
  0
LINE
  5
BD
330
1F
100
AcDbEntity
  8
1
  6
Continuous
 62
     4
100
AcDbLine
 10
281.604190239254
 20
34.5522953821548
 30
0.0
 11
282.354190239254
 21
35.0522953821548
 31
0.0
  0
LINE
  5
BE
330
1F
100
AcDbEntity
  8
1
  6
Continuous
 62
     4
100
AcDbLine
 10
281.104190239254
 20
33.8022953821548
 30
0.0
 11
281.604190239254
 21
34.5522953821548
 31
0.0
  0
LINE
  5
BF
330
1F
100
AcDbEntity
  8
1
  6
Continuous
 62
     4
100
AcDbLine
 10
274.104190239254
 20
25.3022953821548
 30
0.0
 11
278.104190239254
 21
35.3022953821548
 31
0.0
  0
LINE
  5
C0
330
1F
100
AcDbEntity
  8
1
  6
Continuous
 62
     4
100
AcDbLine
 10
271.104190239254
 20
35.3022953821548
 30
0.0
 11
271.104190239254
 21
25.3022953821548
 31
0.0
  0
LINE
  5
C1
330
1F
100
AcDbEntity
  8
1
  6
Continuous
 62
     4
100
AcDbLine
 10
268.104190239254
 20
32.3022953821548
 30
0.0
 11
271.104190239254
 21
35.3022953821548
 31
0.0
  0
LINE
  5
C2
330
1F
100
AcDbEntity
  8
1
  6
Continuous
 62
     4
100
AcDbLine
 10
251.104190239254
 20
25.3022953821548
 30
0.0
 11
257.104190239254
 21
25.3022953821548
 31
0.0
  0
LINE
  5
C3
330
1F
100
AcDbEntity
  8
1
  6
Continuous
 62
     4
100
AcDbLine
 10
256.604190239254
 20
31.8022953821548
 30
0.0
 11
251.104190239254
 21
25.3022953821548
 31
0.0
  0
LINE
  5
C4
330
1F
100
AcDbEntity
  8
1
  6
Continuous
 62
     4
100
AcDbLine
 10
257.104190239254
 20
32.8022953821548
 30
0.0
 11
256.604190239254
 21
31.8022953821548
 31
0.0
  0
LINE
  5
C5
330
1F
100
AcDbEntity
  8
1
  6
Continuous
 62
     4
100
AcDbLine
 10
257.104190239254
 20
33.8022953821548
 30
0.0
 11
257.104190239254
 21
32.8022953821548
 31
0.0
  0
LINE
  5
C6
330
1F
100
AcDbEntity
  8
1
  6
Continuous
 62
     4
100
AcDbLine
 10
256.604190239254
 20
34.5522953821548
 30
0.0
 11
257.104190239254
 21
33.8022953821548
 31
0.0
  0
LINE
  5
C7
330
1F
100
AcDbEntity
  8
1
  6
Continuous
 62
     4
100
AcDbLine
 10
255.854190239254
 20
35.0522953821548
 30
0.0
 11
256.604190239254
 21
34.5522953821548
 31
0.0
  0
LINE
  5
C8
330
1F
100
AcDbEntity
  8
1
  6
Continuous
 62
     4
100
AcDbLine
 10
254.854190239254
 20
35.3022953821548
 30
0.0
 11
255.854190239254
 21
35.0522953821548
 31
0.0
  0
LINE
  5
C9
330
1F
100
AcDbEntity
  8
1
  6
Continuous
 62
     4
100
AcDbLine
 10
253.354190239254
 20
35.3022953821548
 30
0.0
 11
254.854190239254
 21
35.3022953821548
 31
0.0
  0
LINE
  5
CA
330
1F
100
AcDbEntity
  8
1
  6
Continuous
 62
     4
100
AcDbLine
 10
252.354190239254
 20
35.0522953821548
 30
0.0
 11
253.354190239254
 21
35.3022953821548
 31
0.0
  0
LINE
  5
CB
330
1F
100
AcDbEntity
  8
1
  6
Continuous
 62
     4
100
AcDbLine
 10
251.604190239254
 20
34.5522953821548
 30
0.0
 11
252.354190239254
 21
35.0522953821548
 31
0.0
  0
LINE
  5
CC
330
1F
100
AcDbEntity
  8
1
  6
Continuous
 62
     4
100
AcDbLine
 10
251.104190239254
 20
33.8022953821548
 30
0.0
 11
251.604190239254
 21
34.5522953821548
 31
0.0
  0
LINE
  5
CD
330
1F
100
AcDbEntity
  8
1
  6
Continuous
 62
     4
100
AcDbLine
 10
248.104190239254
 20
30.8022953821548
 30
0.0
 11
245.604190239254
 21
30.8022953821548
 31
0.0
  0
LINE
  5
CE
330
1F
100
AcDbEntity
  8
1
  6
Continuous
 62
     4
100
AcDbLine
 10
248.104190239254
 20
25.3022953821548
 30
0.0
 11
248.104190239254
 21
30.8022953821548
 31
0.0
  0
LINE
  5
CF
330
1F
100
AcDbEntity
  8
1
  6
Continuous
 62
     4
100
AcDbLine
 10
243.854190239254
 20
25.3022953821548
 30
0.0
 11
248.104190239254
 21
25.3022953821548
 31
0.0
  0
LINE
  5
D0
330
1F
100
AcDbEntity
  8
1
  6
Continuous
 62
     4
100
AcDbLine
 10
243.104190239254
 20
25.5522953821548
 30
0.0
 11
243.854190239254
 21
25.3022953821548
 31
0.0
  0
LINE
  5
D1
330
1F
100
AcDbEntity
  8
1
  6
Continuous
 62
     4
100
AcDbLine
 10
242.104190239254
 20
26.0522953821548
 30
0.0
 11
243.104190239254
 21
25.5522953821548
 31
0.0
  0
LINE
  5
D2
330
1F
100
AcDbEntity
  8
1
  6
Continuous
 62
     4
100
AcDbLine
 10
241.604190239254
 20
26.5522953821548
 30
0.0
 11
242.104190239254
 21
26.0522953821548
 31
0.0
  0
LINE
  5
D3
330
1F
100
AcDbEntity
  8
1
  6
Continuous
 62
     4
100
AcDbLine
 10
241.354190239254
 20
27.3022953821548
 30
0.0
 11
241.604190239254
 21
26.5522953821548
 31
0.0
  0
LINE
  5
D4
330
1F
100
AcDbEntity
  8
1
  6
Continuous
 62
     4
100
AcDbLine
 10
241.104190239254
 20
28.3022953821548
 30
0.0
 11
241.354190239254
 21
27.3022953821548
 31
0.0
  0
LINE
  5
D5
330
1F
100
AcDbEntity
  8
1
  6
Continuous
 62
     4
100
AcDbLine
 10
241.104190239254
 20
32.3022953821548
 30
0.0
 11
241.104190239254
 21
28.3022953821548
 31
0.0
  0
LINE
  5
D6
330
1F
100
AcDbEntity
  8
1
  6
Continuous
 62
     4
100
AcDbLine
 10
241.354190239254
 20
33.3022953821548
 30
0.0
 11
241.104190239254
 21
32.3022953821548
 31
0.0
  0
LINE
  5
D7
330
1F
100
AcDbEntity
  8
1
  6
Continuous
 62
     4
100
AcDbLine
 10
241.604190239254
 20
34.0522953821548
 30
0.0
 11
241.354190239254
 21
33.3022953821548
 31
0.0
  0
LINE
  5
D8
330
1F
100
AcDbEntity
  8
1
  6
Continuous
 62
     4
100
AcDbLine
 10
242.104190239254
 20
34.5522953821548
 30
0.0
 11
241.604190239254
 21
34.0522953821548
 31
0.0
  0
LINE
  5
D9
330
1F
100
AcDbEntity
  8
1
  6
Continuous
 62
     4
100
AcDbLine
 10
242.854190239254
 20
35.0522953821548
 30
0.0
 11
242.104190239254
 21
34.5522953821548
 31
0.0
  0
LINE
  5
DA
330
1F
100
AcDbEntity
  8
1
  6
Continuous
 62
     4
100
AcDbLine
 10
243.854190239254
 20
35.3022953821548
 30
0.0
 11
242.854190239254
 21
35.0522953821548
 31
0.0
  0
LINE
  5
DB
330
1F
100
AcDbEntity
  8
1
  6
Continuous
 62
     4
100
AcDbLine
 10
248.104190239254
 20
35.3022953821548
 30
0.0
 11
243.854190239254
 21
35.3022953821548
 31
0.0
  0
LINE
  5
DC
330
1F
100
AcDbEntity
  8
1
  6
Continuous
 62
     4
100
AcDbLine
 10
526.165403663599
 20
24.0654999076162
 30
0.0
 11
532.165403663599
 21
24.0654999076162
 31
0.0
  0
LINE
  5
DD
330
1F
100
AcDbEntity
  8
1
  6
Continuous
 62
     4
100
AcDbLine
 10
531.665403663599
 20
30.5654999076162
 30
0.0
 11
526.165403663599
 21
24.0654999076162
 31
0.0
  0
LINE
  5
DE
330
1F
100
AcDbEntity
  8
1
  6
Continuous
 62
     4
100
AcDbLine
 10
532.165403663599
 20
31.5654999076162
 30
0.0
 11
531.665403663599
 21
30.5654999076162
 31
0.0
  0
LINE
  5
DF
330
1F
100
AcDbEntity
  8
1
  6
Continuous
 62
     4
100
AcDbLine
 10
532.165403663599
 20
32.5654999076162
 30
0.0
 11
532.165403663599
 21
31.5654999076162
 31
0.0
  0
LINE
  5
E0
330
1F
100
AcDbEntity
  8
1
  6
Continuous
 62
     4
100
AcDbLine
 10
531.665403663599
 20
33.3154999076162
 30
0.0
 11
532.165403663599
 21
32.5654999076162
 31
0.0
  0
LINE
  5
E1
330
1F
100
AcDbEntity
  8
1
  6
Continuous
 62
     4
100
AcDbLine
 10
530.915403663599
 20
33.8154999076162
 30
0.0
 11
531.665403663599
 21
33.3154999076162
 31
0.0
  0
LINE
  5
E2
330
1F
100
AcDbEntity
  8
1
  6
Continuous
 62
     4
100
AcDbLine
 10
529.915403663599
 20
34.0654999076162
 30
0.0
 11
530.915403663599
 21
33.8154999076162
 31
0.0
  0
LINE
  5
E3
330
1F
100
AcDbEntity
  8
1
  6
Continuous
 62
     4
100
AcDbLine
 10
528.415403663599
 20
34.0654999076162
 30
0.0
 11
529.915403663599
 21
34.0654999076162
 31
0.0
  0
LINE
  5
E4
330
1F
100
AcDbEntity
  8
1
  6
Continuous
 62
     4
100
AcDbLine
 10
527.415403663599
 20
33.8154999076162
 30
0.0
 11
528.415403663599
 21
34.0654999076162
 31
0.0
  0
LINE
  5
E5
330
1F
100
AcDbEntity
  8
1
  6
Continuous
 62
     4
100
AcDbLine
 10
526.665403663599
 20
33.3154999076162
 30
0.0
 11
527.415403663599
 21
33.8154999076162
 31
0.0
  0
LINE
  5
E6
330
1F
100
AcDbEntity
  8
1
  6
Continuous
 62
     4
100
AcDbLine
 10
526.165403663599
 20
32.5654999076162
 30
0.0
 11
526.665403663599
 21
33.3154999076162
 31
0.0
  0
LINE
  5
E7
330
1F
100
AcDbEntity
  8
1
  6
Continuous
 62
     4
100
AcDbLine
 10
519.165403663599
 20
24.0654999076162
 30
0.0
 11
523.165403663599
 21
34.0654999076162
 31
0.0
  0
LINE
  5
E8
330
1F
100
AcDbEntity
  8
1
  6
Continuous
 62
     4
100
AcDbLine
 10
516.165403663599
 20
34.0654999076162
 30
0.0
 11
516.165403663599
 21
24.0654999076162
 31
0.0
  0
LINE
  5
E9
330
1F
100
AcDbEntity
  8
1
  6
Continuous
 62
     4
100
AcDbLine
 10
513.165403663599
 20
31.0654999076162
 30
0.0
 11
516.165403663599
 21
34.0654999076162
 31
0.0
  0
LINE
  5
EA
330
1F
100
AcDbEntity
  8
1
  6
Continuous
 62
     4
100
AcDbLine
 10
496.165403663599
 20
24.0654999076162
 30
0.0
 11
502.165403663599
 21
24.0654999076162
 31
0.0
  0
LINE
  5
EB
330
1F
100
AcDbEntity
  8
1
  6
Continuous
 62
     4
100
AcDbLine
 10
501.665403663599
 20
30.5654999076162
 30
0.0
 11
496.165403663599
 21
24.0654999076162
 31
0.0
  0
LINE
  5
EC
330
1F
100
AcDbEntity
  8
1
  6
Continuous
 62
     4
100
AcDbLine
 10
502.165403663599
 20
31.5654999076162
 30
0.0
 11
501.665403663599
 21
30.5654999076162
 31
0.0
  0
LINE
  5
ED
330
1F
100
AcDbEntity
  8
1
  6
Continuous
 62
     4
100
AcDbLine
 10
502.165403663599
 20
32.5654999076162
 30
0.0
 11
502.165403663599
 21
31.5654999076162
 31
0.0
  0
LINE
  5
EE
330
1F
100
AcDbEntity
  8
1
  6
Continuous
 62
     4
100
AcDbLine
 10
501.665403663599
 20
33.3154999076162
 30
0.0
 11
502.165403663599
 21
32.5654999076162
 31
0.0
  0
LINE
  5
EF
330
1F
100
AcDbEntity
  8
1
  6
Continuous
 62
     4
100
AcDbLine
 10
500.915403663599
 20
33.8154999076162
 30
0.0
 11
501.665403663599
 21
33.3154999076162
 31
0.0
  0
LINE
  5
F0
330
1F
100
AcDbEntity
  8
1
  6
Continuous
 62
     4
100
AcDbLine
 10
499.915403663599
 20
34.0654999076162
 30
0.0
 11
500.915403663599
 21
33.8154999076162
 31
0.0
  0
LINE
  5
F1
330
1F
100
AcDbEntity
  8
1
  6
Continuous
 62
     4
100
AcDbLine
 10
498.415403663599
 20
34.0654999076162
 30
0.0
 11
499.915403663599
 21
34.0654999076162
 31
0.0
  0
LINE
  5
F2
330
1F
100
AcDbEntity
  8
1
  6
Continuous
 62
     4
100
AcDbLine
 10
497.415403663599
 20
33.8154999076162
 30
0.0
 11
498.415403663599
 21
34.0654999076162
 31
0.0
  0
LINE
  5
F3
330
1F
100
AcDbEntity
  8
1
  6
Continuous
 62
     4
100
AcDbLine
 10
496.665403663599
 20
33.3154999076162
 30
0.0
 11
497.415403663599
 21
33.8154999076162
 31
0.0
  0
LINE
  5
F4
330
1F
100
AcDbEntity
  8
1
  6
Continuous
 62
     4
100
AcDbLine
 10
496.165403663599
 20
32.5654999076162
 30
0.0
 11
496.665403663599
 21
33.3154999076162
 31
0.0
  0
LINE
  5
F5
330
1F
100
AcDbEntity
  8
1
  6
Continuous
 62
     4
100
AcDbLine
 10
493.165403663599
 20
29.5654999076162
 30
0.0
 11
490.665403663599
 21
29.5654999076162
 31
0.0
  0
LINE
  5
F6
330
1F
100
AcDbEntity
  8
1
  6
Continuous
 62
     4
100
AcDbLine
 10
493.165403663599
 20
24.0654999076162
 30
0.0
 11
493.165403663599
 21
29.5654999076162
 31
0.0
  0
LINE
  5
F7
330
1F
100
AcDbEntity
  8
1
  6
Continuous
 62
     4
100
AcDbLine
 10
488.915403663599
 20
24.0654999076162
 30
0.0
 11
493.165403663599
 21
24.0654999076162
 31
0.0
  0
LINE
  5
F8
330
1F
100
AcDbEntity
  8
1
  6
Continuous
 62
     4
100
AcDbLine
 10
488.165403663599
 20
24.3154999076162
 30
0.0
 11
488.915403663599
 21
24.0654999076162
 31
0.0
  0
LINE
  5
F9
330
1F
100
AcDbEntity
  8
1
  6
Continuous
 62
     4
100
AcDbLine
 10
487.165403663599
 20
24.8154999076162
 30
0.0
 11
488.165403663599
 21
24.3154999076162
 31
0.0
  0
LINE
  5
FA
330
1F
100
AcDbEntity
  8
1
  6
Continuous
 62
     4
100
AcDbLine
 10
486.665403663599
 20
25.3154999076162
 30
0.0
 11
487.165403663599
 21
24.8154999076162
 31
0.0
  0
LINE
  5
FB
330
1F
100
AcDbEntity
  8
1
  6
Continuous
 62
     4
100
AcDbLine
 10
486.415403663599
 20
26.0654999076162
 30
0.0
 11
486.665403663599
 21
25.3154999076162
 31
0.0
  0
LINE
  5
FC
330
1F
100
AcDbEntity
  8
1
  6
Continuous
 62
     4
100
AcDbLine
 10
486.165403663599
 20
27.0654999076162
 30
0.0
 11
486.415403663599
 21
26.0654999076162
 31
0.0
  0
LINE
  5
FD
330
1F
100
AcDbEntity
  8
1
  6
Continuous
 62
     4
100
AcDbLine
 10
486.165403663599
 20
31.0654999076162
 30
0.0
 11
486.165403663599
 21
27.0654999076162
 31
0.0
  0
LINE
  5
FE
330
1F
100
AcDbEntity
  8
1
  6
Continuous
 62
     4
100
AcDbLine
 10
486.415403663599
 20
32.0654999076162
 30
0.0
 11
486.165403663599
 21
31.0654999076162
 31
0.0
  0
LINE
  5
FF
330
1F
100
AcDbEntity
  8
1
  6
Continuous
 62
     4
100
AcDbLine
 10
486.665403663599
 20
32.8154999076162
 30
0.0
 11
486.415403663599
 21
32.0654999076162
 31
0.0
  0
LINE
  5
100
330
1F
100
AcDbEntity
  8
1
  6
Continuous
 62
     4
100
AcDbLine
 10
487.165403663599
 20
33.3154999076162
 30
0.0
 11
486.665403663599
 21
32.8154999076162
 31
0.0
  0
LINE
  5
101
330
1F
100
AcDbEntity
  8
1
  6
Continuous
 62
     4
100
AcDbLine
 10
487.915403663599
 20
33.8154999076162
 30
0.0
 11
487.165403663599
 21
33.3154999076162
 31
0.0
  0
LINE
  5
102
330
1F
100
AcDbEntity
  8
1
  6
Continuous
 62
     4
100
AcDbLine
 10
488.915403663599
 20
34.0654999076162
 30
0.0
 11
487.915403663599
 21
33.8154999076162
 31
0.0
  0
LINE
  5
103
330
1F
100
AcDbEntity
  8
1
  6
Continuous
 62
     4
100
AcDbLine
 10
493.165403663599
 20
34.0654999076162
 30
0.0
 11
488.915403663599
 21
34.0654999076162
 31
0.0
  0
LINE
  5
104
330
1F
100
AcDbEntity
  8
1
  6
Continuous
 62
     4
100
AcDbLine
 10
810.794620382027
 20
399.46080678603
 30
0.0
 11
810.294620382027
 21
399.96080678603
 31
0.0
  0
LINE
  5
105
330
1F
100
AcDbEntity
  8
1
  6
Continuous
 62
     4
100
AcDbLine
 10
811.794620382027
 20
398.96080678603
 30
0.0
 11
810.794620382027
 21
399.46080678603
 31
0.0
  0
LINE
  5
106
330
1F
100
AcDbEntity
  8
1
  6
Continuous
 62
     4
100
AcDbLine
 10
813.044620382027
 20
398.71080678603
 30
0.0
 11
811.794620382027
 21
398.96080678603
 31
0.0
  0
LINE
  5
107
330
1F
100
AcDbEntity
  8
1
  6
Continuous
 62
     4
100
AcDbLine
 10
814.544620382027
 20
398.71080678603
 30
0.0
 11
813.044620382027
 21
398.71080678603
 31
0.0
  0
LINE
  5
108
330
1F
100
AcDbEntity
  8
1
  6
Continuous
 62
     4
100
AcDbLine
 10
815.794620382027
 20
398.96080678603
 30
0.0
 11
814.544620382027
 21
398.71080678603
 31
0.0
  0
LINE
  5
109
330
1F
100
AcDbEntity
  8
1
  6
Continuous
 62
     4
100
AcDbLine
 10
816.544620382027
 20
399.46080678603
 30
0.0
 11
815.794620382027
 21
398.96080678603
 31
0.0
  0
LINE
  5
10A
330
1F
100
AcDbEntity
  8
1
  6
Continuous
 62
     4
100
AcDbLine
 10
817.044620382027
 20
400.21080678603
 30
0.0
 11
816.544620382027
 21
399.46080678603
 31
0.0
  0
LINE
  5
10B
330
1F
100
AcDbEntity
  8
1
  6
Continuous
 62
     4
100
AcDbLine
 10
817.294620382027
 20
400.96080678603
 30
0.0
 11
817.044620382027
 21
400.21080678603
 31
0.0
  0
LINE
  5
10C
330
1F
100
AcDbEntity
  8
1
  6
Continuous
 62
     4
100
AcDbLine
 10
817.294620382027
 20
401.46080678603
 30
0.0
 11
817.294620382027
 21
400.96080678603
 31
0.0
  0
LINE
  5
10D
330
1F
100
AcDbEntity
  8
1
  6
Continuous
 62
     4
100
AcDbLine
 10
817.044620382027
 20
402.21080678603
 30
0.0
 11
817.294620382027
 21
401.46080678603
 31
0.0
  0
LINE
  5
10E
330
1F
100
AcDbEntity
  8
1
  6
Continuous
 62
     4
100
AcDbLine
 10
816.544620382027
 20
402.96080678603
 30
0.0
 11
817.044620382027
 21
402.21080678603
 31
0.0
  0
LINE
  5
10F
330
1F
100
AcDbEntity
  8
1
  6
Continuous
 62
     4
100
AcDbLine
 10
815.794620382027
 20
403.46080678603
 30
0.0
 11
816.544620382027
 21
402.96080678603
 31
0.0
  0
LINE
  5
110
330
1F
100
AcDbEntity
  8
1
  6
Continuous
 62
     4
100
AcDbLine
 10
811.544620382027
 20
405.21080678603
 30
0.0
 11
815.794620382027
 21
403.46080678603
 31
0.0
  0
LINE
  5
111
330
1F
100
AcDbEntity
  8
1
  6
Continuous
 62
     4
100
AcDbLine
 10
810.794620382027
 20
405.71080678603
 30
0.0
 11
811.544620382027
 21
405.21080678603
 31
0.0
  0
LINE
  5
112
330
1F
100
AcDbEntity
  8
1
  6
Continuous
 62
     4
100
AcDbLine
 10
810.544620382027
 20
406.46080678603
 30
0.0
 11
810.794620382027
 21
405.71080678603
 31
0.0
  0
LINE
  5
113
330
1F
100
AcDbEntity
  8
1
  6
Continuous
 62
     4
100
AcDbLine
 10
810.544620382027
 20
406.96080678603
 30
0.0
 11
810.544620382027
 21
406.46080678603
 31
0.0
  0
LINE
  5
114
330
1F
100
AcDbEntity
  8
1
  6
Continuous
 62
     4
100
AcDbLine
 10
810.794620382027
 20
407.71080678603
 30
0.0
 11
810.544620382027
 21
406.96080678603
 31
0.0
  0
LINE
  5
115
330
1F
100
AcDbEntity
  8
1
  6
Continuous
 62
     4
100
AcDbLine
 10
811.544620382027
 20
408.21080678603
 30
0.0
 11
810.794620382027
 21
407.71080678603
 31
0.0
  0
LINE
  5
116
330
1F
100
AcDbEntity
  8
1
  6
Continuous
 62
     4
100
AcDbLine
 10
812.294620382027
 20
408.46080678603
 30
0.0
 11
811.544620382027
 21
408.21080678603
 31
0.0
  0
LINE
  5
117
330
1F
100
AcDbEntity
  8
1
  6
Continuous
 62
     4
100
AcDbLine
 10
813.294620382027
 20
408.71080678603
 30
0.0
 11
812.294620382027
 21
408.46080678603
 31
0.0
  0
LINE
  5
118
330
1F
100
AcDbEntity
  8
1
  6
Continuous
 62
     4
100
AcDbLine
 10
814.294620382027
 20
408.71080678603
 30
0.0
 11
813.294620382027
 21
408.71080678603
 31
0.0
  0
LINE
  5
119
330
1F
100
AcDbEntity
  8
1
  6
Continuous
 62
     4
100
AcDbLine
 10
815.544620382027
 20
408.46080678603
 30
0.0
 11
814.294620382027
 21
408.71080678603
 31
0.0
  0
LINE
  5
11A
330
1F
100
AcDbEntity
  8
1
  6
Continuous
 62
     4
100
AcDbLine
 10
816.294620382027
 20
408.21080678603
 30
0.0
 11
815.544620382027
 21
408.46080678603
 31
0.0
  0
LINE
  5
11B
330
1F
100
AcDbEntity
  8
1
  6
Continuous
 62
     4
100
AcDbLine
 10
817.044620382027
 20
407.71080678603
 30
0.0
 11
816.294620382027
 21
408.21080678603
 31
0.0
  0
LINE
  5
11C
330
1F
100
AcDbEntity
  8
1
  6
Continuous
 62
     4
100
AcDbLine
 10
807.294620382027
 20
404.96080678603
 30
0.0
 11
807.294620382027
 21
402.46080678603
 31
0.0
  0
LINE
  5
11D
330
1F
100
AcDbEntity
  8
1
  6
Continuous
 62
     4
100
AcDbLine
 10
807.044620382027
 20
406.46080678603
 30
0.0
 11
807.294620382027
 21
404.96080678603
 31
0.0
  0
LINE
  5
11E
330
1F
100
AcDbEntity
  8
1
  6
Continuous
 62
     4
100
AcDbLine
 10
806.544620382027
 20
407.46080678603
 30
0.0
 11
807.044620382027
 21
406.46080678603
 31
0.0
  0
LINE
  5
11F
330
1F
100
AcDbEntity
  8
1
  6
Continuous
 62
     4
100
AcDbLine
 10
806.044620382027
 20
407.96080678603
 30
0.0
 11
806.544620382027
 21
407.46080678603
 31
0.0
  0
LINE
  5
120
330
1F
100
AcDbEntity
  8
1
  6
Continuous
 62
     4
100
AcDbLine
 10
805.294620382027
 20
408.46080678603
 30
0.0
 11
806.044620382027
 21
407.96080678603
 31
0.0
  0
LINE
  5
121
330
1F
100
AcDbEntity
  8
1
  6
Continuous
 62
     4
100
AcDbLine
 10
804.544620382027
 20
408.71080678603
 30
0.0
 11
805.294620382027
 21
408.46080678603
 31
0.0
  0
LINE
  5
122
330
1F
100
AcDbEntity
  8
1
  6
Continuous
 62
     4
100
AcDbLine
 10
804.044620382027
 20
408.71080678603
 30
0.0
 11
804.544620382027
 21
408.71080678603
 31
0.0
  0
LINE
  5
123
330
1F
100
AcDbEntity
  8
1
  6
Continuous
 62
     4
100
AcDbLine
 10
803.294620382027
 20
408.46080678603
 30
0.0
 11
804.044620382027
 21
408.71080678603
 31
0.0
  0
LINE
  5
124
330
1F
100
AcDbEntity
  8
1
  6
Continuous
 62
     4
100
AcDbLine
 10
802.544620382027
 20
407.96080678603
 30
0.0
 11
803.294620382027
 21
408.46080678603
 31
0.0
  0
LINE
  5
125
330
1F
100
AcDbEntity
  8
1
  6
Continuous
 62
     4
100
AcDbLine
 10
802.044620382027
 20
407.46080678603
 30
0.0
 11
802.544620382027
 21
407.96080678603
 31
0.0
  0
LINE
  5
126
330
1F
100
AcDbEntity
  8
1
  6
Continuous
 62
     4
100
AcDbLine
 10
801.544620382027
 20
406.46080678603
 30
0.0
 11
802.044620382027
 21
407.46080678603
 31
0.0
  0
LINE
  5
127
330
1F
100
AcDbEntity
  8
1
  6
Continuous
 62
     4
100
AcDbLine
 10
801.294620382027
 20
404.96080678603
 30
0.0
 11
801.544620382027
 21
406.46080678603
 31
0.0
  0
LINE
  5
128
330
1F
100
AcDbEntity
  8
1
  6
Continuous
 62
     4
100
AcDbLine
 10
801.294620382027
 20
402.46080678603
 30
0.0
 11
801.294620382027
 21
404.96080678603
 31
0.0
  0
LINE
  5
129
330
1F
100
AcDbEntity
  8
1
  6
Continuous
 62
     4
100
AcDbLine
 10
801.544620382027
 20
400.96080678603
 30
0.0
 11
801.294620382027
 21
402.46080678603
 31
0.0
  0
LINE
  5
12A
330
1F
100
AcDbEntity
  8
1
  6
Continuous
 62
     4
100
AcDbLine
 10
802.044620382027
 20
399.96080678603
 30
0.0
 11
801.544620382027
 21
400.96080678603
 31
0.0
  0
LINE
  5
12B
330
1F
100
AcDbEntity
  8
1
  6
Continuous
 62
     4
100
AcDbLine
 10
802.544620382027
 20
399.46080678603
 30
0.0
 11
802.044620382027
 21
399.96080678603
 31
0.0
  0
LINE
  5
12C
330
1F
100
AcDbEntity
  8
1
  6
Continuous
 62
     4
100
AcDbLine
 10
803.294620382027
 20
398.96080678603
 30
0.0
 11
802.544620382027
 21
399.46080678603
 31
0.0
  0
LINE
  5
12D
330
1F
100
AcDbEntity
  8
1
  6
Continuous
 62
     4
100
AcDbLine
 10
804.044620382027
 20
398.71080678603
 30
0.0
 11
803.294620382027
 21
398.96080678603
 31
0.0
  0
LINE
  5
12E
330
1F
100
AcDbEntity
  8
1
  6
Continuous
 62
     4
100
AcDbLine
 10
804.544620382027
 20
398.71080678603
 30
0.0
 11
804.044620382027
 21
398.71080678603
 31
0.0
  0
LINE
  5
12F
330
1F
100
AcDbEntity
  8
1
  6
Continuous
 62
     4
100
AcDbLine
 10
805.294620382027
 20
398.96080678603
 30
0.0
 11
804.544620382027
 21
398.71080678603
 31
0.0
  0
LINE
  5
130
330
1F
100
AcDbEntity
  8
1
  6
Continuous
 62
     4
100
AcDbLine
 10
806.044620382027
 20
399.46080678603
 30
0.0
 11
805.294620382027
 21
398.96080678603
 31
0.0
  0
LINE
  5
131
330
1F
100
AcDbEntity
  8
1
  6
Continuous
 62
     4
100
AcDbLine
 10
806.544620382027
 20
399.96080678603
 30
0.0
 11
806.044620382027
 21
399.46080678603
 31
0.0
  0
LINE
  5
132
330
1F
100
AcDbEntity
  8
1
  6
Continuous
 62
     4
100
AcDbLine
 10
807.044620382027
 20
400.96080678603
 30
0.0
 11
806.544620382027
 21
399.96080678603
 31
0.0
  0
LINE
  5
133
330
1F
100
AcDbEntity
  8
1
  6
Continuous
 62
     4
100
AcDbLine
 10
807.294620382027
 20
402.46080678603
 30
0.0
 11
807.044620382027
 21
400.96080678603
 31
0.0
  0
LINE
  5
134
330
1F
100
AcDbEntity
  8
1
  6
Continuous
 62
     4
100
AcDbLine
 10
796.044620382027
 20
398.71080678603
 30
0.0
 11
792.294620382027
 21
398.71080678603
 31
0.0
  0
LINE
  5
135
330
1F
100
AcDbEntity
  8
1
  6
Continuous
 62
     4
100
AcDbLine
 10
796.794620382027
 20
398.96080678603
 30
0.0
 11
796.044620382027
 21
398.71080678603
 31
0.0
  0
LINE
  5
136
330
1F
100
AcDbEntity
  8
1
  6
Continuous
 62
     4
100
AcDbLine
 10
797.544620382027
 20
399.46080678603
 30
0.0
 11
796.794620382027
 21
398.96080678603
 31
0.0
  0
LINE
  5
137
330
1F
100
AcDbEntity
  8
1
  6
Continuous
 62
     4
100
AcDbLine
 10
798.044620382027
 20
400.21080678603
 30
0.0
 11
797.544620382027
 21
399.46080678603
 31
0.0
  0
LINE
  5
138
330
1F
100
AcDbEntity
  8
1
  6
Continuous
 62
     4
100
AcDbLine
 10
798.294620382027
 20
401.21080678603
 30
0.0
 11
798.044620382027
 21
400.21080678603
 31
0.0
  0
LINE
  5
139
330
1F
100
AcDbEntity
  8
1
  6
Continuous
 62
     4
100
AcDbLine
 10
798.294620382027
 20
402.71080678603
 30
0.0
 11
798.294620382027
 21
401.21080678603
 31
0.0
  0
LINE
  5
13A
330
1F
100
AcDbEntity
  8
1
  6
Continuous
 62
     4
100
AcDbLine
 10
798.044620382027
 20
403.71080678603
 30
0.0
 11
798.294620382027
 21
402.71080678603
 31
0.0
  0
LINE
  5
13B
330
1F
100
AcDbEntity
  8
1
  6
Continuous
 62
     4
100
AcDbLine
 10
797.294620382027
 20
404.46080678603
 30
0.0
 11
798.044620382027
 21
403.71080678603
 31
0.0
  0
LINE
  5
13C
330
1F
100
AcDbEntity
  8
1
  6
Continuous
 62
     4
100
AcDbLine
 10
796.044620382027
 20
404.71080678603
 30
0.0
 11
797.294620382027
 21
404.46080678603
 31
0.0
  0
LINE
  5
13D
330
1F
100
AcDbEntity
  8
1
  6
Continuous
 62
     4
100
AcDbLine
 10
792.294620382027
 20
404.71080678603
 30
0.0
 11
796.044620382027
 21
404.71080678603
 31
0.0
  0
LINE
  5
13E
330
1F
100
AcDbEntity
  8
1
  6
Continuous
 62
     4
100
AcDbLine
 10
792.294620382027
 20
408.71080678603
 30
0.0
 11
792.294620382027
 21
404.71080678603
 31
0.0
  0
LINE
  5
13F
330
1F
100
AcDbEntity
  8
1
  6
Continuous
 62
     4
100
AcDbLine
 10
797.794620382027
 20
408.71080678603
 30
0.0
 11
792.294620382027
 21
408.71080678603
 31
0.0
  0
LINE
  5
140
330
1F
100
AcDbEntity
  8
1
  6
Continuous
 62
     4
100
AcDbLine
 10
784.294620382027
 20
402.21080678603
 30
0.0
 11
789.294620382027
 21
402.21080678603
 31
0.0
  0
LINE
  5
141
330
1F
100
AcDbEntity
  8
1
  6
Continuous
 62
     4
100
AcDbLine
 10
778.044620382027
 20
408.71080678603
 30
0.0
 11
781.294620382027
 21
408.71080678603
 31
0.0
  0
LINE
  5
142
330
1F
100
AcDbEntity
  8
1
  6
Continuous
 62
     4
100
AcDbLine
 10
777.044620382027
 20
408.46080678603
 30
0.0
 11
778.044620382027
 21
408.71080678603
 31
0.0
  0
LINE
  5
143
330
1F
100
AcDbEntity
  8
1
  6
Continuous
 62
     4
100
AcDbLine
 10
776.294620382027
 20
407.96080678603
 30
0.0
 11
777.044620382027
 21
408.46080678603
 31
0.0
  0
LINE
  5
144
330
1F
100
AcDbEntity
  8
1
  6
Continuous
 62
     4
100
AcDbLine
 10
775.794620382027
 20
407.46080678603
 30
0.0
 11
776.294620382027
 21
407.96080678603
 31
0.0
  0
LINE
  5
145
330
1F
100
AcDbEntity
  8
1
  6
Continuous
 62
     4
100
AcDbLine
 10
775.544620382027
 20
406.71080678603
 30
0.0
 11
775.794620382027
 21
407.46080678603
 31
0.0
  0
LINE
  5
146
330
1F
100
AcDbEntity
  8
1
  6
Continuous
 62
     4
100
AcDbLine
 10
775.294620382027
 20
405.71080678603
 30
0.0
 11
775.544620382027
 21
406.71080678603
 31
0.0
  0
LINE
  5
147
330
1F
100
AcDbEntity
  8
1
  6
Continuous
 62
     4
100
AcDbLine
 10
775.294620382027
 20
401.71080678603
 30
0.0
 11
775.294620382027
 21
405.71080678603
 31
0.0
  0
LINE
  5
148
330
1F
100
AcDbEntity
  8
1
  6
Continuous
 62
     4
100
AcDbLine
 10
775.544620382027
 20
400.71080678603
 30
0.0
 11
775.294620382027
 21
401.71080678603
 31
0.0
  0
LINE
  5
149
330
1F
100
AcDbEntity
  8
1
  6
Continuous
 62
     4
100
AcDbLine
 10
775.794620382027
 20
399.96080678603
 30
0.0
 11
775.544620382027
 21
400.71080678603
 31
0.0
  0
LINE
  5
14A
330
1F
100
AcDbEntity
  8
1
  6
Continuous
 62
     4
100
AcDbLine
 10
776.294620382027
 20
399.46080678603
 30
0.0
 11
775.794620382027
 21
399.96080678603
 31
0.0
  0
LINE
  5
14B
330
1F
100
AcDbEntity
  8
1
  6
Continuous
 62
     4
100
AcDbLine
 10
777.044620382027
 20
398.96080678603
 30
0.0
 11
776.294620382027
 21
399.46080678603
 31
0.0
  0
LINE
  5
14C
330
1F
100
AcDbEntity
  8
1
  6
Continuous
 62
     4
100
AcDbLine
 10
778.044620382027
 20
398.71080678603
 30
0.0
 11
777.044620382027
 21
398.96080678603
 31
0.0
  0
LINE
  5
14D
330
1F
100
AcDbEntity
  8
1
  6
Continuous
 62
     4
100
AcDbLine
 10
781.294620382027
 20
398.71080678603
 30
0.0
 11
778.044620382027
 21
398.71080678603
 31
0.0
  0
LINE
  5
14E
330
1F
100
AcDbEntity
  8
1
  6
Continuous
 62
     4
100
AcDbLine
 10
769.044620382027
 20
408.71080678603
 30
0.0
 11
772.294620382027
 21
408.71080678603
 31
0.0
  0
LINE
  5
14F
330
1F
100
AcDbEntity
  8
1
  6
Continuous
 62
     4
100
AcDbLine
 10
768.044620382027
 20
408.46080678603
 30
0.0
 11
769.044620382027
 21
408.71080678603
 31
0.0
  0
LINE
  5
150
330
1F
100
AcDbEntity
  8
1
  6
Continuous
 62
     4
100
AcDbLine
 10
767.294620382027
 20
407.96080678603
 30
0.0
 11
768.044620382027
 21
408.46080678603
 31
0.0
  0
LINE
  5
151
330
1F
100
AcDbEntity
  8
1
  6
Continuous
 62
     4
100
AcDbLine
 10
766.794620382027
 20
407.46080678603
 30
0.0
 11
767.294620382027
 21
407.96080678603
 31
0.0
  0
LINE
  5
152
330
1F
100
AcDbEntity
  8
1
  6
Continuous
 62
     4
100
AcDbLine
 10
766.544620382027
 20
406.71080678603
 30
0.0
 11
766.794620382027
 21
407.46080678603
 31
0.0
  0
LINE
  5
153
330
1F
100
AcDbEntity
  8
1
  6
Continuous
 62
     4
100
AcDbLine
 10
766.294620382027
 20
405.71080678603
 30
0.0
 11
766.544620382027
 21
406.71080678603
 31
0.0
  0
LINE
  5
154
330
1F
100
AcDbEntity
  8
1
  6
Continuous
 62
     4
100
AcDbLine
 10
766.294620382027
 20
401.71080678603
 30
0.0
 11
766.294620382027
 21
405.71080678603
 31
0.0
  0
LINE
  5
155
330
1F
100
AcDbEntity
  8
1
  6
Continuous
 62
     4
100
AcDbLine
 10
766.544620382027
 20
400.71080678603
 30
0.0
 11
766.294620382027
 21
401.71080678603
 31
0.0
  0
LINE
  5
156
330
1F
100
AcDbEntity
  8
1
  6
Continuous
 62
     4
100
AcDbLine
 10
766.794620382027
 20
399.96080678603
 30
0.0
 11
766.544620382027
 21
400.71080678603
 31
0.0
  0
LINE
  5
157
330
1F
100
AcDbEntity
  8
1
  6
Continuous
 62
     4
100
AcDbLine
 10
767.294620382027
 20
399.46080678603
 30
0.0
 11
766.794620382027
 21
399.96080678603
 31
0.0
  0
LINE
  5
158
330
1F
100
AcDbEntity
  8
1
  6
Continuous
 62
     4
100
AcDbLine
 10
768.044620382027
 20
398.96080678603
 30
0.0
 11
767.294620382027
 21
399.46080678603
 31
0.0
  0
LINE
  5
159
330
1F
100
AcDbEntity
  8
1
  6
Continuous
 62
     4
100
AcDbLine
 10
769.044620382027
 20
398.71080678603
 30
0.0
 11
768.044620382027
 21
398.96080678603
 31
0.0
  0
LINE
  5
15A
330
1F
100
AcDbEntity
  8
1
  6
Continuous
 62
     4
100
AcDbLine
 10
772.294620382027
 20
398.71080678603
 30
0.0
 11
769.044620382027
 21
398.71080678603
 31
0.0
  0
LINE
  5
15B
330
1F
100
AcDbEntity
  8
1
  6
Continuous
 62
     4
100
AcDbLine
 10
758.294620382027
 20
402.21080678603
 30
0.0
 11
763.294620382027
 21
402.21080678603
 31
0.0
  0
LINE
  5
15C
330
1F
100
AcDbEntity
  8
1
  6
Continuous
 62
     4
100
AcDbLine
 10
748.294620382027
 20
398.71080678603
 30
0.0
 11
748.294620382027
 21
403.71080678603
 31
0.0
  0
LINE
  5
15D
330
1F
100
AcDbEntity
  8
1
  6
Continuous
 62
     4
100
AcDbLine
 10
752.294620382027
 20
403.71080678603
 30
0.0
 11
755.294620382027
 21
398.71080678603
 31
0.0
  0
LINE
  5
15E
330
1F
100
AcDbEntity
  8
1
  6
Continuous
 62
     4
100
AcDbLine
 10
753.044620382027
 20
403.71080678603
 30
0.0
 11
752.294620382027
 21
403.71080678603
 31
0.0
  0
LINE
  5
15F
330
1F
100
AcDbEntity
  8
1
  6
Continuous
 62
     4
100
AcDbLine
 10
754.044620382027
 20
403.96080678603
 30
0.0
 11
753.044620382027
 21
403.71080678603
 31
0.0
  0
LINE
  5
160
330
1F
100
AcDbEntity
  8
1
  6
Continuous
 62
     4
100
AcDbLine
 10
754.794620382027
 20
404.46080678603
 30
0.0
 11
754.044620382027
 21
403.96080678603
 31
0.0
  0
LINE
  5
161
330
1F
100
AcDbEntity
  8
1
  6
Continuous
 62
     4
100
AcDbLine
 10
755.044620382027
 20
404.96080678603
 30
0.0
 11
754.794620382027
 21
404.46080678603
 31
0.0
  0
LINE
  5
162
330
1F
100
AcDbEntity
  8
1
  6
Continuous
 62
     4
100
AcDbLine
 10
755.294620382027
 20
405.71080678603
 30
0.0
 11
755.044620382027
 21
404.96080678603
 31
0.0
  0
LINE
  5
163
330
1F
100
AcDbEntity
  8
1
  6
Continuous
 62
     4
100
AcDbLine
 10
755.294620382027
 20
406.71080678603
 30
0.0
 11
755.294620382027
 21
405.71080678603
 31
0.0
  0
LINE
  5
164
330
1F
100
AcDbEntity
  8
1
  6
Continuous
 62
     4
100
AcDbLine
 10
755.044620382027
 20
407.46080678603
 30
0.0
 11
755.294620382027
 21
406.71080678603
 31
0.0
  0
LINE
  5
165
330
1F
100
AcDbEntity
  8
1
  6
Continuous
 62
     4
100
AcDbLine
 10
754.794620382027
 20
407.96080678603
 30
0.0
 11
755.044620382027
 21
407.46080678603
 31
0.0
  0
LINE
  5
166
330
1F
100
AcDbEntity
  8
1
  6
Continuous
 62
     4
100
AcDbLine
 10
754.044620382027
 20
408.46080678603
 30
0.0
 11
754.794620382027
 21
407.96080678603
 31
0.0
  0
LINE
  5
167
330
1F
100
AcDbEntity
  8
1
  6
Continuous
 62
     4
100
AcDbLine
 10
753.044620382027
 20
408.71080678603
 30
0.0
 11
754.044620382027
 21
408.46080678603
 31
0.0
  0
LINE
  5
168
330
1F
100
AcDbEntity
  8
1
  6
Continuous
 62
     4
100
AcDbLine
 10
748.294620382027
 20
408.71080678603
 30
0.0
 11
753.044620382027
 21
408.71080678603
 31
0.0
  0
LINE
  5
169
330
1F
100
AcDbEntity
  8
1
  6
Continuous
 62
     4
100
AcDbLine
 10
748.294620382027
 20
403.71080678603
 30
0.0
 11
748.294620382027
 21
408.71080678603
 31
0.0
  0
LINE
  5
16A
330
1F
100
AcDbEntity
  8
1
  6
Continuous
 62
     4
100
AcDbLine
 10
752.294620382027
 20
403.71080678603
 30
0.0
 11
748.294620382027
 21
403.71080678603
 31
0.0
  0
LINE
  5
16B
330
1F
100
AcDbEntity
  8
1
  6
Continuous
 62
     4
100
AcDbLine
 10
740.294620382027
 20
402.21080678603
 30
0.0
 11
745.294620382027
 21
402.21080678603
 31
0.0
  0
LINE
  5
16C
330
1F
100
AcDbEntity
  8
1
  6
Continuous
 62
     4
100
AcDbLine
 10
730.294620382027
 20
401.71080678603
 30
0.0
 11
730.294620382027
 21
408.71080678603
 31
0.0
  0
LINE
  5
16D
330
1F
100
AcDbEntity
  8
1
  6
Continuous
 62
     4
100
AcDbLine
 10
730.294620382027
 20
398.71080678603
 30
0.0
 11
730.294620382027
 21
401.71080678603
 31
0.0
  0
LINE
  5
16E
330
1F
100
AcDbEntity
  8
1
  6
Continuous
 62
     4
100
AcDbLine
 10
732.294620382027
 20
403.71080678603
 30
0.0
 11
737.294620382027
 21
398.71080678603
 31
0.0
  0
LINE
  5
16F
330
1F
100
AcDbEntity
  8
1
  6
Continuous
 62
     4
100
AcDbLine
 10
737.294620382027
 20
408.71080678603
 30
0.0
 11
732.294620382027
 21
403.71080678603
 31
0.0
  0
LINE
  5
170
330
1F
100
AcDbEntity
  8
1
  6
Continuous
 62
     4
100
AcDbLine
 10
732.294620382027
 20
403.71080678603
 30
0.0
 11
730.294620382027
 21
401.71080678603
 31
0.0
  0
LINE
  5
171
330
1F
100
AcDbEntity
  8
1
  6
Continuous
 62
     4
100
AcDbLine
 10
626.311365953178
 20
94.936889020546
 30
0.0
 11
627.677753327334
 21
86.7681694877114
 31
0.0
  0
LINE
  5
172
330
1F
100
AcDbEntity
  8
1
  6
Continuous
 62
     4
100
AcDbLine
 10
626.311365953178
 20
94.936889020546
 30
0.0
 11
631.579051897025
 21
88.5457640757992
 31
0.0
  0
LINE
  5
173
330
1F
100
AcDbEntity
  8
1
  6
Continuous
 62
     4
100
AcDbLine
 10
310.30076636044
 20
57.536889020546
 30
0.0
 11
305.033080416593
 21
51.1457640757992
 31
0.0
  0
LINE
  5
174
330
1F
100
AcDbEntity
  8
1
  6
Continuous
 62
     4
100
AcDbLine
 10
310.30076636044
 20
57.536889020546
 30
0.0
 11
308.934378986284
 21
49.3681694877114
 31
0.0
  0
LINE
  5
175
330
1F
100
AcDbEntity
  8
1
  6
Continuous
 62
     4
100
AcDbLine
 10
467.721965545916
 20
57.536889020546
 30
0.0
 11
472.989651489763
 21
51.1457640757992
 31
0.0
  0
LINE
  5
176
330
1F
100
AcDbEntity
  8
1
  6
Continuous
 62
     4
100
AcDbLine
 10
467.721965545916
 20
57.536889020546
 30
0.0
 11
469.088352920072
 21
49.3681694877114
 31
0.0
  0
LINE
  5
177
330
1F
100
AcDbEntity
  8
1
  6
DOTTED
 62
     6
100
AcDbLine
 10
566.311365953178
 20
65.636889020546
 30
0.0
 11
566.311365953178
 21
67.436889020546
 31
0.0
  0
LINE
  5
178
330
1F
100
AcDbEntity
  8
1
  6
DOTTED
 62
     6
100
AcDbLine
 10
566.311365953178
 20
124.236889020546
 30
0.0
 11
566.311365953178
 21
122.436889020546
 31
0.0
  0
LINE
  5
179
330
1F
100
AcDbEntity
  8
1
  6
DOTTED
 62
     6
100
AcDbLine
 10
576.011365953178
 20
125.436889020546
 30
0.0
 11
576.011365953178
 21
64.436889020546
 31
0.0
  0
LINE
  5
17A
330
1F
100
AcDbEntity
  8
1
  6
DOTTED
 62
     6
100
AcDbLine
 10
576.011365953178
 20
125.436889020546
 30
0.0
 11
571.511365953178
 21
125.436889020546
 31
0.0
  0
LINE
  5
17B
330
1F
100
AcDbEntity
  8
1
  6
DOTTED
 62
     6
100
AcDbLine
 10
571.511365953178
 20
125.436889020546
 30
0.0
 11
571.511365953178
 21
124.236889020546
 31
0.0
  0
LINE
  5
17C
330
1F
100
AcDbEntity
  8
1
  6
DOTTED
 62
     6
100
AcDbLine
 10
571.511365953178
 20
124.236889020546
 30
0.0
 11
566.311365953178
 21
124.236889020546
 31
0.0
  0
LINE
  5
17D
330
1F
100
AcDbEntity
  8
1
  6
DOTTED
 62
     6
100
AcDbLine
 10
566.311365953178
 20
65.636889020546
 30
0.0
 11
571.511365953178
 21
65.636889020546
 31
0.0
  0
LINE
  5
17E
330
1F
100
AcDbEntity
  8
1
  6
DOTTED
 62
     6
100
AcDbLine
 10
571.511365953178
 20
65.636889020546
 30
0.0
 11
571.511365953178
 21
64.436889020546
 31
0.0
  0
LINE
  5
17F
330
1F
100
AcDbEntity
  8
1
  6
DOTTED
 62
     6
100
AcDbLine
 10
571.511365953178
 20
64.436889020546
 30
0.0
 11
576.011365953178
 21
64.436889020546
 31
0.0
  0
LINE
  5
180
330
1F
100
AcDbEntity
  8
1
  6
DOTTED
 62
     4
100
AcDbLine
 10
596.511365953178
 20
64.436889020546
 30
0.0
 11
601.011365953178
 21
64.436889020546
 31
0.0
  0
LINE
  5
181
330
1F
100
AcDbEntity
  8
1
  6
DOTTED
 62
     4
100
AcDbLine
 10
596.511365953178
 20
65.636889020546
 30
0.0
 11
596.511365953178
 21
64.436889020546
 31
0.0
  0
LINE
  5
182
330
1F
100
AcDbEntity
  8
1
  6
DOTTED
 62
     4
100
AcDbLine
 10
591.311365953178
 20
65.636889020546
 30
0.0
 11
596.511365953178
 21
65.636889020546
 31
0.0
  0
LINE
  5
183
330
1F
100
AcDbEntity
  8
1
  6
DOTTED
 62
     4
100
AcDbLine
 10
596.511365953178
 20
124.236889020546
 30
0.0
 11
591.311365953178
 21
124.236889020546
 31
0.0
  0
LINE
  5
184
330
1F
100
AcDbEntity
  8
1
  6
DOTTED
 62
     4
100
AcDbLine
 10
596.511365953178
 20
125.436889020546
 30
0.0
 11
596.511365953178
 21
124.236889020546
 31
0.0
  0
LINE
  5
185
330
1F
100
AcDbEntity
  8
1
  6
DOTTED
 62
     4
100
AcDbLine
 10
601.011365953178
 20
125.436889020546
 30
0.0
 11
596.511365953178
 21
125.436889020546
 31
0.0
  0
LINE
  5
186
330
1F
100
AcDbEntity
  8
100
  6
Continuous
 62
     3
100
AcDbLine
 10
849.037856755443
 20
248.931952933112
 30
0.0
 11
849.037856755443
 21
265.731952933113
 31
0.0
  0
LINE
  5
187
330
1F
100
AcDbEntity
  8
100
  6
Continuous
 62
     3
100
AcDbLine
 10
823.037856755443
 20
248.931952933112
 30
0.0
 11
823.037856755443
 21
265.731952933113
 31
0.0
  0
LINE
  5
188
330
1F
100
AcDbEntity
  8
100
  6
Continuous
 62
     3
100
AcDbLine
 10
823.037856755443
 20
248.931952933112
 30
0.0
 11
849.037856755443
 21
248.931952933112
 31
0.0
  0
LINE
  5
189
330
1F
100
AcDbEntity
  8
100
  6
Continuous
 62
     3
100
AcDbLine
 10
823.037856755443
 20
265.731952933113
 30
0.0
 11
849.037856755443
 21
265.731952933113
 31
0.0
  0
LINE
  5
18A
330
1F
100
AcDbEntity
  8
100
  6
Continuous
 62
     3
100
AcDbLine
 10
827.037856755443
 20
265.731952933113
 30
0.0
 11
827.037856755443
 21
267.931952933113
 31
0.0
  0
LINE
  5
18B
330
1F
100
AcDbEntity
  8
100
  6
Continuous
 62
     3
100
AcDbLine
 10
845.037856755443
 20
265.731952933112
 30
0.0
 11
845.037856755443
 21
267.931952933112
 31
0.0
  0
LINE
  5
18C
330
1F
100
AcDbEntity
  8
100
  6
Continuous
 62
     3
100
AcDbLine
 10
851.037856755443
 20
271.931952933113
 30
0.0
 11
851.037856755443
 21
267.931952933113
 31
0.0
  0
LINE
  5
18D
330
1F
100
AcDbEntity
  8
100
  6
Continuous
 62
     3
100
AcDbLine
 10
851.037856755443
 20
267.931952933113
 30
0.0
 11
821.037856755443
 21
267.931952933113
 31
0.0
  0
LINE
  5
18E
330
1F
100
AcDbEntity
  8
100
  6
Continuous
 62
     3
100
AcDbLine
 10
821.037856755443
 20
271.931952933113
 30
0.0
 11
821.037856755443
 21
267.931952933113
 31
0.0
  0
LINE
  5
18F
330
1F
100
AcDbEntity
  8
100
  6
DOTTED
 62
     6
100
AcDbLine
 10
764.434281062223
 20
279.931952933113
 30
0.0
 11
800.490129540691
 21
279.931952933113
 31
0.0
  0
LINE
  5
190
330
1F
100
AcDbEntity
  8
100
  6
DOTTED
 62
     6
100
AcDbLine
 10
764.434281062223
 20
257.931952933113
 30
0.0
 11
770.894157280238
 21
257.931952933113
 31
0.0
  0
LINE
  5
191
330
1F
100
AcDbEntity
  8
100
  6
DOTTED
 62
     6
100
AcDbLine
 10
801.356154944475
 20
278.431952933113
 30
0.0
 11
870.719558566411
 21
278.431952933113
 31
0.0
  0
LINE
  5
192
330
1F
100
AcDbEntity
  8
100
  6
DOTTED
 62
     6
100
AcDbLine
 10
907.641432448663
 20
279.931952933113
 30
0.0
 11
871.585583970195
 21
279.931952933113
 31
0.0
  0
LINE
  5
193
330
1F
100
AcDbEntity
  8
100
  6
DOTTED
 62
     6
100
AcDbLine
 10
907.641432448663
 20
257.931952933113
 30
0.0
 11
901.181556230647
 21
257.931952933113
 31
0.0
  0
LINE
  5
194
330
1F
100
AcDbEntity
  8
100
  6
DOTTED
 62
     6
100
AcDbLine
 10
898.353129105902
 20
259.931952933113
 30
0.0
 11
892.575898122815
 21
259.931952933113
 31
0.0
  0
LINE
  5
195
330
1F
100
AcDbEntity
  8
100
  6
DOTTED
 62
     6
100
AcDbLine
 10
890.575898122815
 20
257.931952933113
 30
0.0
 11
878.248955447341
 21
257.931952933113
 31
0.0
  0
LINE
  5
196
330
1F
100
AcDbEntity
  8
100
  6
DOTTED
 62
     6
100
AcDbLine
 10
773.722584404984
 20
259.931952933113
 30
0.0
 11
779.395786512687
 21
259.931952933113
 31
0.0
  0
LINE
  5
197
330
1F
100
AcDbEntity
  8
100
  6
DOTTED
 62
     6
100
AcDbLine
 10
781.49981538807
 20
257.931952933113
 30
0.0
 11
793.826758063544
 21
257.931952933113
 31
0.0
  0
LINE
  5
198
330
1F
100
AcDbEntity
  8
100
  6
DOTTED
 62
     6
100
AcDbLine
 10
796.65518518829
 20
259.931952933113
 30
0.0
 11
875.420528322595
 21
259.931952933113
 31
0.0
  0
LINE
  5
199
330
1F
100
AcDbEntity
  8
100
  6
Continuous
 62
     3
100
AcDbLine
 10
803.73016444775
 20
277.931952933113
 30
0.0
 11
821.037856755443
 21
271.931952933113
 31
0.0
  0
LINE
  5
19A
330
1F
100
AcDbEntity
  8
100
  6
Continuous
 62
     3
100
AcDbLine
 10
868.345549063135
 20
277.931952933113
 30
0.0
 11
851.037856755443
 21
271.931952933113
 31
0.0
  0
LINE
  5
19B
330
1F
100
AcDbEntity
  8
100
  6
DOTTED
 62
     6
100
AcDbLine
 10
827.037856755443
 20
279.931952933113
 30
0.0
 11
845.037856755443
 21
279.931952933113
 31
0.0
  0
LINE
  5
19C
330
1F
100
AcDbEntity
  8
100
  6
Continuous
 62
     3
100
AcDbLine
 10
851.037856755443
 20
271.931952933113
 30
0.0
 11
821.037856755443
 21
271.931952933113
 31
0.0
  0
LINE
  5
19D
330
1F
100
AcDbEntity
  8
2
  6
Continuous
 62
     3
100
AcDbLine
 10
764.434281062223
 20
297.931952933113
 30
0.0
 11
800.49012954069
 21
297.931952933113
 31
0.0
  0
LINE
  5
19E
330
1F
100
AcDbEntity
  8
2
  6
Continuous
 62
     3
100
AcDbLine
 10
764.434281062223
 20
275.931952933113
 30
0.0
 11
770.894157280238
 21
275.931952933113
 31
0.0
  0
LINE
  5
19F
330
1F
100
AcDbEntity
  8
2
  6
Continuous
 62
     3
100
AcDbLine
 10
907.641432448663
 20
297.931952933113
 30
0.0
 11
871.585583970195
 21
297.931952933113
 31
0.0
  0
LINE
  5
1A0
330
1F
100
AcDbEntity
  8
2
  6
Continuous
 62
     3
100
AcDbLine
 10
907.641432448663
 20
275.931952933113
 30
0.0
 11
901.181556230647
 21
275.931952933113
 31
0.0
  0
LINE
  5
1A1
330
1F
100
AcDbEntity
  8
2
  6
Continuous
 62
     3
100
AcDbLine
 10
890.575898122815
 20
275.931952933113
 30
0.0
 11
878.248955447341
 21
275.931952933113
 31
0.0
  0
LINE
  5
1A2
330
1F
100
AcDbEntity
  8
2
  6
Continuous
 62
     3
100
AcDbLine
 10
781.499815388071
 20
275.931952933113
 30
0.0
 11
793.826758063544
 21
275.931952933113
 31
0.0
  0
LINE
  5
1A3
330
1F
100
AcDbEntity
  8
2
  6
Continuous
 62
     3
100
AcDbLine
 10
827.037856755443
 20
297.931952933113
 30
0.0
 11
845.037856755443
 21
297.931952933113
 31
0.0
  0
LINE
  5
1A4
330
1F
100
AcDbEntity
  8
2
  6
Continuous
 62
     3
100
AcDbLine
 10
796.65518518829
 20
277.931952933113
 30
0.0
 11
875.420528322595
 21
277.931952933113
 31
0.0
  0
LINE
  5
1A5
330
1F
100
AcDbEntity
  8
2
  6
Continuous
 62
     3
100
AcDbLine
 10
801.356154944475
 20
296.431952933113
 30
0.0
 11
870.719558566411
 21
296.431952933113
 31
0.0
  0
LINE
  5
1A6
330
1F
100
AcDbEntity
  8
2
  6
Continuous
 62
     3
100
AcDbLine
 10
773.722584404984
 20
277.931952933113
 30
0.0
 11
779.395786512687
 21
277.931952933113
 31
0.0
  0
LINE
  5
1A7
330
1F
100
AcDbEntity
  8
2
  6
Continuous
 62
     3
100
AcDbLine
 10
898.353129105902
 20
277.931952933113
 30
0.0
 11
892.575898122815
 21
277.931952933113
 31
0.0
  0
LINE
  5
1A8
330
1F
100
AcDbEntity
  8
1
  6
DOTTED
 62
     4
100
AcDbLine
 10
601.011365953178
 20
125.436889020546
 30
0.0
 11
601.011365953178
 21
64.436889020546
 31
0.0
  0
LINE
  5
1A9
330
1F
100
AcDbEntity
  8
1
  6
DOTTED
 62
     4
100
AcDbLine
 10
460.011365953178
 20
58.823889020546
 30
0.0
 11
478.011365953178
 21
58.823889020546
 31
0.0
  0
LINE
  5
1AA
330
1F
100
AcDbEntity
  8
1
  6
DOTTED
 62
     4
100
AcDbLine
 10
460.011365953178
 20
131.049889020546
 30
0.0
 11
478.011365953178
 21
131.049889020546
 31
0.0
  0
LINE
  5
1AB
330
1F
100
AcDbEntity
  8
100
  6
Continuous
 62
     3
100
AcDbLine
 10
433.057912702011
 20
451.243515739971
 30
0.0
 11
454.611365953178
 21
451.243515739971
 31
0.0
  0
LINE
  5
1AC
330
1F
100
AcDbEntity
  8
100
  6
DOTTED
 62
     4
100
AcDbLine
 10
478.011365953178
 20
378.84351573997
 30
0.0
 11
478.011365953178
 21
453.643515739971
 31
0.0
  0
LINE
  5
1AD
330
1F
100
AcDbEntity
  8
100
  6
DOTTED
 62
     4
100
AcDbLine
 10
478.011365953178
 20
453.643515739971
 30
0.0
 11
460.011365953178
 21
453.643515739971
 31
0.0
  0
LINE
  5
1AE
330
1F
100
AcDbEntity
  8
1
  6
Continuous
 62
     3
100
AcDbLine
 10
460.011365953178
 20
452.356515739971
 30
0.0
 11
456.637108039427
 21
452.356515739971
 31
0.0
  0
LINE
  5
1AF
330
1F
100
AcDbEntity
  8
100
  6
Continuous
 62
     3
100
AcDbLine
 10
457.011365953178
 20
378.843515739971
 30
0.0
 11
460.011365953178
 21
378.843515739971
 31
0.0
  0
LINE
  5
1B0
330
1F
100
AcDbEntity
  8
1
  6
Continuous
 62
     3
100
AcDbLine
 10
460.011365953178
 20
380.130515739971
 30
0.0
 11
456.637108039427
 21
380.130515739971
 31
0.0
  0
LINE
  5
1B1
330
1F
100
AcDbEntity
  8
100
  6
Continuous
 62
     3
100
AcDbLine
 10
457.011365953178
 20
453.643515739971
 30
0.0
 11
457.011365953178
 21
378.843515739971
 31
0.0
  0
LINE
  5
1B2
330
1F
100
AcDbEntity
  8
1
  6
Continuous
 62
     3
100
AcDbLine
 10
529.011365953178
 20
444.743515739971
 30
0.0
 11
528.011365953178
 21
445.743515739971
 31
0.0
  0
LINE
  5
1B3
330
1F
100
AcDbEntity
  8
1
  6
Continuous
 62
     3
100
AcDbLine
 10
485.011365953178
 20
457.743515739971
 30
0.0
 11
460.011365953178
 21
457.743515739971
 31
0.0
  0
LINE
  5
1B4
330
1F
100
AcDbEntity
  8
1
  6
Continuous
 62
     3
100
AcDbLine
 10
528.011365953178
 20
457.743515739971
 30
0.0
 11
493.011365953178
 21
457.743515739971
 31
0.0
  0
LINE
  5
1B5
330
1F
100
AcDbEntity
  8
1
  6
Continuous
 62
     3
100
AcDbLine
 10
493.011365953178
 20
433.433378578454
 30
0.0
 11
528.011365953178
 21
433.433378578454
 31
0.0
  0
LINE
  5
1B6
330
1F
100
AcDbEntity
  8
1
  6
Continuous
 62
     3
100
AcDbLine
 10
460.011365953178
 20
433.433378578454
 30
0.0
 11
485.011365953178
 21
433.433378578454
 31
0.0
  0
LINE
  5
1B7
330
1F
100
AcDbEntity
  8
1
  6
Continuous
 62
     3
100
AcDbLine
 10
485.011365953178
 20
399.053652901488
 30
0.0
 11
460.011365953178
 21
399.053652901488
 31
0.0
  0
LINE
  5
1B8
330
1F
100
AcDbEntity
  8
1
  6
Continuous
 62
     3
100
AcDbLine
 10
528.011365953178
 20
399.053652901488
 30
0.0
 11
493.011365953178
 21
399.053652901488
 31
0.0
  0
LINE
  5
1B9
330
1F
100
AcDbEntity
  8
1
  6
Continuous
 62
     3
100
AcDbLine
 10
485.011365953178
 20
374.743515739971
 30
0.0
 11
460.011365953178
 21
374.743515739971
 31
0.0
  0
LINE
  5
1BA
330
1F
100
AcDbEntity
  8
1
  6
Continuous
 62
     3
100
AcDbLine
 10
528.011365953178
 20
374.743515739971
 30
0.0
 11
493.011365953178
 21
374.743515739971
 31
0.0
  0
LINE
  5
1BB
330
1F
100
AcDbEntity
  8
1
  6
Continuous
 62
     3
100
AcDbLine
 10
591.311365953178
 20
374.743515739971
 30
0.0
 11
626.311365953178
 21
374.743515739971
 31
0.0
  0
LINE
  5
1BC
330
1F
100
AcDbEntity
  8
1
  6
Continuous
 62
     3
100
AcDbLine
 10
626.311365953178
 20
399.053652901488
 30
0.0
 11
591.311365953178
 21
399.053652901488
 31
0.0
  0
LINE
  5
1BD
330
1F
100
AcDbEntity
  8
1
  6
Continuous
 62
     3
100
AcDbLine
 10
591.311365953178
 20
433.433378578454
 30
0.0
 11
626.311365953178
 21
433.433378578454
 31
0.0
  0
LINE
  5
1BE
330
1F
100
AcDbEntity
  8
1
  6
Continuous
 62
     3
100
AcDbLine
 10
626.311365953178
 20
457.743515739971
 30
0.0
 11
591.311365953178
 21
457.743515739971
 31
0.0
  0
LINE
  5
1BF
330
1F
100
AcDbEntity
  8
1
  6
Continuous
 62
     3
100
AcDbLine
 10
591.311365953178
 20
457.743515739971
 30
0.0
 11
591.311365953178
 21
374.743515739971
 31
0.0
  0
LINE
  5
1C0
330
1F
100
AcDbEntity
  8
1
  6
Continuous
 62
     3
100
AcDbLine
 10
626.311365953178
 20
374.743515739971
 30
0.0
 11
626.311365953178
 21
457.743515739971
 31
0.0
  0
LINE
  5
1C1
330
1F
100
AcDbEntity
  8
1
  6
Continuous
 62
     3
100
AcDbLine
 10
493.011365953178
 20
457.743515739971
 30
0.0
 11
493.011365953178
 21
374.743515739971
 31
0.0
  0
LINE
  5
1C2
330
1F
100
AcDbEntity
  8
1
  6
Continuous
 62
     3
100
AcDbLine
 10
528.011365953178
 20
386.743515739971
 30
0.0
 11
529.011365953178
 21
387.743515739971
 31
0.0
  0
LINE
  5
1C3
330
1F
100
AcDbEntity
  8
1
  6
Continuous
 62
     3
100
AcDbLine
 10
529.011365953178
 20
444.743515739971
 30
0.0
 11
529.011365953178
 21
387.743515739971
 31
0.0
  0
LINE
  5
1C4
330
1F
100
AcDbEntity
  8
1
  6
Continuous
 62
     3
100
AcDbLine
 10
528.011365953178
 20
374.743515739971
 30
0.0
 11
528.011365953178
 21
457.743515739971
 31
0.0
  0
LINE
  5
1C5
330
1F
100
AcDbEntity
  8
1
  6
Continuous
 62
     3
100
AcDbLine
 10
529.011365953178
 20
388.743515739971
 30
0.0
 11
591.311365953178
 21
388.743515739971
 31
0.0
  0
LINE
  5
1C6
330
1F
100
AcDbEntity
  8
1
  6
Continuous
 62
     3
100
AcDbLine
 10
529.011365953178
 20
443.743515739971
 30
0.0
 11
591.311365953178
 21
443.743515739971
 31
0.0
  0
LINE
  5
1C7
330
1F
100
AcDbEntity
  8
1
  6
Continuous
 62
     3
100
AcDbLine
 10
485.011365953178
 20
386.743515739971
 30
0.0
 11
493.011365953178
 21
386.743515739971
 31
0.0
  0
LINE
  5
1C8
330
1F
100
AcDbEntity
  8
1
  6
Continuous
 62
     3
100
AcDbLine
 10
485.011365953178
 20
457.743515739971
 30
0.0
 11
485.011365953178
 21
374.743515739971
 31
0.0
  0
LINE
  5
1C9
330
1F
100
AcDbEntity
  8
1
  6
Continuous
 62
     3
100
AcDbLine
 10
485.011365953178
 20
445.743515739971
 30
0.0
 11
493.011365953178
 21
445.743515739971
 31
0.0
  0
LINE
  5
1CA
330
1F
100
AcDbEntity
  8
1
  6
Continuous
 62
     3
100
AcDbLine
 10
460.011365953178
 20
374.743515739971
 30
0.0
 11
460.011365953178
 21
457.743515739971
 31
0.0
  0
LINE
  5
1CB
330
1F
100
AcDbEntity
  8
100
  6
Continuous
 62
     3
100
AcDbLine
 10
460.011365953178
 20
453.643515739971
 30
0.0
 11
457.011365953178
 21
453.643515739971
 31
0.0
  0
LINE
  5
1CC
330
1F
100
AcDbEntity
  8
100
  6
DOTTED
 62
     4
100
AcDbLine
 10
460.011365953178
 20
378.843515739971
 30
0.0
 11
478.011365953178
 21
378.84351573997
 31
0.0
  0
LINE
  5
1CD
330
1F
100
AcDbEntity
  8
100
  6
DOTTED
 62
     4
100
AcDbLine
 10
460.011365953178
 20
57.536889020546
 30
0.0
 11
478.011365953178
 21
57.536889020546
 31
0.0
  0
LINE
  5
1CE
330
1F
100
AcDbEntity
  8
100
  6
Continuous
 62
     3
100
AcDbLine
 10
460.011365953178
 20
132.336889020546
 30
0.0
 11
457.011365953178
 21
132.336889020546
 31
0.0
  0
LINE
  5
1CF
330
1F
100
AcDbEntity
  8
1
  6
Continuous
 62
     3
100
AcDbLine
 10
460.011365953178
 20
53.436889020546
 30
0.0
 11
460.011365953178
 21
136.436889020546
 31
0.0
  0
LINE
  5
1D0
330
1F
100
AcDbEntity
  8
1
  6
Continuous
 62
     3
100
AcDbLine
 10
485.011365953178
 20
124.436889020546
 30
0.0
 11
493.011365953178
 21
124.436889020546
 31
0.0
  0
LINE
  5
1D1
330
1F
100
AcDbEntity
  8
1
  6
Continuous
 62
     3
100
AcDbLine
 10
485.011365953178
 20
136.436889020546
 30
0.0
 11
485.011365953178
 21
53.436889020546
 31
0.0
  0
LINE
  5
1D2
330
1F
100
AcDbEntity
  8
1
  6
Continuous
 62
     3
100
AcDbLine
 10
485.011365953178
 20
65.436889020546
 30
0.0
 11
493.011365953178
 21
65.436889020546
 31
0.0
  0
LINE
  5
1D3
330
1F
100
AcDbEntity
  8
1
  6
Continuous
 62
     3
100
AcDbLine
 10
529.011365953178
 20
122.436889020546
 30
0.0
 11
591.311365953178
 21
122.436889020546
 31
0.0
  0
LINE
  5
1D4
330
1F
100
AcDbEntity
  8
1
  6
Continuous
 62
     3
100
AcDbLine
 10
529.011365953178
 20
67.436889020546
 30
0.0
 11
591.311365953178
 21
67.436889020546
 31
0.0
  0
LINE
  5
1D5
330
1F
100
AcDbEntity
  8
1
  6
Continuous
 62
     3
100
AcDbLine
 10
528.011365953178
 20
53.436889020546
 30
0.0
 11
528.011365953178
 21
136.436889020546
 31
0.0
  0
LINE
  5
1D6
330
1F
100
AcDbEntity
  8
1
  6
Continuous
 62
     3
100
AcDbLine
 10
529.011365953178
 20
123.436889020546
 30
0.0
 11
529.011365953178
 21
66.436889020546
 31
0.0
  0
LINE
  5
1D7
330
1F
100
AcDbEntity
  8
1
  6
Continuous
 62
     3
100
AcDbLine
 10
528.011365953178
 20
65.436889020546
 30
0.0
 11
529.011365953178
 21
66.436889020546
 31
0.0
  0
LINE
  5
1D8
330
1F
100
AcDbEntity
  8
1
  6
Continuous
 62
     3
100
AcDbLine
 10
493.011365953178
 20
136.436889020546
 30
0.0
 11
493.011365953178
 21
53.436889020546
 31
0.0
  0
LINE
  5
1D9
330
1F
100
AcDbEntity
  8
1
  6
Continuous
 62
     3
100
AcDbLine
 10
626.311365953178
 20
53.436889020546
 30
0.0
 11
626.311365953178
 21
136.436889020546
 31
0.0
  0
LINE
  5
1DA
330
1F
100
AcDbEntity
  8
1
  6
Continuous
 62
     3
100
AcDbLine
 10
591.311365953178
 20
136.436889020546
 30
0.0
 11
591.311365953178
 21
53.436889020546
 31
0.0
  0
LINE
  5
1DB
330
1F
100
AcDbEntity
  8
1
  6
CENTER
 62
     1
100
AcDbLine
 10
788.037856755443
 20
94.936889020546
 30
0.0
 11
885.037856755443
 21
94.936889020546
 31
0.0
  0
LINE
  5
1DC
330
1F
100
AcDbEntity
  8
1
  6
Continuous
 62
     3
100
AcDbLine
 10
877.537856755443
 20
112.12675185903
 30
0.0
 11
853.227719593926
 21
136.436889020546
 31
0.0
  0
LINE
  5
1DD
330
1F
100
AcDbEntity
  8
1
  6
Continuous
 62
     3
100
AcDbLine
 10
853.227719593926
 20
136.436889020546
 30
0.0
 11
818.84799391696
 21
136.436889020546
 31
0.0
  0
LINE
  5
1DE
330
1F
100
AcDbEntity
  8
1
  6
Continuous
 62
     3
100
AcDbLine
 10
818.84799391696
 20
136.436889020546
 30
0.0
 11
794.537856755443
 21
112.12675185903
 31
0.0
  0
LINE
  5
1DF
330
1F
100
AcDbEntity
  8
1
  6
Continuous
 62
     3
100
AcDbLine
 10
794.537856755443
 20
112.12675185903
 30
0.0
 11
794.537856755443
 21
77.7470261820625
 31
0.0
  0
LINE
  5
1E0
330
1F
100
AcDbEntity
  8
1
  6
Continuous
 62
     3
100
AcDbLine
 10
794.537856755443
 20
77.7470261820625
 30
0.0
 11
818.84799391696
 21
53.436889020546
 31
0.0
  0
LINE
  5
1E1
330
1F
100
AcDbEntity
  8
1
  6
Continuous
 62
     3
100
AcDbLine
 10
818.84799391696
 20
53.436889020546
 30
0.0
 11
853.227719593926
 21
53.436889020546
 31
0.0
  0
LINE
  5
1E2
330
1F
100
AcDbEntity
  8
1
  6
Continuous
 62
     3
100
AcDbLine
 10
853.227719593926
 20
53.436889020546
 30
0.0
 11
877.537856755443
 21
77.7470261820625
 31
0.0
  0
LINE
  5
1E3
330
1F
100
AcDbEntity
  8
1
  6
Continuous
 62
     3
100
AcDbLine
 10
877.537856755443
 20
77.7470261820625
 30
0.0
 11
877.537856755443
 21
112.12675185903
 31
0.0
  0
LINE
  5
1E4
330
1F
100
AcDbEntity
  8
1
  6
Continuous
 62
     3
100
AcDbLine
 10
626.311365953178
 20
136.436889020546
 30
0.0
 11
591.311365953178
 21
136.436889020546
 31
0.0
  0
LINE
  5
1E5
330
1F
100
AcDbEntity
  8
1
  6
Continuous
 62
     3
100
AcDbLine
 10
591.311365953178
 20
112.12675185903
 30
0.0
 11
626.311365953178
 21
112.12675185903
 31
0.0
  0
LINE
  5
1E6
330
1F
100
AcDbEntity
  8
1
  6
Continuous
 62
     3
100
AcDbLine
 10
626.311365953178
 20
77.7470261820625
 30
0.0
 11
591.311365953178
 21
77.7470261820625
 31
0.0
  0
LINE
  5
1E7
330
1F
100
AcDbEntity
  8
1
  6
Continuous
 62
     3
100
AcDbLine
 10
591.311365953178
 20
53.436889020546
 30
0.0
 11
626.311365953178
 21
53.436889020546
 31
0.0
  0
LINE
  5
1E8
330
1F
100
AcDbEntity
  8
1
  6
Continuous
 62
     3
100
AcDbLine
 10
528.011365953178
 20
53.436889020546
 30
0.0
 11
493.011365953178
 21
53.436889020546
 31
0.0
  0
LINE
  5
1E9
330
1F
100
AcDbEntity
  8
1
  6
Continuous
 62
     3
100
AcDbLine
 10
485.011365953178
 20
53.436889020546
 30
0.0
 11
460.011365953178
 21
53.436889020546
 31
0.0
  0
LINE
  5
1EA
330
1F
100
AcDbEntity
  8
1
  6
Continuous
 62
     3
100
AcDbLine
 10
528.011365953178
 20
77.7470261820625
 30
0.0
 11
493.011365953178
 21
77.7470261820625
 31
0.0
  0
LINE
  5
1EB
330
1F
100
AcDbEntity
  8
1
  6
Continuous
 62
     3
100
AcDbLine
 10
485.011365953178
 20
77.7470261820625
 30
0.0
 11
460.011365953178
 21
77.7470261820625
 31
0.0
  0
LINE
  5
1EC
330
1F
100
AcDbEntity
  8
1
  6
Continuous
 62
     3
100
AcDbLine
 10
460.011365953178
 20
112.12675185903
 30
0.0
 11
485.011365953178
 21
112.12675185903
 31
0.0
  0
LINE
  5
1ED
330
1F
100
AcDbEntity
  8
1
  6
Continuous
 62
     3
100
AcDbLine
 10
493.011365953178
 20
112.12675185903
 30
0.0
 11
528.011365953178
 21
112.12675185903
 31
0.0
  0
LINE
  5
1EE
330
1F
100
AcDbEntity
  8
1
  6
Continuous
 62
     3
100
AcDbLine
 10
528.011365953178
 20
136.436889020546
 30
0.0
 11
493.011365953178
 21
136.436889020546
 31
0.0
  0
LINE
  5
1EF
330
1F
100
AcDbEntity
  8
1
  6
Continuous
 62
     3
100
AcDbLine
 10
485.011365953178
 20
136.436889020546
 30
0.0
 11
460.011365953178
 21
136.436889020546
 31
0.0
  0
LINE
  5
1F0
330
1F
100
AcDbEntity
  8
1
  6
Continuous
 62
     3
100
AcDbLine
 10
529.011365953178
 20
123.436889020546
 30
0.0
 11
528.011365953178
 21
124.436889020546
 31
0.0
  0
LINE
  5
1F1
330
1F
100
AcDbEntity
  8
100
  6
Continuous
 62
     3
100
AcDbLine
 10
869.995314472304
 20
147.977431885502
 30
0.0
 11
872.037856755443
 21
156.450836770068
 31
0.0
  0
LINE
  5
1F2
330
1F
100
AcDbEntity
  8
100
  6
Continuous
 62
     3
100
AcDbLine
 10
864.06333672142
 20
140.471790758351
 30
0.0
 11
869.995314472304
 21
147.977431885502
 31
0.0
  0
LINE
  5
1F3
330
1F
100
AcDbEntity
  8
100
  6
Continuous
 62
     3
100
AcDbLine
 10
854.902119494723
 20
134.765582625251
 30
0.0
 11
864.06333672142
 21
140.471790758351
 31
0.0
  0
LINE
  5
1F4
330
1F
100
AcDbEntity
  8
100
  6
Continuous
 62
     3
100
AcDbLine
 10
409.510648384989
 20
449.920959540513
 30
0.0
 11
412.972360176172
 21
451.384444954317
 31
0.0
  0
LINE
  5
1F5
330
1F
100
AcDbEntity
  8
100
  6
Continuous
 62
     3
100
AcDbLine
 10
406.228701837862
 20
447.772251120788
 30
0.0
 11
409.510648384989
 21
449.920959540513
 31
0.0
  0
LINE
  5
1F6
330
1F
100
AcDbEntity
  8
100
  6
Continuous
 62
     3
100
AcDbLine
 10
400.455396794516
 20
441.599976294348
 30
0.0
 11
406.228701837862
 21
447.772251120788
 31
0.0
  0
LINE
  5
1F7
330
1F
100
AcDbEntity
  8
100
  6
Continuous
 62
     3
100
AcDbLine
 10
396.136342443244
 20
433.388661419054
 30
0.0
 11
400.455396794516
 21
441.599976294348
 31
0.0
  0
LINE
  5
1F8
330
1F
100
AcDbEntity
  8
100
  6
Continuous
 62
     3
100
AcDbLine
 10
393.635006776125
 20
423.824644125952
 30
0.0
 11
396.136342443244
 21
433.388661419054
 31
0.0
  0
LINE
  5
1F9
330
1F
100
AcDbEntity
  8
100
  6
Continuous
 62
     3
100
AcDbLine
 10
396.136342443244
 20
399.098370060887
 30
0.0
 11
393.635006776125
 21
408.66238735399
 31
0.0
  0
LINE
  5
1FA
330
1F
100
AcDbEntity
  8
100
  6
Continuous
 62
     3
100
AcDbLine
 10
400.455396794516
 20
390.887055185593
 30
0.0
 11
396.136342443244
 21
399.098370060887
 31
0.0
  0
LINE
  5
1FB
330
1F
100
AcDbEntity
  8
100
  6
Continuous
 62
     3
100
AcDbLine
 10
406.228701837861
 20
384.714780359153
 30
0.0
 11
400.455396794516
 21
390.887055185593
 31
0.0
  0
LINE
  5
1FC
330
1F
100
AcDbEntity
  8
100
  6
Continuous
 62
     3
100
AcDbLine
 10
409.510648384989
 20
382.566071939428
 30
0.0
 11
406.228701837861
 21
384.714780359153
 31
0.0
  0
LINE
  5
1FD
330
1F
100
AcDbEntity
  8
100
  6
Continuous
 62
     3
100
AcDbLine
 10
412.972360176172
 20
381.102586525624
 30
0.0
 11
409.510648384989
 21
382.566071939428
 31
0.0
  0
LINE
  5
1FE
330
1F
100
AcDbEntity
  8
100
  6
Continuous
 62
     3
100
AcDbLine
 10
408.434852330722
 20
445.74698375866
 30
0.0
 11
414.215212619795
 21
450.029105861701
 31
0.0
  0
LINE
  5
1FF
330
1F
100
AcDbEntity
  8
100
  6
Continuous
 62
     3
100
AcDbLine
 10
403.599533880478
 20
439.509915363843
 30
0.0
 11
408.434852330722
 21
445.74698375866
 31
0.0
  0
LINE
  5
200
330
1F
100
AcDbEntity
  8
100
  6
Continuous
 62
     3
100
AcDbLine
 10
400.048557427728
 20
431.759018092192
 30
0.0
 11
403.599533880478
 21
439.509915363843
 31
0.0
  0
LINE
  5
201
330
1F
100
AcDbEntity
  8
100
  6
Continuous
 62
     3
100
AcDbLine
 10
398.018472588977
 20
423.009680422409
 30
0.0
 11
400.048557427728
 21
431.759018092192
 31
0.0
  0
LINE
  5
202
330
1F
100
AcDbEntity
  8
100
  6
Continuous
 62
     3
100
AcDbLine
 10
400.048557427728
 20
400.728013387749
 30
0.0
 11
398.018472588977
 21
409.477351057533
 31
0.0
  0
LINE
  5
203
330
1F
100
AcDbEntity
  8
100
  6
Continuous
 62
     3
100
AcDbLine
 10
403.599533880477
 20
392.977116116098
 30
0.0
 11
400.048557427728
 21
400.728013387749
 31
0.0
  0
LINE
  5
204
330
1F
100
AcDbEntity
  8
100
  6
Continuous
 62
     3
100
AcDbLine
 10
408.434852330722
 20
386.740047721281
 30
0.0
 11
403.599533880477
 21
392.977116116098
 31
0.0
  0
LINE
  5
205
330
1F
100
AcDbEntity
  8
100
  6
Continuous
 62
     3
100
AcDbLine
 10
414.215212619795
 20
382.45792561824
 30
0.0
 11
408.434852330722
 21
386.740047721281
 31
0.0
  0
LINE
  5
206
330
1F
100
AcDbEntity
  8
100
  6
Continuous
 62
     3
100
AcDbLine
 10
434.668043330052
 20
384.22103076978
 30
0.0
 11
433.451893633891
 21
383.392091544156
 31
0.0
  0
LINE
  5
207
330
1F
100
AcDbEntity
  8
100
  6
Continuous
 62
     3
100
AcDbLine
 10
435.852198168957
 20
385.141017085635
 30
0.0
 11
434.668043330052
 21
384.22103076978
 31
0.0
  0
LINE
  5
208
330
1F
100
AcDbEntity
  8
100
  6
Continuous
 62
     3
100
AcDbLine
 10
437.001054314397
 20
386.149484897716
 30
0.0
 11
435.852198168957
 21
385.141017085635
 31
0.0
  0
LINE
  5
209
330
1F
100
AcDbEntity
  8
100
  6
Continuous
 62
     3
100
AcDbLine
 10
438.111285358052
 20
387.243515739971
 30
0.0
 11
437.001054314397
 21
386.149484897716
 31
0.0
  0
LINE
  5
20A
330
1F
100
AcDbEntity
  8
100
  6
Continuous
 62
     3
100
AcDbLine
 10
437.001054314397
 20
446.337546582225
 30
0.0
 11
438.111285358053
 21
445.24351573997
 31
0.0
  0
LINE
  5
20B
330
1F
100
AcDbEntity
  8
100
  6
Continuous
 62
     3
100
AcDbLine
 10
435.852198168957
 20
447.346014394306
 30
0.0
 11
437.001054314397
 21
446.337546582225
 31
0.0
  0
LINE
  5
20C
330
1F
100
AcDbEntity
  8
100
  6
Continuous
 62
     3
100
AcDbLine
 10
434.668043330051
 20
448.266000710162
 30
0.0
 11
435.852198168957
 21
447.346014394306
 31
0.0
  0
LINE
  5
20D
330
1F
100
AcDbEntity
  8
100
  6
Continuous
 62
     3
100
AcDbLine
 10
433.45189363389
 20
449.094939935786
 30
0.0
 11
434.668043330051
 21
448.266000710162
 31
0.0
  0
LINE
  5
20E
330
1F
100
AcDbEntity
  8
100
  6
Continuous
 62
     3
100
AcDbLine
 10
808.012376789467
 20
140.471790758351
 30
0.0
 11
817.173594016164
 21
134.765582625251
 31
0.0
  0
LINE
  5
20F
330
1F
100
AcDbEntity
  8
100
  6
Continuous
 62
     3
100
AcDbLine
 10
802.080399038583
 20
147.977431885502
 30
0.0
 11
808.012376789467
 21
140.471790758351
 31
0.0
  0
LINE
  5
210
330
1F
100
AcDbEntity
  8
100
  6
Continuous
 62
     3
100
AcDbLine
 10
800.037856755443
 20
156.450836770068
 30
0.0
 11
802.080399038583
 21
147.977431885502
 31
0.0
  0
LINE
  5
211
330
1F
100
AcDbEntity
  8
100
  6
Continuous
 62
     3
100
AcDbLine
 10
868.04984124494
 20
172.60790398256
 30
0.0
 11
865.037856755443
 21
176.036745969358
 31
0.0
  0
LINE
  5
212
330
1F
100
AcDbEntity
  8
100
  6
Continuous
 62
     3
100
AcDbLine
 10
870.250986187822
 20
168.89321802143
 30
0.0
 11
868.04984124494
 21
172.60790398256
 31
0.0
  0
LINE
  5
213
330
1F
100
AcDbEntity
  8
100
  6
Continuous
 62
     3
100
AcDbLine
 10
871.589081728053
 20
164.98156156944
 30
0.0
 11
870.250986187822
 21
168.89321802143
 31
0.0
  0
LINE
  5
214
330
1F
100
AcDbEntity
  8
100
  6
Continuous
 62
     3
100
AcDbLine
 10
872.037856755443
 20
160.950836770117
 30
0.0
 11
871.589081728053
 21
164.98156156944
 31
0.0
  0
LINE
  5
215
330
1F
100
AcDbEntity
  8
100
  6
Continuous
 62
     3
100
AcDbLine
 10
871.351338646876
 20
155.978212743873
 30
0.0
 11
872.037856755443
 21
160.950836770117
 31
0.0
  0
LINE
  5
216
330
1F
100
AcDbEntity
  8
100
  6
Continuous
 62
     3
100
AcDbLine
 10
869.311649641518
 20
151.216031995627
 30
0.0
 11
871.351338646876
 21
155.978212743873
 31
0.0
  0
LINE
  5
217
330
1F
100
AcDbEntity
  8
100
  6
Continuous
 62
     3
100
AcDbLine
 10
861.493700878159
 20
142.950860509195
 30
0.0
 11
869.311649641518
 21
151.216031995627
 31
0.0
  0
LINE
  5
218
330
1F
100
AcDbEntity
  8
100
  6
Continuous
 62
     3
100
AcDbLine
 10
849.804967851135
 20
137.422743214369
 30
0.0
 11
861.493700878159
 21
142.950860509195
 31
0.0
  0
LINE
  5
219
330
1F
100
AcDbEntity
  8
100
  6
Continuous
 62
     3
100
AcDbLine
 10
842.764326384064
 20
136.436889020546
 30
0.0
 11
849.804967851135
 21
137.422743214369
 31
0.0
  0
LINE
  5
21A
330
1F
100
AcDbEntity
  8
100
  6
Continuous
 62
     3
100
AcDbLine
 10
822.270745659752
 20
137.422743214369
 30
0.0
 11
829.311387126823
 21
136.436889020546
 31
0.0
  0
LINE
  5
21B
330
1F
100
AcDbEntity
  8
100
  6
Continuous
 62
     3
100
AcDbLine
 10
810.582012632728
 20
142.950860509195
 30
0.0
 11
822.270745659752
 21
137.422743214369
 31
0.0
  0
LINE
  5
21C
330
1F
100
AcDbEntity
  8
100
  6
Continuous
 62
     3
100
AcDbLine
 10
802.764063869368
 20
151.216031995627
 30
0.0
 11
810.582012632728
 21
142.950860509195
 31
0.0
  0
LINE
  5
21D
330
1F
100
AcDbEntity
  8
100
  6
Continuous
 62
     3
100
AcDbLine
 10
800.724374864011
 20
155.978212743873
 30
0.0
 11
802.764063869368
 21
151.216031995627
 31
0.0
  0
LINE
  5
21E
330
1F
100
AcDbEntity
  8
100
  6
Continuous
 62
     3
100
AcDbLine
 10
800.037856755443
 20
160.950836770068
 30
0.0
 11
800.724374864011
 21
155.978212743873
 31
0.0
  0
LINE
  5
21F
330
1F
100
AcDbEntity
  8
100
  6
Continuous
 62
     3
100
AcDbLine
 10
800.486631782834
 20
164.98156156944
 30
0.0
 11
800.037856755443
 21
160.950836770068
 31
0.0
  0
LINE
  5
220
330
1F
100
AcDbEntity
  8
100
  6
Continuous
 62
     3
100
AcDbLine
 10
801.824727323065
 20
168.89321802143
 30
0.0
 11
800.486631782834
 21
164.98156156944
 31
0.0
  0
LINE
  5
221
330
1F
100
AcDbEntity
  8
100
  6
Continuous
 62
     3
100
AcDbLine
 10
804.025872265947
 20
172.60790398256
 30
0.0
 11
801.824727323065
 21
168.89321802143
 31
0.0
  0
LINE
  5
222
330
1F
100
AcDbEntity
  8
100
  6
Continuous
 62
     3
100
AcDbLine
 10
807.037856755443
 20
176.036745969358
 30
0.0
 11
804.025872265947
 21
172.60790398256
 31
0.0
  0
LINE
  5
223
330
1F
100
AcDbEntity
  8
100
  6
Continuous
 62
     3
100
AcDbLine
 10
800.486631782834
 20
164.728549785726
 30
0.0
 11
800.037856755443
 21
160.697819670895
 31
0.0
  0
LINE
  5
224
330
1F
100
AcDbEntity
  8
100
  6
Continuous
 62
     3
100
AcDbLine
 10
801.824727323065
 20
168.640211396156
 30
0.0
 11
800.486631782834
 21
164.728549785726
 31
0.0
  0
LINE
  5
225
330
1F
100
AcDbEntity
  8
100
  6
Continuous
 62
     3
100
AcDbLine
 10
804.025872265947
 20
172.354902255974
 30
0.0
 11
801.824727323065
 21
168.640211396156
 31
0.0
  0
LINE
  5
226
330
1F
100
AcDbEntity
  8
100
  6
Continuous
 62
     3
100
AcDbLine
 10
807.037856755443
 20
175.783748764507
 30
0.0
 11
804.025872265947
 21
172.354902255974
 31
0.0
  0
LINE
  5
227
330
1F
100
AcDbEntity
  8
100
  6
Continuous
 62
     3
100
AcDbLine
 10
868.04984124494
 20
172.354902255974
 30
0.0
 11
865.037856755443
 21
175.783748764507
 31
0.0
  0
LINE
  5
228
330
1F
100
AcDbEntity
  8
100
  6
Continuous
 62
     3
100
AcDbLine
 10
870.250986187822
 20
168.640211396156
 30
0.0
 11
868.04984124494
 21
172.354902255974
 31
0.0
  0
LINE
  5
229
330
1F
100
AcDbEntity
  8
100
  6
Continuous
 62
     3
100
AcDbLine
 10
871.589081728053
 20
164.728549785726
 30
0.0
 11
870.250986187822
 21
168.640211396156
 31
0.0
  0
LINE
  5
22A
330
1F
100
AcDbEntity
  8
100
  6
Continuous
 62
     3
100
AcDbLine
 10
872.037856755443
 20
160.697819670895
 30
0.0
 11
871.589081728053
 21
164.728549785726
 31
0.0
  0
LINE
  5
22B
330
1F
100
AcDbEntity
  8
100
  6
Continuous
 62
     3
100
AcDbLine
 10
376.011365953178
 20
426.058470316194
 30
0.0
 11
376.011365953178
 21
426.058470316194
 31
0.0
  0
LINE
  5
22C
330
1F
100
AcDbEntity
  8
100
  6
Continuous
 62
     3
100
AcDbLine
 10
367.511365953178
 20
421.150993028082
 30
0.0
 11
376.011365953178
 21
426.058470316194
 31
0.0
  0
LINE
  5
22D
330
1F
100
AcDbEntity
  8
100
  6
Continuous
 62
     3
100
AcDbLine
 10
367.511365953178
 20
411.336038451859
 30
0.0
 11
367.511365953178
 21
421.150993028082
 31
0.0
  0
LINE
  5
22E
330
1F
100
AcDbEntity
  8
100
  6
Continuous
 62
     3
100
AcDbLine
 10
376.011365953178
 20
406.428561163747
 30
0.0
 11
367.511365953178
 21
411.336038451859
 31
0.0
  0
LINE
  5
22F
330
1F
100
AcDbEntity
  8
100
  6
Continuous
 62
     3
100
AcDbLine
 10
384.511365953178
 20
411.336038451859
 30
0.0
 11
376.011365953178
 21
406.428561163747
 31
0.0
  0
LINE
  5
230
330
1F
100
AcDbEntity
  8
100
  6
Continuous
 62
     3
100
AcDbLine
 10
384.511365953178
 20
421.150993028082
 30
0.0
 11
384.511365953178
 21
411.336038451859
 31
0.0
  0
LINE
  5
231
330
1F
100
AcDbEntity
  8
100
  6
Continuous
 62
     3
100
AcDbLine
 10
376.011365953178
 20
426.058470316194
 30
0.0
 11
384.511365953178
 21
421.150993028082
 31
0.0
  0
LINE
  5
232
330
1F
100
AcDbEntity
  8
100
  6
Continuous
 62
     3
100
AcDbLine
 10
346.490879949606
 20
152.856244554484
 30
0.0
 11
346.490879949606
 21
152.856244554484
 31
0.0
  0
LINE
  5
233
330
1F
100
AcDbEntity
  8
100
  6
Continuous
 62
     3
100
AcDbLine
 10
337.990879949606
 20
147.948767266372
 30
0.0
 11
346.490879949606
 21
152.856244554484
 31
0.0
  0
LINE
  5
234
330
1F
100
AcDbEntity
  8
100
  6
Continuous
 62
     3
100
AcDbLine
 10
337.990879949606
 20
138.133812690149
 30
0.0
 11
337.990879949606
 21
147.948767266372
 31
0.0
  0
LINE
  5
235
330
1F
100
AcDbEntity
  8
100
  6
Continuous
 62
     3
100
AcDbLine
 10
346.490879949606
 20
133.226335402037
 30
0.0
 11
337.990879949606
 21
138.133812690149
 31
0.0
  0
LINE
  5
236
330
1F
100
AcDbEntity
  8
100
  6
Continuous
 62
     3
100
AcDbLine
 10
354.990879949606
 20
138.133812690149
 30
0.0
 11
346.490879949606
 21
133.226335402037
 31
0.0
  0
LINE
  5
237
330
1F
100
AcDbEntity
  8
100
  6
Continuous
 62
     3
100
AcDbLine
 10
354.990879949606
 20
147.948767266372
 30
0.0
 11
354.990879949606
 21
138.133812690149
 31
0.0
  0
LINE
  5
238
330
1F
100
AcDbEntity
  8
100
  6
Continuous
 62
     3
100
AcDbLine
 10
346.490879949606
 20
152.856244554484
 30
0.0
 11
354.990879949606
 21
147.948767266372
 31
0.0
  0
LINE
  5
239
330
1F
100
AcDbEntity
  8
100
  6
Continuous
 62
     3
100
AcDbLine
 10
331.730272029041
 20
422.413789930105
 30
0.0
 11
331.730272029041
 21
441.545387624908
 31
0.0
  0
LINE
  5
23A
330
1F
100
AcDbEntity
  8
100
  6
Continuous
 62
     3
100
AcDbLine
 10
331.730272029041
 20
390.941643855034
 30
0.0
 11
331.730272029041
 21
410.073241549836
 31
0.0
  0
LINE
  5
23B
330
1F
100
AcDbEntity
  8
100
  6
Continuous
 62
     3
100
AcDbLine
 10
454.611365953178
 20
381.243515739971
 30
0.0
 11
433.057912702011
 21
381.243515739971
 31
0.0
  0
LINE
  5
23C
330
1F
100
AcDbEntity
  8
1
  6
CENTER
 62
     1
100
AcDbLine
 10
291.334733409435
 20
416.243515739971
 30
0.0
 11
638.655609669651
 21
416.243515739971
 31
0.0
  0
LINE
  5
23D
330
1F
100
AcDbEntity
  8
1
  6
Continuous
 62
     3
100
AcDbLine
 10
303.011365953178
 20
380.130515739971
 30
0.0
 11
319.126870670632
 21
380.130515739971
 31
0.0
  0
LINE
  5
23E
330
1F
100
AcDbEntity
  8
100
  6
Continuous
 62
     3
100
AcDbLine
 10
319.279034860637
 20
378.84351573997
 30
0.0
 11
303.011365953178
 21
378.84351573997
 31
0.0
  0
LINE
  5
23F
330
1F
100
AcDbEntity
  8
1
  6
Continuous
 62
     3
100
AcDbLine
 10
303.011365953178
 20
452.356515739971
 30
0.0
 11
319.126870670632
 21
452.356515739971
 31
0.0
  0
LINE
  5
240
330
1F
100
AcDbEntity
  8
100
  6
Continuous
 62
     3
100
AcDbLine
 10
303.011365953178
 20
453.64351573997
 30
0.0
 11
319.279034860637
 21
453.64351573997
 31
0.0
  0
LINE
  5
241
330
1F
100
AcDbEntity
  8
100
  6
Continuous
 62
     3
100
AcDbLine
 10
303.011365953178
 20
423.452410897438
 30
0.0
 11
303.011365953178
 21
453.64351573997
 31
0.0
  0
LINE
  5
242
330
1F
100
AcDbEntity
  8
100
  6
Continuous
 62
     3
100
AcDbLine
 10
303.011365953178
 20
378.84351573997
 30
0.0
 11
303.011365953178
 21
409.034620582503
 31
0.0
  0
LINE
  5
243
330
1F
100
AcDbEntity
  8
100
  6
Continuous
 62
     3
100
AcDbLine
 10
382.403182208116
 20
380.243515739971
 30
0.0
 11
412.136149689554
 21
380.243515739971
 31
0.0
  0
LINE
  5
244
330
1F
100
AcDbEntity
  8
100
  6
Continuous
 62
     3
100
AcDbLine
 10
339.886582216801
 20
380.243515739971
 30
0.0
 11
369.61954969824
 21
380.243515739971
 31
0.0
  0
LINE
  5
245
330
1F
100
AcDbEntity
  8
100
  6
Continuous
 62
     3
100
AcDbLine
 10
382.403182208115
 20
452.243515739971
 30
0.0
 11
412.136149689554
 21
452.243515739971
 31
0.0
  0
LINE
  5
246
330
1F
100
AcDbEntity
  8
100
  6
Continuous
 62
     3
100
AcDbLine
 10
339.886582216801
 20
452.243515739971
 30
0.0
 11
369.61954969824
 21
452.243515739971
 31
0.0
  0
LINE
  5
247
330
1F
100
AcDbEntity
  8
100
  6
Continuous
 62
     3
100
AcDbLine
 10
417.963719879984
 20
387.243515739971
 30
0.0
 11
411.186191349327
 21
387.243515739971
 31
0.0
  0
LINE
  5
248
330
1F
100
AcDbEntity
  8
100
  6
Continuous
 62
     3
100
AcDbLine
 10
444.864560968199
 20
387.243515739971
 30
0.0
 11
434.434527892339
 21
387.243515739971
 31
0.0
  0
LINE
  5
249
330
1F
100
AcDbEntity
  8
100
  6
Continuous
 62
     3
100
AcDbLine
 10
434.434527892339
 20
445.243515739971
 30
0.0
 11
444.864560968199
 21
445.243515739971
 31
0.0
  0
LINE
  5
24A
330
1F
100
AcDbEntity
  8
100
  6
Continuous
 62
     3
100
AcDbLine
 10
411.186191349327
 20
445.243515739971
 30
0.0
 11
417.963719879984
 21
445.243515739971
 31
0.0
  0
LINE
  5
24B
330
1F
100
AcDbEntity
  8
100
  6
Continuous
 62
     3
100
AcDbLine
 10
411.186191349327
 20
387.243515739971
 30
0.0
 11
402.06508199912
 21
409.58560900176
 31
0.0
  0
LINE
  5
24C
330
1F
100
AcDbEntity
  8
100
  6
Continuous
 62
     3
100
AcDbLine
 10
402.06508199912
 20
422.901422478182
 30
0.0
 11
411.186191349327
 21
445.243515739971
 31
0.0
  0
LINE
  5
24D
330
1F
100
AcDbEntity
  8
100
  6
Continuous
 62
     3
100
AcDbLine
 10
411.957044443512
 20
422.636785244868
 30
0.0
 11
419.930713594006
 21
442.168231800211
 31
0.0
  0
LINE
  5
24E
330
1F
100
AcDbEntity
  8
100
  6
Continuous
 62
     3
100
AcDbLine
 10
419.930713594006
 20
390.31879967973
 30
0.0
 11
411.957044443512
 21
409.850246235073
 31
0.0
  0
LINE
  5
24F
330
1F
100
AcDbEntity
  8
100
  6
Continuous
 62
     3
100
AcDbLine
 10
456.703745777636
 20
416.243515739971
 30
0.0
 11
444.864560968199
 21
387.243515739971
 31
0.0
  0
LINE
  5
250
330
1F
100
AcDbEntity
  8
100
  6
Continuous
 62
     3
100
AcDbLine
 10
444.864560968199
 20
445.243515739971
 30
0.0
 11
456.703745777636
 21
416.243515739971
 31
0.0
  0
LINE
  5
251
330
1F
100
AcDbEntity
  8
100
  6
Continuous
 62
     3
100
AcDbLine
 10
836.037856755443
 20
147.272467151196
 30
0.0
 11
836.037856755443
 21
137.272467151196
 31
0.0
  0
LINE
  5
252
330
1F
100
AcDbEntity
  8
100
  6
Continuous
 62
     3
100
AcDbLine
 10
807.037856755443
 20
149.111651960632
 30
0.0
 11
836.037856755443
 21
137.272467151196
 31
0.0
  0
LINE
  5
253
330
1F
100
AcDbEntity
  8
100
  6
Continuous
 62
     3
100
AcDbLine
 10
836.037856755443
 20
137.272467151196
 30
0.0
 11
865.037856755443
 21
149.111651960632
 31
0.0
  0
LINE
  5
254
330
1F
100
AcDbEntity
  8
100
  6
Continuous
 62
     3
100
AcDbLine
 10
865.037856755443
 20
149.111651960632
 30
0.0
 11
865.037856755443
 21
182.790021579505
 31
0.0
  0
LINE
  5
255
330
1F
100
AcDbEntity
  8
100
  6
Continuous
 62
     3
100
AcDbLine
 10
836.037856755443
 20
147.272467151196
 30
0.0
 11
865.037856755443
 21
159.111651960632
 31
0.0
  0
LINE
  5
256
330
1F
100
AcDbEntity
  8
100
  6
Continuous
 62
     3
100
AcDbLine
 10
807.037856755443
 20
159.111651960632
 30
0.0
 11
836.037856755443
 21
147.272467151196
 31
0.0
  0
LINE
  5
257
330
1F
100
AcDbEntity
  8
100
  6
Continuous
 62
     3
100
AcDbLine
 10
807.037856755443
 20
182.790021579505
 30
0.0
 11
807.037856755443
 21
149.111651960632
 31
0.0
  0
LINE
  5
258
330
1F
100
AcDbEntity
  8
100
  6
Continuous
 62
     3
100
AcDbLine
 10
836.037856755443
 20
194.629206388941
 30
0.0
 11
807.037856755443
 21
182.790021579505
 31
0.0
  0
LINE
  5
259
330
1F
100
AcDbEntity
  8
100
  6
Continuous
 62
     3
100
AcDbLine
 10
865.037856755443
 20
182.790021579505
 30
0.0
 11
836.037856755443
 21
194.629206388941
 31
0.0
  0
LINE
  5
25A
330
1F
100
AcDbEntity
  8
100
  6
Continuous
 62
     3
100
AcDbLine
 10
817.537856755443
 20
187.076622976025
 30
0.0
 11
817.537856755443
 21
204.936889020546
 31
0.0
  0
LINE
  5
25B
330
1F
100
AcDbEntity
  8
100
  6
Continuous
 62
     3
100
AcDbLine
 10
854.537856755443
 20
187.076622976025
 30
0.0
 11
854.537856755443
 21
204.936889020546
 31
0.0
  0
LINE
  5
25C
330
1F
100
AcDbEntity
  8
100
  6
Continuous
 62
     3
100
AcDbLine
 10
872.037856755443
 20
117.626751859029
 30
0.0
 11
872.037856755443
 21
160.950836770117
 31
0.0
  0
LINE
  5
25D
330
1F
100
AcDbEntity
  8
100
  6
Continuous
 62
     3
100
AcDbLine
 10
800.037856755443
 20
117.626751859029
 30
0.0
 11
800.037856755443
 21
160.950837034797
 31
0.0
  0
LINE
  5
25E
330
1F
100
AcDbEntity
  8
100
  6
Continuous
 62
     3
100
AcDbLine
 10
437.793477542318
 20
152.040599762782
 30
0.0
 11
444.864545354184
 21
159.111667574648
 31
0.0
  0
LINE
  5
25F
330
1F
100
AcDbEntity
  8
100
  6
Continuous
 62
     3
100
AcDbLine
 10
324.011365953178
 20
132.336889020546
 30
0.0
 11
324.011365953178
 21
57.536889020546
 31
0.0
  0
LINE
  5
260
330
1F
100
AcDbEntity
  8
100
  6
Continuous
 62
     3
100
AcDbLine
 10
457.011365953178
 20
132.336889020546
 30
0.0
 11
457.011365953178
 21
57.536889020546
 31
0.0
  0
LINE
  5
261
330
1F
100
AcDbEntity
  8
100
  6
Continuous
 62
     3
100
AcDbLine
 10
346.511365953178
 20
374.641232148802
 30
0.0
 11
346.511365953178
 21
380.243515739971
 31
0.0
  0
LINE
  5
262
330
1F
100
AcDbEntity
  8
100
  6
Continuous
 62
     3
100
AcDbLine
 10
354.990879949606
 20
374.243515739971
 30
0.0
 11
354.990879949606
 21
380.243515739971
 31
0.0
  0
LINE
  5
263
330
1F
100
AcDbEntity
  8
100
  6
Continuous
 62
     3
100
AcDbLine
 10
347.080413670199
 20
374.243515739971
 30
0.0
 11
354.990879949606
 21
374.243515739971
 31
0.0
  0
LINE
  5
264
330
1F
100
AcDbEntity
  8
100
  6
Continuous
 62
     3
100
AcDbLine
 10
794.037856755443
 20
138.029411732434
 30
0.0
 11
800.037856755443
 21
138.029411732434
 31
0.0
  0
LINE
  5
265
330
1F
100
AcDbEntity
  8
100
  6
Continuous
 62
     3
100
AcDbLine
 10
794.037856755443
 20
147.844366308658
 30
0.0
 11
800.037856755443
 21
147.844366308658
 31
0.0
  0
LINE
  5
266
330
1F
100
AcDbEntity
  8
100
  6
Continuous
 62
     3
100
AcDbLine
 10
794.037856755443
 20
152.75184359677
 30
0.0
 11
794.037856755443
 21
133.121934444322
 31
0.0
  0
LINE
  5
267
330
1F
100
AcDbEntity
  8
100
  6
Continuous
 62
     3
100
AcDbLine
 10
794.037856755443
 20
133.121934444322
 30
0.0
 11
800.037856755443
 21
133.121934444322
 31
0.0
  0
LINE
  5
268
330
1F
100
AcDbEntity
  8
100
  6
Continuous
 62
     3
100
AcDbLine
 10
800.037856755443
 20
152.75184359677
 30
0.0
 11
794.037856755443
 21
152.75184359677
 31
0.0
  0
LINE
  5
269
330
1F
100
AcDbEntity
  8
100
  6
Continuous
 62
     3
100
AcDbLine
 10
821.037856755443
 20
225.936889020546
 30
0.0
 11
851.037856755443
 21
225.936889020546
 31
0.0
  0
LINE
  5
26A
330
1F
100
AcDbEntity
  8
100
  6
Continuous
 62
     3
100
AcDbLine
 10
845.037856755443
 20
225.936889020546
 30
0.0
 11
845.037856755443
 21
248.931952933112
 31
0.0
  0
LINE
  5
26B
330
1F
100
AcDbEntity
  8
100
  6
Continuous
 62
     3
100
AcDbLine
 10
821.037856755443
 20
217.936889020546
 30
0.0
 11
821.037856755443
 21
225.936889020546
 31
0.0
  0
LINE
  5
26C
330
1F
100
AcDbEntity
  8
100
  6
Continuous
 62
     3
100
AcDbLine
 10
851.037856755443
 20
225.936889020546
 30
0.0
 11
851.037856755443
 21
217.936889020546
 31
0.0
  0
LINE
  5
26D
330
1F
100
AcDbEntity
  8
100
  6
Continuous
 62
     3
100
AcDbLine
 10
827.037856755443
 20
225.936889020546
 30
0.0
 11
827.037856755443
 21
248.931952933112
 31
0.0
  0
LINE
  5
26E
330
1F
100
AcDbEntity
  8
100
  6
Continuous
 62
     3
100
AcDbLine
 10
836.037856755443
 20
215.917651134079
 30
0.0
 11
836.037856755443
 21
206.936889020546
 31
0.0
  0
LINE
  5
26F
330
1F
100
AcDbEntity
  8
100
  6
Continuous
 62
     3
100
AcDbLine
 10
858.537856755443
 20
217.927270077313
 30
0.0
 11
813.537856755443
 21
217.927270077313
 31
0.0
  0
LINE
  5
270
330
1F
100
AcDbEntity
  8
100
  6
Continuous
 62
     3
100
AcDbLine
 10
858.537856755443
 20
204.936889020546
 30
0.0
 11
813.537856755443
 21
204.936889020546
 31
0.0
  0
LINE
  5
271
330
1F
100
AcDbEntity
  8
100
  6
Continuous
 62
     3
100
AcDbLine
 10
813.537856755443
 20
217.927270077313
 30
0.0
 11
813.537856755443
 21
204.936889020546
 31
0.0
  0
LINE
  5
272
330
1F
100
AcDbEntity
  8
100
  6
Continuous
 62
     3
100
AcDbLine
 10
858.537856755443
 20
204.936889020546
 30
0.0
 11
858.537856755443
 21
217.927270077313
 31
0.0
  0
LINE
  5
273
330
1F
100
AcDbEntity
  8
100
  6
Continuous
 62
     3
100
AcDbLine
 10
821.037856755443
 20
217.927270077313
 30
0.0
 11
821.037856755443
 21
225.927270077313
 31
0.0
  0
LINE
  5
274
330
1F
100
AcDbEntity
  8
100
  6
Continuous
 62
     3
100
AcDbLine
 10
851.037856755443
 20
225.927270077313
 30
0.0
 11
851.037856755443
 21
217.927270077313
 31
0.0
  0
LINE
  5
275
330
1F
100
AcDbEntity
  8
100
  6
Continuous
 62
     3
100
AcDbLine
 10
821.037856755443
 20
225.927270077313
 30
0.0
 11
851.037856755443
 21
225.927270077313
 31
0.0
  0
LINE
  5
276
330
1F
100
AcDbEntity
  8
1
  6
CENTER
 62
     1
100
AcDbLine
 10
836.037856755443
 20
49.9858823435203
 30
0.0
 11
836.037856755443
 21
307.72820790085
 31
0.0
  0
LINE
  5
277
330
1F
100
AcDbEntity
  8
2
  6
Continuous
 62
     3
100
AcDbLine
 10
438.326638303636
 20
277.931952933113
 30
0.0
 11
432.54940732055
 21
277.931952933113
 31
0.0
  0
LINE
  5
278
330
1F
100
AcDbEntity
  8
2
  6
Continuous
 62
     3
100
AcDbLine
 10
313.696093602719
 20
277.931952933113
 30
0.0
 11
319.369295710422
 21
277.931952933113
 31
0.0
  0
LINE
  5
279
330
1F
100
AcDbEntity
  8
2
  6
Continuous
 62
     3
100
AcDbLine
 10
341.32966414221
 20
296.431952933113
 30
0.0
 11
410.693067764146
 21
296.431952933113
 31
0.0
  0
LINE
  5
27A
330
1F
100
AcDbEntity
  8
2
  6
Continuous
 62
     3
100
AcDbLine
 10
336.628694386025
 20
277.931952933113
 30
0.0
 11
415.39403752033
 21
277.931952933113
 31
0.0
  0
LINE
  5
27B
330
1F
100
AcDbEntity
  8
2
  6
Continuous
 62
     3
100
AcDbLine
 10
367.011365953178
 20
297.931952933113
 30
0.0
 11
385.011365953178
 21
297.931952933113
 31
0.0
  0
LINE
  5
27C
330
1F
100
AcDbEntity
  8
2
  6
Continuous
 62
     3
100
AcDbLine
 10
321.473324585805
 20
275.931952933113
 30
0.0
 11
333.800267261279
 21
275.931952933113
 31
0.0
  0
LINE
  5
27D
330
1F
100
AcDbEntity
  8
2
  6
Continuous
 62
     3
100
AcDbLine
 10
430.54940732055
 20
275.931952933113
 30
0.0
 11
418.222464645076
 21
275.931952933113
 31
0.0
  0
LINE
  5
27E
330
1F
100
AcDbEntity
  8
2
  6
Continuous
 62
     3
100
AcDbLine
 10
447.614941646398
 20
275.931952933113
 30
0.0
 11
441.155065428382
 21
275.931952933113
 31
0.0
  0
LINE
  5
27F
330
1F
100
AcDbEntity
  8
2
  6
Continuous
 62
     3
100
AcDbLine
 10
447.614941646398
 20
297.931952933113
 30
0.0
 11
411.55909316793
 21
297.931952933113
 31
0.0
  0
LINE
  5
280
330
1F
100
AcDbEntity
  8
2
  6
Continuous
 62
     3
100
AcDbLine
 10
304.407790259958
 20
275.931952933113
 30
0.0
 11
310.867666477973
 21
275.931952933113
 31
0.0
  0
LINE
  5
281
330
1F
100
AcDbEntity
  8
2
  6
Continuous
 62
     3
100
AcDbLine
 10
304.407790259958
 20
297.931952933113
 30
0.0
 11
340.463638738425
 21
297.931952933113
 31
0.0
  0
LINE
  5
282
330
1F
100
AcDbEntity
  8
100
  6
Continuous
 62
     3
100
AcDbLine
 10
391.011365953178
 20
271.931952933113
 30
0.0
 11
361.011365953178
 21
271.931952933113
 31
0.0
  0
LINE
  5
283
330
1F
100
AcDbEntity
  8
100
  6
Continuous
 62
     3
100
AcDbLine
 10
369.915173375489
 20
463.293730694261
 30
0.0
 11
369.082371027548
 21
432.164136999916
 31
0.0
  0
LINE
  5
284
330
1F
100
AcDbEntity
  8
100
  6
Continuous
 62
     3
100
AcDbLine
 10
382.107558530867
 20
463.293730694261
 30
0.0
 11
382.940360878808
 21
432.164136999916
 31
0.0
  0
LINE
  5
285
330
1F
100
AcDbEntity
  8
100
  6
Continuous
 62
     3
100
AcDbLine
 10
382.107558530867
 20
369.19330078568
 30
0.0
 11
382.940360878808
 21
400.322894480024
 31
0.0
  0
LINE
  5
286
330
1F
100
AcDbEntity
  8
100
  6
Continuous
 62
     3
100
AcDbLine
 10
423.061580907469
 20
410.147323162282
 30
0.0
 11
391.931987213124
 21
409.31452081434
 31
0.0
  0
LINE
  5
287
330
1F
100
AcDbEntity
  8
100
  6
Continuous
 62
     3
100
AcDbLine
 10
328.961150998887
 20
410.147323162282
 30
0.0
 11
360.090744693232
 21
409.31452081434
 31
0.0
  0
LINE
  5
288
330
1F
100
AcDbEntity
  8
100
  6
Continuous
 62
     3
100
AcDbLine
 10
369.915173375489
 20
369.19330078568
 30
0.0
 11
369.082371027548
 21
400.322894480024
 31
0.0
  0
LINE
  5
289
330
1F
100
AcDbEntity
  8
100
  6
Continuous
 62
     3
100
AcDbLine
 10
328.961150998887
 20
422.339708317659
 30
0.0
 11
360.090744693232
 21
423.1725106656
 31
0.0
  0
LINE
  5
28A
330
1F
100
AcDbEntity
  8
100
  6
Continuous
 62
     3
100
AcDbLine
 10
423.061580907469
 20
422.339708317659
 30
0.0
 11
391.931987213124
 21
423.172510665601
 31
0.0
  0
LINE
  5
28B
330
1F
100
AcDbEntity
  8
1
  6
CENTER
 62
     1
100
AcDbLine
 10
376.011365953178
 20
493.74351573997
 30
0.0
 11
376.011365953178
 21
338.743515739971
 31
0.0
  0
LINE
  5
28C
330
1F
100
AcDbEntity
  8
1
  6
CENTER
 62
     1
100
AcDbLine
 10
376.011365953178
 20
170.24877026952
 30
0.0
 11
376.011365953178
 21
312.699602824642
 31
0.0
  0
LINE
  5
28D
330
1F
100
AcDbEntity
  8
1
  6
CENTER
 62
     1
100
AcDbLine
 10
389.011365953178
 20
50.0582427726273
 30
0.0
 11
389.011365953178
 21
138.691002052417
 31
0.0
  0
LINE
  5
28E
330
1F
100
AcDbEntity
  8
1
  6
CENTER
 62
     1
100
AcDbLine
 10
291.334733409435
 20
94.936889020546
 30
0.0
 11
638.655609669651
 21
94.936889020546
 31
0.0
  0
LINE
  5
28F
330
1F
100
AcDbEntity
  8
100
  6
Continuous
 62
     3
100
AcDbLine
 10
389.001747009944
 20
206.946507963779
 30
0.0
 11
389.001747009944
 21
215.927270077313
 31
0.0
  0
LINE
  5
290
330
1F
100
AcDbEntity
  8
100
  6
Continuous
 62
     3
100
AcDbLine
 10
363.020984896411
 20
206.946507963779
 30
0.0
 11
363.020984896411
 21
215.927270077313
 31
0.0
  0
LINE
  5
291
330
1F
100
AcDbEntity
  8
1
  6
CENTER
 62
     1
100
AcDbLine
 10
346.511365953178
 20
128.935495171027
 30
0.0
 11
346.511365953178
 21
156.970638349709
 31
0.0
  0
LINE
  5
292
330
1F
100
AcDbEntity
  8
1
  6
CENTER
 62
     1
100
AcDbLine
 10
333.004675183037
 20
142.936889020546
 30
0.0
 11
360.587638633031
 21
142.936889020546
 31
0.0
  0
LINE
  5
293
330
1F
100
AcDbEntity
  8
100
  6
DOTTED
 62
     6
100
AcDbLine
 10
367.011365953178
 20
279.931952933113
 30
0.0
 11
385.011365953178
 21
279.931952933113
 31
0.0
  0
LINE
  5
294
330
1F
100
AcDbEntity
  8
100
  6
Continuous
 62
     3
100
AcDbLine
 10
408.31905826087
 20
277.931952933113
 30
0.0
 11
391.011365953178
 21
271.931952933113
 31
0.0
  0
LINE
  5
295
330
1F
100
AcDbEntity
  8
100
  6
Continuous
 62
     3
100
AcDbLine
 10
343.703673645485
 20
277.931952933113
 30
0.0
 11
361.011365953178
 21
271.931952933113
 31
0.0
  0
LINE
  5
296
330
1F
100
AcDbEntity
  8
100
  6
DOTTED
 62
     6
100
AcDbLine
 10
336.628694386025
 20
259.931952933113
 30
0.0
 11
415.39403752033
 21
259.931952933113
 31
0.0
  0
LINE
  5
297
330
1F
100
AcDbEntity
  8
100
  6
DOTTED
 62
     6
100
AcDbLine
 10
321.473324585805
 20
257.931952933113
 30
0.0
 11
333.800267261279
 21
257.931952933113
 31
0.0
  0
LINE
  5
298
330
1F
100
AcDbEntity
  8
100
  6
DOTTED
 62
     6
100
AcDbLine
 10
313.696093602719
 20
259.931952933113
 30
0.0
 11
319.369295710422
 21
259.931952933113
 31
0.0
  0
LINE
  5
299
330
1F
100
AcDbEntity
  8
100
  6
DOTTED
 62
     6
100
AcDbLine
 10
430.54940732055
 20
257.931952933113
 30
0.0
 11
418.222464645076
 21
257.931952933113
 31
0.0
  0
LINE
  5
29A
330
1F
100
AcDbEntity
  8
100
  6
DOTTED
 62
     6
100
AcDbLine
 10
438.326638303636
 20
259.931952933113
 30
0.0
 11
432.54940732055
 21
259.931952933113
 31
0.0
  0
LINE
  5
29B
330
1F
100
AcDbEntity
  8
100
  6
DOTTED
 62
     6
100
AcDbLine
 10
447.614941646398
 20
257.931952933113
 30
0.0
 11
441.155065428382
 21
257.931952933113
 31
0.0
  0
LINE
  5
29C
330
1F
100
AcDbEntity
  8
100
  6
DOTTED
 62
     6
100
AcDbLine
 10
447.614941646398
 20
279.931952933113
 30
0.0
 11
411.55909316793
 21
279.931952933113
 31
0.0
  0
LINE
  5
29D
330
1F
100
AcDbEntity
  8
100
  6
DOTTED
 62
     6
100
AcDbLine
 10
341.32966414221
 20
278.431952933113
 30
0.0
 11
410.693067764146
 21
278.431952933113
 31
0.0
  0
LINE
  5
29E
330
1F
100
AcDbEntity
  8
100
  6
DOTTED
 62
     6
100
AcDbLine
 10
304.407790259958
 20
257.931952933113
 30
0.0
 11
310.867666477973
 21
257.931952933113
 31
0.0
  0
LINE
  5
29F
330
1F
100
AcDbEntity
  8
100
  6
DOTTED
 62
     6
100
AcDbLine
 10
304.407790259958
 20
279.931952933113
 30
0.0
 11
340.463638738425
 21
279.931952933113
 31
0.0
  0
LINE
  5
2A0
330
1F
100
AcDbEntity
  8
100
  6
Continuous
 62
     3
100
AcDbLine
 10
361.011365953178
 20
271.931952933113
 30
0.0
 11
361.011365953178
 21
267.931952933113
 31
0.0
  0
LINE
  5
2A1
330
1F
100
AcDbEntity
  8
100
  6
Continuous
 62
     3
100
AcDbLine
 10
391.011365953178
 20
267.931952933113
 30
0.0
 11
361.011365953178
 21
267.931952933113
 31
0.0
  0
LINE
  5
2A2
330
1F
100
AcDbEntity
  8
100
  6
Continuous
 62
     3
100
AcDbLine
 10
391.011365953178
 20
271.931952933113
 30
0.0
 11
391.011365953178
 21
267.931952933113
 31
0.0
  0
LINE
  5
2A3
330
1F
100
AcDbEntity
  8
100
  6
Continuous
 62
     3
100
AcDbLine
 10
385.011365953178
 20
265.731952933112
 30
0.0
 11
385.011365953178
 21
267.931952933112
 31
0.0
  0
LINE
  5
2A4
330
1F
100
AcDbEntity
  8
100
  6
Continuous
 62
     3
100
AcDbLine
 10
367.011365953178
 20
265.731952933113
 30
0.0
 11
367.011365953178
 21
267.931952933113
 31
0.0
  0
LINE
  5
2A5
330
1F
100
AcDbEntity
  8
100
  6
Continuous
 62
     3
100
AcDbLine
 10
363.011365953178
 20
265.731952933113
 30
0.0
 11
389.011365953178
 21
265.731952933113
 31
0.0
  0
LINE
  5
2A6
330
1F
100
AcDbEntity
  8
100
  6
Continuous
 62
     3
100
AcDbLine
 10
363.011365953178
 20
248.931952933112
 30
0.0
 11
389.011365953178
 21
248.931952933112
 31
0.0
  0
LINE
  5
2A7
330
1F
100
AcDbEntity
  8
100
  6
Continuous
 62
     3
100
AcDbLine
 10
363.011365953178
 20
248.931952933112
 30
0.0
 11
363.011365953178
 21
265.731952933113
 31
0.0
  0
LINE
  5
2A8
330
1F
100
AcDbEntity
  8
100
  6
Continuous
 62
     3
100
AcDbLine
 10
389.011365953178
 20
248.931952933112
 30
0.0
 11
389.011365953178
 21
265.731952933113
 31
0.0
  0
LINE
  5
2A9
330
1F
100
AcDbEntity
  8
100
  6
Continuous
 62
     3
100
AcDbLine
 10
385.011365953178
 20
225.936889020546
 30
0.0
 11
385.011365953178
 21
248.931952933112
 31
0.0
  0
LINE
  5
2AA
330
1F
100
AcDbEntity
  8
100
  6
Continuous
 62
     3
100
AcDbLine
 10
367.011365953178
 20
225.936889020546
 30
0.0
 11
367.011365953178
 21
248.931952933112
 31
0.0
  0
LINE
  5
2AB
330
1F
100
AcDbEntity
  8
100
  6
Continuous
 62
     3
100
AcDbLine
 10
353.511365953178
 20
217.936889020546
 30
0.0
 11
350.030603839645
 21
215.927270077313
 31
0.0
  0
LINE
  5
2AC
330
1F
100
AcDbEntity
  8
100
  6
Continuous
 62
     3
100
AcDbLine
 10
353.511365953178
 20
204.936889020546
 30
0.0
 11
350.030603839645
 21
206.946507963779
 31
0.0
  0
LINE
  5
2AD
330
1F
100
AcDbEntity
  8
100
  6
Continuous
 62
     3
100
AcDbLine
 10
350.030603839645
 20
215.927270077313
 30
0.0
 11
350.030603839645
 21
206.946507963779
 31
0.0
  0
LINE
  5
2AE
330
1F
100
AcDbEntity
  8
100
  6
Continuous
 62
     3
100
AcDbLine
 10
353.511365953178
 20
217.936889020546
 30
0.0
 11
398.511365953178
 21
217.936889020546
 31
0.0
  0
LINE
  5
2AF
330
1F
100
AcDbEntity
  8
100
  6
Continuous
 62
     3
100
AcDbLine
 10
361.011365953178
 20
217.936889020546
 30
0.0
 11
361.011365953178
 21
225.936889020546
 31
0.0
  0
LINE
  5
2B0
330
1F
100
AcDbEntity
  8
100
  6
Continuous
 62
     3
100
AcDbLine
 10
361.011365953178
 20
225.936889020546
 30
0.0
 11
391.011365953178
 21
225.936889020546
 31
0.0
  0
LINE
  5
2B1
330
1F
100
AcDbEntity
  8
100
  6
Continuous
 62
     3
100
AcDbLine
 10
391.011365953178
 20
225.936889020546
 30
0.0
 11
391.011365953178
 21
217.936889020546
 31
0.0
  0
LINE
  5
2B2
330
1F
100
AcDbEntity
  8
100
  6
Continuous
 62
     3
100
AcDbLine
 10
401.992128066711
 20
206.946507963779
 30
0.0
 11
398.511365953178
 21
204.936889020546
 31
0.0
  0
LINE
  5
2B3
330
1F
100
AcDbEntity
  8
100
  6
Continuous
 62
     3
100
AcDbLine
 10
401.992128066711
 20
215.927270077313
 30
0.0
 11
398.511365953178
 21
217.936889020546
 31
0.0
  0
LINE
  5
2B4
330
1F
100
AcDbEntity
  8
100
  6
Continuous
 62
     3
100
AcDbLine
 10
401.992128066711
 20
215.927270077313
 30
0.0
 11
401.992128066711
 21
206.946507963779
 31
0.0
  0
LINE
  5
2B5
330
1F
100
AcDbEntity
  8
100
  6
Continuous
 62
     3
100
AcDbLine
 10
353.511365953178
 20
204.936889020546
 30
0.0
 11
398.511365953178
 21
204.936889020546
 31
0.0
  0
LINE
  5
2B6
330
1F
100
AcDbEntity
  8
100
  6
Continuous
 62
     3
100
AcDbLine
 10
357.511365953178
 20
195.110052433123
 30
0.0
 11
357.511365953178
 21
204.936889020546
 31
0.0
  0
LINE
  5
2B7
330
1F
100
AcDbEntity
  8
100
  6
Continuous
 62
     3
100
AcDbLine
 10
394.511365953178
 20
188.678177366039
 30
0.0
 11
394.511365953178
 21
204.936889020546
 31
0.0
  0
LINE
  5
2B8
330
1F
100
AcDbEntity
  8
100
  6
Continuous
 62
     3
100
AcDbLine
 10
456.703745777636
 20
147.272467151196
 30
0.0
 11
449.63267796577
 21
140.20139933933
 31
0.0
  0
LINE
  5
2B9
330
1F
100
AcDbEntity
  8
100
  6
Continuous
 62
     3
100
AcDbLine
 10
414.115076695414
 20
175.719000609686
 30
0.0
 11
421.186144507279
 21
182.790068421552
 31
0.0
  0
LINE
  5
2BA
330
1F
100
AcDbEntity
  8
100
  6
Continuous
 62
     3
100
AcDbLine
 10
409.346944083828
 20
194.629268845004
 30
0.0
 11
402.275876271962
 21
187.558201033138
 31
0.0
  0
LINE
  5
2BB
330
1F
100
AcDbEntity
  8
100
  6
Continuous
 62
     3
100
AcDbLine
 10
400.49843299615
 20
189.33564430895
 30
0.0
 11
397.316452480811
 21
186.153663793611
 31
0.0
  0
LINE
  5
2BC
330
1F
100
AcDbEntity
  8
100
  6
Continuous
 62
     3
100
AcDbLine
 10
409.346944083828
 20
194.629268845004
 30
0.0
 11
456.703745777636
 21
147.272467151196
 31
0.0
  0
LINE
  5
2BD
330
1F
100
AcDbEntity
  8
100
  6
Continuous
 62
     3
100
AcDbLine
 10
400.49843299615
 20
189.33564430895
 30
0.0
 11
451.410121241582
 21
138.423956063519
 31
0.0
  0
LINE
  5
2BE
330
1F
100
AcDbEntity
  8
1
  6
Continuous
 62
     3
100
AcDbLine
 10
460.011365953178
 20
58.823889020546
 30
0.0
 11
456.637108039427
 21
58.823889020546
 31
0.0
  0
LINE
  5
2BF
330
1F
100
AcDbEntity
  8
100
  6
Continuous
 62
     3
100
AcDbLine
 10
457.011365953178
 20
57.536889020546
 30
0.0
 11
460.011365953178
 21
57.536889020546
 31
0.0
  0
LINE
  5
2C0
330
1F
100
AcDbEntity
  8
1
  6
Continuous
 62
     3
100
AcDbLine
 10
460.011365953178
 20
131.049889020546
 30
0.0
 11
456.637108039427
 21
131.049889020546
 31
0.0
  0
LINE
  5
2C1
330
1F
100
AcDbEntity
  8
100
  6
DOTTED
 62
     4
100
AcDbLine
 10
478.011365953178
 20
132.336889020546
 30
0.0
 11
460.011365953178
 21
132.336889020546
 31
0.0
  0
LINE
  5
2C2
330
1F
100
AcDbEntity
  8
100
  6
DOTTED
 62
     4
100
AcDbLine
 10
478.011365953178
 20
57.536889020546
 30
0.0
 11
478.011365953178
 21
132.336889020546
 31
0.0
  0
LINE
  5
2C3
330
1F
100
AcDbEntity
  8
1
  6
Continuous
 62
     3
100
AcDbLine
 10
303.011365953178
 20
58.823889020546
 30
0.0
 11
324.385623866929
 21
58.823889020546
 31
0.0
  0
LINE
  5
2C4
330
1F
100
AcDbEntity
  8
1
  6
Continuous
 62
     3
100
AcDbLine
 10
303.011365953178
 20
131.049889020546
 30
0.0
 11
324.385623866929
 21
131.049889020546
 31
0.0
  0
LINE
  5
2C5
330
1F
100
AcDbEntity
  8
100
  6
Continuous
 62
     3
100
AcDbLine
 10
450.165694885728
 20
129.936889020546
 30
0.0
 11
454.611365953178
 21
129.936889020546
 31
0.0
  0
LINE
  5
2C6
330
1F
100
AcDbEntity
  8
100
  6
Continuous
 62
     3
100
AcDbLine
 10
326.411365953178
 20
129.936889020546
 30
0.0
 11
328.073917435914
 21
129.936889020546
 31
0.0
  0
LINE
  5
2C7
330
1F
100
AcDbEntity
  8
100
  6
Continuous
 62
     3
100
AcDbLine
 10
451.410121241582
 20
138.423956063519
 30
0.0
 11
448.044374542169
 21
135.058209364106
 31
0.0
  0
LINE
  5
2C8
330
1F
100
AcDbEntity
  8
100
  6
Continuous
 62
     3
100
AcDbLine
 10
397.316452480811
 20
186.153663793611
 30
0.0
 11
448.228140726242
 21
135.241975548179
 31
0.0
  0
LINE
  5
2C9
330
1F
100
AcDbEntity
  8
100
  6
Continuous
 62
     3
100
AcDbLine
 10
454.611365953178
 20
59.936889020546
 30
0.0
 11
430.810249312398
 21
59.936889020546
 31
0.0
  0
LINE
  5
2CA
330
1F
100
AcDbEntity
  8
100
  6
Continuous
 62
     3
100
AcDbLine
 10
326.411365953178
 20
59.936889020546
 30
0.0
 11
350.212482593958
 21
59.936889020546
 31
0.0
  0
LINE
  5
2CB
330
1F
100
AcDbEntity
  8
100
  6
Continuous
 62
     3
100
AcDbLine
 10
324.011365953178
 20
57.536889020546
 30
0.0
 11
303.011365953178
 21
57.536889020546
 31
0.0
  0
LINE
  5
2CC
330
1F
100
AcDbEntity
  8
100
  6
Continuous
 62
     3
100
AcDbLine
 10
303.011365953178
 20
132.336889020546
 30
0.0
 11
324.011365953178
 21
132.336889020546
 31
0.0
  0
LINE
  5
2CD
330
1F
100
AcDbEntity
  8
100
  6
Continuous
 62
     3
100
AcDbLine
 10
303.011365953178
 20
57.536889020546
 30
0.0
 11
303.011365953178
 21
132.336889020546
 31
0.0
  0
ARC
  5
2CE
330
1F
100
AcDbEntity
  8
100
  6
DOTTED
 62
     6
100
AcDbCircle
 10
790.948428229348
 20
268.931952933113
 30
0.0
 40
29.99999999999958
100
AcDbArc
 50
161.2506591529812
 51
198.7493408470188
  0
ARC
  5
2CF
330
1F
100
AcDbEntity
  8
100
  6
DOTTED
 62
     6
100
AcDbCircle
 10
764.434281062223
 20
277.931952933113
 30
0.0
 40
2.0
100
AcDbArc
 50
90.0
 51
161.2506591529882
  0
ARC
  5
2D0
330
1F
100
AcDbEntity
  8
100
  6
DOTTED
 62
     6
100
AcDbCircle
 10
764.434281062223
 20
259.931952933113
 30
0.0
 40
2.000000000000273
100
AcDbArc
 50
198.7493408470118
 51
270.0
  0
ARC
  5
2D1
330
1F
100
AcDbEntity
  8
100
  6
DOTTED
 62
     6
100
AcDbCircle
 10
800.490129540691
 20
278.931952933113
 30
0.0
 40
1.0
100
AcDbArc
 50
0.0
 51
90.0
  0
ARC
  5
2D2
330
1F
100
AcDbEntity
  8
100
  6
DOTTED
 62
     6
100
AcDbCircle
 10
801.990129540691
 20
278.931952933113
 30
0.0
 40
0.5
100
AcDbArc
 50
180.0
 51
270.0
  0
ARC
  5
2D3
330
1F
100
AcDbEntity
  8
100
  6
DOTTED
 62
     6
100
AcDbCircle
 10
871.585583970195
 20
278.931952933113
 30
0.0
 40
1.0
100
AcDbArc
 50
90.0
 51
180.0
  0
ARC
  5
2D4
330
1F
100
AcDbEntity
  8
100
  6
DOTTED
 62
     6
100
AcDbCircle
 10
870.085583970196
 20
278.931952933113
 30
0.0
 40
0.5
100
AcDbArc
 50
270.0
 51
0.0
  0
ARC
  5
2D5
330
1F
100
AcDbEntity
  8
100
  6
DOTTED
 62
     6
100
AcDbCircle
 10
907.641432448663
 20
277.931952933113
 30
0.0
 40
2.000000000000273
100
AcDbArc
 50
18.74934084701176
 51
90.0
  0
ARC
  5
2D6
330
1F
100
AcDbEntity
  8
100
  6
DOTTED
 62
     6
100
AcDbCircle
 10
907.641432448663
 20
259.931952933113
 30
0.0
 40
2.0
100
AcDbArc
 50
270.0
 51
341.2506591529882
  0
ARC
  5
2D7
330
1F
100
AcDbEntity
  8
100
  6
DOTTED
 62
     6
100
AcDbCircle
 10
881.127285281537
 20
268.931952933113
 30
0.0
 40
30.00000000000055
100
AcDbArc
 50
341.2506591529818
 51
18.74934084701818
  0
ARC
  5
2D8
330
1F
100
AcDbEntity
  8
100
  6
DOTTED
 62
     6
100
AcDbCircle
 10
793.826758063544
 20
259.931952933113
 30
0.0
 40
2.0
100
AcDbArc
 50
270.0
 51
340.5287793655085
  0
ARC
  5
2D9
330
1F
100
AcDbEntity
  8
100
  6
DOTTED
 62
     6
100
AcDbCircle
 10
796.655185188291
 20
258.931952933113
 30
0.0
 40
1.0
100
AcDbArc
 50
90.00000000005213
 51
160.5287793655244
  0
ARC
  5
2DA
330
1F
100
AcDbEntity
  8
100
  6
DOTTED
 62
     6
100
AcDbCircle
 10
878.248955447342
 20
259.931952933113
 30
0.0
 40
1.999999999999972
100
AcDbArc
 50
199.4712206345002
 51
269.9999999999707
  0
ARC
  5
2DB
330
1F
100
AcDbEntity
  8
100
  6
DOTTED
 62
     6
100
AcDbCircle
 10
875.420528322595
 20
258.931952933113
 30
0.0
 40
1.000000000000799
100
AcDbArc
 50
19.47122063445608
 51
90.0
  0
ARC
  5
2DC
330
1F
100
AcDbEntity
  8
100
  6
DOTTED
 62
     6
100
AcDbCircle
 10
890.575898122815
 20
259.931952933113
 30
0.0
 40
2.0
100
AcDbArc
 50
270.0
 51
341.2506591529872
  0
ARC
  5
2DD
330
1F
100
AcDbEntity
  8
100
  6
DOTTED
 62
     6
100
AcDbCircle
 10
864.061750955689
 20
268.931952933113
 30
0.0
 40
30.00000000000044
100
AcDbArc
 50
341.2506591529818
 51
342.5423968762782
  0
ARC
  5
2DE
330
1F
100
AcDbEntity
  8
100
  6
DOTTED
 62
     6
100
AcDbCircle
 10
901.181556230647
 20
259.931952933113
 30
0.0
 40
1.999999999999008
100
AcDbArc
 50
199.47122063451
 51
270.0
  0
ARC
  5
2DF
330
1F
100
AcDbEntity
  8
100
  6
DOTTED
 62
     6
100
AcDbCircle
 10
898.353129105902
 20
258.931952933113
 30
0.0
 40
0.9999999999998347
100
AcDbArc
 50
19.47122063447562
 51
90.0
  0
ARC
  5
2E0
330
1F
100
AcDbEntity
  8
100
  6
DOTTED
 62
     6
100
AcDbCircle
 10
770.894157280238
 20
259.931952933113
 30
0.0
 40
2.0
100
AcDbArc
 50
270.0
 51
340.5287793654998
  0
ARC
  5
2E1
330
1F
100
AcDbEntity
  8
100
  6
DOTTED
 62
     6
100
AcDbCircle
 10
773.722584404984
 20
258.931952933113
 30
0.0
 40
1.0
100
AcDbArc
 50
90.0
 51
160.5287793655244
  0
ARC
  5
2E2
330
1F
100
AcDbEntity
  8
100
  6
DOTTED
 62
     6
100
AcDbCircle
 10
781.49981538807
 20
259.931952933113
 30
0.0
 40
2.000000000000273
100
AcDbArc
 50
198.7493408470118
 51
270.0
  0
ARC
  5
2E3
330
1F
100
AcDbEntity
  8
100
  6
DOTTED
 62
     6
100
AcDbCircle
 10
808.013962555196
 20
268.931952933113
 30
0.0
 40
30.00000000000065
100
AcDbArc
 50
197.4576031237217
 51
198.7493408470182
  0
ARC
  5
2E4
330
1F
100
AcDbEntity
  8
100
  6
DOTTED
 62
     6
100
AcDbCircle
 10
827.037856755443
 20
278.931952933113
 30
0.0
 40
1.0
100
AcDbArc
 50
90.0
 51
180.0
  0
ARC
  5
2E5
330
1F
100
AcDbEntity
  8
100
  6
DOTTED
 62
     6
100
AcDbCircle
 10
825.537856755443
 20
278.931952933113
 30
0.0
 40
0.5
100
AcDbArc
 50
270.0
 51
0.0
  0
ARC
  5
2E6
330
1F
100
AcDbEntity
  8
100
  6
DOTTED
 62
     6
100
AcDbCircle
 10
845.037856755443
 20
278.931952933113
 30
0.0
 40
1.0
100
AcDbArc
 50
0.0
 51
90.0
  0
ARC
  5
2E7
330
1F
100
AcDbEntity
  8
100
  6
DOTTED
 62
     6
100
AcDbCircle
 10
846.537856755443
 20
278.931952933113
 30
0.0
 40
0.5
100
AcDbArc
 50
180.0
 51
270.0
  0
ARC
  5
2E8
330
1F
100
AcDbEntity
  8
2
  6
Continuous
 62
     3
100
AcDbCircle
 10
790.948428229348
 20
286.931952933113
 30
0.0
 40
29.99999999999958
100
AcDbArc
 50
161.2506591529812
 51
198.7493408470188
  0
ARC
  5
2E9
330
1F
100
AcDbEntity
  8
2
  6
Continuous
 62
     3
100
AcDbCircle
 10
764.434281062223
 20
295.931952933113
 30
0.0
 40
2.0
100
AcDbArc
 50
90.0
 51
161.2506591529882
  0
ARC
  5
2EA
330
1F
100
AcDbEntity
  8
2
  6
Continuous
 62
     3
100
AcDbCircle
 10
764.434281062223
 20
277.931952933113
 30
0.0
 40
2.000000000000273
100
AcDbArc
 50
198.7493408470118
 51
270.0
  0
ARC
  5
2EB
330
1F
100
AcDbEntity
  8
2
  6
Continuous
 62
     3
100
AcDbCircle
 10
800.490129540691
 20
296.931952933113
 30
0.0
 40
1.0
100
AcDbArc
 50
0.0
 51
90.00000000005863
  0
ARC
  5
2EC
330
1F
100
AcDbEntity
  8
2
  6
Continuous
 62
     3
100
AcDbCircle
 10
801.990129540691
 20
296.931952933113
 30
0.0
 40
0.5
100
AcDbArc
 50
180.0
 51
270.0
  0
ARC
  5
2ED
330
1F
100
AcDbEntity
  8
2
  6
Continuous
 62
     3
100
AcDbCircle
 10
871.585583970196
 20
296.931952933113
 30
0.0
 40
1.0
100
AcDbArc
 50
90.00000000005863
 51
180.0
  0
ARC
  5
2EE
330
1F
100
AcDbEntity
  8
2
  6
Continuous
 62
     3
100
AcDbCircle
 10
870.085583970196
 20
296.931952933113
 30
0.0
 40
0.5
100
AcDbArc
 50
270.0
 51
0.0
  0
ARC
  5
2EF
330
1F
100
AcDbEntity
  8
2
  6
Continuous
 62
     3
100
AcDbCircle
 10
907.641432448663
 20
295.931952933113
 30
0.0
 40
2.000000000000273
100
AcDbArc
 50
18.74934084701176
 51
90.0
  0
ARC
  5
2F0
330
1F
100
AcDbEntity
  8
2
  6
Continuous
 62
     3
100
AcDbCircle
 10
907.641432448663
 20
277.931952933113
 30
0.0
 40
2.0
100
AcDbArc
 50
270.0
 51
341.2506591529882
  0
ARC
  5
2F1
330
1F
100
AcDbEntity
  8
2
  6
Continuous
 62
     3
100
AcDbCircle
 10
881.127285281537
 20
286.931952933113
 30
0.0
 40
30.00000000000055
100
AcDbArc
 50
341.2506591529818
 51
18.74934084701818
  0
ARC
  5
2F2
330
1F
100
AcDbEntity
  8
2
  6
Continuous
 62
     3
100
AcDbCircle
 10
793.826758063544
 20
277.931952933113
 30
0.0
 40
2.0
100
AcDbArc
 50
270.0
 51
340.5287793655085
  0
ARC
  5
2F3
330
1F
100
AcDbEntity
  8
2
  6
Continuous
 62
     3
100
AcDbCircle
 10
796.655185188291
 20
276.931952933113
 30
0.0
 40
1.0
100
AcDbArc
 50
90.00000000005213
 51
160.5287793655244
  0
ARC
  5
2F4
330
1F
100
AcDbEntity
  8
2
  6
Continuous
 62
     3
100
AcDbCircle
 10
878.248955447341
 20
277.931952933113
 30
0.0
 40
1.999999999999008
100
AcDbArc
 50
199.47122063451
 51
270.0
  0
ARC
  5
2F5
330
1F
100
AcDbEntity
  8
2
  6
Continuous
 62
     3
100
AcDbCircle
 10
875.420528322595
 20
276.931952933113
 30
0.0
 40
1.000000000000799
100
AcDbArc
 50
19.47122063445608
 51
90.0
  0
ARC
  5
2F6
330
1F
100
AcDbEntity
  8
2
  6
Continuous
 62
     3
100
AcDbCircle
 10
890.575898122815
 20
277.931952933113
 30
0.0
 40
2.0
100
AcDbArc
 50
270.0
 51
341.2506591529872
  0
ARC
  5
2F7
330
1F
100
AcDbEntity
  8
2
  6
Continuous
 62
     3
100
AcDbCircle
 10
864.061750955689
 20
286.931952933113
 30
0.0
 40
30.00000000000044
100
AcDbArc
 50
341.2506591529818
 51
342.5423968762782
  0
ARC
  5
2F8
330
1F
100
AcDbEntity
  8
2
  6
Continuous
 62
     3
100
AcDbCircle
 10
901.181556230647
 20
277.931952933113
 30
0.0
 40
1.999999999999008
100
AcDbArc
 50
199.47122063451
 51
270.0
  0
ARC
  5
2F9
330
1F
100
AcDbEntity
  8
2
  6
Continuous
 62
     3
100
AcDbCircle
 10
898.353129105902
 20
276.931952933113
 30
0.0
 40
0.9999999999998347
100
AcDbArc
 50
19.47122063447562
 51
90.0
  0
ARC
  5
2FA
330
1F
100
AcDbEntity
  8
2
  6
Continuous
 62
     3
100
AcDbCircle
 10
770.894157280238
 20
277.931952933113
 30
0.0
 40
2.0
100
AcDbArc
 50
270.0
 51
340.5287793654998
  0
ARC
  5
2FB
330
1F
100
AcDbEntity
  8
2
  6
Continuous
 62
     3
100
AcDbCircle
 10
773.722584404984
 20
276.931952933113
 30
0.0
 40
1.0
100
AcDbArc
 50
90.0
 51
160.5287793655244
  0
ARC
  5
2FC
330
1F
100
AcDbEntity
  8
2
  6
Continuous
 62
     3
100
AcDbCircle
 10
781.49981538807
 20
277.931952933113
 30
0.0
 40
2.000000000000273
100
AcDbArc
 50
198.7493408470118
 51
270.0000000000293
  0
ARC
  5
2FD
330
1F
100
AcDbEntity
  8
2
  6
Continuous
 62
     3
100
AcDbCircle
 10
808.013962555196
 20
286.931952933113
 30
0.0
 40
30.00000000000065
100
AcDbArc
 50
197.4576031237217
 51
198.7493408470182
  0
ARC
  5
2FE
330
1F
100
AcDbEntity
  8
2
  6
Continuous
 62
     3
100
AcDbCircle
 10
827.037856755443
 20
296.931952933113
 30
0.0
 40
1.0
100
AcDbArc
 50
90.0
 51
180.0
  0
ARC
  5
2FF
330
1F
100
AcDbEntity
  8
2
  6
Continuous
 62
     3
100
AcDbCircle
 10
825.537856755443
 20
296.931952933113
 30
0.0
 40
0.5
100
AcDbArc
 50
270.0
 51
0.0
  0
ARC
  5
300
330
1F
100
AcDbEntity
  8
2
  6
Continuous
 62
     3
100
AcDbCircle
 10
845.037856755443
 20
296.931952933113
 30
0.0
 40
1.0
100
AcDbArc
 50
0.0
 51
90.0
  0
ARC
  5
301
330
1F
100
AcDbEntity
  8
2
  6
Continuous
 62
     3
100
AcDbCircle
 10
846.537856755443
 20
296.931952933113
 30
0.0
 40
0.5
100
AcDbArc
 50
180.0
 51
270.0
  0
ARC
  5
302
330
1F
100
AcDbEntity
  8
100
  6
Continuous
 62
     3
100
AcDbCircle
 10
454.611365953178
 20
453.643515739971
 30
0.0
 40
2.400000000000034
100
AcDbArc
 50
270.0
 51
0.0
  0
ARC
  5
303
330
1F
100
AcDbEntity
  8
100
  6
Continuous
 62
     3
100
AcDbCircle
 10
454.611365953178
 20
378.843515739971
 30
0.0
 40
2.399999999999977
100
AcDbArc
 50
0.0
 51
90.0
  0
ARC
  5
304
330
1F
100
AcDbEntity
  8
100
  6
Continuous
 62
     3
100
AcDbCircle
 10
824.787856755443
 20
237.577514020546
 30
0.0
 40
32.640625
100
AcDbArc
 50
249.8388040249154
 51
290.1611959750846
  0
ARC
  5
305
330
1F
100
AcDbEntity
  8
100
  6
Continuous
 62
     3
100
AcDbCircle
 10
847.287856755443
 20
237.577514020546
 30
0.0
 40
32.640625
100
AcDbArc
 50
249.8388040249154
 51
290.1611959750846
  0
ARC
  5
306
330
1F
100
AcDbEntity
  8
100
  6
Continuous
 62
     3
100
AcDbCircle
 10
847.287856755443
 20
185.433281916834
 30
0.0
 40
32.49398816047845
100
AcDbArc
 50
69.74384199958322
 51
110.2561580004168
  0
ARC
  5
307
330
1F
100
AcDbEntity
  8
100
  6
Continuous
 62
     3
100
AcDbCircle
 10
824.787856755443
 20
185.433281916834
 30
0.0
 40
32.49398816047845
100
AcDbArc
 50
69.74384199958322
 51
110.2561580004168
  0
ARC
  5
308
330
1F
100
AcDbEntity
  8
2
  6
Continuous
 62
     3
100
AcDbCircle
 10
386.511365953178
 20
296.931952933113
 30
0.0
 40
0.5
100
AcDbArc
 50
180.0
 51
270.0
  0
ARC
  5
309
330
1F
100
AcDbEntity
  8
2
  6
Continuous
 62
     3
100
AcDbCircle
 10
385.011365953178
 20
296.931952933113
 30
0.0
 40
1.0
100
AcDbArc
 50
0.0
 51
90.0
  0
ARC
  5
30A
330
1F
100
AcDbEntity
  8
2
  6
Continuous
 62
     3
100
AcDbCircle
 10
365.511365953178
 20
296.931952933113
 30
0.0
 40
0.5
100
AcDbArc
 50
270.0
 51
0.0
  0
ARC
  5
30B
330
1F
100
AcDbEntity
  8
2
  6
Continuous
 62
     3
100
AcDbCircle
 10
367.011365953178
 20
296.931952933113
 30
0.0
 40
1.0
100
AcDbArc
 50
90.0
 51
180.0
  0
ARC
  5
30C
330
1F
100
AcDbEntity
  8
2
  6
Continuous
 62
     3
100
AcDbCircle
 10
347.987471752931
 20
286.931952933113
 30
0.0
 40
30.00000000000059
100
AcDbArc
 50
197.4576031237218
 51
198.7493408470182
  0
ARC
  5
30D
330
1F
100
AcDbEntity
  8
2
  6
Continuous
 62
     3
100
AcDbCircle
 10
321.473324585805
 20
277.931952933113
 30
0.0
 40
2.000000000000273
100
AcDbArc
 50
198.7493408470118
 51
270.0
  0
ARC
  5
30E
330
1F
100
AcDbEntity
  8
2
  6
Continuous
 62
     3
100
AcDbCircle
 10
313.696093602719
 20
276.931952933113
 30
0.0
 40
1.0
100
AcDbArc
 50
90.0
 51
160.5287793655244
  0
ARC
  5
30F
330
1F
100
AcDbEntity
  8
2
  6
Continuous
 62
     3
100
AcDbCircle
 10
310.867666477973
 20
277.931952933113
 30
0.0
 40
2.0
100
AcDbArc
 50
270.0
 51
340.5287793654998
  0
ARC
  5
310
330
1F
100
AcDbEntity
  8
2
  6
Continuous
 62
     3
100
AcDbCircle
 10
438.326638303636
 20
276.931952933113
 30
0.0
 40
0.9999999999998347
100
AcDbArc
 50
19.47122063447562
 51
90.0
  0
ARC
  5
311
330
1F
100
AcDbEntity
  8
2
  6
Continuous
 62
     3
100
AcDbCircle
 10
441.155065428382
 20
277.931952933113
 30
0.0
 40
1.999999999999972
100
AcDbArc
 50
199.4712206345002
 51
270.0
  0
ARC
  5
312
330
1F
100
AcDbEntity
  8
2
  6
Continuous
 62
     3
100
AcDbCircle
 10
404.035260153424
 20
286.931952933113
 30
0.0
 40
30.0000000000005
100
AcDbArc
 50
341.2506591529818
 51
342.5423968762782
  0
ARC
  5
313
330
1F
100
AcDbEntity
  8
2
  6
Continuous
 62
     3
100
AcDbCircle
 10
430.54940732055
 20
277.931952933113
 30
0.0
 40
2.0
100
AcDbArc
 50
270.0
 51
341.2506591529877
  0
ARC
  5
314
330
1F
100
AcDbEntity
  8
2
  6
Continuous
 62
     3
100
AcDbCircle
 10
415.39403752033
 20
276.931952933113
 30
0.0
 40
0.9999999999998347
100
AcDbArc
 50
19.47122063447562
 51
90.0
  0
ARC
  5
315
330
1F
100
AcDbEntity
  8
2
  6
Continuous
 62
     3
100
AcDbCircle
 10
418.222464645076
 20
277.931952933113
 30
0.0
 40
1.999999999999972
100
AcDbArc
 50
199.4712206345002
 51
270.0
  0
ARC
  5
316
330
1F
100
AcDbEntity
  8
2
  6
Continuous
 62
     3
100
AcDbCircle
 10
336.628694386025
 20
276.931952933113
 30
0.0
 40
1.0
100
AcDbArc
 50
90.0
 51
160.5287793655244
  0
ARC
  5
317
330
1F
100
AcDbEntity
  8
2
  6
Continuous
 62
     3
100
AcDbCircle
 10
333.800267261279
 20
277.931952933113
 30
0.0
 40
2.0
100
AcDbArc
 50
270.0
 51
340.5287793655003
  0
ARC
  5
318
330
1F
100
AcDbEntity
  8
2
  6
Continuous
 62
     3
100
AcDbCircle
 10
421.100794479272
 20
286.931952933113
 30
0.0
 40
30.00000000000055
100
AcDbArc
 50
341.2506591529818
 51
18.74934084701818
  0
ARC
  5
319
330
1F
100
AcDbEntity
  8
2
  6
Continuous
 62
     3
100
AcDbCircle
 10
447.614941646398
 20
277.931952933113
 30
0.0
 40
2.0
100
AcDbArc
 50
270.0
 51
341.2506591529882
  0
ARC
  5
31A
330
1F
100
AcDbEntity
  8
2
  6
Continuous
 62
     3
100
AcDbCircle
 10
447.614941646398
 20
295.931952933113
 30
0.0
 40
2.000000000000273
100
AcDbArc
 50
18.74934084701176
 51
90.0
  0
ARC
  5
31B
330
1F
100
AcDbEntity
  8
2
  6
Continuous
 62
     3
100
AcDbCircle
 10
410.05909316793
 20
296.931952933113
 30
0.0
 40
0.5
100
AcDbArc
 50
270.0
 51
0.0
  0
ARC
  5
31C
330
1F
100
AcDbEntity
  8
2
  6
Continuous
 62
     3
100
AcDbCircle
 10
411.55909316793
 20
296.931952933113
 30
0.0
 40
1.0
100
AcDbArc
 50
90.0
 51
180.0
  0
ARC
  5
31D
330
1F
100
AcDbEntity
  8
2
  6
Continuous
 62
     3
100
AcDbCircle
 10
341.963638738425
 20
296.931952933113
 30
0.0
 40
0.5
100
AcDbArc
 50
180.0
 51
270.0
  0
ARC
  5
31E
330
1F
100
AcDbEntity
  8
2
  6
Continuous
 62
     3
100
AcDbCircle
 10
340.463638738425
 20
296.931952933113
 30
0.0
 40
1.0
100
AcDbArc
 50
0.0
 51
90.0
  0
ARC
  5
31F
330
1F
100
AcDbEntity
  8
2
  6
Continuous
 62
     3
100
AcDbCircle
 10
304.407790259958
 20
277.931952933113
 30
0.0
 40
2.000000000000273
100
AcDbArc
 50
198.7493408470118
 51
270.0
  0
ARC
  5
320
330
1F
100
AcDbEntity
  8
2
  6
Continuous
 62
     3
100
AcDbCircle
 10
304.407790259958
 20
295.931952933113
 30
0.0
 40
2.0
100
AcDbArc
 50
90.0
 51
161.2506591529882
  0
ARC
  5
321
330
1F
100
AcDbEntity
  8
2
  6
Continuous
 62
     3
100
AcDbCircle
 10
330.921937427083
 20
286.931952933113
 30
0.0
 40
29.99999999999958
100
AcDbArc
 50
161.2506591529812
 51
198.7493408470188
  0
ARC
  5
322
330
1F
100
AcDbEntity
  8
100
  6
Continuous
 62
     3
100
AcDbCircle
 10
376.011365953178
 20
416.243515739971
 30
0.0
 40
50.99999999999959
100
AcDbArc
 50
100.9225359113817
 51
169.0774640886183
  0
ARC
  5
323
330
1F
100
AcDbEntity
  8
100
  6
Continuous
 62
     3
100
AcDbCircle
 10
376.011365953178
 20
416.243515739971
 30
0.0
 40
50.9999999999996
100
AcDbArc
 50
10.92253591138172
 51
79.07746408861829
  0
ARC
  5
324
330
1F
100
AcDbEntity
  8
100
  6
Continuous
 62
     3
100
AcDbCircle
 10
385.106485542061
 20
369.113071230461
 30
0.0
 40
2.999999999999977
100
AcDbArc
 50
178.4675456595177
 51
280.9225359113786
  0
ARC
  5
325
330
1F
100
AcDbEntity
  8
100
  6
Continuous
 62
     3
100
AcDbCircle
 10
376.011365953178
 20
416.243515739971
 30
0.0
 40
51.0000000000005
100
AcDbArc
 50
280.9225359113815
 51
349.0774640886174
  0
ARC
  5
326
330
1F
100
AcDbEntity
  8
100
  6
Continuous
 62
     3
100
AcDbCircle
 10
423.141810462687
 20
407.148396151088
 30
0.0
 40
3.000000000000831
100
AcDbArc
 50
349.0774640886059
 51
91.53245434046282
  0
ARC
  5
327
330
1F
100
AcDbEntity
  8
100
  6
Continuous
 62
     3
100
AcDbCircle
 10
328.880921443669
 20
407.148396151088
 30
0.0
 40
2.99999999999995
100
AcDbArc
 50
88.4675456595372
 51
190.9225359113976
  0
ARC
  5
328
330
1F
100
AcDbEntity
  8
100
  6
Continuous
 62
     3
100
AcDbCircle
 10
376.011365953178
 20
416.243515739971
 30
0.0
 40
50.99999999999973
100
AcDbArc
 50
190.9225359113828
 51
259.0774640886183
  0
ARC
  5
329
330
1F
100
AcDbEntity
  8
100
  6
Continuous
 62
     3
100
AcDbCircle
 10
366.916246364295
 20
369.113071230461
 30
0.0
 40
2.999999999998683
100
AcDbArc
 50
259.0774640886178
 51
1.53245434048235
  0
ARC
  5
32A
330
1F
100
AcDbEntity
  8
100
  6
Continuous
 62
     3
100
AcDbCircle
 10
366.916246364295
 20
463.37396024948
 30
0.0
 40
2.999999999999977
100
AcDbArc
 50
358.4675456595177
 51
100.9225359113784
  0
ARC
  5
32B
330
1F
100
AcDbEntity
  8
100
  6
Continuous
 62
     3
100
AcDbCircle
 10
328.880921443669
 20
425.338635328853
 30
0.0
 40
2.999999999999882
100
AcDbArc
 50
169.0774640886024
 51
271.5324543404628
  0
ARC
  5
32C
330
1F
100
AcDbEntity
  8
100
  6
Continuous
 62
     3
100
AcDbCircle
 10
385.106485542061
 20
463.37396024948
 30
0.0
 40
2.999999999999688
100
AcDbArc
 50
79.07746408862158
 51
181.5324543404823
  0
ARC
  5
32D
330
1F
100
AcDbEntity
  8
100
  6
Continuous
 62
     3
100
AcDbCircle
 10
423.141810462687
 20
425.338635328853
 30
0.0
 40
2.999999999999893
100
AcDbArc
 50
268.4675456595372
 51
10.92253591139762
  0
ARC
  5
32E
330
1F
100
AcDbEntity
  8
100
  6
Continuous
 62
     3
100
AcDbCircle
 10
392.065703138488
 20
428.170722350924
 30
0.0
 40
5.000000000000195
100
AcDbArc
 50
216.6096678507247
 51
268.4675456595284
  0
ARC
  5
32F
330
1F
100
AcDbEntity
  8
100
  6
Continuous
 62
     3
100
AcDbCircle
 10
392.065703138488
 20
404.316309129017
 30
0.0
 40
4.999999999999576
100
AcDbArc
 50
91.53245434047162
 51
143.3903321492683
  0
ARC
  5
330
330
1F
100
AcDbEntity
  8
100
  6
Continuous
 62
     3
100
AcDbCircle
 10
387.938572564131
 20
400.18917855466
 30
0.0
 40
5.000000000000195
100
AcDbArc
 50
126.6096678507247
 51
178.4675456595284
  0
ARC
  5
331
330
1F
100
AcDbEntity
  8
100
  6
Continuous
 62
     3
100
AcDbCircle
 10
364.084159342224
 20
400.18917855466
 30
0.0
 40
5.000000000000542
100
AcDbArc
 50
1.53245434047131
 51
53.39033214926592
  0
ARC
  5
332
330
1F
100
AcDbEntity
  8
100
  6
Continuous
 62
     3
100
AcDbCircle
 10
359.957028767868
 20
404.316309129017
 30
0.0
 40
4.999999999999374
100
AcDbArc
 50
36.60966785073166
 51
88.4675456595284
  0
ARC
  5
333
330
1F
100
AcDbEntity
  8
100
  6
Continuous
 62
     3
100
AcDbCircle
 10
359.957028767868
 20
428.170722350924
 30
0.0
 40
5.000000000000542
100
AcDbArc
 50
271.5324543404713
 51
323.3903321492589
  0
ARC
  5
334
330
1F
100
AcDbEntity
  8
100
  6
Continuous
 62
     3
100
AcDbCircle
 10
364.084159342224
 20
432.29785292528
 30
0.0
 40
4.999999999999984
100
AcDbArc
 50
306.6096678507411
 51
358.4675456595293
  0
ARC
  5
335
330
1F
100
AcDbEntity
  8
100
  6
Continuous
 62
     3
100
AcDbCircle
 10
387.938572564131
 20
432.29785292528
 30
0.0
 40
4.999999999999518
100
AcDbArc
 50
181.532454340471
 51
233.3903321492683
  0
ARC
  5
336
330
1F
100
AcDbEntity
  8
100
  6
Continuous
 62
     3
100
AcDbCircle
 10
477.503883837865
 20
374.203938352739
 30
0.0
 40
45.00000000000008
100
AcDbArc
 50
132.4780207936518
 51
182.5219792063484
  0
ARC
  5
337
330
1F
100
AcDbEntity
  8
100
  6
Continuous
 62
     3
100
AcDbCircle
 10
418.050943340409
 20
314.750997855283
 30
0.0
 40
45.00000000000028
100
AcDbArc
 50
87.47802079365151
 51
137.5219792063473
  0
ARC
  5
338
330
1F
100
AcDbEntity
  8
100
  6
Continuous
 62
     3
100
AcDbCircle
 10
333.971788565946
 20
314.750997855283
 30
0.0
 40
45.00000000000008
100
AcDbArc
 50
42.4780207936518
 51
92.52197920634849
  0
ARC
  5
339
330
1F
100
AcDbEntity
  8
100
  6
Continuous
 62
     3
100
AcDbCircle
 10
274.51884806849
 20
374.203938352739
 30
0.0
 40
45.00000000000028
100
AcDbArc
 50
357.4780207936515
 51
47.52197920634909
  0
ARC
  5
33A
330
1F
100
AcDbEntity
  8
100
  6
Continuous
 62
     3
100
AcDbCircle
 10
274.51884806849
 20
458.283093127202
 30
0.0
 40
45.00000000000008
100
AcDbArc
 50
312.4780207936518
 51
2.52197920634849
  0
ARC
  5
33B
330
1F
100
AcDbEntity
  8
100
  6
Continuous
 62
     3
100
AcDbCircle
 10
333.971788565946
 20
517.736033624658
 30
0.0
 40
45.00000000000033
100
AcDbArc
 50
267.4780207936515
 51
317.521979206349
  0
ARC
  5
33C
330
1F
100
AcDbEntity
  8
100
  6
Continuous
 62
     3
100
AcDbCircle
 10
418.050943340409
 20
517.736033624658
 30
0.0
 40
45.00000000000012
100
AcDbArc
 50
222.4780207936518
 51
272.5219792063485
  0
ARC
  5
33D
330
1F
100
AcDbEntity
  8
100
  6
Continuous
 62
     3
100
AcDbCircle
 10
477.503883837865
 20
458.283093127202
 30
0.0
 40
45.00000000000028
100
AcDbArc
 50
177.4780207936515
 51
227.5219792063473
  0
ARC
  5
33E
330
1F
100
AcDbEntity
  8
100
  6
Continuous
 62
     3
100
AcDbCircle
 10
439.011365953178
 20
416.243515739971
 30
0.0
 40
12.00000000000006
100
AcDbArc
 50
312.4780207936469
 51
47.52197920635326
  0
ARC
  5
33F
330
1F
100
AcDbEntity
  8
100
  6
Continuous
 62
     3
100
AcDbCircle
 10
420.55909316793
 20
371.695788525218
 30
0.0
 40
11.99999999999981
100
AcDbArc
 50
267.4780207936516
 51
2.5219792063484
  0
ARC
  5
340
330
1F
100
AcDbEntity
  8
100
  6
Continuous
 62
     3
100
AcDbCircle
 10
376.011365953178
 20
353.243515739971
 30
0.0
 40
12.00000000000071
100
AcDbArc
 50
222.4780207936503
 51
317.5219792063498
  0
ARC
  5
341
330
1F
100
AcDbEntity
  8
100
  6
Continuous
 62
     3
100
AcDbCircle
 10
331.463638738425
 20
371.695788525218
 30
0.0
 40
11.99999999999981
100
AcDbArc
 50
177.4780207936516
 51
272.5219792063484
  0
ARC
  5
342
330
1F
100
AcDbEntity
  8
100
  6
Continuous
 62
     3
100
AcDbCircle
 10
313.011365953178
 20
416.243515739971
 30
0.0
 40
12.0
100
AcDbArc
 50
132.4780207936535
 51
227.5219792063464
  0
ARC
  5
343
330
1F
100
AcDbEntity
  8
100
  6
Continuous
 62
     3
100
AcDbCircle
 10
331.463638738425
 20
460.791242954723
 30
0.0
 40
11.99999999999981
100
AcDbArc
 50
87.47802079365161
 51
182.5219792063484
  0
ARC
  5
344
330
1F
100
AcDbEntity
  8
100
  6
Continuous
 62
     3
100
AcDbCircle
 10
376.011365953178
 20
479.24351573997
 30
0.0
 40
12.0
100
AcDbArc
 50
42.47802079365344
 51
137.5219792063464
  0
ARC
  5
345
330
1F
100
AcDbEntity
  8
100
  6
Continuous
 62
     3
100
AcDbCircle
 10
420.55909316793
 20
460.791242954723
 30
0.0
 40
11.99999999999981
100
AcDbArc
 50
357.4780207936516
 51
92.52197920634842
  0
ARC
  5
346
330
1F
100
AcDbEntity
  8
100
  6
Continuous
 62
     3
100
AcDbCircle
 10
395.496937538327
 20
216.43809138845
 30
0.0
 40
11.50120236790424
100
AcDbArc
 50
235.6157525319598
 51
304.3842474680442
  0
ARC
  5
347
330
1F
100
AcDbEntity
  8
100
  6
Continuous
 62
     3
100
AcDbCircle
 10
395.496937538327
 20
206.435686652642
 30
0.0
 40
11.50120236790479
100
AcDbArc
 50
55.61575253195583
 51
124.3842474680402
  0
ARC
  5
348
330
1F
100
AcDbEntity
  8
100
  6
Continuous
 62
     3
100
AcDbCircle
 10
376.011365953178
 20
247.927270077313
 30
0.0
 40
42.99038105676751
100
AcDbArc
 50
252.4120462260061
 51
287.5879537739927
  0
ARC
  5
349
330
1F
100
AcDbEntity
  8
100
  6
Continuous
 62
     3
100
AcDbCircle
 10
376.011365953178
 20
174.94650796378
 30
0.0
 40
42.99038105676627
100
AcDbArc
 50
72.4120462260069
 51
107.5879537739943
  0
ARC
  5
34A
330
1F
100
AcDbEntity
  8
100
  6
Continuous
 62
     3
100
AcDbCircle
 10
356.525794368028
 20
216.43809138845
 30
0.0
 40
11.50120236790424
100
AcDbArc
 50
235.6157525319598
 51
304.38424746804
  0
ARC
  5
34B
330
1F
100
AcDbEntity
  8
100
  6
Continuous
 62
     3
100
AcDbCircle
 10
356.525794368028
 20
206.435686652642
 30
0.0
 40
11.50120236790421
100
AcDbArc
 50
55.61575253196003
 51
124.3842474680402
  0
ARC
  5
34C
330
1F
100
AcDbEntity
  8
100
  6
DOTTED
 62
     6
100
AcDbCircle
 10
386.511365953178
 20
278.931952933113
 30
0.0
 40
0.5
100
AcDbArc
 50
180.0
 51
270.0
  0
ARC
  5
34D
330
1F
100
AcDbEntity
  8
100
  6
DOTTED
 62
     6
100
AcDbCircle
 10
385.011365953178
 20
278.931952933113
 30
0.0
 40
1.0
100
AcDbArc
 50
0.0
 51
90.0
  0
ARC
  5
34E
330
1F
100
AcDbEntity
  8
100
  6
DOTTED
 62
     6
100
AcDbCircle
 10
365.511365953178
 20
278.931952933113
 30
0.0
 40
0.5
100
AcDbArc
 50
270.0
 51
0.0
  0
ARC
  5
34F
330
1F
100
AcDbEntity
  8
100
  6
DOTTED
 62
     6
100
AcDbCircle
 10
367.011365953178
 20
278.931952933113
 30
0.0
 40
1.0
100
AcDbArc
 50
90.0
 51
180.0
  0
ARC
  5
350
330
1F
100
AcDbEntity
  8
100
  6
DOTTED
 62
     6
100
AcDbCircle
 10
347.987471752931
 20
268.931952933113
 30
0.0
 40
30.00000000000059
100
AcDbArc
 50
197.4576031237218
 51
198.7493408470182
  0
ARC
  5
351
330
1F
100
AcDbEntity
  8
100
  6
DOTTED
 62
     6
100
AcDbCircle
 10
321.473324585805
 20
259.931952933113
 30
0.0
 40
2.000000000000273
100
AcDbArc
 50
198.7493408470118
 51
270.0
  0
ARC
  5
352
330
1F
100
AcDbEntity
  8
100
  6
DOTTED
 62
     6
100
AcDbCircle
 10
313.696093602719
 20
258.931952933113
 30
0.0
 40
1.0
100
AcDbArc
 50
90.0
 51
160.5287793655244
  0
ARC
  5
353
330
1F
100
AcDbEntity
  8
100
  6
DOTTED
 62
     6
100
AcDbCircle
 10
310.867666477973
 20
259.931952933113
 30
0.0
 40
2.0
100
AcDbArc
 50
270.0
 51
340.5287793654998
  0
ARC
  5
354
330
1F
100
AcDbEntity
  8
100
  6
DOTTED
 62
     6
100
AcDbCircle
 10
438.326638303636
 20
258.931952933113
 30
0.0
 40
0.9999999999998347
100
AcDbArc
 50
19.47122063447562
 51
90.0
  0
ARC
  5
355
330
1F
100
AcDbEntity
  8
100
  6
DOTTED
 62
     6
100
AcDbCircle
 10
441.155065428382
 20
259.931952933113
 30
0.0
 40
1.999999999999972
100
AcDbArc
 50
199.4712206345002
 51
270.0
  0
ARC
  5
356
330
1F
100
AcDbEntity
  8
100
  6
DOTTED
 62
     6
100
AcDbCircle
 10
404.035260153424
 20
268.931952933113
 30
0.0
 40
30.0000000000005
100
AcDbArc
 50
341.2506591529818
 51
342.5423968762782
  0
ARC
  5
357
330
1F
100
AcDbEntity
  8
100
  6
DOTTED
 62
     6
100
AcDbCircle
 10
430.54940732055
 20
259.931952933113
 30
0.0
 40
2.0
100
AcDbArc
 50
270.0
 51
341.2506591529877
  0
ARC
  5
358
330
1F
100
AcDbEntity
  8
100
  6
DOTTED
 62
     6
100
AcDbCircle
 10
415.39403752033
 20
258.931952933113
 30
0.0
 40
0.9999999999998347
100
AcDbArc
 50
19.47122063447562
 51
90.0
  0
ARC
  5
359
330
1F
100
AcDbEntity
  8
100
  6
DOTTED
 62
     6
100
AcDbCircle
 10
418.222464645076
 20
259.931952933113
 30
0.0
 40
1.999999999999972
100
AcDbArc
 50
199.4712206345002
 51
270.0
  0
ARC
  5
35A
330
1F
100
AcDbEntity
  8
100
  6
DOTTED
 62
     6
100
AcDbCircle
 10
336.628694386025
 20
258.931952933113
 30
0.0
 40
1.0
100
AcDbArc
 50
90.0
 51
160.5287793655244
  0
ARC
  5
35B
330
1F
100
AcDbEntity
  8
100
  6
DOTTED
 62
     6
100
AcDbCircle
 10
333.800267261279
 20
259.931952933113
 30
0.0
 40
2.0
100
AcDbArc
 50
270.0
 51
340.5287793655003
  0
ARC
  5
35C
330
1F
100
AcDbEntity
  8
100
  6
DOTTED
 62
     6
100
AcDbCircle
 10
421.100794479272
 20
268.931952933113
 30
0.0
 40
30.00000000000055
100
AcDbArc
 50
341.2506591529818
 51
18.74934084701818
  0
ARC
  5
35D
330
1F
100
AcDbEntity
  8
100
  6
DOTTED
 62
     6
100
AcDbCircle
 10
447.614941646398
 20
259.931952933113
 30
0.0
 40
2.0
100
AcDbArc
 50
270.0
 51
341.2506591529882
  0
ARC
  5
35E
330
1F
100
AcDbEntity
  8
100
  6
DOTTED
 62
     6
100
AcDbCircle
 10
447.614941646398
 20
277.931952933113
 30
0.0
 40
2.000000000000273
100
AcDbArc
 50
18.74934084701176
 51
90.0
  0
ARC
  5
35F
330
1F
100
AcDbEntity
  8
100
  6
DOTTED
 62
     6
100
AcDbCircle
 10
410.05909316793
 20
278.931952933113
 30
0.0
 40
0.5
100
AcDbArc
 50
270.0
 51
0.0
  0
ARC
  5
360
330
1F
100
AcDbEntity
  8
100
  6
DOTTED
 62
     6
100
AcDbCircle
 10
411.55909316793
 20
278.931952933113
 30
0.0
 40
1.0
100
AcDbArc
 50
90.0
 51
180.0
  0
ARC
  5
361
330
1F
100
AcDbEntity
  8
100
  6
DOTTED
 62
     6
100
AcDbCircle
 10
341.963638738425
 20
278.931952933113
 30
0.0
 40
0.5
100
AcDbArc
 50
180.0
 51
270.0
  0
ARC
  5
362
330
1F
100
AcDbEntity
  8
100
  6
DOTTED
 62
     6
100
AcDbCircle
 10
340.463638738425
 20
278.931952933113
 30
0.0
 40
1.0
100
AcDbArc
 50
0.0
 51
90.0
  0
ARC
  5
363
330
1F
100
AcDbEntity
  8
100
  6
DOTTED
 62
     6
100
AcDbCircle
 10
304.407790259958
 20
259.931952933113
 30
0.0
 40
2.000000000000273
100
AcDbArc
 50
198.7493408470118
 51
270.0
  0
ARC
  5
364
330
1F
100
AcDbEntity
  8
100
  6
DOTTED
 62
     6
100
AcDbCircle
 10
304.407790259958
 20
277.931952933113
 30
0.0
 40
2.0
100
AcDbArc
 50
90.0
 51
161.2506591529882
  0
ARC
  5
365
330
1F
100
AcDbEntity
  8
100
  6
DOTTED
 62
     6
100
AcDbCircle
 10
330.921937427083
 20
268.931952933113
 30
0.0
 40
29.99999999999958
100
AcDbArc
 50
161.2506591529812
 51
198.7493408470188
  0
ARC
  5
366
330
1F
100
AcDbEntity
  8
100
  6
Continuous
 62
     3
100
AcDbCircle
 10
332.511365953178
 20
195.110052433123
 30
0.0
 40
25.00000000000049
100
AcDbArc
 50
304.2652704490031
 51
0.0
  0
ARC
  5
367
330
1F
100
AcDbEntity
  8
100
  6
Continuous
 62
     3
100
AcDbCircle
 10
450.165694885728
 20
132.936889020546
 30
0.0
 40
2.999999999999783
100
AcDbArc
 50
134.9999999999862
 51
270.0
  0
ARC
  5
368
330
1F
100
AcDbEntity
  8
100
  6
Continuous
 62
     3
100
AcDbCircle
 10
399.011365953178
 20
190.85762683781
 30
0.0
 40
5.000000000000286
100
AcDbArc
 50
205.8419327631739
 51
250.1850935552472
  0
ARC
  5
369
330
1F
100
AcDbEntity
  8
100
  6
Continuous
 62
     3
100
AcDbCircle
 10
328.073917435914
 20
134.936889020546
 30
0.0
 40
5.0
100
AcDbArc
 50
270.0
 51
16.16956770110362
  0
ARC
  5
36A
330
1F
100
AcDbEntity
  8
100
  6
Continuous
 62
     3
100
AcDbCircle
 10
366.011365953178
 20
145.936889020546
 30
0.0
 40
34.49999999999952
100
AcDbArc
 50
124.2652704490037
 51
196.1695677011077
  0
ARC
  5
36B
330
1F
100
AcDbEntity
  8
100
  6
Continuous
 62
     3
100
AcDbCircle
 10
430.810249312398
 20
34.936889020546
 30
0.0
 40
25.0
100
AcDbArc
 50
90.0
 51
101.3370328508372
  0
ARC
  5
36C
330
1F
100
AcDbEntity
  8
100
  6
Continuous
 62
     3
100
AcDbCircle
 10
350.212482593958
 20
34.936889020546
 30
0.0
 40
24.99999999999998
100
AcDbArc
 50
78.66296714916504
 51
90.0
  0
ARC
  5
36D
330
1F
100
AcDbEntity
  8
100
  6
Continuous
 62
     3
100
AcDbCircle
 10
454.611365953178
 20
57.536889020546
 30
0.0
 40
2.399999999999977
100
AcDbArc
 50
0.0
 51
90.0
  0
ARC
  5
36E
330
1F
100
AcDbEntity
  8
100
  6
Continuous
 62
     3
100
AcDbCircle
 10
454.611365953178
 20
132.336889020546
 30
0.0
 40
2.400000000000006
100
AcDbArc
 50
270.0
 51
0.0
  0
ARC
  5
36F
330
1F
100
AcDbEntity
  8
100
  6
Continuous
 62
     3
100
AcDbCircle
 10
326.411365953178
 20
132.336889020546
 30
0.0
 40
2.400000000000034
100
AcDbArc
 50
180.0
 51
270.0
  0
ARC
  5
370
330
1F
100
AcDbEntity
  8
100
  6
Continuous
 62
     3
100
AcDbCircle
 10
326.411365953178
 20
57.536889020546
 30
0.0
 40
2.399999999999999
100
AcDbArc
 50
90.0
 51
180.0
  0
ARC
  5
371
330
1F
100
AcDbEntity
  8
100
  6
Continuous
 62
     3
100
AcDbCircle
 10
390.511365953178
 20
235.936889020546
 30
0.0
 40
180.0000000000001
100
AcDbArc
 50
258.6629671491636
 51
281.3370328508361
  0
CIRCLE
  5
372
330
1F
100
AcDbEntity
  8
1
  6
Continuous
 62
     3
100
AcDbCircle
 10
836.037856755443
 20
94.936889020546
 30
0.0
 40
25.0
  0
CIRCLE
  5
373
330
1F
100
AcDbEntity
  8
1
  6
Continuous
 62
     3
100
AcDbCircle
 10
836.037856755443
 20
94.936889020546
 30
0.0
 40
37.39999999999998
  0
CIRCLE
  5
374
330
1F
100
AcDbEntity
  8
100
  6
Continuous
 62
     3
100
AcDbCircle
 10
376.011365953178
 20
416.243515739971
 30
0.0
 40
8.25
  0
CIRCLE
  5
375
330
1F
100
AcDbEntity
  8
2
  6
Continuous
 62
     3
100
AcDbCircle
 10
439.011365953178
 20
416.243515739971
 30
0.0
 40
10.0
  0
CIRCLE
  5
376
330
1F
100
AcDbEntity
  8
2
  6
Continuous
 62
     3
100
AcDbCircle
 10
420.55909316793
 20
371.695788525218
 30
0.0
 40
10.0
  0
CIRCLE
  5
377
330
1F
100
AcDbEntity
  8
2
  6
Continuous
 62
     3
100
AcDbCircle
 10
376.011365953178
 20
353.243515739971
 30
0.0
 40
10.0
  0
CIRCLE
  5
378
330
1F
100
AcDbEntity
  8
2
  6
Continuous
 62
     3
100
AcDbCircle
 10
331.463638738425
 20
371.695788525218
 30
0.0
 40
10.0
  0
CIRCLE
  5
379
330
1F
100
AcDbEntity
  8
2
  6
Continuous
 62
     3
100
AcDbCircle
 10
313.011365953178
 20
416.243515739971
 30
0.0
 40
10.0
  0
CIRCLE
  5
37A
330
1F
100
AcDbEntity
  8
2
  6
Continuous
 62
     3
100
AcDbCircle
 10
331.463638738425
 20
460.791242954723
 30
0.0
 40
10.0
  0
CIRCLE
  5
37B
330
1F
100
AcDbEntity
  8
2
  6
Continuous
 62
     3
100
AcDbCircle
 10
376.011365953178
 20
479.24351573997
 30
0.0
 40
10.0
  0
CIRCLE
  5
37C
330
1F
100
AcDbEntity
  8
2
  6
Continuous
 62
     3
100
AcDbCircle
 10
420.55909316793
 20
460.791242954723
 30
0.0
 40
10.0
  0
CIRCLE
  5
37D
330
1F
100
AcDbEntity
  8
100
  6
Continuous
 62
     3
100
AcDbCircle
 10
376.011365953178
 20
416.243515739971
 30
0.0
 40
15.0
  0
CIRCLE
  5
37E
330
1F
100
AcDbEntity
  8
100
  6
Continuous
 62
     3
100
AcDbCircle
 10
346.490879949606
 20
143.115887015839
 30
0.0
 40
8.5
  0
CIRCLE
  5
37F
330
1F
100
AcDbEntity
  8
100
  6
Continuous
 62
     3
100
AcDbCircle
 10
346.511365953178
 20
142.936889020546
 30
0.0
 40
10.0
  0
LEADER
  5
380
330
1F
100
AcDbEntity
  8
1
  6
Continuous
 62
     4
100
AcDbLeader
  3
Standard
 71
     0
 76
     3
 10
626.311365953178
 20
94.936889020546
 30
0.0
 10
643.371009963473
 20
57.4959757646246
 30
0.0
 10
694.758909992068
 20
57.4959757646246
 30
0.0
  0
LEADER
  5
381
330
1F
100
AcDbEntity
  8
1
  6
Continuous
 62
     4
100
AcDbLeader
  3
Standard
 71
     0
 76
     3
 10
310.30076636044
 20
57.536889020546
 30
0.0
 10
293.241122350145
 20
20.0959757646245
 30
0.0
 10
241.85322232155
 20
20.0959757646245
 30
0.0
  0
LEADER
  5
382
330
1F
100
AcDbEntity
  8
1
  6
Continuous
 62
     4
100
AcDbLeader
  3
Standard
 71
     0
 76
     3
 10
467.721965545916
 20
57.536889020546
 30
0.0
 10
484.781609556211
 20
20.0959757646245
 30
0.0
 10
536.169509584806
 20
20.0959757646245
 30
0.0
  0
DIMENSION
  5
3B8
330
1F
100
AcDbEntity
  8
1
100
AcDbDimension
  2
*D1
 10
681.837897465983
 20
94.936889020546
 30
0.0
 11
675.837897465983
 21
206.212642505936
 31
0.0
 70
    32
  1
202
 71
     5
 42
-1.0
 53
90.0
  3
ME10_DIM_10
100
AcDbAlignedDimension
 13
447.614941646398
 23
297.931952933113
 33
0.0
 14
638.655609669651
 24
94.936889020546
 34
0.0
 50
90.0
100
AcDbRotatedDimension
  0
DIMENSION
  5
3C5
330
1F
100
AcDbEntity
  8
1
100
AcDbDimension
  2
*D3
 10
303.011365953178
 20
10.2879469814793
 30
0.0
 11
392.519488931276
 21
16.2879469814793
 31
0.0
 70
    32
  1
175
 71
     5
 42
-1.0
 53
0.00013888888889
  3
ME10_DIM_11
100
AcDbAlignedDimension
 13
478.011365953178
 23
57.536889020546
 33
0.0
 14
303.011365953178
 24
57.536889020546
 34
0.0
100
AcDbRotatedDimension
  0
DIMENSION
  5
3D2
330
1F
100
AcDbEntity
  8
1
100
AcDbDimension
  2
*D4
 10
303.011365953178
 20
-24.1593830193238
 30
0.0
 11
425.518694262366
 21
-17.9928236903885
 31
0.0
 70
    32
  1
可動範囲　273～298
 71
     5
 42
-1.0
 53
0.00013888888889
  3
ME10_DIM_12
100
AcDbAlignedDimension
 13
601.011365953178
 23
64.436889020546
 33
0.0
 14
303.011365953178
 24
57.536889020546
 34
0.0
100
AcDbRotatedDimension
  0
ENDSEC
  0
SECTION
  2
OBJECTS
  0
DICTIONARY
  5
C
330
0
100
AcDbDictionary
281
     1
  3
ACAD_GROUP
350
D
  3
ACAD_LAYOUT
350
1A
  3
ACAD_MATERIAL
350
3B
  3
ACAD_MLEADERSTYLE
350
3D5
  3
ACAD_MLINESTYLE
350
17
  3
ACAD_PLOTSETTINGS
350
19
  3
ACAD_PLOTSTYLENAME
350
E
  3
ACAD_SCALELIST
350
38C
  3
ACAD_VISUALSTYLE
350
2A
  3
AcDbVariableDictionary
350
3D3
  0
DICTIONARY
  5
D
102
{ACAD_REACTORS
330
C
102
}
330
C
100
AcDbDictionary
281
     1
  0
DICTIONARY
  5
1A
102
{ACAD_REACTORS
330
C
102
}
330
C
100
AcDbDictionary
281
     1
  3
Layout1
350
1E
  3
Layout2
350
26
  3
Model
350
22
  0
DICTIONARY
  5
3B
102
{ACAD_REACTORS
330
C
102
}
330
C
100
AcDbDictionary
281
     1
  3
ByBlock
350
3D
  3
ByLayer
350
3C
  3
Global
350
3E
  0
DICTIONARY
  5
3D5
102
{ACAD_REACTORS
330
C
102
}
330
C
100
AcDbDictionary
281
     1
  0
DICTIONARY
  5
17
102
{ACAD_REACTORS
330
C
102
}
330
C
100
AcDbDictionary
281
     1
  3
Standard
350
18
  0
DICTIONARY
  5
19
102
{ACAD_REACTORS
330
C
102
}
330
C
100
AcDbDictionary
281
     1
  0
ACDBDICTIONARYWDFLT
  5
E
102
{ACAD_REACTORS
330
C
102
}
330
C
100
AcDbDictionary
281
     1
  3
Normal
350
F
100
AcDbDictionaryWithDefault
340
F
  0
DICTIONARY
  5
38C
102
{ACAD_REACTORS
330
C
102
}
330
C
100
AcDbDictionary
281
     1
  3
A0
350
38D
  3
A1
350
38E
  3
A2
350
38F
  3
A3
350
390
  3
A4
350
391
  3
A5
350
392
  3
A6
350
393
  3
A7
350
394
  3
A8
350
395
  3
A9
350
396
  3
B0
350
397
  3
B1
350
398
  3
B2
350
399
  3
B3
350
39A
  3
B4
350
39B
  3
B5
350
39C
  3
B6
350
39D
  3
B7
350
39E
  3
B8
350
39F
  3
B9
350
3A0
  3
C0
350
3A1
  3
C1
350
3A2
  3
C2
350
3A3
  3
C3
350
3A4
  3
C4
350
3A5
  3
C5
350
3A6
  3
C6
350
3A7
  3
C7
350
3A8
  3
C8
350
3A9
  3
C9
350
3AA
  3
D0
350
3AB
  3
D1
350
3AC
  3
D2
350
3AD
  0
DICTIONARY
  5
2A
102
{ACAD_REACTORS
330
C
102
}
330
C
100
AcDbDictionary
281
     1
  3
2dWireframe
350
2F
  3
3D Hidden
350
31
  3
3dWireframe
350
30
  3
Basic
350
32
  3
Brighten
350
36
  3
ColorChange
350
3A
  3
Conceptual
350
34
  3
Dim
350
35
  3
Facepattern
350
39
  3
Flat
350
2B
  3
FlatWithEdges
350
2C
  3
Gouraud
350
2D
  3
GouraudWithEdges
350
2E
  3
Linepattern
350
38
  3
Realistic
350
33
  3
Thicken
350
37
  0
DICTIONARY
  5
3D3
102
{ACAD_REACTORS
330
C
102
}
330
C
100
AcDbDictionary
281
     1
  3
CANNOSCALE
350
3D6
  3
DIMASSOC
350
3D7
  3
HIDETEXT
350
3D8
  0
LAYOUT
  5
1E
102
{ACAD_REACTORS
330
1A
102
}
330
1A
100
AcDbPlotSettings
  1

  2
none_device
  4

  6

 40
0.0
 41
0.0
 42
0.0
 43
0.0
 44
0.0
 45
0.0
 46
0.0
 47
0.0
 48
0.0
 49
0.0
140
0.0
141
0.0
142
1.0
143
1.0
 70
   688
 72
     0
 73
     0
 74
     5
  7

 75
    16
147
1.0
148
0.0
149
0.0
100
AcDbLayout
  1
Layout1
 70
     1
 71
     1
 10
0.0
 20
0.0
 11
12.0
 21
9.0
 12
0.0
 22
0.0
 32
0.0
 14
1.00000000000000E+20
 24
1.00000000000000E+20
 34
1.00000000000000E+20
 15
-1.00000000000000E+20
 25
-1.00000000000000E+20
 35
-1.00000000000000E+20
146
0.0
 13
0.0
 23
0.0
 33
0.0
 16
1.0
 26
0.0
 36
0.0
 17
0.0
 27
1.0
 37
0.0
 76
     0
330
1B
  0
LAYOUT
  5
26
102
{ACAD_REACTORS
330
1A
102
}
330
1A
100
AcDbPlotSettings
  1

  2
none_device
  4

  6

 40
0.0
 41
0.0
 42
0.0
 43
0.0
 44
0.0
 45
0.0
 46
0.0
 47
0.0
 48
0.0
 49
0.0
140
0.0
141
0.0
142
1.0
143
1.0
 70
   688
 72
     0
 73
     0
 74
     5
  7

 75
    16
147
1.0
148
0.0
149
0.0
100
AcDbLayout
  1
Layout2
 70
     1
 71
     2
 10
0.0
 20
0.0
 11
0.0
 21
0.0
 12
0.0
 22
0.0
 32
0.0
 14
0.0
 24
0.0
 34
0.0
 15
0.0
 25
0.0
 35
0.0
146
0.0
 13
0.0
 23
0.0
 33
0.0
 16
1.0
 26
0.0
 36
0.0
 17
0.0
 27
1.0
 37
0.0
 76
     0
330
23
  0
LAYOUT
  5
22
102
{ACAD_REACTORS
330
1A
102
}
330
1A
100
AcDbPlotSettings
  1

  2
none_device
  4

  6

 40
0.0
 41
0.0
 42
0.0
 43
0.0
 44
0.0
 45
0.0
 46
0.0
 47
0.0
 48
0.0
 49
0.0
140
0.0
141
0.0
142
1.0
143
1.0
 70
  1712
 72
     0
 73
     0
 74
     0
  7

 75
     0
147
1.0
148
0.0
149
0.0
100
AcDbLayout
  1
Model
 70
     1
 71
     0
 10
0.0
 20
0.0
 11
12.0
 21
9.0
 12
0.0
 22
0.0
 32
0.0
 14
241.104190239254
 24
-26.30297655877278
 34
0.0
 15
911.1272852815375
 25
493.74351573997
 35
0.0
146
0.0
 13
0.0
 23
0.0
 33
0.0
 16
1.0
 26
0.0
 36
0.0
 17
0.0
 27
1.0
 37
0.0
 76
     0
330
1F
331
29
  0
MATERIAL
  5
3D
102
{ACAD_REACTORS
330
3B
102
}
102
{ACAD_XDICTIONARY
360
3FB
102
}
330
3B
100
AcDbMaterial
  1
ByBlock
  0
MATERIAL
  5
3C
102
{ACAD_REACTORS
330
3B
102
}
102
{ACAD_XDICTIONARY
360
3F9
102
}
330
3B
100
AcDbMaterial
  1
ByLayer
  0
MATERIAL
  5
3E
102
{ACAD_REACTORS
330
3B
102
}
102
{ACAD_XDICTIONARY
360
3FD
102
}
330
3B
100
AcDbMaterial
  1
Global
  0
MLINESTYLE
  5
18
102
{ACAD_REACTORS
330
17
102
}
330
17
100
AcDbMlineStyle
  2
Standard
 70
     0
  3

 62
   256
 51
90.0
 52
90.0
 71
     2
 49
0.5
 62
   256
  6
BYLAYER
 49
-0.5
 62
   256
  6
BYLAYER
  0
ACDBPLACEHOLDER
  5
F
102
{ACAD_REACTORS
330
E
102
}
330
E
  0
SCALE
  5
38D
102
{ACAD_REACTORS
330
38C
102
}
330
38C
100
AcDbScale
 70
     0
300
1:1
140
1.0
141
1.0
290
     1
  0
SCALE
  5
38E
102
{ACAD_REACTORS
330
38C
102
}
330
38C
100
AcDbScale
 70
     0
300
1:2
140
1.0
141
2.0
290
     0
  0
SCALE
  5
38F
102
{ACAD_REACTORS
330
38C
102
}
330
38C
100
AcDbScale
 70
     0
300
1:4
140
1.0
141
4.0
290
     0
  0
SCALE
  5
390
102
{ACAD_REACTORS
330
38C
102
}
330
38C
100
AcDbScale
 70
     0
300
1:5
140
1.0
141
5.0
290
     0
  0
SCALE
  5
391
102
{ACAD_REACTORS
330
38C
102
}
330
38C
100
AcDbScale
 70
     0
300
1:8
140
1.0
141
8.0
290
     0
  0
SCALE
  5
392
102
{ACAD_REACTORS
330
38C
102
}
330
38C
100
AcDbScale
 70
     0
300
1:10
140
1.0
141
10.0
290
     0
  0
SCALE
  5
393
102
{ACAD_REACTORS
330
38C
102
}
330
38C
100
AcDbScale
 70
     0
300
1:16
140
1.0
141
16.0
290
     0
  0
SCALE
  5
394
102
{ACAD_REACTORS
330
38C
102
}
330
38C
100
AcDbScale
 70
     0
300
1:20
140
1.0
141
20.0
290
     0
  0
SCALE
  5
395
102
{ACAD_REACTORS
330
38C
102
}
330
38C
100
AcDbScale
 70
     0
300
1:30
140
1.0
141
30.0
290
     0
  0
SCALE
  5
396
102
{ACAD_REACTORS
330
38C
102
}
330
38C
100
AcDbScale
 70
     0
300
1:40
140
1.0
141
40.0
290
     0
  0
SCALE
  5
397
102
{ACAD_REACTORS
330
38C
102
}
330
38C
100
AcDbScale
 70
     0
300
1:50
140
1.0
141
50.0
290
     0
  0
SCALE
  5
398
102
{ACAD_REACTORS
330
38C
102
}
330
38C
100
AcDbScale
 70
     0
300
1:100
140
1.0
141
100.0
290
     0
  0
SCALE
  5
399
102
{ACAD_REACTORS
330
38C
102
}
330
38C
100
AcDbScale
 70
     0
300
2:1
140
2.0
141
1.0
290
     0
  0
SCALE
  5
39A
102
{ACAD_REACTORS
330
38C
102
}
330
38C
100
AcDbScale
 70
     0
300
4:1
140
4.0
141
1.0
290
     0
  0
SCALE
  5
39B
102
{ACAD_REACTORS
330
38C
102
}
330
38C
100
AcDbScale
 70
     0
300
8:1
140
8.0
141
1.0
290
     0
  0
SCALE
  5
39C
102
{ACAD_REACTORS
330
38C
102
}
330
38C
100
AcDbScale
 70
     0
300
10:1
140
10.0
141
1.0
290
     0
  0
SCALE
  5
39D
102
{ACAD_REACTORS
330
38C
102
}
330
38C
100
AcDbScale
 70
     0
300
100:1
140
100.0
141
1.0
290
     0
  0
SCALE
  5
39E
102
{ACAD_REACTORS
330
38C
102
}
330
38C
100
AcDbScale
 70
     0
300
1/128" = 1'-0"
140
0.0078125
141
12.0
290
     0
  0
SCALE
  5
39F
102
{ACAD_REACTORS
330
38C
102
}
330
38C
100
AcDbScale
 70
     0
300
1/64" = 1'-0"
140
0.015625
141
12.0
290
     0
  0
SCALE
  5
3A0
102
{ACAD_REACTORS
330
38C
102
}
330
38C
100
AcDbScale
 70
     0
300
1/32" = 1'-0"
140
0.03125
141
12.0
290
     0
  0
SCALE
  5
3A1
102
{ACAD_REACTORS
330
38C
102
}
330
38C
100
AcDbScale
 70
     0
300
1/16" = 1'-0"
140
0.0625
141
12.0
290
     0
  0
SCALE
  5
3A2
102
{ACAD_REACTORS
330
38C
102
}
330
38C
100
AcDbScale
 70
     0
300
3/32" = 1'-0"
140
0.09375
141
12.0
290
     0
  0
SCALE
  5
3A3
102
{ACAD_REACTORS
330
38C
102
}
330
38C
100
AcDbScale
 70
     0
300
1/8" = 1'-0"
140
0.125
141
12.0
290
     0
  0
SCALE
  5
3A4
102
{ACAD_REACTORS
330
38C
102
}
330
38C
100
AcDbScale
 70
     0
300
3/16" = 1'-0"
140
0.1875
141
12.0
290
     0
  0
SCALE
  5
3A5
102
{ACAD_REACTORS
330
38C
102
}
330
38C
100
AcDbScale
 70
     0
300
1/4" = 1'-0"
140
0.25
141
12.0
290
     0
  0
SCALE
  5
3A6
102
{ACAD_REACTORS
330
38C
102
}
330
38C
100
AcDbScale
 70
     0
300
3/8" = 1'-0"
140
0.375
141
12.0
290
     0
  0
SCALE
  5
3A7
102
{ACAD_REACTORS
330
38C
102
}
330
38C
100
AcDbScale
 70
     0
300
1/2" = 1'-0"
140
0.5
141
12.0
290
     0
  0
SCALE
  5
3A8
102
{ACAD_REACTORS
330
38C
102
}
330
38C
100
AcDbScale
 70
     0
300
3/4" = 1'-0"
140
0.75
141
12.0
290
     0
  0
SCALE
  5
3A9
102
{ACAD_REACTORS
330
38C
102
}
330
38C
100
AcDbScale
 70
     0
300
1" = 1'-0"
140
1.0
141
12.0
290
     0
  0
SCALE
  5
3AA
102
{ACAD_REACTORS
330
38C
102
}
330
38C
100
AcDbScale
 70
     0
300
1-1/2" = 1'-0"
140
1.5
141
12.0
290
     0
  0
SCALE
  5
3AB
102
{ACAD_REACTORS
330
38C
102
}
330
38C
100
AcDbScale
 70
     0
300
3" = 1'-0"
140
3.0
141
12.0
290
     0
  0
SCALE
  5
3AC
102
{ACAD_REACTORS
330
38C
102
}
330
38C
100
AcDbScale
 70
     0
300
6" = 1'-0"
140
6.0
141
12.0
290
     0
  0
SCALE
  5
3AD
102
{ACAD_REACTORS
330
38C
102
}
330
38C
100
AcDbScale
 70
     0
300
1'-0" = 1'-0"
140
12.0
141
12.0
290
     0
  0
VISUALSTYLE
  5
2F
102
{ACAD_REACTORS
330
2A
102
}
102
{ACAD_XDICTIONARY
360
3E1
102
}
330
2A
100
AcDbVisualStyle
  2
2dWireframe
 70
     4
 71
     0
 72
     2
 73
     0
 90
        0
 40
-0.6
 41
-30.0
 62
     5
 63
     7
 74
     1
 91
        4
 64
     7
 65
   257
 75
     1
175
     1
 42
1.0
 92
        0
 66
   257
 43
1.0
 76
     1
 77
     6
 78
     2
 67
     7
 79
     5
170
     0
171
     0
290
     0
174
     0
 93
        1
 44
0.0
173
     0
291
     0
 45
0.0
1001
ACAD
1000
AcDbSavedByObjectVersion
1070
     0
  0
VISUALSTYLE
  5
31
102
{ACAD_REACTORS
330
2A
102
}
102
{ACAD_XDICTIONARY
360
3E5
102
}
330
2A
100
AcDbVisualStyle
  2
3D Hidden
 70
     6
 71
     1
 72
     2
 73
     2
 90
        0
 40
-0.6
 41
-30.0
 62
     5
 63
     7
 74
     2
 91
        2
 64
     7
 65
   257
 75
     2
175
     1
 42
40.0
 92
        0
 66
   257
 43
1.0
 76
     1
 77
     6
 78
     2
 67
     7
 79
     3
170
     0
171
     0
290
     0
174
     0
 93
        1
 44
0.0
173
     0
291
     0
 45
0.0
1001
ACAD
1000
AcDbSavedByObjectVersion
1070
     0
  0
VISUALSTYLE
  5
30
102
{ACAD_REACTORS
330
2A
102
}
102
{ACAD_XDICTIONARY
360
3E3
102
}
330
2A
100
AcDbVisualStyle
  2
3dWireframe
 70
     5
 71
     0
 72
     2
 73
     0
 90
        0
 40
-0.6
 41
-30.0
 62
     5
 63
     7
 74
     1
 91
        4
 64
     7
 65
   257
 75
     1
175
     1
 42
1.0
 92
        0
 66
   257
 43
1.0
 76
     1
 77
     6
 78
     2
 67
     7
 79
     5
170
     0
171
     0
290
     0
174
     0
 93
        1
 44
0.0
173
     0
291
     0
 45
0.0
1001
ACAD
1000
AcDbSavedByObjectVersion
1070
     0
  0
VISUALSTYLE
  5
32
102
{ACAD_REACTORS
330
2A
102
}
102
{ACAD_XDICTIONARY
360
3E7
102
}
330
2A
100
AcDbVisualStyle
  2
Basic
 70
     7
 71
     1
 72
     0
 73
     1
 90
        0
 40
-0.6
 41
-30.0
 62
     5
 63
     7
 74
     0
 91
        4
 64
     7
 65
   257
 75
     1
175
     1
 42
1.0
 92
        8
 66
     7
 43
1.0
 76
     1
 77
     6
 78
     2
 67
     7
 79
     5
170
     0
171
     0
290
     0
174
     0
 93
        1
 44
0.0
173
     0
291
     1
 45
0.0
1001
ACAD
1000
AcDbSavedByObjectVersion
1070
     0
  0
VISUALSTYLE
  5
36
102
{ACAD_REACTORS
330
2A
102
}
102
{ACAD_XDICTIONARY
360
3EF
102
}
330
2A
100
AcDbVisualStyle
  2
Brighten
 70
    12
 71
     2
 72
     2
 73
     0
 90
        0
 40
-0.6
 41
-30.0
 62
     5
 63
     7
 74
     1
 91
        4
 64
     7
 65
   257
 75
     1
175
     1
 42
1.0
 92
        8
 66
     7
 43
1.0
 76
     1
 77
     6
 78
     2
 67
     7
 79
     5
170
     0
171
     0
290
     0
174
     0
 93
        1
 44
50.0
173
     0
291
     1
 45
0.0
1001
ACAD
1000
AcDbSavedByObjectVersion
1070
     0
  0
VISUALSTYLE
  5
3A
102
{ACAD_REACTORS
330
2A
102
}
102
{ACAD_XDICTIONARY
360
3F7
102
}
330
2A
100
AcDbVisualStyle
  2
ColorChange
 70
    16
 71
     2
 72
     2
 73
     3
 90
        0
 40
-0.6
 41
-30.0
 62
     5
 63
     8
 74
     1
 91
        4
 64
     7
 65
   257
 75
     1
175
     1
 42
1.0
 92
        8
 66
     8
 43
1.0
 76
     1
 77
     6
 78
     2
 67
     7
 79
     5
170
     0
171
     0
290
     0
174
     0
 93
        1
 44
0.0
173
     0
291
     1
 45
0.0
1001
ACAD
1000
AcDbSavedByObjectVersion
1070
     0
  0
VISUALSTYLE
  5
34
102
{ACAD_REACTORS
330
2A
102
}
102
{ACAD_XDICTIONARY
360
3EB
102
}
330
2A
100
AcDbVisualStyle
  2
Conceptual
 70
     9
 71
     3
 72
     2
 73
     0
 90
        0
 40
-0.6
 41
-30.0
 62
     5
 63
     7
 74
     2
 91
        2
 64
     7
 65
   257
 75
     1
175
     1
 42
40.0
 92
        8
 66
     7
 43
1.0
 76
     1
 77
     6
 78
     2
 67
     7
 79
     3
170
     0
171
     0
290
     0
174
     0
 93
        1
 44
0.0
173
     0
291
     0
 45
0.0
1001
ACAD
1000
AcDbSavedByObjectVersion
1070
     0
  0
VISUALSTYLE
  5
35
102
{ACAD_REACTORS
330
2A
102
}
102
{ACAD_XDICTIONARY
360
3ED
102
}
330
2A
100
AcDbVisualStyle
  2
Dim
 70
    11
 71
     2
 72
     2
 73
     0
 90
        0
 40
-0.6
 41
-30.0
 62
     5
 63
     7
 74
     1
 91
        4
 64
     7
 65
   257
 75
     1
175
     1
 42
1.0
 92
        8
 66
     7
 43
1.0
 76
     1
 77
     6
 78
     2
 67
     7
 79
     5
170
     0
171
     0
290
     0
174
     0
 93
        1
 44
-50.0
173
     0
291
     1
 45
0.0
1001
ACAD
1000
AcDbSavedByObjectVersion
1070
     0
  0
VISUALSTYLE
  5
39
102
{ACAD_REACTORS
330
2A
102
}
102
{ACAD_XDICTIONARY
360
3F5
102
}
330
2A
100
AcDbVisualStyle
  2
Facepattern
 70
    15
 71
     2
 72
     2
 73
     0
 90
        0
 40
-0.6
 41
-30.0
 62
     5
 63
     7
 74
     1
 91
        4
 64
     7
 65
   257
 75
     1
175
     1
 42
1.0
 92
        8
 66
     7
 43
1.0
 76
     1
 77
     6
 78
     2
 67
     7
 79
     5
170
     0
171
     0
290
     0
174
     0
 93
        1
 44
0.0
173
     0
291
     1
 45
0.0
1001
ACAD
1000
AcDbSavedByObjectVersion
1070
     0
  0
VISUALSTYLE
  5
2B
102
{ACAD_REACTORS
330
2A
102
}
102
{ACAD_XDICTIONARY
360
3D9
102
}
330
2A
100
AcDbVisualStyle
  2
Flat
 70
     0
 71
     2
 72
     1
 73
     1
 90
        2
 40
-0.6
 41
30.0
 62
     5
 63
     7
 74
     0
 91
        4
 64
     7
 65
   257
 75
     1
175
     1
 42
1.0
 92
        8
 66
     7
 43
1.0
 76
     1
 77
     6
 78
     2
 67
     7
 79
     5
170
     0
171
     0
290
     0
174
     0
 93
       13
 44
0.0
173
     0
291
     1
 45
0.0
1001
ACAD
1000
AcDbSavedByObjectVersion
1070
     0
  0
VISUALSTYLE
  5
2C
102
{ACAD_REACTORS
330
2A
102
}
102
{ACAD_XDICTIONARY
360
3DB
102
}
330
2A
100
AcDbVisualStyle
  2
FlatWithEdges
 70
     1
 71
     2
 72
     1
 73
     1
 90
        2
 40
-0.6
 41
30.0
 62
     5
 63
     7
 74
     1
 91
        4
 64
     7
 65
   257
 75
     1
175
     1
 42
1.0
 92
        0
 66
   257
 43
1.0
 76
     1
 77
     6
 78
     2
 67
     7
 79
     5
170
     0
171
     0
290
     0
174
     0
 93
       13
 44
0.0
173
     0
291
     1
 45
0.0
1001
ACAD
1000
AcDbSavedByObjectVersion
1070
     0
  0
VISUALSTYLE
  5
2D
102
{ACAD_REACTORS
330
2A
102
}
102
{ACAD_XDICTIONARY
360
3DD
102
}
330
2A
100
AcDbVisualStyle
  2
Gouraud
 70
     2
 71
     2
 72
     2
 73
     1
 90
        2
 40
-0.6
 41
30.0
 62
     5
 63
     7
 74
     0
 91
        4
 64
     7
 65
   257
 75
     1
175
     1
 42
1.0
 92
        0
 66
     7
 43
1.0
 76
     1
 77
     6
 78
     2
 67
     7
 79
     5
170
     0
171
     0
290
     0
174
     0
 93
       13
 44
0.0
173
     0
291
     1
 45
0.0
1001
ACAD
1000
AcDbSavedByObjectVersion
1070
     0
  0
VISUALSTYLE
  5
2E
102
{ACAD_REACTORS
330
2A
102
}
102
{ACAD_XDICTIONARY
360
3DF
102
}
330
2A
100
AcDbVisualStyle
  2
GouraudWithEdges
 70
     3
 71
     2
 72
     2
 73
     1
 90
        2
 40
-0.6
 41
30.0
 62
     5
 63
     7
 74
     1
 91
        4
 64
     7
 65
   257
 75
     1
175
     1
 42
1.0
 92
        0
 66
   257
 43
1.0
 76
     1
 77
     6
 78
     2
 67
     7
 79
     5
170
     0
171
     0
290
     0
174
     0
 93
       13
 44
0.0
173
     0
291
     1
 45
0.0
1001
ACAD
1000
AcDbSavedByObjectVersion
1070
     0
  0
VISUALSTYLE
  5
38
102
{ACAD_REACTORS
330
2A
102
}
102
{ACAD_XDICTIONARY
360
3F3
102
}
330
2A
100
AcDbVisualStyle
  2
Linepattern
 70
    14
 71
     2
 72
     2
 73
     0
 90
        0
 40
-0.6
 41
-30.0
 62
     5
 63
     7
 74
     1
 91
        4
 64
     7
 65
   257
 75
     7
175
     7
 42
1.0
 92
        8
 66
     7
 43
1.0
 76
     1
 77
     6
 78
     2
 67
     7
 79
     5
170
     0
171
     0
290
     0
174
     0
 93
        1
 44
0.0
173
     0
291
     1
 45
0.0
1001
ACAD
1000
AcDbSavedByObjectVersion
1070
     0
  0
VISUALSTYLE
  5
33
102
{ACAD_REACTORS
330
2A
102
}
102
{ACAD_XDICTIONARY
360
3E9
102
}
330
2A
100
AcDbVisualStyle
  2
Realistic
 70
     8
 71
     2
 72
     2
 73
     0
 90
        0
 40
-0.6
 41
-30.0
 62
     5
 63
     7
 74
     1
 91
        0
 64
     7
 65
   257
 75
     1
175
     1
 42
1.0
 92
        8
 66
     8
 43
1.0
 76
     1
 77
     6
 78
     2
 67
     7
 79
     5
170
     0
171
     0
290
     0
174
     0
 93
       13
 44
0.0
173
     0
291
     0
 45
0.0
1001
ACAD
1000
AcDbSavedByObjectVersion
1070
     0
  0
VISUALSTYLE
  5
37
102
{ACAD_REACTORS
330
2A
102
}
102
{ACAD_XDICTIONARY
360
3F1
102
}
330
2A
100
AcDbVisualStyle
  2
Thicken
 70
    13
 71
     2
 72
     2
 73
     0
 90
        0
 40
-0.6
 41
-30.0
 62
     5
 63
     7
 74
     1
 91
        4
 64
     7
 65
   257
 75
     1
175
     1
 42
1.0
 92
       12
 66
     7
 43
1.0
 76
     1
 77
     6
 78
     2
 67
     7
 79
     5
170
     0
171
     0
290
     0
174
     0
 93
        1
 44
0.0
173
     0
291
     1
 45
0.0
1001
ACAD
1000
AcDbSavedByObjectVersion
1070
     0
  0
DICTIONARYVAR
  5
3D6
102
{ACAD_REACTORS
330
3D3
102
}
330
3D3
100
DictionaryVariables
280
     0
  1
1:1
  0
DICTIONARYVAR
  5
3D7
102
{ACAD_REACTORS
330
3D3
102
}
330
3D3
100
DictionaryVariables
280
     0
  1
2
  0
DICTIONARYVAR
  5
3D8
102
{ACAD_REACTORS
330
3D3
102
}
330
3D3
100
DictionaryVariables
280
     0
  1
1
  0
DICTIONARY
  5
3FB
330
3D
100
AcDbDictionary
280
     1
281
     1
  3
ACAD_XREC_ROUNDTRIP
360
3FC
  0
DICTIONARY
  5
3F9
330
3C
100
AcDbDictionary
280
     1
281
     1
  3
ACAD_XREC_ROUNDTRIP
360
3FA
  0
DICTIONARY
  5
3FD
330
3E
100
AcDbDictionary
280
     1
281
     1
  3
ACAD_XREC_ROUNDTRIP
360
3FE
  0
DICTIONARY
  5
3E1
330
2F
100
AcDbDictionary
280
     1
281
     1
  3
ACAD_XREC_ROUNDTRIP
360
3E2
  0
DICTIONARY
  5
3E5
330
31
100
AcDbDictionary
280
     1
281
     1
  3
ACAD_XREC_ROUNDTRIP
360
3E6
  0
DICTIONARY
  5
3E3
330
30
100
AcDbDictionary
280
     1
281
     1
  3
ACAD_XREC_ROUNDTRIP
360
3E4
  0
DICTIONARY
  5
3E7
330
32
100
AcDbDictionary
280
     1
281
     1
  3
ACAD_XREC_ROUNDTRIP
360
3E8
  0
DICTIONARY
  5
3EF
330
36
100
AcDbDictionary
280
     1
281
     1
  3
ACAD_XREC_ROUNDTRIP
360
3F0
  0
DICTIONARY
  5
3F7
330
3A
100
AcDbDictionary
280
     1
281
     1
  3
ACAD_XREC_ROUNDTRIP
360
3F8
  0
DICTIONARY
  5
3EB
330
34
100
AcDbDictionary
280
     1
281
     1
  3
ACAD_XREC_ROUNDTRIP
360
3EC
  0
DICTIONARY
  5
3ED
330
35
100
AcDbDictionary
280
     1
281
     1
  3
ACAD_XREC_ROUNDTRIP
360
3EE
  0
DICTIONARY
  5
3F5
330
39
100
AcDbDictionary
280
     1
281
     1
  3
ACAD_XREC_ROUNDTRIP
360
3F6
  0
DICTIONARY
  5
3D9
330
2B
100
AcDbDictionary
280
     1
281
     1
  3
ACAD_XREC_ROUNDTRIP
360
3DA
  0
DICTIONARY
  5
3DB
330
2C
100
AcDbDictionary
280
     1
281
     1
  3
ACAD_XREC_ROUNDTRIP
360
3DC
  0
DICTIONARY
  5
3DD
330
2D
100
AcDbDictionary
280
     1
281
     1
  3
ACAD_XREC_ROUNDTRIP
360
3DE
  0
DICTIONARY
  5
3DF
330
2E
100
AcDbDictionary
280
     1
281
     1
  3
ACAD_XREC_ROUNDTRIP
360
3E0
  0
DICTIONARY
  5
3F3
330
38
100
AcDbDictionary
280
     1
281
     1
  3
ACAD_XREC_ROUNDTRIP
360
3F4
  0
DICTIONARY
  5
3E9
330
33
100
AcDbDictionary
280
     1
281
     1
  3
ACAD_XREC_ROUNDTRIP
360
3EA
  0
DICTIONARY
  5
3F1
330
37
100
AcDbDictionary
280
     1
281
     1
  3
ACAD_XREC_ROUNDTRIP
360
3F2
  0
XRECORD
  5
3FC
102
{ACAD_REACTORS
330
3FB
102
}
330
3FB
100
AcDbXrecord
280
     1
102
MATERIAL
148
0.0
149
0.0
149
0.0
 93
        0
 94
      127
282
     0
 72
     1
 77
     1
171
     1
175
     1
179
     1
273
     0
  0
XRECORD
  5
3FA
102
{ACAD_REACTORS
330
3F9
102
}
330
3F9
100
AcDbXrecord
280
     1
102
MATERIAL
148
0.0
149
0.0
149
0.0
 93
        0
 94
      127
282
     0
 72
     1
 77
     1
171
     1
175
     1
179
     1
273
     0
  0
XRECORD
  5
3FE
102
{ACAD_REACTORS
330
3FD
102
}
330
3FD
100
AcDbXrecord
280
     1
102
MATERIAL
148
0.0
149
0.0
149
0.0
 93
        0
 94
      127
282
     0
 72
     1
 77
     1
171
     1
175
     1
179
     1
273
     0
  0
XRECORD
  5
3E2
102
{ACAD_REACTORS
330
3E1
102
}
330
3E1
100
AcDbXrecord
280
     1
102
RTVSPropertyOp0
 70
     1
102
RTVSPropertyOp1
 70
     1
102
RTVSPropertyOp2
 70
     1
102
RTVSPropertyOp3
 70
     1
102
RTVSPropertyOp4
 70
     1
102
RTVSPropertyOp5
 70
     1
102
RTVSPropertyOp6
 70
     1
102
RTVSPropertyOp7
 70
     1
102
RTVSPropertyOp8
 70
     1
102
RTVSPropertyOp9
 70
     1
102
RTVSPropertyOp10
 70
     1
102
RTVSPropertyOp11
 70
     1
102
RTVSPropertyOp12
 70
     1
102
RTVSPropertyOp13
 70
     1
102
RTVSPropertyOp14
 70
     1
102
RTVSPropertyOp15
 70
     1
102
RTVSPropertyOp16
 70
     1
102
RTVSPropertyOp17
 70
     1
102
RTVSPropertyOp18
 70
     1
102
RTVSPropertyOp19
 70
     1
102
RTVSPropertyOp20
 70
     1
102
RTVSPropertyOp21
 70
     1
102
RTVSPropertyOp22
 70
     1
102
RTVSPropertyOp23
 70
     1
102
RTVSPropertyOp24
 70
     1
102
RTVSPropertyOp25
 70
     1
102
RTVSPropertyOp26
 70
     1
102
RTVSPropertyOp27
 70
     1
  0
XRECORD
  5
3E6
102
{ACAD_REACTORS
330
3E5
102
}
330
3E5
100
AcDbXrecord
280
     1
102
RTVSPropertyOp0
 70
     1
102
RTVSPropertyOp1
 70
     1
102
RTVSPropertyOp2
 70
     1
102
RTVSPropertyOp3
 70
     1
102
RTVSPropertyOp4
 70
     1
102
RTVSPropertyOp5
 70
     1
102
RTVSPropertyOp6
 70
     1
102
RTVSPropertyOp7
 70
     1
102
RTVSPropertyOp8
 70
     1
102
RTVSPropertyOp9
 70
     1
102
RTVSPropertyOp10
 70
     1
102
RTVSPropertyOp11
 70
     1
102
RTVSPropertyOp12
 70
     1
102
RTVSPropertyOp13
 70
     1
102
RTVSPropertyOp14
 70
     1
102
RTVSPropertyOp15
 70
     1
102
RTVSPropertyOp16
 70
     1
102
RTVSPropertyOp17
 70
     1
102
RTVSPropertyOp18
 70
     1
102
RTVSPropertyOp19
 70
     1
102
RTVSPropertyOp20
 70
     1
102
RTVSPropertyOp21
 70
     1
102
RTVSPropertyOp22
 70
     1
102
RTVSPropertyOp23
 70
     1
102
RTVSPropertyOp24
 70
     1
102
RTVSPropertyOp25
 70
     1
102
RTVSPropertyOp26
 70
     1
102
RTVSPropertyOp27
 70
     1
  0
XRECORD
  5
3E4
102
{ACAD_REACTORS
330
3E3
102
}
330
3E3
100
AcDbXrecord
280
     1
102
RTVSPropertyOp0
 70
     1
102
RTVSPropertyOp1
 70
     1
102
RTVSPropertyOp2
 70
     1
102
RTVSPropertyOp3
 70
     1
102
RTVSPropertyOp4
 70
     1
102
RTVSPropertyOp5
 70
     1
102
RTVSPropertyOp6
 70
     1
102
RTVSPropertyOp7
 70
     1
102
RTVSPropertyOp8
 70
     1
102
RTVSPropertyOp9
 70
     1
102
RTVSPropertyOp10
 70
     1
102
RTVSPropertyOp11
 70
     1
102
RTVSPropertyOp12
 70
     1
102
RTVSPropertyOp13
 70
     1
102
RTVSPropertyOp14
 70
     1
102
RTVSPropertyOp15
 70
     1
102
RTVSPropertyOp16
 70
     1
102
RTVSPropertyOp17
 70
     1
102
RTVSPropertyOp18
 70
     1
102
RTVSPropertyOp19
 70
     1
102
RTVSPropertyOp20
 70
     1
102
RTVSPropertyOp21
 70
     1
102
RTVSPropertyOp22
 70
     1
102
RTVSPropertyOp23
 70
     1
102
RTVSPropertyOp24
 70
     1
102
RTVSPropertyOp25
 70
     1
102
RTVSPropertyOp26
 70
     1
102
RTVSPropertyOp27
 70
     1
  0
XRECORD
  5
3E8
102
{ACAD_REACTORS
330
3E7
102
}
330
3E7
100
AcDbXrecord
280
     1
102
RTVSPropertyOp0
 70
     1
102
RTVSPropertyOp1
 70
     1
102
RTVSPropertyOp2
 70
     1
102
RTVSPropertyOp3
 70
     1
102
RTVSPropertyOp4
 70
     1
102
RTVSPropertyOp5
 70
     1
102
RTVSPropertyOp6
 70
     1
102
RTVSPropertyOp7
 70
     1
102
RTVSPropertyOp8
 70
     1
102
RTVSPropertyOp9
 70
     1
102
RTVSPropertyOp10
 70
     1
102
RTVSPropertyOp11
 70
     1
102
RTVSPropertyOp12
 70
     1
102
RTVSPropertyOp13
 70
     1
102
RTVSPropertyOp14
 70
     1
102
RTVSPropertyOp15
 70
     1
102
RTVSPropertyOp16
 70
     1
102
RTVSPropertyOp17
 70
     1
102
RTVSPropertyOp18
 70
     1
102
RTVSPropertyOp19
 70
     1
102
RTVSPropertyOp20
 70
     1
102
RTVSPropertyOp21
 70
     1
102
RTVSPropertyOp22
 70
     1
102
RTVSPropertyOp23
 70
     1
102
RTVSPropertyOp24
 70
     1
102
RTVSPropertyOp25
 70
     1
102
RTVSPropertyOp26
 70
     1
102
RTVSPropertyOp27
 70
     1
  0
XRECORD
  5
3F0
102
{ACAD_REACTORS
330
3EF
102
}
330
3EF
100
AcDbXrecord
280
     1
102
RTVSPropertyOp0
 70
     1
102
RTVSPropertyOp1
 70
     1
102
RTVSPropertyOp2
 70
     1
102
RTVSPropertyOp3
 70
     1
102
RTVSPropertyOp4
 70
     1
102
RTVSPropertyOp5
 70
     1
102
RTVSPropertyOp6
 70
     1
102
RTVSPropertyOp7
 70
     1
102
RTVSPropertyOp8
 70
     1
102
RTVSPropertyOp9
 70
     1
102
RTVSPropertyOp10
 70
     1
102
RTVSPropertyOp11
 70
     1
102
RTVSPropertyOp12
 70
     1
102
RTVSPropertyOp13
 70
     1
102
RTVSPropertyOp14
 70
     1
102
RTVSPropertyOp15
 70
     1
102
RTVSPropertyOp16
 70
     1
102
RTVSPropertyOp17
 70
     1
102
RTVSPropertyOp18
 70
     1
102
RTVSPropertyOp19
 70
     1
102
RTVSPropertyOp20
 70
     1
102
RTVSPropertyOp21
 70
     1
102
RTVSPropertyOp22
 70
     1
102
RTVSPropertyOp23
 70
     1
102
RTVSPropertyOp24
 70
     1
102
RTVSPropertyOp25
 70
     1
102
RTVSPropertyOp26
 70
     1
102
RTVSPropertyOp27
 70
     1
  0
XRECORD
  5
3F8
102
{ACAD_REACTORS
330
3F7
102
}
330
3F7
100
AcDbXrecord
280
     1
102
RTVSPropertyOp0
 70
     1
102
RTVSPropertyOp1
 70
     1
102
RTVSPropertyOp2
 70
     1
102
RTVSPropertyOp3
 70
     1
102
RTVSPropertyOp4
 70
     1
102
RTVSPropertyOp5
 70
     1
102
RTVSPropertyOp6
 70
     1
102
RTVSPropertyOp7
 70
     1
102
RTVSPropertyOp8
 70
     1
102
RTVSPropertyOp9
 70
     1
102
RTVSPropertyOp10
 70
     1
102
RTVSPropertyOp11
 70
     1
102
RTVSPropertyOp12
 70
     1
102
RTVSPropertyOp13
 70
     1
102
RTVSPropertyOp14
 70
     1
102
RTVSPropertyOp15
 70
     1
102
RTVSPropertyOp16
 70
     1
102
RTVSPropertyOp17
 70
     1
102
RTVSPropertyOp18
 70
     1
102
RTVSPropertyOp19
 70
     1
102
RTVSPropertyOp20
 70
     1
102
RTVSPropertyOp21
 70
     1
102
RTVSPropertyOp22
 70
     1
102
RTVSPropertyOp23
 70
     1
102
RTVSPropertyOp24
 70
     1
102
RTVSPropertyOp25
 70
     1
102
RTVSPropertyOp26
 70
     1
102
RTVSPropertyOp27
 70
     1
  0
XRECORD
  5
3EC
102
{ACAD_REACTORS
330
3EB
102
}
330
3EB
100
AcDbXrecord
280
     1
102
RTVSPropertyOp0
 70
     1
102
RTVSPropertyOp1
 70
     1
102
RTVSPropertyOp2
 70
     1
102
RTVSPropertyOp3
 70
     1
102
RTVSPropertyOp4
 70
     1
102
RTVSPropertyOp5
 70
     1
102
RTVSPropertyOp6
 70
     1
102
RTVSPropertyOp7
 70
     1
102
RTVSPropertyOp8
 70
     1
102
RTVSPropertyOp9
 70
     1
102
RTVSPropertyOp10
 70
     1
102
RTVSPropertyOp11
 70
     1
102
RTVSPropertyOp12
 70
     1
102
RTVSPropertyOp13
 70
     1
102
RTVSPropertyOp14
 70
     1
102
RTVSPropertyOp15
 70
     1
102
RTVSPropertyOp16
 70
     1
102
RTVSPropertyOp17
 70
     1
102
RTVSPropertyOp18
 70
     1
102
RTVSPropertyOp19
 70
     1
102
RTVSPropertyOp20
 70
     1
102
RTVSPropertyOp21
 70
     1
102
RTVSPropertyOp22
 70
     1
102
RTVSPropertyOp23
 70
     1
102
RTVSPropertyOp24
 70
     1
102
RTVSPropertyOp25
 70
     1
102
RTVSPropertyOp26
 70
     1
102
RTVSPropertyOp27
 70
     1
  0
XRECORD
  5
3EE
102
{ACAD_REACTORS
330
3ED
102
}
330
3ED
100
AcDbXrecord
280
     1
102
RTVSPropertyOp0
 70
     1
102
RTVSPropertyOp1
 70
     1
102
RTVSPropertyOp2
 70
     1
102
RTVSPropertyOp3
 70
     1
102
RTVSPropertyOp4
 70
     1
102
RTVSPropertyOp5
 70
     1
102
RTVSPropertyOp6
 70
     1
102
RTVSPropertyOp7
 70
     1
102
RTVSPropertyOp8
 70
     1
102
RTVSPropertyOp9
 70
     1
102
RTVSPropertyOp10
 70
     1
102
RTVSPropertyOp11
 70
     1
102
RTVSPropertyOp12
 70
     1
102
RTVSPropertyOp13
 70
     1
102
RTVSPropertyOp14
 70
     1
102
RTVSPropertyOp15
 70
     1
102
RTVSPropertyOp16
 70
     1
102
RTVSPropertyOp17
 70
     1
102
RTVSPropertyOp18
 70
     1
102
RTVSPropertyOp19
 70
     1
102
RTVSPropertyOp20
 70
     1
102
RTVSPropertyOp21
 70
     1
102
RTVSPropertyOp22
 70
     1
102
RTVSPropertyOp23
 70
     1
102
RTVSPropertyOp24
 70
     1
102
RTVSPropertyOp25
 70
     1
102
RTVSPropertyOp26
 70
     1
102
RTVSPropertyOp27
 70
     1
  0
XRECORD
  5
3F6
102
{ACAD_REACTORS
330
3F5
102
}
330
3F5
100
AcDbXrecord
280
     1
102
RTVSPropertyOp0
 70
     1
102
RTVSPropertyOp1
 70
     1
102
RTVSPropertyOp2
 70
     1
102
RTVSPropertyOp3
 70
     1
102
RTVSPropertyOp4
 70
     1
102
RTVSPropertyOp5
 70
     1
102
RTVSPropertyOp6
 70
     1
102
RTVSPropertyOp7
 70
     1
102
RTVSPropertyOp8
 70
     1
102
RTVSPropertyOp9
 70
     1
102
RTVSPropertyOp10
 70
     1
102
RTVSPropertyOp11
 70
     1
102
RTVSPropertyOp12
 70
     1
102
RTVSPropertyOp13
 70
     1
102
RTVSPropertyOp14
 70
     1
102
RTVSPropertyOp15
 70
     1
102
RTVSPropertyOp16
 70
     1
102
RTVSPropertyOp17
 70
     1
102
RTVSPropertyOp18
 70
     1
102
RTVSPropertyOp19
 70
     1
102
RTVSPropertyOp20
 70
     1
102
RTVSPropertyOp21
 70
     1
102
RTVSPropertyOp22
 70
     1
102
RTVSPropertyOp23
 70
     1
102
RTVSPropertyOp24
 70
     1
102
RTVSPropertyOp25
 70
     1
102
RTVSPropertyOp26
 70
     1
102
RTVSPropertyOp27
 70
     1
  0
XRECORD
  5
3DA
102
{ACAD_REACTORS
330
3D9
102
}
330
3D9
100
AcDbXrecord
280
     1
102
RTVSPropertyOp0
 70
     1
102
RTVSPropertyOp1
 70
     1
102
RTVSPropertyOp2
 70
     1
102
RTVSPropertyOp3
 70
     1
102
RTVSPropertyOp4
 70
     1
102
RTVSPropertyOp5
 70
     1
102
RTVSPropertyOp6
 70
     1
102
RTVSPropertyOp7
 70
     1
102
RTVSPropertyOp8
 70
     1
102
RTVSPropertyOp9
 70
     1
102
RTVSPropertyOp10
 70
     1
102
RTVSPropertyOp11
 70
     1
102
RTVSPropertyOp12
 70
     1
102
RTVSPropertyOp13
 70
     1
102
RTVSPropertyOp14
 70
     1
102
RTVSPropertyOp15
 70
     1
102
RTVSPropertyOp16
 70
     1
102
RTVSPropertyOp17
 70
     1
102
RTVSPropertyOp18
 70
     1
102
RTVSPropertyOp19
 70
     1
102
RTVSPropertyOp20
 70
     1
102
RTVSPropertyOp21
 70
     1
102
RTVSPropertyOp22
 70
     1
102
RTVSPropertyOp23
 70
     1
102
RTVSPropertyOp24
 70
     1
102
RTVSPropertyOp25
 70
     1
102
RTVSPropertyOp26
 70
     1
102
RTVSPropertyOp27
 70
     1
  0
XRECORD
  5
3DC
102
{ACAD_REACTORS
330
3DB
102
}
330
3DB
100
AcDbXrecord
280
     1
102
RTVSPropertyOp0
 70
     1
102
RTVSPropertyOp1
 70
     1
102
RTVSPropertyOp2
 70
     1
102
RTVSPropertyOp3
 70
     1
102
RTVSPropertyOp4
 70
     1
102
RTVSPropertyOp5
 70
     1
102
RTVSPropertyOp6
 70
     1
102
RTVSPropertyOp7
 70
     1
102
RTVSPropertyOp8
 70
     1
102
RTVSPropertyOp9
 70
     1
102
RTVSPropertyOp10
 70
     1
102
RTVSPropertyOp11
 70
     1
102
RTVSPropertyOp12
 70
     1
102
RTVSPropertyOp13
 70
     1
102
RTVSPropertyOp14
 70
     1
102
RTVSPropertyOp15
 70
     1
102
RTVSPropertyOp16
 70
     1
102
RTVSPropertyOp17
 70
     1
102
RTVSPropertyOp18
 70
     1
102
RTVSPropertyOp19
 70
     1
102
RTVSPropertyOp20
 70
     1
102
RTVSPropertyOp21
 70
     1
102
RTVSPropertyOp22
 70
     1
102
RTVSPropertyOp23
 70
     1
102
RTVSPropertyOp24
 70
     1
102
RTVSPropertyOp25
 70
     1
102
RTVSPropertyOp26
 70
     1
102
RTVSPropertyOp27
 70
     1
  0
XRECORD
  5
3DE
102
{ACAD_REACTORS
330
3DD
102
}
330
3DD
100
AcDbXrecord
280
     1
102
RTVSPropertyOp0
 70
     1
102
RTVSPropertyOp1
 70
     1
102
RTVSPropertyOp2
 70
     1
102
RTVSPropertyOp3
 70
     1
102
RTVSPropertyOp4
 70
     1
102
RTVSPropertyOp5
 70
     1
102
RTVSPropertyOp6
 70
     1
102
RTVSPropertyOp7
 70
     1
102
RTVSPropertyOp8
 70
     1
102
RTVSPropertyOp9
 70
     1
102
RTVSPropertyOp10
 70
     1
102
RTVSPropertyOp11
 70
     1
102
RTVSPropertyOp12
 70
     1
102
RTVSPropertyOp13
 70
     1
102
RTVSPropertyOp14
 70
     1
102
RTVSPropertyOp15
 70
     1
102
RTVSPropertyOp16
 70
     1
102
RTVSPropertyOp17
 70
     1
102
RTVSPropertyOp18
 70
     1
102
RTVSPropertyOp19
 70
     1
102
RTVSPropertyOp20
 70
     1
102
RTVSPropertyOp21
 70
     1
102
RTVSPropertyOp22
 70
     1
102
RTVSPropertyOp23
 70
     1
102
RTVSPropertyOp24
 70
     1
102
RTVSPropertyOp25
 70
     1
102
RTVSPropertyOp26
 70
     1
102
RTVSPropertyOp27
 70
     1
  0
XRECORD
  5
3E0
102
{ACAD_REACTORS
330
3DF
102
}
330
3DF
100
AcDbXrecord
280
     1
102
RTVSPropertyOp0
 70
     1
102
RTVSPropertyOp1
 70
     1
102
RTVSPropertyOp2
 70
     1
102
RTVSPropertyOp3
 70
     1
102
RTVSPropertyOp4
 70
     1
102
RTVSPropertyOp5
 70
     1
102
RTVSPropertyOp6
 70
     1
102
RTVSPropertyOp7
 70
     1
102
RTVSPropertyOp8
 70
     1
102
RTVSPropertyOp9
 70
     1
102
RTVSPropertyOp10
 70
     1
102
RTVSPropertyOp11
 70
     1
102
RTVSPropertyOp12
 70
     1
102
RTVSPropertyOp13
 70
     1
102
RTVSPropertyOp14
 70
     1
102
RTVSPropertyOp15
 70
     1
102
RTVSPropertyOp16
 70
     1
102
RTVSPropertyOp17
 70
     1
102
RTVSPropertyOp18
 70
     1
102
RTVSPropertyOp19
 70
     1
102
RTVSPropertyOp20
 70
     1
102
RTVSPropertyOp21
 70
     1
102
RTVSPropertyOp22
 70
     1
102
RTVSPropertyOp23
 70
     1
102
RTVSPropertyOp24
 70
     1
102
RTVSPropertyOp25
 70
     1
102
RTVSPropertyOp26
 70
     1
102
RTVSPropertyOp27
 70
     1
  0
XRECORD
  5
3F4
102
{ACAD_REACTORS
330
3F3
102
}
330
3F3
100
AcDbXrecord
280
     1
102
RTVSPropertyOp0
 70
     1
102
RTVSPropertyOp1
 70
     1
102
RTVSPropertyOp2
 70
     1
102
RTVSPropertyOp3
 70
     1
102
RTVSPropertyOp4
 70
     1
102
RTVSPropertyOp5
 70
     1
102
RTVSPropertyOp6
 70
     1
102
RTVSPropertyOp7
 70
     1
102
RTVSPropertyOp8
 70
     1
102
RTVSPropertyOp9
 70
     1
102
RTVSPropertyOp10
 70
     1
102
RTVSPropertyOp11
 70
     1
102
RTVSPropertyOp12
 70
     1
102
RTVSPropertyOp13
 70
     1
102
RTVSPropertyOp14
 70
     1
102
RTVSPropertyOp15
 70
     1
102
RTVSPropertyOp16
 70
     1
102
RTVSPropertyOp17
 70
     1
102
RTVSPropertyOp18
 70
     1
102
RTVSPropertyOp19
 70
     1
102
RTVSPropertyOp20
 70
     1
102
RTVSPropertyOp21
 70
     1
102
RTVSPropertyOp22
 70
     1
102
RTVSPropertyOp23
 70
     1
102
RTVSPropertyOp24
 70
     1
102
RTVSPropertyOp25
 70
     1
102
RTVSPropertyOp26
 70
     1
102
RTVSPropertyOp27
 70
     1
  0
XRECORD
  5
3EA
102
{ACAD_REACTORS
330
3E9
102
}
330
3E9
100
AcDbXrecord
280
     1
102
RTVSPropertyOp0
 70
     1
102
RTVSPropertyOp1
 70
     1
102
RTVSPropertyOp2
 70
     1
102
RTVSPropertyOp3
 70
     1
102
RTVSPropertyOp4
 70
     1
102
RTVSPropertyOp5
 70
     1
102
RTVSPropertyOp6
 70
     1
102
RTVSPropertyOp7
 70
     1
102
RTVSPropertyOp8
 70
     1
102
RTVSPropertyOp9
 70
     1
102
RTVSPropertyOp10
 70
     1
102
RTVSPropertyOp11
 70
     1
102
RTVSPropertyOp12
 70
     1
102
RTVSPropertyOp13
 70
     1
102
RTVSPropertyOp14
 70
     1
102
RTVSPropertyOp15
 70
     1
102
RTVSPropertyOp16
 70
     1
102
RTVSPropertyOp17
 70
     1
102
RTVSPropertyOp18
 70
     1
102
RTVSPropertyOp19
 70
     1
102
RTVSPropertyOp20
 70
     1
102
RTVSPropertyOp21
 70
     1
102
RTVSPropertyOp22
 70
     1
102
RTVSPropertyOp23
 70
     1
102
RTVSPropertyOp24
 70
     1
102
RTVSPropertyOp25
 70
     1
102
RTVSPropertyOp26
 70
     1
102
RTVSPropertyOp27
 70
     1
  0
XRECORD
  5
3F2
102
{ACAD_REACTORS
330
3F1
102
}
330
3F1
100
AcDbXrecord
280
     1
102
RTVSPropertyOp0
 70
     1
102
RTVSPropertyOp1
 70
     1
102
RTVSPropertyOp2
 70
     1
102
RTVSPropertyOp3
 70
     1
102
RTVSPropertyOp4
 70
     1
102
RTVSPropertyOp5
 70
     1
102
RTVSPropertyOp6
 70
     1
102
RTVSPropertyOp7
 70
     1
102
RTVSPropertyOp8
 70
     1
102
RTVSPropertyOp9
 70
     1
102
RTVSPropertyOp10
 70
     1
102
RTVSPropertyOp11
 70
     1
102
RTVSPropertyOp12
 70
     1
102
RTVSPropertyOp13
 70
     1
102
RTVSPropertyOp14
 70
     1
102
RTVSPropertyOp15
 70
     1
102
RTVSPropertyOp16
 70
     1
102
RTVSPropertyOp17
 70
     1
102
RTVSPropertyOp18
 70
     1
102
RTVSPropertyOp19
 70
     1
102
RTVSPropertyOp20
 70
     1
102
RTVSPropertyOp21
 70
     1
102
RTVSPropertyOp22
 70
     1
102
RTVSPropertyOp23
 70
     1
102
RTVSPropertyOp24
 70
     1
102
RTVSPropertyOp25
 70
     1
102
RTVSPropertyOp26
 70
     1
102
RTVSPropertyOp27
 70
     1
  0
ENDSEC
  0
EOF
