  0
SECTION
  2
HEADER
  9
$ACADVER
  1
AC1015
  9
$ACADMAINTVER
 70
     6
  9
$DWGCODEPAGE
  3
ANSI_932
  9
$INSBASE
 10
0.0
 20
0.0
 30
0.0
  9
$EXTMIN
 10
233.373269981665
 20
-7.85020678665718
 30
0.0
  9
$EXTMAX
 10
621.3891309114886
 20
472.806626719424
 30
0.0
  9
$LIMMIN
 10
0.0
 20
0.0
  9
$LIMMAX
 10
12.0
 20
9.0
  9
$ORTHOMODE
 70
     0
  9
$REGENMODE
 70
     1
  9
$FILLMODE
 70
     1
  9
$QTEXTMODE
 70
     0
  9
$MIRRTEXT
 70
     1
  9
$LTSCALE
 40
1.0
  9
$ATTMODE
 70
     1
  9
$TEXTSIZE
 40
0.2
  9
$TRACEWID
 40
0.05
  9
$TEXTSTYLE
  7
Standard
  9
$CLAYER
  8
0
  9
$CELTYPE
  6
ByLayer
  9
$CECOLOR
 62
   256
  9
$CELTSCALE
 40
1.0
  9
$DISPSILH
 70
     0
  9
$DIMSCALE
 40
1.0
  9
$DIMASZ
 40
0.18
  9
$DIMEXO
 40
0.0625
  9
$DIMDLI
 40
0.38
  9
$DIMRND
 40
0.0
  9
$DIMDLE
 40
0.0
  9
$DIMEXE
 40
0.18
  9
$DIMTP
 40
0.0
  9
$DIMTM
 40
0.0
  9
$DIMTXT
 40
0.18
  9
$DIMCEN
 40
0.09
  9
$DIMTSZ
 40
0.0
  9
$DIMTOL
 70
     0
  9
$DIMLIM
 70
     0
  9
$DIMTIH
 70
     1
  9
$DIMTOH
 70
     1
  9
$DIMSE1
 70
     0
  9
$DIMSE2
 70
     0
  9
$DIMTAD
 70
     0
  9
$DIMZIN
 70
     0
  9
$DIMBLK
  1

  9
$DIMASO
 70
     1
  9
$DIMSHO
 70
     1
  9
$DIMPOST
  1

  9
$DIMAPOST
  1

  9
$DIMALT
 70
     0
  9
$DIMALTD
 70
     2
  9
$DIMALTF
 40
25.4
  9
$DIMLFAC
 40
1.0
  9
$DIMTOFL
 70
     0
  9
$DIMTVP
 40
0.0
  9
$DIMTIX
 70
     0
  9
$DIMSOXD
 70
     0
  9
$DIMSAH
 70
     0
  9
$DIMBLK1
  1

  9
$DIMBLK2
  1

  9
$DIMSTYLE
  2
Standard
  9
$DIMCLRD
 70
     0
  9
$DIMCLRE
 70
     0
  9
$DIMCLRT
 70
     0
  9
$DIMTFAC
 40
1.0
  9
$DIMGAP
 40
0.09
  9
$DIMJUST
 70
     0
  9
$DIMSD1
 70
     0
  9
$DIMSD2
 70
     0
  9
$DIMTOLJ
 70
     1
  9
$DIMTZIN
 70
     0
  9
$DIMALTZ
 70
     0
  9
$DIMALTTZ
 70
     0
  9
$DIMUPT
 70
     0
  9
$DIMDEC
 70
     4
  9
$DIMTDEC
 70
     4
  9
$DIMALTU
 70
     2
  9
$DIMALTTD
 70
     2
  9
$DIMTXSTY
  7
Standard
  9
$DIMAUNIT
 70
     0
  9
$DIMADEC
 70
     0
  9
$DIMALTRND
 40
0.0
  9
$DIMAZIN
 70
     0
  9
$DIMDSEP
 70
    46
  9
$DIMATFIT
 70
     3
  9
$DIMFRAC
 70
     0
  9
$DIMLDRBLK
  1

  9
$DIMLUNIT
 70
     2
  9
$DIMLWD
 70
    -2
  9
$DIMLWE
 70
    -2
  9
$DIMTMOVE
 70
     0
  9
$LUNITS
 70
     2
  9
$LUPREC
 70
     4
  9
$SKETCHINC
 40
0.1
  9
$FILLETRAD
 40
0.5
  9
$AUNITS
 70
     0
  9
$AUPREC
 70
     0
  9
$MENU
  1
.
  9
$ELEVATION
 40
0.0
  9
$PELEVATION
 40
0.0
  9
$THICKNESS
 40
0.0
  9
$LIMCHECK
 70
     0
  9
$CHAMFERA
 40
0.5
  9
$CHAMFERB
 40
0.5
  9
$CHAMFERC
 40
1.0
  9
$CHAMFERD
 40
0.0
  9
$SKPOLY
 70
     0
  9
$TDCREATE
 40
2457624.561029456
  9
$TDUCREATE
 40
2457624.186029456
  9
$TDUPDATE
 40
2457624.561029468
  9
$TDUUPDATE
 40
2457624.186029468
  9
$TDINDWG
 40
0.0000000116
  9
$TDUSRTIMER
 40
0.0000000116
  9
$USRTIMER
 70
     1
  9
$ANGBASE
 50
0.0
  9
$ANGDIR
 70
     0
  9
$PDMODE
 70
     0
  9
$PDSIZE
 40
0.0
  9
$PLINEWID
 40
0.0
  9
$SPLFRAME
 70
     0
  9
$SPLINETYPE
 70
     6
  9
$SPLINESEGS
 70
     8
  9
$HANDSEED
  5
341
  9
$SURFTAB1
 70
     6
  9
$SURFTAB2
 70
     6
  9
$SURFTYPE
 70
     6
  9
$SURFU
 70
     6
  9
$SURFV
 70
     6
  9
$UCSBASE
  2

  9
$UCSNAME
  2

  9
$UCSORG
 10
0.0
 20
0.0
 30
0.0
  9
$UCSXDIR
 10
1.0
 20
0.0
 30
0.0
  9
$UCSYDIR
 10
0.0
 20
1.0
 30
0.0
  9
$UCSORTHOREF
  2

  9
$UCSORTHOVIEW
 70
     0
  9
$UCSORGTOP
 10
0.0
 20
0.0
 30
0.0
  9
$UCSORGBOTTOM
 10
0.0
 20
0.0
 30
0.0
  9
$UCSORGLEFT
 10
0.0
 20
0.0
 30
0.0
  9
$UCSORGRIGHT
 10
0.0
 20
0.0
 30
0.0
  9
$UCSORGFRONT
 10
0.0
 20
0.0
 30
0.0
  9
$UCSORGBACK
 10
0.0
 20
0.0
 30
0.0
  9
$PUCSBASE
  2

  9
$PUCSNAME
  2

  9
$PUCSORG
 10
0.0
 20
0.0
 30
0.0
  9
$PUCSXDIR
 10
1.0
 20
0.0
 30
0.0
  9
$PUCSYDIR
 10
0.0
 20
1.0
 30
0.0
  9
$PUCSORTHOREF
  2

  9
$PUCSORTHOVIEW
 70
     0
  9
$PUCSORGTOP
 10
0.0
 20
0.0
 30
0.0
  9
$PUCSORGBOTTOM
 10
0.0
 20
0.0
 30
0.0
  9
$PUCSORGLEFT
 10
0.0
 20
0.0
 30
0.0
  9
$PUCSORGRIGHT
 10
0.0
 20
0.0
 30
0.0
  9
$PUCSORGFRONT
 10
0.0
 20
0.0
 30
0.0
  9
$PUCSORGBACK
 10
0.0
 20
0.0
 30
0.0
  9
$USERI1
 70
     0
  9
$USERI2
 70
     0
  9
$USERI3
 70
     0
  9
$USERI4
 70
     0
  9
$USERI5
 70
     0
  9
$USERR1
 40
18.0
  9
$USERR2
 40
0.0
  9
$USERR3
 40
0.0
  9
$USERR4
 40
0.0
  9
$USERR5
 40
0.0
  9
$WORLDVIEW
 70
     1
  9
$SHADEDGE
 70
     3
  9
$SHADEDIF
 70
    70
  9
$TILEMODE
 70
     1
  9
$MAXACTVP
 70
    64
  9
$PINSBASE
 10
0.0
 20
0.0
 30
0.0
  9
$PLIMCHECK
 70
     0
  9
$PEXTMIN
 10
1.00000000000000E+20
 20
1.00000000000000E+20
 30
1.00000000000000E+20
  9
$PEXTMAX
 10
-1.00000000000000E+20
 20
-1.00000000000000E+20
 30
-1.00000000000000E+20
  9
$PLIMMIN
 10
0.0
 20
0.0
  9
$PLIMMAX
 10
12.0
 20
9.0
  9
$UNITMODE
 70
     0
  9
$VISRETAIN
 70
     1
  9
$PLINEGEN
 70
     0
  9
$PSLTSCALE
 70
     1
  9
$TREEDEPTH
 70
  3020
  9
$CMLSTYLE
  2
Standard
  9
$CMLJUST
 70
     0
  9
$CMLSCALE
 40
1.0
  9
$PROXYGRAPHICS
 70
     1
  9
$MEASUREMENT
 70
     1
  9
$CELWEIGHT
370
    -1
  9
$ENDCAPS
280
     0
  9
$JOINSTYLE
280
     0
  9
$LWDISPLAY
290
     0
  9
$INSUNITS
 70
     1
  9
$HYPERLINKBASE
  1

  9
$STYLESHEET
  1

  9
$XEDIT
290
     1
  9
$CEPSNTYPE
380
     0
  9
$PSTYLEMODE
290
     1
  9
$FINGERPRINTGUID
  2
{BCD145E5-C1B6-44BF-A41B-AB3093511F9A}
  9
$VERSIONGUID
  2
{FAEB1C32-E019-11D5-929B-00C0DF256EC4}
  9
$EXTNAMES
290
     1
  9
$PSVPSCALE
 40
0.0
  9
$OLESTARTUP
290
     0
  0
ENDSEC
  0
SECTION
  2
CLASSES
  0
CLASS
  1
ACDBDICTIONARYWDFLT
  2
AcDbDictionaryWithDefault
  3
ObjectDBX Classes
 90
        0
280
     0
281
     0
  0
CLASS
  1
VISUALSTYLE
  2
AcDbVisualStyle
  3
ObjectDBX Classes
 90
     4095
280
     0
281
     0
  0
CLASS
  1
MATERIAL
  2
AcDbMaterial
  3
ObjectDBX Classes
 90
     1153
280
     0
281
     0
  0
CLASS
  1

  2
exOdDbCircle
  3

 90
        0
280
     0
281
     1
  0
CLASS
  1

  2
exOdDbPolyline
  3

 90
        0
280
     0
281
     1
  0
CLASS
  1
SCALE
  2
AcDbScale
  3
ObjectDBX Classes
 90
     1153
280
     0
281
     0
  0
CLASS
  1
DICTIONARYVAR
  2
AcDbDictionaryVar
  3
ObjectDBX Classes
 90
        0
280
     0
281
     0
  0
CLASS
  1
ACDBPLACEHOLDER
  2
AcDbPlaceHolder
  3
ObjectDBX Classes
 90
        0
280
     0
281
     0
  0
CLASS
  1
LAYOUT
  2
AcDbLayout
  3
ObjectDBX Classes
 90
        0
280
     0
281
     0
  0
ENDSEC
  0
SECTION
  2
TABLES
  0
TABLE
  2
VPORT
  5
8
330
0
100
AcDbSymbolTable
 70
     1
  0
VPORT
  5
29
330
8
100
AcDbSymbolTableRecord
100
AcDbViewportTableRecord
  2
*Active
 70
     0
 10
0.0
 20
0.0
 11
1.0
 21
1.0
 12
427.3812004465768
 22
232.4782099663834
 13
0.0
 23
0.0
 14
0.5
 24
0.5
 15
0.5
 25
0.5
 16
0.0
 26
0.0
 36
1.0
 17
0.0
 27
0.0
 37
0.0
 40
528.7225168566894
 41
1.60267857142857
 42
50.0
 43
0.0
 44
0.0
 50
0.0
 51
0.0
 71
     0
 72
   100
 73
     1
 74
     3
 75
     0
 76
     0
 77
     0
 78
     0
281
     0
 65
     1
110
0.0
120
0.0
130
0.0
111
1.0
121
0.0
131
0.0
112
0.0
122
1.0
132
0.0
 79
     0
146
0.0
  0
ENDTAB
  0
TABLE
  2
LTYPE
  5
5
330
0
100
AcDbSymbolTable
 70
     9
  0
LTYPE
  5
14
330
5
100
AcDbSymbolTableRecord
100
AcDbLinetypeTableRecord
  2
ByBlock
 70
     0
  3

 72
    65
 73
     0
 40
0.0
  0
LTYPE
  5
15
330
5
100
AcDbSymbolTableRecord
100
AcDbLinetypeTableRecord
  2
ByLayer
 70
     0
  3

 72
    65
 73
     0
 40
0.0
  0
LTYPE
  5
16
330
5
100
AcDbSymbolTableRecord
100
AcDbLinetypeTableRecord
  2
Continuous
 70
     0
  3
Solid line
 72
    65
 73
     0
 40
0.0
  0
LTYPE
  5
3F
330
5
100
AcDbSymbolTableRecord
100
AcDbLinetypeTableRecord
  2
DASHED
 70
     0
  3
Dashed
 72
    65
 73
     2
 40
15.0
 49
7.0
 74
     0
 49
-8.0
 74
     0
  0
LTYPE
  5
40
330
5
100
AcDbSymbolTableRecord
100
AcDbLinetypeTableRecord
  2
DOTTED
 70
     0
  3
Dotted
 72
    65
 73
     2
 40
1.0
 49
0.0
 74
     0
 49
-1.0
 74
     0
  0
LTYPE
  5
41
330
5
100
AcDbSymbolTableRecord
100
AcDbLinetypeTableRecord
  2
DOT_CENTER
 70
     0
  3
Dot_Center
 72
    65
 73
     4
 40
14.0
 49
12.0
 74
     0
 49
-1.0
 74
     0
 49
0.0
 74
     0
 49
-1.0
 74
     0
  0
LTYPE
  5
42
330
5
100
AcDbSymbolTableRecord
100
AcDbLinetypeTableRecord
  2
LONG_DASHED
 70
     0
  3
Long_Dashed
 72
    65
 73
     2
 40
15.0
 49
10.0
 74
     0
 49
-5.0
 74
     0
  0
LTYPE
  5
43
330
5
100
AcDbSymbolTableRecord
100
AcDbLinetypeTableRecord
  2
DASH_CENTER
 70
     0
  3
Dash_Center
 72
    65
 73
     4
 40
14.0
 49
11.0
 74
     0
 49
-1.0
 74
     0
 49
1.0
 74
     0
 49
-1.0
 74
     0
  0
LTYPE
  5
44
330
5
100
AcDbSymbolTableRecord
100
AcDbLinetypeTableRecord
  2
PHANTOM
 70
     0
  3
Phantom
 72
    65
 73
     6
 40
13.0
 49
10.0
 74
     0
 49
-1.0
 74
     0
 49
0.0
 74
     0
 49
-1.0
 74
     0
 49
0.0
 74
     0
 49
-1.0
 74
     0
  0
LTYPE
  5
45
330
5
100
AcDbSymbolTableRecord
100
AcDbLinetypeTableRecord
  2
CENTER_DASH_DASH
 70
     0
  3
Center_Dash_Dash
 72
    65
 73
     6
 40
14.0
 49
9.0
 74
     0
 49
-1.0
 74
     0
 49
1.0
 74
     0
 49
-1.0
 74
     0
 49
1.0
 74
     0
 49
-1.0
 74
     0
  0
LTYPE
  5
46
330
5
100
AcDbSymbolTableRecord
100
AcDbLinetypeTableRecord
  2
CENTER
 70
     0
  3
CENTER
 72
    65
 73
     4
 40
6.0
 49
3.0
 74
     0
 49
-1.0
 74
     0
 49
1.0
 74
     0
 49
-1.0
 74
     0
  0
ENDTAB
  0
TABLE
  2
LAYER
  5
2
330
0
100
AcDbSymbolTable
 70
     4
  0
LAYER
  5
10
330
2
100
AcDbSymbolTableRecord
100
AcDbLayerTableRecord
  2
0
 70
     0
 62
     7
  6
Continuous
370
    -3
390
F
  0
LAYER
  5
47
330
2
100
AcDbSymbolTableRecord
100
AcDbLayerTableRecord
  2
1
 70
     0
 62
     7
  6
Continuous
370
    -3
390
F
  0
LAYER
  5
48
330
2
100
AcDbSymbolTableRecord
100
AcDbLayerTableRecord
  2
100
 70
     0
 62
     7
  6
Continuous
370
    -3
390
F
  0
LAYER
  5
49
330
2
100
AcDbSymbolTableRecord
100
AcDbLayerTableRecord
  2
2
 70
     0
 62
     7
  6
Continuous
370
    -3
390
F
  0
ENDTAB
  0
TABLE
  2
STYLE
  5
3
330
0
100
AcDbSymbolTable
 70
     2
  0
STYLE
  5
11
330
3
100
AcDbSymbolTableRecord
100
AcDbTextStyleTableRecord
  2
Standard
 70
     0
 40
0.0
 41
1.0
 50
0.0
 71
     0
 42
0.2
  3
txt
  4

  0
STYLE
  5
2DA
330
3
100
AcDbSymbolTableRecord
100
AcDbTextStyleTableRecord
  2
CONVERTER_11
 70
     0
 40
0.0
 41
0.9
 50
0.0
 71
     0
 42
0.2
  3
txt.shx
  4

  0
ENDTAB
  0
TABLE
  2
VIEW
  5
6
330
0
100
AcDbSymbolTable
 70
     0
  0
ENDTAB
  0
TABLE
  2
UCS
  5
7
330
0
100
AcDbSymbolTable
 70
     0
  0
ENDTAB
  0
TABLE
  2
APPID
  5
9
330
0
100
AcDbSymbolTable
 70
     1
  0
APPID
  5
12
330
9
100
AcDbSymbolTableRecord
100
AcDbRegAppTableRecord
  2
ACAD
 70
     0
  0
ENDTAB
  0
TABLE
  2
DIMSTYLE
  5
A
330
0
100
AcDbSymbolTable
 70
     3
100
AcDbDimStyleTable
  0
DIMSTYLE
105
27
330
A
100
AcDbSymbolTableRecord
100
AcDbDimStyleTableRecord
  2
Standard
 70
     0
340
11
  0
DIMSTYLE
105
306
102
{ACAD_REACTORS
330
307
102
}
330
A
100
AcDbSymbolTableRecord
100
AcDbDimStyleTableRecord
  2
ME10_DIM_10
 70
     0
 41
8.0
 42
1.0
 44
1.0
 73
     0
 74
     0
 77
     1
 78
    12
140
10.0
147
1.0
172
     1
173
     1
174
     1
175
     1
176
     2
177
     2
178
     2
271
     3
340
2DA
343
300
344
300
  0
DIMSTYLE
105
313
102
{ACAD_REACTORS
330
314
102
}
330
A
100
AcDbSymbolTableRecord
100
AcDbDimStyleTableRecord
  2
ME10_DIM_11
 70
     0
 41
8.0
 42
1.0
 44
1.0
 73
     0
 74
     0
 77
     1
 78
    12
140
10.0
147
1.0
172
     1
173
     1
174
     1
175
     1
176
     2
177
     2
178
     2
271
     3
340
2DA
343
300
344
300
  0
ENDTAB
  0
TABLE
  2
BLOCK_RECORD
  5
1
330
0
100
AcDbSymbolTable
 70
     4
  0
BLOCK_RECORD
  5
1F
330
1
100
AcDbSymbolTableRecord
100
AcDbBlockTableRecord
  2
*Model_Space
340
22
  0
BLOCK_RECORD
  5
1B
330
1
100
AcDbSymbolTableRecord
100
AcDbBlockTableRecord
  2
*Paper_Space
340
1E
  0
BLOCK_RECORD
  5
23
330
1
100
AcDbSymbolTableRecord
100
AcDbBlockTableRecord
  2
*Paper_Space0
340
26
  0
BLOCK_RECORD
  5
2D2
330
1
100
AcDbSymbolTableRecord
100
AcDbBlockTableRecord
  2
*D1
340
0
  0
BLOCK_RECORD
  5
300
330
1
100
AcDbSymbolTableRecord
100
AcDbBlockTableRecord
  2
_OPEN30
340
0
  0
BLOCK_RECORD
  5
308
330
1
100
AcDbSymbolTableRecord
100
AcDbBlockTableRecord
  2
*D3
340
0
  0
ENDTAB
  0
ENDSEC
  0
SECTION
  2
BLOCKS
  0
BLOCK
  5
20
330
1F
100
AcDbEntity
  8
0
100
AcDbBlockBegin
  2
*Model_Space
 70
     0
 10
0.0
 20
0.0
 30
0.0
  3
*Model_Space
  1

  0
ENDBLK
  5
21
330
1F
100
AcDbEntity
  8
0
100
AcDbBlockEnd
  0
BLOCK
  5
1C
330
1B
100
AcDbEntity
 67
     1
  8
0
100
AcDbBlockBegin
  2
*Paper_Space
 70
     0
 10
0.0
 20
0.0
 30
0.0
  3
*Paper_Space
  1

  0
ENDBLK
  5
1D
330
1B
100
AcDbEntity
 67
     1
  8
0
100
AcDbBlockEnd
  0
BLOCK
  5
24
330
23
100
AcDbEntity
  8
0
100
AcDbBlockBegin
  2
*Paper_Space0
 70
     0
 10
0.0
 20
0.0
 30
0.0
  3
*Paper_Space0
  1

  0
ENDBLK
  5
25
330
23
100
AcDbEntity
  8
0
100
AcDbBlockEnd
  0
BLOCK
  5
2FE
330
2D2
100
AcDbEntity
  8
0
100
AcDbBlockBegin
  2
*D1
 70
     1
 10
0.0
 20
0.0
 30
0.0
  3
*D1
  1

  0
LINE
  5
2D3
330
2D2
100
AcDbEntity
  8
1
  6
Continuous
 62
     2
100
AcDbLine
 10
264.273211583129
 20
-5.7066132472082
 30
0.0
 11
416.273211583129
 21
-5.7066132472082
 31
0.0
  0
LINE
  5
2D4
330
2D2
100
AcDbEntity
  8
1
  6
Continuous
 62
     2
100
AcDbLine
 10
264.273211583129
 20
43.34999999999999
 30
0.0
 11
264.273211583129
 21
-6.7066132472082
 31
0.0
  0
LINE
  5
2D5
330
2D2
100
AcDbEntity
  8
1
  6
Continuous
 62
     2
100
AcDbLine
 10
416.273211583129
 20
43.34999999999999
 30
0.0
 11
416.273211583129
 21
-6.7066132472082
 31
0.0
  0
LINE
  5
2D6
330
2D2
100
AcDbEntity
  8
1
 62
     2
100
AcDbLine
 10
416.273211583129
 20
-5.7066132472082
 30
0.0
 11
408.273211583129
 21
-7.85020678665718
 31
0.0
  0
LINE
  5
2D7
330
2D2
100
AcDbEntity
  8
1
 62
     2
100
AcDbLine
 10
416.273211583129
 20
-5.7066132472082
 30
0.0
 11
408.273211583129
 21
-3.56301970775922
 31
0.0
  0
LINE
  5
2D8
330
2D2
100
AcDbEntity
  8
1
 62
     2
100
AcDbLine
 10
264.273211583129
 20
-5.7066132472082
 30
0.0
 11
272.273211583129
 21
-3.56301970775922
 31
0.0
  0
LINE
  5
2D9
330
2D2
100
AcDbEntity
  8
1
 62
     2
100
AcDbLine
 10
264.273211583129
 20
-5.7066132472082
 30
0.0
 11
272.273211583129
 21
-7.85020678665718
 31
0.0
  0
MTEXT
  5
2FD
330
2D2
100
AcDbEntity
  8
1
 62
     2
100
AcDbMText
 10
329.2032237035036
 20
-4.70664008163076
 30
0.0
 40
10.0
 41
0.0
 71
     7
 72
     1
  1
152
  7
CONVERTER_11
 11
0.9999999999882478
 21
4.848136811095759E-6
 31
0.0
 73
     1
 44
0.60024009603842
  0
ENDBLK
  5
2FF
330
2D2
100
AcDbEntity
  8
0
100
AcDbBlockEnd
  0
BLOCK
  5
301
330
300
100
AcDbEntity
  8
0
100
AcDbBlockBegin
  2
_OPEN30
 70
     0
 10
0.0
 20
0.0
 30
0.0
  3
_OPEN30
  1

  0
LINE
  5
303
330
300
100
AcDbEntity
  8
0
  6
ByBlock
 62
     0
370
    -2
100
AcDbLine
 10
-1.0
 20
0.267949
 30
0.0
 11
0.0
 21
0.0
 31
0.0
  0
LINE
  5
304
330
300
100
AcDbEntity
  8
0
  6
ByBlock
 62
     0
370
    -2
100
AcDbLine
 10
0.0
 20
0.0
 30
0.0
 11
-1.0
 21
-0.267949
 31
0.0
  0
LINE
  5
305
330
300
100
AcDbEntity
  8
0
  6
ByBlock
 62
     0
370
    -2
100
AcDbLine
 10
0.0
 20
0.0
 30
0.0
 11
-1.0
 21
0.0
 31
0.0
  0
ENDBLK
  5
302
330
300
100
AcDbEntity
  8
0
100
AcDbBlockEnd
  0
BLOCK
  5
311
330
308
100
AcDbEntity
  8
0
100
AcDbBlockBegin
  2
*D3
 70
     1
 10
0.0
 20
0.0
 30
0.0
  3
*D3
  1

  0
LINE
  5
309
330
308
100
AcDbEntity
  8
1
  6
Continuous
 62
     2
100
AcDbLine
 10
438.415250628665
 20
74.00000000000001
 30
0.0
 11
438.415250628665
 21
261.995063912567
 31
0.0
  0
LINE
  5
30A
330
308
100
AcDbEntity
  8
1
  6
Continuous
 62
     2
100
AcDbLine
 10
422.273211583129
 20
74.00000000000001
 30
0.0
 11
439.415250628665
 21
74.00000000000001
 31
0.0
  0
LINE
  5
30B
330
308
100
AcDbEntity
  8
1
  6
Continuous
 62
     2
100
AcDbLine
 10
399.876787276349
 20
261.995063912567
 30
0.0
 11
439.415250628665
 21
261.995063912567
 31
0.0
  0
LINE
  5
30C
330
308
100
AcDbEntity
  8
1
 62
     2
100
AcDbLine
 10
438.415250628665
 20
261.995063912567
 30
0.0
 11
440.558844168114
 21
253.995063912567
 31
0.0
  0
LINE
  5
30D
330
308
100
AcDbEntity
  8
1
 62
     2
100
AcDbLine
 10
438.415250628665
 20
261.995063912567
 30
0.0
 11
436.271657089216
 21
253.995063912567
 31
0.0
  0
LINE
  5
30E
330
308
100
AcDbEntity
  8
1
 62
     2
100
AcDbLine
 10
438.415250628665
 20
74.00000000000001
 30
0.0
 11
436.271657089216
 21
82.00000000000001
 31
0.0
  0
LINE
  5
30F
330
308
100
AcDbEntity
  8
1
 62
     2
100
AcDbLine
 10
438.415250628665
 20
74.00000000000001
 30
0.0
 11
440.558844168114
 21
82.00000000000001
 31
0.0
  0
MTEXT
  5
310
330
308
100
AcDbEntity
  8
1
 62
     2
100
AcDbMText
 10
437.415250628665
 20
158.210785795321
 30
0.0
 40
10.0
 41
0.0
 71
     7
 72
     1
  1
187
  7
CONVERTER_11
 11
0.0
 21
1.0
 31
0.0
 73
     1
 44
0.60024009603842
  0
ENDBLK
  5
312
330
308
100
AcDbEntity
  8
0
100
AcDbBlockEnd
  0
ENDSEC
  0
SECTION
  2
ENTITIES
  0
POINT
  5
4A
330
1F
100
AcDbEntity
  8
1
 62
     7
100
AcDbPoint
 10
264.273211583129
 20
44.35
 30
0.0
  0
POINT
  5
4B
330
1F
100
AcDbEntity
  8
1
 62
     7
100
AcDbPoint
 10
416.273211583129
 20
44.35
 30
0.0
  0
POINT
  5
4C
330
1F
100
AcDbEntity
  8
1
 62
     7
100
AcDbPoint
 10
421.273211583129
 20
74.0
 30
0.0
  0
POINT
  5
4D
330
1F
100
AcDbEntity
  8
1
 62
     7
100
AcDbPoint
 10
398.876787276349
 20
261.995063912567
 30
0.0
  0
LINE
  5
4E
330
1F
100
AcDbEntity
  8
1
  6
Continuous
 62
     4
100
AcDbLine
 10
362.394328311086
 20
18.4694542051483
 30
0.0
 11
361.602228311086
 21
17.2194542051483
 31
0.0
  0
LINE
  5
4F
330
1F
100
AcDbEntity
  8
1
  6
Continuous
 62
     4
100
AcDbLine
 10
361.602228311086
 20
19.7194542051483
 30
0.0
 11
362.394328311086
 21
18.4694542051483
 31
0.0
  0
LINE
  5
50
330
1F
100
AcDbEntity
  8
1
  6
Continuous
 62
     4
100
AcDbLine
 10
356.453578311086
 20
18.4694542051483
 30
0.0
 11
362.394328311086
 21
18.4694542051483
 31
0.0
  0
LINE
  5
51
330
1F
100
AcDbEntity
  8
1
  6
Continuous
 62
     4
100
AcDbLine
 10
349.9187533110859
 20
21.3444542051483
 30
0.0
 11
354.4733283110859
 21
21.3444542051483
 31
0.0
  0
LINE
  5
52
330
1F
100
AcDbEntity
  8
1
  6
Continuous
 62
     4
100
AcDbLine
 10
349.9187533110859
 20
21.3444542051483
 30
0.0
 11
351.0078908110859
 21
23.2194542051483
 31
0.0
  0
LINE
  5
53
330
1F
100
AcDbEntity
  8
1
  6
Continuous
 62
     4
100
AcDbLine
 10
352.493078311086
 20
16.5944542051483
 30
0.0
 11
350.809865811086
 21
16.5944542051483
 31
0.0
  0
LINE
  5
54
330
1F
100
AcDbEntity
  8
1
  6
Continuous
 62
     4
100
AcDbLine
 10
352.493078311086
 20
19.0944542051483
 30
0.0
 11
352.493078311086
 21
16.5944542051483
 31
0.0
  0
LINE
  5
55
330
1F
100
AcDbEntity
  8
1
  6
Continuous
 62
     4
100
AcDbLine
 10
350.809865811086
 20
19.0944542051483
 30
0.0
 11
352.493078311086
 21
19.0944542051483
 31
0.0
  0
LINE
  5
56
330
1F
100
AcDbEntity
  8
1
  6
Continuous
 62
     4
100
AcDbLine
 10
350.809865811086
 20
16.5944542051483
 30
0.0
 11
350.809865811086
 21
19.0944542051483
 31
0.0
  0
LINE
  5
57
330
1F
100
AcDbEntity
  8
1
  6
Continuous
 62
     4
100
AcDbLine
 10
354.4733283110859
 20
13.8444542051483
 30
0.0
 11
353.3841908110859
 21
13.8444542051483
 31
0.0
  0
LINE
  5
58
330
1F
100
AcDbEntity
  8
1
  6
Continuous
 62
     4
100
AcDbLine
 10
354.4733283110859
 20
21.3444542051483
 30
0.0
 11
354.4733283110859
 21
13.8444542051483
 31
0.0
  0
LINE
  5
59
330
1F
100
AcDbEntity
  8
1
  6
Continuous
 62
     4
100
AcDbLine
 10
348.8296158110859
 20
21.3444542051483
 30
0.0
 11
349.9187533110859
 21
21.3444542051483
 31
0.0
  0
LINE
  5
5A
330
1F
100
AcDbEntity
  8
1
  6
Continuous
 62
     4
100
AcDbLine
 10
348.8296158110859
 20
13.8444542051483
 30
0.0
 11
348.8296158110859
 21
21.3444542051483
 31
0.0
  0
LINE
  5
5B
330
1F
100
AcDbEntity
  8
1
  6
Continuous
 62
     4
100
AcDbLine
 10
344.572078311086
 20
13.4694542051483
 30
0.0
 11
343.779978311086
 21
14.0944542051483
 31
0.0
  0
LINE
  5
5C
330
1F
100
AcDbEntity
  8
1
  6
Continuous
 62
     4
100
AcDbLine
 10
345.067140811086
 20
14.4694542051483
 30
0.0
 11
344.572078311086
 21
13.4694542051483
 31
0.0
  0
LINE
  5
5D
330
1F
100
AcDbEntity
  8
1
  6
Continuous
 62
     4
100
AcDbLine
 10
345.463190811086
 20
15.9694542051483
 30
0.0
 11
345.067140811086
 21
14.4694542051483
 31
0.0
  0
LINE
  5
5E
330
1F
100
AcDbEntity
  8
1
  6
Continuous
 62
     4
100
AcDbLine
 10
345.958253311086
 20
18.2194542051483
 30
0.0
 11
345.463190811086
 21
15.9694542051483
 31
0.0
  0
LINE
  5
5F
330
1F
100
AcDbEntity
  8
1
  6
Continuous
 62
     4
100
AcDbLine
 10
345.958253311086
 20
19.0944542051483
 30
0.0
 11
345.958253311086
 21
18.2194542051483
 31
0.0
  0
LINE
  5
60
330
1F
100
AcDbEntity
  8
1
  6
Continuous
 62
     4
100
AcDbLine
 10
343.0868908110859
 20
19.0944542051483
 30
0.0
 11
345.958253311086
 21
19.0944542051483
 31
0.0
  0
LINE
  5
61
330
1F
100
AcDbEntity
  8
1
  6
Continuous
 62
     4
100
AcDbLine
 10
340.4135533110859
 20
21.5944542051483
 30
0.0
 11
347.047390811086
 21
21.5944542051483
 31
0.0
  0
LINE
  5
62
330
1F
100
AcDbEntity
  8
1
  6
Continuous
 62
     4
100
AcDbLine
 10
343.284915811086
 20
20.7194542051483
 30
0.0
 11
343.4829408110859
 21
23.2194542051483
 31
0.0
  0
LINE
  5
63
330
1F
100
AcDbEntity
  8
1
  6
Continuous
 62
     4
100
AcDbLine
 10
342.888865811086
 20
18.2194542051483
 30
0.0
 11
343.284915811086
 21
20.7194542051483
 31
0.0
  0
LINE
  5
64
330
1F
100
AcDbEntity
  8
1
  6
Continuous
 62
     4
100
AcDbLine
 10
342.393803311086
 20
16.5944542051483
 30
0.0
 11
342.888865811086
 21
18.2194542051483
 31
0.0
  0
LINE
  5
65
330
1F
100
AcDbEntity
  8
1
  6
Continuous
 62
     4
100
AcDbLine
 10
341.799728311086
 20
15.0944542051483
 30
0.0
 11
342.393803311086
 21
16.5944542051483
 31
0.0
  0
LINE
  5
66
330
1F
100
AcDbEntity
  8
1
  6
Continuous
 62
     4
100
AcDbLine
 10
340.908615811086
 20
13.8444542051483
 30
0.0
 11
341.799728311086
 21
15.0944542051483
 31
0.0
  0
LINE
  5
67
330
1F
100
AcDbEntity
  8
1
  6
Continuous
 62
     4
100
AcDbLine
 10
338.235278311086
 20
16.5944542051483
 30
0.0
 11
339.3244158110859
 21
15.0944542051483
 31
0.0
  0
LINE
  5
68
330
1F
100
AcDbEntity
  8
1
  6
Continuous
 62
     4
100
AcDbLine
 10
337.344165811086
 20
18.4694542051483
 30
0.0
 11
338.235278311086
 21
16.5944542051483
 31
0.0
  0
LINE
  5
69
330
1F
100
AcDbEntity
  8
1
  6
Continuous
 62
     4
100
AcDbLine
 10
336.651078311086
 20
20.7194542051483
 30
0.0
 11
337.344165811086
 21
18.4694542051483
 31
0.0
  0
LINE
  5
6A
330
1F
100
AcDbEntity
  8
1
  6
Continuous
 62
     4
100
AcDbLine
 10
338.631328311086
 20
20.9694542051483
 30
0.0
 11
337.146140811086
 21
19.4694542051483
 31
0.0
  0
LINE
  5
6B
330
1F
100
AcDbEntity
  8
1
  6
Continuous
 62
     4
100
AcDbLine
 10
336.057003311086
 20
13.4694542051483
 30
0.0
 11
335.363915811086
 21
13.8444542051483
 31
0.0
  0
LINE
  5
6C
330
1F
100
AcDbEntity
  8
1
  6
Continuous
 62
     4
100
AcDbLine
 10
336.057003311086
 20
23.2194542051483
 30
0.0
 11
336.057003311086
 21
13.4694542051483
 31
0.0
  0
LINE
  5
6D
330
1F
100
AcDbEntity
  8
1
  6
Continuous
 62
     4
100
AcDbLine
 10
334.967865811086
 20
20.0944542051483
 30
0.0
 11
332.690578311086
 21
20.0944542051483
 31
0.0
  0
LINE
  5
6E
330
1F
100
AcDbEntity
  8
1
  6
Continuous
 62
     4
100
AcDbLine
 10
334.472803311086
 20
18.2194542051483
 30
0.0
 11
334.967865811086
 21
20.0944542051483
 31
0.0
  0
LINE
  5
6F
330
1F
100
AcDbEntity
  8
1
  6
Continuous
 62
     4
100
AcDbLine
 10
333.581690811086
 20
16.3444542051483
 30
0.0
 11
334.472803311086
 21
18.2194542051483
 31
0.0
  0
LINE
  5
70
330
1F
100
AcDbEntity
  8
1
  6
Continuous
 62
     4
100
AcDbLine
 10
332.690578311086
 20
15.0944542051483
 30
0.0
 11
333.581690811086
 21
16.3444542051483
 31
0.0
  0
LINE
  5
71
330
1F
100
AcDbEntity
  8
1
  6
Continuous
 62
     4
100
AcDbLine
 10
328.334028311086
 20
21.9694542051483
 30
0.0
 11
331.007365811086
 21
21.9694542051483
 31
0.0
  0
LINE
  5
72
330
1F
100
AcDbEntity
  8
1
  6
Continuous
 62
     4
100
AcDbLine
 10
331.403415811086
 20
14.4694542051483
 30
0.0
 11
331.403415811086
 21
15.0944542051483
 31
0.0
  0
LINE
  5
73
330
1F
100
AcDbEntity
  8
1
  6
Continuous
 62
     4
100
AcDbLine
 10
331.007365811086
 20
13.8444542051483
 30
0.0
 11
331.403415811086
 21
14.4694542051483
 31
0.0
  0
LINE
  5
74
330
1F
100
AcDbEntity
  8
1
  6
Continuous
 62
     4
100
AcDbLine
 10
330.116253311086
 20
13.8444542051483
 30
0.0
 11
331.007365811086
 21
13.8444542051483
 31
0.0
  0
LINE
  5
75
330
1F
100
AcDbEntity
  8
1
  6
Continuous
 62
     4
100
AcDbLine
 10
329.621190811086
 20
14.7194542051483
 30
0.0
 11
330.116253311086
 21
13.8444542051483
 31
0.0
  0
LINE
  5
76
330
1F
100
AcDbEntity
  8
1
  6
Continuous
 62
     4
100
AcDbLine
 10
329.621190811086
 20
17.8444542051483
 30
0.0
 11
329.621190811086
 21
14.7194542051483
 31
0.0
  0
LINE
  5
77
330
1F
100
AcDbEntity
  8
1
  6
Continuous
 62
     4
100
AcDbLine
 10
328.334028311086
 20
13.8444542051483
 30
0.0
 11
328.334028311086
 21
17.8444542051483
 31
0.0
  0
LINE
  5
78
330
1F
100
AcDbEntity
  8
1
  6
Continuous
 62
     4
100
AcDbLine
 10
326.353778311086
 20
14.0944542051483
 30
0.0
 11
325.660690811086
 21
13.4694542051483
 31
0.0
  0
LINE
  5
79
330
1F
100
AcDbEntity
  8
1
  6
Continuous
 62
     4
100
AcDbLine
 10
326.749828311086
 20
14.7194542051483
 30
0.0
 11
326.353778311086
 21
14.0944542051483
 31
0.0
  0
LINE
  5
7A
330
1F
100
AcDbEntity
  8
1
  6
Continuous
 62
     4
100
AcDbLine
 10
327.046865811086
 20
15.7194542051483
 30
0.0
 11
326.749828311086
 21
14.7194542051483
 31
0.0
  0
LINE
  5
7B
330
1F
100
AcDbEntity
  8
1
  6
Continuous
 62
     4
100
AcDbLine
 10
327.244890811086
 20
17.8444542051483
 30
0.0
 11
327.046865811086
 21
15.7194542051483
 31
0.0
  0
LINE
  5
7C
330
1F
100
AcDbEntity
  8
1
  6
Continuous
 62
     4
100
AcDbLine
 10
329.423165811086
 20
20.9694542051483
 30
0.0
 11
330.314278311086
 21
18.8444542051483
 31
0.0
  0
LINE
  5
7D
330
1F
100
AcDbEntity
  8
1
  6
Continuous
 62
     4
100
AcDbLine
 10
326.551803311086
 20
19.4694542051483
 30
0.0
 11
329.918228311086
 21
19.7194542051483
 31
0.0
  0
LINE
  5
7E
330
1F
100
AcDbEntity
  8
1
  6
Continuous
 62
     4
100
AcDbLine
 10
328.334028311086
 20
21.9694542051483
 30
0.0
 11
327.442915811086
 21
19.4694542051483
 31
0.0
  0
LINE
  5
7F
330
1F
100
AcDbEntity
  8
1
  6
Continuous
 62
     4
100
AcDbLine
 10
328.532053311086
 20
23.4694542051483
 30
0.0
 11
328.532053311086
 21
21.9694542051483
 31
0.0
  0
LINE
  5
80
330
1F
100
AcDbEntity
  8
1
  6
Continuous
 62
     4
100
AcDbLine
 10
326.155753311086
 20
21.9694542051483
 30
0.0
 11
328.334028311086
 21
21.9694542051483
 31
0.0
  0
LINE
  5
81
330
1F
100
AcDbEntity
  8
1
  6
Continuous
 62
     4
100
AcDbLine
 10
324.571553311086
 20
13.8444542051483
 30
0.0
 11
325.462665811086
 21
17.8444542051483
 31
0.0
  0
LINE
  5
82
330
1F
100
AcDbEntity
  8
1
  6
Continuous
 62
     4
100
AcDbLine
 10
324.373528311086
 20
20.3444542051483
 30
0.0
 11
325.066615811086
 21
19.4694542051483
 31
0.0
  0
LINE
  5
83
330
1F
100
AcDbEntity
  8
1
  6
Continuous
 62
     4
100
AcDbLine
 10
325.066615811086
 20
23.2194542051483
 30
0.0
 11
325.462665811086
 21
22.2194542051483
 31
0.0
  0
LINE
  5
84
330
1F
100
AcDbEntity
  8
1
  6
Continuous
 62
     4
100
AcDbLine
 10
599.901520141526
 20
387.672751635538
 30
0.0
 11
599.901520141526
 21
385.172751635538
 31
0.0
  0
LINE
  5
85
330
1F
100
AcDbEntity
  8
1
  6
Continuous
 62
     4
100
AcDbLine
 10
599.651520141526
 20
389.172751635538
 30
0.0
 11
599.901520141526
 21
387.672751635538
 31
0.0
  0
LINE
  5
86
330
1F
100
AcDbEntity
  8
1
  6
Continuous
 62
     4
100
AcDbLine
 10
599.151520141526
 20
390.172751635538
 30
0.0
 11
599.651520141526
 21
389.172751635538
 31
0.0
  0
LINE
  5
87
330
1F
100
AcDbEntity
  8
1
  6
Continuous
 62
     4
100
AcDbLine
 10
598.651520141526
 20
390.672751635538
 30
0.0
 11
599.151520141526
 21
390.172751635538
 31
0.0
  0
LINE
  5
88
330
1F
100
AcDbEntity
  8
1
  6
Continuous
 62
     4
100
AcDbLine
 10
597.901520141526
 20
391.172751635538
 30
0.0
 11
598.651520141526
 21
390.672751635538
 31
0.0
  0
LINE
  5
89
330
1F
100
AcDbEntity
  8
1
  6
Continuous
 62
     4
100
AcDbLine
 10
597.151520141526
 20
391.422751635538
 30
0.0
 11
597.901520141526
 21
391.172751635538
 31
0.0
  0
LINE
  5
8A
330
1F
100
AcDbEntity
  8
1
  6
Continuous
 62
     4
100
AcDbLine
 10
596.651520141526
 20
391.422751635538
 30
0.0
 11
597.151520141526
 21
391.422751635538
 31
0.0
  0
LINE
  5
8B
330
1F
100
AcDbEntity
  8
1
  6
Continuous
 62
     4
100
AcDbLine
 10
595.901520141526
 20
391.172751635538
 30
0.0
 11
596.651520141526
 21
391.422751635538
 31
0.0
  0
LINE
  5
8C
330
1F
100
AcDbEntity
  8
1
  6
Continuous
 62
     4
100
AcDbLine
 10
595.151520141526
 20
390.672751635538
 30
0.0
 11
595.901520141526
 21
391.172751635538
 31
0.0
  0
LINE
  5
8D
330
1F
100
AcDbEntity
  8
1
  6
Continuous
 62
     4
100
AcDbLine
 10
594.651520141526
 20
390.172751635538
 30
0.0
 11
595.151520141526
 21
390.672751635538
 31
0.0
  0
LINE
  5
8E
330
1F
100
AcDbEntity
  8
1
  6
Continuous
 62
     4
100
AcDbLine
 10
594.151520141526
 20
389.172751635538
 30
0.0
 11
594.651520141526
 21
390.172751635538
 31
0.0
  0
LINE
  5
8F
330
1F
100
AcDbEntity
  8
1
  6
Continuous
 62
     4
100
AcDbLine
 10
593.901520141526
 20
387.672751635538
 30
0.0
 11
594.151520141526
 21
389.172751635538
 31
0.0
  0
LINE
  5
90
330
1F
100
AcDbEntity
  8
1
  6
Continuous
 62
     4
100
AcDbLine
 10
593.901520141526
 20
385.172751635538
 30
0.0
 11
593.901520141526
 21
387.672751635538
 31
0.0
  0
LINE
  5
91
330
1F
100
AcDbEntity
  8
1
  6
Continuous
 62
     4
100
AcDbLine
 10
594.151520141526
 20
383.672751635538
 30
0.0
 11
593.901520141526
 21
385.172751635538
 31
0.0
  0
LINE
  5
92
330
1F
100
AcDbEntity
  8
1
  6
Continuous
 62
     4
100
AcDbLine
 10
594.651520141526
 20
382.672751635538
 30
0.0
 11
594.151520141526
 21
383.672751635538
 31
0.0
  0
LINE
  5
93
330
1F
100
AcDbEntity
  8
1
  6
Continuous
 62
     4
100
AcDbLine
 10
595.151520141526
 20
382.172751635538
 30
0.0
 11
594.651520141526
 21
382.672751635538
 31
0.0
  0
LINE
  5
94
330
1F
100
AcDbEntity
  8
1
  6
Continuous
 62
     4
100
AcDbLine
 10
595.901520141526
 20
381.672751635538
 30
0.0
 11
595.151520141526
 21
382.172751635538
 31
0.0
  0
LINE
  5
95
330
1F
100
AcDbEntity
  8
1
  6
Continuous
 62
     4
100
AcDbLine
 10
596.651520141526
 20
381.422751635538
 30
0.0
 11
595.901520141526
 21
381.672751635538
 31
0.0
  0
LINE
  5
96
330
1F
100
AcDbEntity
  8
1
  6
Continuous
 62
     4
100
AcDbLine
 10
597.151520141526
 20
381.422751635538
 30
0.0
 11
596.651520141526
 21
381.422751635538
 31
0.0
  0
LINE
  5
97
330
1F
100
AcDbEntity
  8
1
  6
Continuous
 62
     4
100
AcDbLine
 10
597.901520141526
 20
381.672751635538
 30
0.0
 11
597.151520141526
 21
381.422751635538
 31
0.0
  0
LINE
  5
98
330
1F
100
AcDbEntity
  8
1
  6
Continuous
 62
     4
100
AcDbLine
 10
598.651520141526
 20
382.172751635538
 30
0.0
 11
597.901520141526
 21
381.672751635538
 31
0.0
  0
LINE
  5
99
330
1F
100
AcDbEntity
  8
1
  6
Continuous
 62
     4
100
AcDbLine
 10
599.151520141526
 20
382.672751635538
 30
0.0
 11
598.651520141526
 21
382.172751635538
 31
0.0
  0
LINE
  5
9A
330
1F
100
AcDbEntity
  8
1
  6
Continuous
 62
     4
100
AcDbLine
 10
599.651520141526
 20
383.672751635538
 30
0.0
 11
599.151520141526
 21
382.672751635538
 31
0.0
  0
LINE
  5
9B
330
1F
100
AcDbEntity
  8
1
  6
Continuous
 62
     4
100
AcDbLine
 10
599.901520141526
 20
385.172751635538
 30
0.0
 11
599.651520141526
 21
383.672751635538
 31
0.0
  0
LINE
  5
9C
330
1F
100
AcDbEntity
  8
1
  6
Continuous
 62
     4
100
AcDbLine
 10
589.401520141526
 20
385.422751635538
 30
0.0
 11
589.401520141526
 21
381.422751635538
 31
0.0
  0
LINE
  5
9D
330
1F
100
AcDbEntity
  8
1
  6
Continuous
 62
     4
100
AcDbLine
 10
584.901520141526
 20
383.422751635538
 30
0.0
 11
590.901520141526
 21
383.422751635538
 31
0.0
  0
LINE
  5
9E
330
1F
100
AcDbEntity
  8
1
  6
Continuous
 62
     4
100
AcDbLine
 10
589.401520141526
 20
391.422751635538
 30
0.0
 11
584.901520141526
 21
383.422751635538
 31
0.0
  0
LINE
  5
9F
330
1F
100
AcDbEntity
  8
1
  6
Continuous
 62
     4
100
AcDbLine
 10
576.901520141526
 20
384.922751635538
 30
0.0
 11
581.901520141526
 21
384.922751635538
 31
0.0
  0
LINE
  5
A0
330
1F
100
AcDbEntity
  8
1
  6
Continuous
 62
     4
100
AcDbLine
 10
570.651520141526
 20
391.422751635538
 30
0.0
 11
573.901520141526
 21
391.422751635538
 31
0.0
  0
LINE
  5
A1
330
1F
100
AcDbEntity
  8
1
  6
Continuous
 62
     4
100
AcDbLine
 10
569.651520141526
 20
391.172751635538
 30
0.0
 11
570.651520141526
 21
391.422751635538
 31
0.0
  0
LINE
  5
A2
330
1F
100
AcDbEntity
  8
1
  6
Continuous
 62
     4
100
AcDbLine
 10
568.901520141526
 20
390.672751635538
 30
0.0
 11
569.651520141526
 21
391.172751635538
 31
0.0
  0
LINE
  5
A3
330
1F
100
AcDbEntity
  8
1
  6
Continuous
 62
     4
100
AcDbLine
 10
568.401520141526
 20
390.172751635538
 30
0.0
 11
568.901520141526
 21
390.672751635538
 31
0.0
  0
LINE
  5
A4
330
1F
100
AcDbEntity
  8
1
  6
Continuous
 62
     4
100
AcDbLine
 10
568.151520141526
 20
389.422751635538
 30
0.0
 11
568.401520141526
 21
390.172751635538
 31
0.0
  0
LINE
  5
A5
330
1F
100
AcDbEntity
  8
1
  6
Continuous
 62
     4
100
AcDbLine
 10
567.901520141526
 20
388.422751635538
 30
0.0
 11
568.151520141526
 21
389.422751635538
 31
0.0
  0
LINE
  5
A6
330
1F
100
AcDbEntity
  8
1
  6
Continuous
 62
     4
100
AcDbLine
 10
567.901520141526
 20
384.422751635538
 30
0.0
 11
567.901520141526
 21
388.422751635538
 31
0.0
  0
LINE
  5
A7
330
1F
100
AcDbEntity
  8
1
  6
Continuous
 62
     4
100
AcDbLine
 10
568.151520141526
 20
383.422751635538
 30
0.0
 11
567.901520141526
 21
384.422751635538
 31
0.0
  0
LINE
  5
A8
330
1F
100
AcDbEntity
  8
1
  6
Continuous
 62
     4
100
AcDbLine
 10
568.401520141526
 20
382.672751635538
 30
0.0
 11
568.151520141526
 21
383.422751635538
 31
0.0
  0
LINE
  5
A9
330
1F
100
AcDbEntity
  8
1
  6
Continuous
 62
     4
100
AcDbLine
 10
568.901520141526
 20
382.172751635538
 30
0.0
 11
568.401520141526
 21
382.672751635538
 31
0.0
  0
LINE
  5
AA
330
1F
100
AcDbEntity
  8
1
  6
Continuous
 62
     4
100
AcDbLine
 10
569.651520141526
 20
381.672751635538
 30
0.0
 11
568.901520141526
 21
382.172751635538
 31
0.0
  0
LINE
  5
AB
330
1F
100
AcDbEntity
  8
1
  6
Continuous
 62
     4
100
AcDbLine
 10
570.651520141526
 20
381.422751635538
 30
0.0
 11
569.651520141526
 21
381.672751635538
 31
0.0
  0
LINE
  5
AC
330
1F
100
AcDbEntity
  8
1
  6
Continuous
 62
     4
100
AcDbLine
 10
573.901520141526
 20
381.422751635538
 30
0.0
 11
570.651520141526
 21
381.422751635538
 31
0.0
  0
LINE
  5
AD
330
1F
100
AcDbEntity
  8
1
  6
Continuous
 62
     4
100
AcDbLine
 10
561.651520141526
 20
391.422751635538
 30
0.0
 11
564.901520141526
 21
391.422751635538
 31
0.0
  0
LINE
  5
AE
330
1F
100
AcDbEntity
  8
1
  6
Continuous
 62
     4
100
AcDbLine
 10
560.651520141526
 20
391.172751635538
 30
0.0
 11
561.651520141526
 21
391.422751635538
 31
0.0
  0
LINE
  5
AF
330
1F
100
AcDbEntity
  8
1
  6
Continuous
 62
     4
100
AcDbLine
 10
559.901520141526
 20
390.672751635538
 30
0.0
 11
560.651520141526
 21
391.172751635538
 31
0.0
  0
LINE
  5
B0
330
1F
100
AcDbEntity
  8
1
  6
Continuous
 62
     4
100
AcDbLine
 10
559.401520141526
 20
390.172751635538
 30
0.0
 11
559.901520141526
 21
390.672751635538
 31
0.0
  0
LINE
  5
B1
330
1F
100
AcDbEntity
  8
1
  6
Continuous
 62
     4
100
AcDbLine
 10
559.151520141526
 20
389.422751635538
 30
0.0
 11
559.401520141526
 21
390.172751635538
 31
0.0
  0
LINE
  5
B2
330
1F
100
AcDbEntity
  8
1
  6
Continuous
 62
     4
100
AcDbLine
 10
558.901520141526
 20
388.422751635538
 30
0.0
 11
559.151520141526
 21
389.422751635538
 31
0.0
  0
LINE
  5
B3
330
1F
100
AcDbEntity
  8
1
  6
Continuous
 62
     4
100
AcDbLine
 10
558.901520141526
 20
384.422751635538
 30
0.0
 11
558.901520141526
 21
388.422751635538
 31
0.0
  0
LINE
  5
B4
330
1F
100
AcDbEntity
  8
1
  6
Continuous
 62
     4
100
AcDbLine
 10
559.151520141526
 20
383.422751635538
 30
0.0
 11
558.901520141526
 21
384.422751635538
 31
0.0
  0
LINE
  5
B5
330
1F
100
AcDbEntity
  8
1
  6
Continuous
 62
     4
100
AcDbLine
 10
559.401520141526
 20
382.672751635538
 30
0.0
 11
559.151520141526
 21
383.422751635538
 31
0.0
  0
LINE
  5
B6
330
1F
100
AcDbEntity
  8
1
  6
Continuous
 62
     4
100
AcDbLine
 10
559.901520141526
 20
382.172751635538
 30
0.0
 11
559.401520141526
 21
382.672751635538
 31
0.0
  0
LINE
  5
B7
330
1F
100
AcDbEntity
  8
1
  6
Continuous
 62
     4
100
AcDbLine
 10
560.651520141526
 20
381.672751635538
 30
0.0
 11
559.901520141526
 21
382.172751635538
 31
0.0
  0
LINE
  5
B8
330
1F
100
AcDbEntity
  8
1
  6
Continuous
 62
     4
100
AcDbLine
 10
561.651520141526
 20
381.422751635538
 30
0.0
 11
560.651520141526
 21
381.672751635538
 31
0.0
  0
LINE
  5
B9
330
1F
100
AcDbEntity
  8
1
  6
Continuous
 62
     4
100
AcDbLine
 10
564.901520141526
 20
381.422751635538
 30
0.0
 11
561.651520141526
 21
381.422751635538
 31
0.0
  0
LINE
  5
BA
330
1F
100
AcDbEntity
  8
1
  6
Continuous
 62
     4
100
AcDbLine
 10
550.901520141526
 20
384.922751635538
 30
0.0
 11
555.901520141526
 21
384.922751635538
 31
0.0
  0
LINE
  5
BB
330
1F
100
AcDbEntity
  8
1
  6
Continuous
 62
     4
100
AcDbLine
 10
540.901520141526
 20
381.422751635538
 30
0.0
 11
540.901520141526
 21
386.422751635538
 31
0.0
  0
LINE
  5
BC
330
1F
100
AcDbEntity
  8
1
  6
Continuous
 62
     4
100
AcDbLine
 10
544.901520141526
 20
386.422751635538
 30
0.0
 11
547.901520141526
 21
381.422751635538
 31
0.0
  0
LINE
  5
BD
330
1F
100
AcDbEntity
  8
1
  6
Continuous
 62
     4
100
AcDbLine
 10
545.651520141526
 20
386.422751635538
 30
0.0
 11
544.901520141526
 21
386.422751635538
 31
0.0
  0
LINE
  5
BE
330
1F
100
AcDbEntity
  8
1
  6
Continuous
 62
     4
100
AcDbLine
 10
546.651520141526
 20
386.672751635538
 30
0.0
 11
545.651520141526
 21
386.422751635538
 31
0.0
  0
LINE
  5
BF
330
1F
100
AcDbEntity
  8
1
  6
Continuous
 62
     4
100
AcDbLine
 10
547.401520141526
 20
387.172751635538
 30
0.0
 11
546.651520141526
 21
386.672751635538
 31
0.0
  0
LINE
  5
C0
330
1F
100
AcDbEntity
  8
1
  6
Continuous
 62
     4
100
AcDbLine
 10
547.651520141526
 20
387.672751635538
 30
0.0
 11
547.401520141526
 21
387.172751635538
 31
0.0
  0
LINE
  5
C1
330
1F
100
AcDbEntity
  8
1
  6
Continuous
 62
     4
100
AcDbLine
 10
547.901520141526
 20
388.422751635538
 30
0.0
 11
547.651520141526
 21
387.672751635538
 31
0.0
  0
LINE
  5
C2
330
1F
100
AcDbEntity
  8
1
  6
Continuous
 62
     4
100
AcDbLine
 10
547.901520141526
 20
389.422751635538
 30
0.0
 11
547.901520141526
 21
388.422751635538
 31
0.0
  0
LINE
  5
C3
330
1F
100
AcDbEntity
  8
1
  6
Continuous
 62
     4
100
AcDbLine
 10
547.651520141526
 20
390.172751635538
 30
0.0
 11
547.901520141526
 21
389.422751635538
 31
0.0
  0
LINE
  5
C4
330
1F
100
AcDbEntity
  8
1
  6
Continuous
 62
     4
100
AcDbLine
 10
547.401520141526
 20
390.672751635538
 30
0.0
 11
547.651520141526
 21
390.172751635538
 31
0.0
  0
LINE
  5
C5
330
1F
100
AcDbEntity
  8
1
  6
Continuous
 62
     4
100
AcDbLine
 10
546.651520141526
 20
391.172751635538
 30
0.0
 11
547.401520141526
 21
390.672751635538
 31
0.0
  0
LINE
  5
C6
330
1F
100
AcDbEntity
  8
1
  6
Continuous
 62
     4
100
AcDbLine
 10
545.651520141526
 20
391.422751635538
 30
0.0
 11
546.651520141526
 21
391.172751635538
 31
0.0
  0
LINE
  5
C7
330
1F
100
AcDbEntity
  8
1
  6
Continuous
 62
     4
100
AcDbLine
 10
540.901520141526
 20
391.422751635538
 30
0.0
 11
545.651520141526
 21
391.422751635538
 31
0.0
  0
LINE
  5
C8
330
1F
100
AcDbEntity
  8
1
  6
Continuous
 62
     4
100
AcDbLine
 10
540.901520141526
 20
386.422751635538
 30
0.0
 11
540.901520141526
 21
391.422751635538
 31
0.0
  0
LINE
  5
C9
330
1F
100
AcDbEntity
  8
1
  6
Continuous
 62
     4
100
AcDbLine
 10
544.901520141526
 20
386.422751635538
 30
0.0
 11
540.901520141526
 21
386.422751635538
 31
0.0
  0
LINE
  5
CA
330
1F
100
AcDbEntity
  8
1
  6
Continuous
 62
     4
100
AcDbLine
 10
532.901520141526
 20
384.922751635538
 30
0.0
 11
537.901520141526
 21
384.922751635538
 31
0.0
  0
LINE
  5
CB
330
1F
100
AcDbEntity
  8
1
  6
Continuous
 62
     4
100
AcDbLine
 10
522.901520141526
 20
384.422751635538
 30
0.0
 11
522.901520141526
 21
391.422751635538
 31
0.0
  0
LINE
  5
CC
330
1F
100
AcDbEntity
  8
1
  6
Continuous
 62
     4
100
AcDbLine
 10
522.901520141526
 20
381.422751635538
 30
0.0
 11
522.901520141526
 21
384.422751635538
 31
0.0
  0
LINE
  5
CD
330
1F
100
AcDbEntity
  8
1
  6
Continuous
 62
     4
100
AcDbLine
 10
524.901520141526
 20
386.422751635538
 30
0.0
 11
529.901520141526
 21
381.422751635538
 31
0.0
  0
LINE
  5
CE
330
1F
100
AcDbEntity
  8
1
  6
Continuous
 62
     4
100
AcDbLine
 10
529.901520141526
 20
391.422751635538
 30
0.0
 11
524.901520141526
 21
386.422751635538
 31
0.0
  0
LINE
  5
CF
330
1F
100
AcDbEntity
  8
1
  6
Continuous
 62
     4
100
AcDbLine
 10
524.901520141526
 20
386.422751635538
 30
0.0
 11
522.901520141526
 21
384.422751635538
 31
0.0
  0
LINE
  5
D0
330
1F
100
AcDbEntity
  8
1
  6
Continuous
 62
     4
100
AcDbLine
 10
433.958287732702
 20
13.777444757124
 30
0.0
 11
439.958287732702
 21
13.777444757124
 31
0.0
  0
LINE
  5
D1
330
1F
100
AcDbEntity
  8
1
  6
Continuous
 62
     4
100
AcDbLine
 10
439.458287732702
 20
20.277444757124
 30
0.0
 11
433.958287732702
 21
13.777444757124
 31
0.0
  0
LINE
  5
D2
330
1F
100
AcDbEntity
  8
1
  6
Continuous
 62
     4
100
AcDbLine
 10
439.958287732702
 20
21.277444757124
 30
0.0
 11
439.458287732702
 21
20.277444757124
 31
0.0
  0
LINE
  5
D3
330
1F
100
AcDbEntity
  8
1
  6
Continuous
 62
     4
100
AcDbLine
 10
439.958287732702
 20
22.277444757124
 30
0.0
 11
439.958287732702
 21
21.277444757124
 31
0.0
  0
LINE
  5
D4
330
1F
100
AcDbEntity
  8
1
  6
Continuous
 62
     4
100
AcDbLine
 10
439.458287732702
 20
23.027444757124
 30
0.0
 11
439.958287732702
 21
22.277444757124
 31
0.0
  0
LINE
  5
D5
330
1F
100
AcDbEntity
  8
1
  6
Continuous
 62
     4
100
AcDbLine
 10
438.708287732702
 20
23.527444757124
 30
0.0
 11
439.458287732702
 21
23.027444757124
 31
0.0
  0
LINE
  5
D6
330
1F
100
AcDbEntity
  8
1
  6
Continuous
 62
     4
100
AcDbLine
 10
437.708287732702
 20
23.777444757124
 30
0.0
 11
438.708287732702
 21
23.527444757124
 31
0.0
  0
LINE
  5
D7
330
1F
100
AcDbEntity
  8
1
  6
Continuous
 62
     4
100
AcDbLine
 10
436.208287732702
 20
23.777444757124
 30
0.0
 11
437.708287732702
 21
23.777444757124
 31
0.0
  0
LINE
  5
D8
330
1F
100
AcDbEntity
  8
1
  6
Continuous
 62
     4
100
AcDbLine
 10
435.208287732702
 20
23.527444757124
 30
0.0
 11
436.208287732702
 21
23.777444757124
 31
0.0
  0
LINE
  5
D9
330
1F
100
AcDbEntity
  8
1
  6
Continuous
 62
     4
100
AcDbLine
 10
434.458287732702
 20
23.027444757124
 30
0.0
 11
435.208287732702
 21
23.527444757124
 31
0.0
  0
LINE
  5
DA
330
1F
100
AcDbEntity
  8
1
  6
Continuous
 62
     4
100
AcDbLine
 10
433.958287732702
 20
22.277444757124
 30
0.0
 11
434.458287732702
 21
23.027444757124
 31
0.0
  0
LINE
  5
DB
330
1F
100
AcDbEntity
  8
1
  6
Continuous
 62
     4
100
AcDbLine
 10
430.958287732702
 20
19.277444757124
 30
0.0
 11
428.458287732702
 21
19.277444757124
 31
0.0
  0
LINE
  5
DC
330
1F
100
AcDbEntity
  8
1
  6
Continuous
 62
     4
100
AcDbLine
 10
430.958287732702
 20
13.777444757124
 30
0.0
 11
430.958287732702
 21
19.277444757124
 31
0.0
  0
LINE
  5
DD
330
1F
100
AcDbEntity
  8
1
  6
Continuous
 62
     4
100
AcDbLine
 10
426.708287732702
 20
13.777444757124
 30
0.0
 11
430.958287732702
 21
13.777444757124
 31
0.0
  0
LINE
  5
DE
330
1F
100
AcDbEntity
  8
1
  6
Continuous
 62
     4
100
AcDbLine
 10
425.958287732702
 20
14.027444757124
 30
0.0
 11
426.708287732702
 21
13.777444757124
 31
0.0
  0
LINE
  5
DF
330
1F
100
AcDbEntity
  8
1
  6
Continuous
 62
     4
100
AcDbLine
 10
424.958287732702
 20
14.527444757124
 30
0.0
 11
425.958287732702
 21
14.027444757124
 31
0.0
  0
LINE
  5
E0
330
1F
100
AcDbEntity
  8
1
  6
Continuous
 62
     4
100
AcDbLine
 10
424.458287732702
 20
15.027444757124
 30
0.0
 11
424.958287732702
 21
14.527444757124
 31
0.0
  0
LINE
  5
E1
330
1F
100
AcDbEntity
  8
1
  6
Continuous
 62
     4
100
AcDbLine
 10
424.208287732702
 20
15.777444757124
 30
0.0
 11
424.458287732702
 21
15.027444757124
 31
0.0
  0
LINE
  5
E2
330
1F
100
AcDbEntity
  8
1
  6
Continuous
 62
     4
100
AcDbLine
 10
423.958287732702
 20
16.777444757124
 30
0.0
 11
424.208287732702
 21
15.777444757124
 31
0.0
  0
LINE
  5
E3
330
1F
100
AcDbEntity
  8
1
  6
Continuous
 62
     4
100
AcDbLine
 10
423.958287732702
 20
20.777444757124
 30
0.0
 11
423.958287732702
 21
16.777444757124
 31
0.0
  0
LINE
  5
E4
330
1F
100
AcDbEntity
  8
1
  6
Continuous
 62
     4
100
AcDbLine
 10
424.208287732702
 20
21.777444757124
 30
0.0
 11
423.958287732702
 21
20.777444757124
 31
0.0
  0
LINE
  5
E5
330
1F
100
AcDbEntity
  8
1
  6
Continuous
 62
     4
100
AcDbLine
 10
424.458287732702
 20
22.527444757124
 30
0.0
 11
424.208287732702
 21
21.777444757124
 31
0.0
  0
LINE
  5
E6
330
1F
100
AcDbEntity
  8
1
  6
Continuous
 62
     4
100
AcDbLine
 10
424.958287732702
 20
23.027444757124
 30
0.0
 11
424.458287732702
 21
22.527444757124
 31
0.0
  0
LINE
  5
E7
330
1F
100
AcDbEntity
  8
1
  6
Continuous
 62
     4
100
AcDbLine
 10
425.708287732702
 20
23.527444757124
 30
0.0
 11
424.958287732702
 21
23.027444757124
 31
0.0
  0
LINE
  5
E8
330
1F
100
AcDbEntity
  8
1
  6
Continuous
 62
     4
100
AcDbLine
 10
426.708287732702
 20
23.777444757124
 30
0.0
 11
425.708287732702
 21
23.527444757124
 31
0.0
  0
LINE
  5
E9
330
1F
100
AcDbEntity
  8
1
  6
Continuous
 62
     4
100
AcDbLine
 10
430.958287732702
 20
23.777444757124
 30
0.0
 11
426.708287732702
 21
23.777444757124
 31
0.0
  0
LINE
  5
EA
330
1F
100
AcDbEntity
  8
1
  6
Continuous
 62
     4
100
AcDbLine
 10
244.897074308357
 20
13.0142402316625
 30
0.0
 11
250.897074308357
 21
13.0142402316625
 31
0.0
  0
LINE
  5
EB
330
1F
100
AcDbEntity
  8
1
  6
Continuous
 62
     4
100
AcDbLine
 10
250.397074308357
 20
19.5142402316625
 30
0.0
 11
244.897074308357
 21
13.0142402316625
 31
0.0
  0
LINE
  5
EC
330
1F
100
AcDbEntity
  8
1
  6
Continuous
 62
     4
100
AcDbLine
 10
250.897074308357
 20
20.5142402316625
 30
0.0
 11
250.397074308357
 21
19.5142402316625
 31
0.0
  0
LINE
  5
ED
330
1F
100
AcDbEntity
  8
1
  6
Continuous
 62
     4
100
AcDbLine
 10
250.897074308357
 20
21.5142402316625
 30
0.0
 11
250.897074308357
 21
20.5142402316625
 31
0.0
  0
LINE
  5
EE
330
1F
100
AcDbEntity
  8
1
  6
Continuous
 62
     4
100
AcDbLine
 10
250.397074308357
 20
22.2642402316625
 30
0.0
 11
250.897074308357
 21
21.5142402316625
 31
0.0
  0
LINE
  5
EF
330
1F
100
AcDbEntity
  8
1
  6
Continuous
 62
     4
100
AcDbLine
 10
249.647074308357
 20
22.7642402316625
 30
0.0
 11
250.397074308357
 21
22.2642402316625
 31
0.0
  0
LINE
  5
F0
330
1F
100
AcDbEntity
  8
1
  6
Continuous
 62
     4
100
AcDbLine
 10
248.647074308357
 20
23.0142402316625
 30
0.0
 11
249.647074308357
 21
22.7642402316625
 31
0.0
  0
LINE
  5
F1
330
1F
100
AcDbEntity
  8
1
  6
Continuous
 62
     4
100
AcDbLine
 10
247.147074308357
 20
23.0142402316625
 30
0.0
 11
248.647074308357
 21
23.0142402316625
 31
0.0
  0
LINE
  5
F2
330
1F
100
AcDbEntity
  8
1
  6
Continuous
 62
     4
100
AcDbLine
 10
246.147074308357
 20
22.7642402316625
 30
0.0
 11
247.147074308357
 21
23.0142402316625
 31
0.0
  0
LINE
  5
F3
330
1F
100
AcDbEntity
  8
1
  6
Continuous
 62
     4
100
AcDbLine
 10
245.397074308357
 20
22.2642402316625
 30
0.0
 11
246.147074308357
 21
22.7642402316625
 31
0.0
  0
LINE
  5
F4
330
1F
100
AcDbEntity
  8
1
  6
Continuous
 62
     4
100
AcDbLine
 10
244.897074308357
 20
21.5142402316625
 30
0.0
 11
245.397074308357
 21
22.2642402316625
 31
0.0
  0
LINE
  5
F5
330
1F
100
AcDbEntity
  8
1
  6
Continuous
 62
     4
100
AcDbLine
 10
241.897074308357
 20
18.5142402316625
 30
0.0
 11
239.397074308357
 21
18.5142402316625
 31
0.0
  0
LINE
  5
F6
330
1F
100
AcDbEntity
  8
1
  6
Continuous
 62
     4
100
AcDbLine
 10
241.897074308357
 20
13.0142402316625
 30
0.0
 11
241.897074308357
 21
18.5142402316625
 31
0.0
  0
LINE
  5
F7
330
1F
100
AcDbEntity
  8
1
  6
Continuous
 62
     4
100
AcDbLine
 10
237.647074308357
 20
13.0142402316625
 30
0.0
 11
241.897074308357
 21
13.0142402316625
 31
0.0
  0
LINE
  5
F8
330
1F
100
AcDbEntity
  8
1
  6
Continuous
 62
     4
100
AcDbLine
 10
236.897074308357
 20
13.2642402316625
 30
0.0
 11
237.647074308357
 21
13.0142402316625
 31
0.0
  0
LINE
  5
F9
330
1F
100
AcDbEntity
  8
1
  6
Continuous
 62
     4
100
AcDbLine
 10
235.897074308357
 20
13.7642402316625
 30
0.0
 11
236.897074308357
 21
13.2642402316625
 31
0.0
  0
LINE
  5
FA
330
1F
100
AcDbEntity
  8
1
  6
Continuous
 62
     4
100
AcDbLine
 10
235.397074308357
 20
14.2642402316625
 30
0.0
 11
235.897074308357
 21
13.7642402316625
 31
0.0
  0
LINE
  5
FB
330
1F
100
AcDbEntity
  8
1
  6
Continuous
 62
     4
100
AcDbLine
 10
235.147074308357
 20
15.0142402316625
 30
0.0
 11
235.397074308357
 21
14.2642402316625
 31
0.0
  0
LINE
  5
FC
330
1F
100
AcDbEntity
  8
1
  6
Continuous
 62
     4
100
AcDbLine
 10
234.897074308357
 20
16.0142402316625
 30
0.0
 11
235.147074308357
 21
15.0142402316625
 31
0.0
  0
LINE
  5
FD
330
1F
100
AcDbEntity
  8
1
  6
Continuous
 62
     4
100
AcDbLine
 10
234.897074308357
 20
20.0142402316625
 30
0.0
 11
234.897074308357
 21
16.0142402316625
 31
0.0
  0
LINE
  5
FE
330
1F
100
AcDbEntity
  8
1
  6
Continuous
 62
     4
100
AcDbLine
 10
235.147074308357
 20
21.0142402316625
 30
0.0
 11
234.897074308357
 21
20.0142402316625
 31
0.0
  0
LINE
  5
FF
330
1F
100
AcDbEntity
  8
1
  6
Continuous
 62
     4
100
AcDbLine
 10
235.397074308357
 20
21.7642402316625
 30
0.0
 11
235.147074308357
 21
21.0142402316625
 31
0.0
  0
LINE
  5
100
330
1F
100
AcDbEntity
  8
1
  6
Continuous
 62
     4
100
AcDbLine
 10
235.897074308357
 20
22.2642402316625
 30
0.0
 11
235.397074308357
 21
21.7642402316625
 31
0.0
  0
LINE
  5
101
330
1F
100
AcDbEntity
  8
1
  6
Continuous
 62
     4
100
AcDbLine
 10
236.647074308357
 20
22.7642402316625
 30
0.0
 11
235.897074308357
 21
22.2642402316625
 31
0.0
  0
LINE
  5
102
330
1F
100
AcDbEntity
  8
1
  6
Continuous
 62
     4
100
AcDbLine
 10
237.647074308357
 20
23.0142402316625
 30
0.0
 11
236.647074308357
 21
22.7642402316625
 31
0.0
  0
LINE
  5
103
330
1F
100
AcDbEntity
  8
1
  6
Continuous
 62
     4
100
AcDbLine
 10
241.897074308357
 20
23.0142402316625
 30
0.0
 11
237.647074308357
 21
23.0142402316625
 31
0.0
  0
LINE
  5
155
330
1F
100
AcDbEntity
  8
1
  6
Continuous
 62
     4
100
AcDbLine
 10
408.050089301381
 20
44.35
 30
0.0
 11
409.198056011214
 21
36.1477341121198
 31
0.0
  0
LINE
  5
156
330
1F
100
AcDbEntity
  8
1
  6
Continuous
 62
     4
100
AcDbLine
 10
408.050089301381
 20
44.35
 30
0.0
 11
413.145390578735
 21
37.8206127274177
 31
0.0
  0
LINE
  5
157
330
1F
100
AcDbEntity
  8
1
  6
Continuous
 62
     4
100
AcDbLine
 10
272.865420436558
 20
44.35
 30
0.0
 11
267.009013976007
 21
38.493593539449
 31
0.0
  0
LINE
  5
158
330
1F
100
AcDbEntity
  8
1
  6
Continuous
 62
     4
100
AcDbLine
 10
272.865420436558
 20
44.35
 30
0.0
 11
270.721826897109
 21
36.35
 31
0.0
  0
LINE
  5
159
330
1F
100
AcDbEntity
  8
100
  6
Continuous
 62
     3
100
AcDbLine
 10
264.273211583129
 20
103.65
 30
0.0
 11
264.273211583129
 21
44.35
 31
0.0
  0
LINE
  5
15A
330
1F
100
AcDbEntity
  8
100
  6
Continuous
 62
     3
100
AcDbLine
 10
281.273211583129
 20
103.65
 30
0.0
 11
264.273211583129
 21
103.65
 31
0.0
  0
LINE
  5
15B
330
1F
100
AcDbEntity
  8
1
  6
Continuous
 62
     3
100
AcDbLine
 10
264.273211583129
 20
102.328
 30
0.0
 11
282.061868604468
 21
102.328
 31
0.0
  0
LINE
  5
15C
330
1F
100
AcDbEntity
  8
1
  6
Continuous
 62
     3
100
AcDbLine
 10
264.273211583129
 20
45.672
 30
0.0
 11
282.061868604468
 21
45.672
 31
0.0
  0
LINE
  5
15D
330
1F
100
AcDbEntity
  8
100
  6
Continuous
 62
     3
100
AcDbLine
 10
416.273211583129
 20
44.35
 30
0.0
 11
399.273211583129
 21
44.35
 31
0.0
  0
LINE
  5
15E
330
1F
100
AcDbEntity
  8
1
  6
Continuous
 62
     3
100
AcDbLine
 10
416.273211583129
 20
45.672
 30
0.0
 11
398.48455456179
 21
45.672
 31
0.0
  0
LINE
  5
15F
330
1F
100
AcDbEntity
  8
100
  6
Continuous
 62
     3
100
AcDbLine
 10
395.507909470416
 20
47.0
 30
0.0
 11
381.926542782446
 21
47.0
 31
0.0
  0
LINE
  5
160
330
1F
100
AcDbEntity
  8
100
  6
Continuous
 62
     3
100
AcDbLine
 10
285.038513695842
 20
47.0
 30
0.0
 11
298.619880383812
 21
47.0
 31
0.0
  0
LINE
  5
161
330
1F
100
AcDbEntity
  8
100
  6
Continuous
 62
     3
100
AcDbLine
 10
309.273211583129
 20
154.509998667022
 30
0.0
 11
309.273211583129
 21
169.0
 31
0.0
  0
LINE
  5
162
330
1F
100
AcDbEntity
  8
100
  6
Continuous
 62
     3
100
AcDbLine
 10
345.273211583129
 20
154.399707849083
 30
0.0
 11
345.273211583129
 21
169.0
 31
0.0
  0
LINE
  5
163
330
1F
100
AcDbEntity
  8
100
  6
Continuous
 62
     3
100
AcDbLine
 10
359.377564119433
 20
158.296188420835
 30
0.0
 11
398.569400003964
 21
119.104352536304
 31
0.0
  0
LINE
  5
164
330
1F
100
AcDbEntity
  8
100
  6
Continuous
 62
     3
100
AcDbLine
 10
359.377564119433
 20
158.296188420835
 30
0.0
 11
353.013603088754
 21
151.932227390156
 31
0.0
  0
LINE
  5
165
330
1F
100
AcDbEntity
  8
100
  6
Continuous
 62
     3
100
AcDbLine
 10
364.24043107651
 20
140.705399402399
 30
0.0
 11
370.604392107189
 21
147.069360433078
 31
0.0
  0
LINE
  5
166
330
1F
100
AcDbEntity
  8
100
  6
Continuous
 62
     3
100
AcDbLine
 10
399.273211583129
 20
103.65
 30
0.0
 11
416.273211583129
 21
103.65
 31
0.0
  0
LINE
  5
167
330
1F
100
AcDbEntity
  8
1
  6
Continuous
 62
     3
100
AcDbLine
 10
416.273211583129
 20
102.328
 30
0.0
 11
398.48455456179
 21
102.328
 31
0.0
  0
LINE
  5
168
330
1F
100
AcDbEntity
  8
100
  6
Continuous
 62
     3
100
AcDbLine
 10
416.273211583129
 20
103.65
 30
0.0
 11
416.273211583129
 21
44.35
 31
0.0
  0
LINE
  5
169
330
1F
100
AcDbEntity
  8
100
  6
Continuous
 62
     3
100
AcDbLine
 10
395.507909470416
 20
101.0
 30
0.0
 11
393.563579485001
 21
101.0
 31
0.0
  0
LINE
  5
16A
330
1F
100
AcDbEntity
  8
100
  6
Continuous
 62
     3
100
AcDbLine
 10
350.689210814237
 20
154.256619664673
 30
0.0
 11
394.529831247803
 21
110.415999231108
 31
0.0
  0
LINE
  5
16B
330
1F
100
AcDbEntity
  8
100
  6
Continuous
 62
     3
100
AcDbLine
 10
394.529831247803
 20
110.415999231108
 30
0.0
 11
391.088705750848
 21
106.974873734153
 31
0.0
  0
LINE
  5
16C
330
1F
100
AcDbEntity
  8
100
  6
Continuous
 62
     3
100
AcDbLine
 10
398.569400003964
 20
119.104352536304
 30
0.0
 11
392.205438973285
 21
112.740391505625
 31
0.0
  0
LINE
  5
16D
330
1F
100
AcDbEntity
  8
100
  6
Continuous
 62
     3
100
AcDbLine
 10
304.773211583129
 20
169.0
 30
0.0
 11
349.773211583129
 21
169.0
 31
0.0
  0
LINE
  5
16E
330
1F
100
AcDbEntity
  8
100
  6
Continuous
 62
     3
100
AcDbLine
 10
353.253973696662
 20
179.990381056767
 30
0.0
 11
353.253973696662
 21
171.009618943233
 31
0.0
  0
LINE
  5
16F
330
1F
100
AcDbEntity
  8
100
  6
Continuous
 62
     3
100
AcDbLine
 10
353.253973696662
 20
179.990381056767
 30
0.0
 11
349.773211583129
 21
182.0
 31
0.0
  0
LINE
  5
170
330
1F
100
AcDbEntity
  8
100
  6
Continuous
 62
     3
100
AcDbLine
 10
353.253973696662
 20
171.009618943233
 30
0.0
 11
349.773211583129
 21
169.0
 31
0.0
  0
LINE
  5
171
330
1F
100
AcDbEntity
  8
100
  6
Continuous
 62
     3
100
AcDbLine
 10
342.273211583129
 20
190.0
 30
0.0
 11
342.273211583129
 21
182.0
 31
0.0
  0
LINE
  5
172
330
1F
100
AcDbEntity
  8
100
  6
Continuous
 62
     3
100
AcDbLine
 10
312.273211583129
 20
190.0
 30
0.0
 11
342.273211583129
 21
190.0
 31
0.0
  0
LINE
  5
173
330
1F
100
AcDbEntity
  8
100
  6
Continuous
 62
     3
100
AcDbLine
 10
312.273211583129
 20
182.0
 30
0.0
 11
312.273211583129
 21
190.0
 31
0.0
  0
LINE
  5
174
330
1F
100
AcDbEntity
  8
100
  6
Continuous
 62
     3
100
AcDbLine
 10
304.773211583129
 20
182.0
 30
0.0
 11
349.773211583129
 21
182.0
 31
0.0
  0
LINE
  5
175
330
1F
100
AcDbEntity
  8
100
  6
Continuous
 62
     3
100
AcDbLine
 10
301.292449469596
 20
179.990381056767
 30
0.0
 11
301.292449469596
 21
171.009618943233
 31
0.0
  0
LINE
  5
176
330
1F
100
AcDbEntity
  8
100
  6
Continuous
 62
     3
100
AcDbLine
 10
304.773211583129
 20
169.0
 30
0.0
 11
301.292449469596
 21
171.009618943233
 31
0.0
  0
LINE
  5
177
330
1F
100
AcDbEntity
  8
100
  6
Continuous
 62
     3
100
AcDbLine
 10
304.773211583129
 20
182.0
 30
0.0
 11
301.292449469596
 21
179.990381056767
 31
0.0
  0
LINE
  5
178
330
1F
100
AcDbEntity
  8
100
  6
Continuous
 62
     3
100
AcDbLine
 10
318.273211583129
 20
190.0
 30
0.0
 11
318.273211583129
 21
212.995063912566
 31
0.0
  0
LINE
  5
179
330
1F
100
AcDbEntity
  8
100
  6
Continuous
 62
     3
100
AcDbLine
 10
336.273211583129
 20
190.0
 30
0.0
 11
336.273211583129
 21
212.995063912566
 31
0.0
  0
LINE
  5
17A
330
1F
100
AcDbEntity
  8
100
  6
Continuous
 62
     3
100
AcDbLine
 10
340.273211583129
 20
212.995063912566
 30
0.0
 11
340.273211583129
 21
229.795063912567
 31
0.0
  0
LINE
  5
17B
330
1F
100
AcDbEntity
  8
100
  6
Continuous
 62
     3
100
AcDbLine
 10
314.273211583129
 20
212.995063912566
 30
0.0
 11
314.273211583129
 21
229.795063912567
 31
0.0
  0
LINE
  5
17C
330
1F
100
AcDbEntity
  8
100
  6
Continuous
 62
     3
100
AcDbLine
 10
314.273211583129
 20
212.995063912566
 30
0.0
 11
340.273211583129
 21
212.995063912566
 31
0.0
  0
LINE
  5
17D
330
1F
100
AcDbEntity
  8
100
  6
Continuous
 62
     3
100
AcDbLine
 10
314.273211583129
 20
229.795063912567
 30
0.0
 11
340.273211583129
 21
229.795063912567
 31
0.0
  0
LINE
  5
17E
330
1F
100
AcDbEntity
  8
100
  6
Continuous
 62
     3
100
AcDbLine
 10
318.273211583129
 20
229.795063912567
 30
0.0
 11
318.273211583129
 21
231.995063912567
 31
0.0
  0
LINE
  5
17F
330
1F
100
AcDbEntity
  8
100
  6
Continuous
 62
     3
100
AcDbLine
 10
336.273211583129
 20
229.795063912566
 30
0.0
 11
336.273211583129
 21
231.995063912566
 31
0.0
  0
LINE
  5
180
330
1F
100
AcDbEntity
  8
100
  6
Continuous
 62
     3
100
AcDbLine
 10
342.273211583129
 20
235.995063912567
 30
0.0
 11
342.273211583129
 21
231.995063912567
 31
0.0
  0
LINE
  5
181
330
1F
100
AcDbEntity
  8
100
  6
Continuous
 62
     3
100
AcDbLine
 10
342.273211583129
 20
231.995063912567
 30
0.0
 11
312.273211583129
 21
231.995063912567
 31
0.0
  0
LINE
  5
182
330
1F
100
AcDbEntity
  8
100
  6
Continuous
 62
     3
100
AcDbLine
 10
312.273211583129
 20
235.995063912567
 30
0.0
 11
312.273211583129
 21
231.995063912567
 31
0.0
  0
LINE
  5
183
330
1F
100
AcDbEntity
  8
100
  6
DOT_CENTER
 62
     6
100
AcDbLine
 10
255.669635889909
 20
243.995063912567
 30
0.0
 11
291.725484368377
 21
243.995063912567
 31
0.0
  0
LINE
  5
184
330
1F
100
AcDbEntity
  8
100
  6
DOT_CENTER
 62
     6
100
AcDbLine
 10
255.669635889909
 20
221.995063912567
 30
0.0
 11
262.129512107925
 21
221.995063912567
 31
0.0
  0
LINE
  5
185
330
1F
100
AcDbEntity
  8
100
  6
DOT_CENTER
 62
     6
100
AcDbLine
 10
292.591509772161
 20
242.495063912567
 30
0.0
 11
361.954913394097
 21
242.495063912567
 31
0.0
  0
LINE
  5
186
330
1F
100
AcDbEntity
  8
100
  6
PHANTOM
 62
     6
100
AcDbLine
 10
398.876787276349
 20
243.995063912567
 30
0.0
 11
362.820938797882
 21
243.995063912567
 31
0.0
  0
LINE
  5
187
330
1F
100
AcDbEntity
  8
100
  6
PHANTOM
 62
     6
100
AcDbLine
 10
398.876787276349
 20
221.995063912567
 30
0.0
 11
392.416911058334
 21
221.995063912567
 31
0.0
  0
LINE
  5
188
330
1F
100
AcDbEntity
  8
100
  6
PHANTOM
 62
     6
100
AcDbLine
 10
389.588483933588
 20
223.995063912567
 30
0.0
 11
383.811252950502
 21
223.995063912567
 31
0.0
  0
LINE
  5
189
330
1F
100
AcDbEntity
  8
100
  6
PHANTOM
 62
     6
100
AcDbLine
 10
381.811252950502
 20
221.995063912567
 30
0.0
 11
369.484310275028
 21
221.995063912567
 31
0.0
  0
LINE
  5
18A
330
1F
100
AcDbEntity
  8
100
  6
DOT_CENTER
 62
     6
100
AcDbLine
 10
264.957939232671
 20
223.995063912567
 30
0.0
 11
270.631141340374
 21
223.995063912567
 31
0.0
  0
LINE
  5
18B
330
1F
100
AcDbEntity
  8
100
  6
DOT_CENTER
 62
     6
100
AcDbLine
 10
272.735170215757
 20
221.995063912567
 30
0.0
 11
285.062112891231
 21
221.995063912567
 31
0.0
  0
LINE
  5
18C
330
1F
100
AcDbEntity
  8
100
  6
PHANTOM
 62
     6
100
AcDbLine
 10
287.890540015977
 20
223.995063912567
 30
0.0
 11
366.655883150281
 21
223.995063912567
 31
0.0
  0
LINE
  5
18D
330
1F
100
AcDbEntity
  8
100
  6
Continuous
 62
     3
100
AcDbLine
 10
294.965519275437
 20
241.995063912567
 30
0.0
 11
312.273211583129
 21
235.995063912567
 31
0.0
  0
LINE
  5
18E
330
1F
100
AcDbEntity
  8
100
  6
Continuous
 62
     3
100
AcDbLine
 10
359.580903890822
 20
241.995063912567
 30
0.0
 11
342.273211583129
 21
235.995063912567
 31
0.0
  0
LINE
  5
18F
330
1F
100
AcDbEntity
  8
100
  6
DOT_CENTER
 62
     6
100
AcDbLine
 10
318.273211583129
 20
243.995063912567
 30
0.0
 11
336.273211583129
 21
243.995063912567
 31
0.0
  0
LINE
  5
190
330
1F
100
AcDbEntity
  8
100
  6
Continuous
 62
     3
100
AcDbLine
 10
350.689210814237
 20
154.256619664673
 30
0.0
 11
347.86078368949
 21
151.428192539927
 31
0.0
  0
LINE
  5
191
330
1F
100
AcDbEntity
  8
100
  6
Continuous
 62
     3
100
AcDbLine
 10
391.701404123056
 20
107.587572106361
 30
0.0
 11
347.86078368949
 21
151.428192539927
 31
0.0
  0
LINE
  5
192
330
1F
100
AcDbEntity
  8
100
  6
Continuous
 62
     3
100
AcDbLine
 10
380.978610985528
 20
123.967219493381
 30
0.0
 11
387.342572016207
 21
130.33118052406
 31
0.0
  0
LINE
  5
193
330
1F
100
AcDbEntity
  8
1
  6
CENTER
 62
     1
100
AcDbLine
 10
290.766520812989
 20
114.0
 30
0.0
 11
318.349484262982
 21
114.0
 31
0.0
  0
LINE
  5
194
330
1F
100
AcDbEntity
  8
1
  6
CENTER
 62
     1
100
AcDbLine
 10
304.273211583129
 20
99.9986061504811
 30
0.0
 11
304.273211583129
 21
128.033749329163
 31
0.0
  0
LINE
  5
195
330
1F
100
AcDbEntity
  8
100
  6
Continuous
 62
     3
100
AcDbLine
 10
314.282830526363
 20
171.009618943233
 30
0.0
 11
314.282830526363
 21
179.990381056767
 31
0.0
  0
LINE
  5
196
330
1F
100
AcDbEntity
  8
100
  6
Continuous
 62
     3
100
AcDbLine
 10
340.263592639896
 20
171.009618943233
 30
0.0
 11
340.263592639896
 21
179.990381056767
 31
0.0
  0
LINE
  5
197
330
1F
100
AcDbEntity
  8
1
  6
CENTER
 62
     1
100
AcDbLine
 10
259.273211583129
 20
74.0
 30
0.0
 11
421.273211583129
 21
74.0
 31
0.0
  0
LINE
  5
198
330
1F
100
AcDbEntity
  8
1
  6
CENTER
 62
     1
100
AcDbLine
 10
340.273211583129
 20
29.1213537520812
 30
0.0
 11
340.273211583129
 21
117.754113031871
 31
0.0
  0
LINE
  5
199
330
1F
100
AcDbEntity
  8
1
  6
CENTER
 62
     1
100
AcDbLine
 10
327.273211583129
 20
134.311881248974
 30
0.0
 11
327.273211583129
 21
276.762713804096
 31
0.0
  0
LINE
  5
19A
330
1F
100
AcDbEntity
  8
100
  6
Continuous
 62
     3
100
AcDbLine
 10
399.273211583129
 20
44.35
 30
0.0
 11
399.273211583129
 21
103.65
 31
0.0
  0
LINE
  5
19B
330
1F
100
AcDbEntity
  8
100
  6
Continuous
 62
     3
100
AcDbLine
 10
281.273211583129
 20
103.65
 30
0.0
 11
281.273211583129
 21
44.35
 31
0.0
  0
LINE
  5
19C
330
1F
100
AcDbEntity
  8
1
  6
CENTER
 62
     1
100
AcDbLine
 10
327.273211583129
 20
472.806626719424
 30
0.0
 11
327.273211583129
 21
317.806626719425
 31
0.0
  0
LINE
  5
19D
330
1F
100
AcDbEntity
  8
1
  6
CENTER
 62
     1
100
AcDbLine
 10
235.790197091879
 20
395.306626719425
 30
0.0
 11
430.058129241353
 21
395.306626719425
 31
0.0
  0
LINE
  5
19E
330
1F
100
AcDbEntity
  8
100
  6
Continuous
 62
     3
100
AcDbLine
 10
374.32342653742
 20
401.402819297113
 30
0.0
 11
343.193832843075
 21
402.235621645055
 31
0.0
  0
LINE
  5
19F
330
1F
100
AcDbEntity
  8
100
  6
Continuous
 62
     3
100
AcDbLine
 10
280.222996628839
 20
401.402819297113
 30
0.0
 11
311.352590323183
 21
402.235621645054
 31
0.0
  0
LINE
  5
1A0
330
1F
100
AcDbEntity
  8
100
  6
Continuous
 62
     3
100
AcDbLine
 10
321.177019005441
 20
348.256411765134
 30
0.0
 11
320.344216657499
 21
379.386005459478
 31
0.0
  0
LINE
  5
1A1
330
1F
100
AcDbEntity
  8
100
  6
Continuous
 62
     3
100
AcDbLine
 10
280.222996628839
 20
389.210434141736
 30
0.0
 11
311.352590323183
 21
388.377631793794
 31
0.0
  0
LINE
  5
1A2
330
1F
100
AcDbEntity
  8
100
  6
Continuous
 62
     3
100
AcDbLine
 10
374.32342653742
 20
389.210434141736
 30
0.0
 11
343.193832843075
 21
388.377631793794
 31
0.0
  0
LINE
  5
1A3
330
1F
100
AcDbEntity
  8
100
  6
Continuous
 62
     3
100
AcDbLine
 10
333.369404160818
 20
348.256411765134
 30
0.0
 11
334.202206508759
 21
379.386005459478
 31
0.0
  0
LINE
  5
1A4
330
1F
100
AcDbEntity
  8
100
  6
Continuous
 62
     3
100
AcDbLine
 10
333.369404160818
 20
442.356841673715
 30
0.0
 11
334.202206508759
 21
411.22724797937
 31
0.0
  0
LINE
  5
1A5
330
1F
100
AcDbEntity
  8
100
  6
Continuous
 62
     3
100
AcDbLine
 10
321.177019005441
 20
442.356841673715
 30
0.0
 11
320.344216657499
 21
411.22724797937
 31
0.0
  0
LINE
  5
1A6
330
1F
100
AcDbEntity
  8
100
  6
Continuous
 62
     3
100
AcDbLine
 10
342.273211583129
 20
235.995063912567
 30
0.0
 11
312.273211583129
 21
235.995063912567
 31
0.0
  0
LINE
  5
1A7
330
1F
100
AcDbEntity
  8
2
  6
Continuous
 62
     3
100
AcDbLine
 10
255.669635889909
 20
261.995063912567
 30
0.0
 11
291.725484368377
 21
261.995063912567
 31
0.0
  0
LINE
  5
1A8
330
1F
100
AcDbEntity
  8
2
  6
Continuous
 62
     3
100
AcDbLine
 10
255.669635889909
 20
239.995063912567
 30
0.0
 11
262.129512107925
 21
239.995063912567
 31
0.0
  0
LINE
  5
1A9
330
1F
100
AcDbEntity
  8
2
  6
Continuous
 62
     3
100
AcDbLine
 10
398.876787276349
 20
261.995063912567
 30
0.0
 11
362.820938797882
 21
261.995063912567
 31
0.0
  0
LINE
  5
1AA
330
1F
100
AcDbEntity
  8
2
  6
Continuous
 62
     3
100
AcDbLine
 10
398.876787276349
 20
239.995063912567
 30
0.0
 11
392.416911058334
 21
239.995063912567
 31
0.0
  0
LINE
  5
1AB
330
1F
100
AcDbEntity
  8
2
  6
Continuous
 62
     3
100
AcDbLine
 10
381.811252950502
 20
239.995063912567
 30
0.0
 11
369.484310275028
 21
239.995063912567
 31
0.0
  0
LINE
  5
1AC
330
1F
100
AcDbEntity
  8
2
  6
Continuous
 62
     3
100
AcDbLine
 10
272.735170215757
 20
239.995063912567
 30
0.0
 11
285.062112891231
 21
239.995063912567
 31
0.0
  0
LINE
  5
1AD
330
1F
100
AcDbEntity
  8
2
  6
Continuous
 62
     3
100
AcDbLine
 10
318.273211583129
 20
261.995063912567
 30
0.0
 11
336.273211583129
 21
261.995063912567
 31
0.0
  0
LINE
  5
1AE
330
1F
100
AcDbEntity
  8
2
  6
Continuous
 62
     3
100
AcDbLine
 10
287.890540015977
 20
241.995063912567
 30
0.0
 11
366.655883150281
 21
241.995063912567
 31
0.0
  0
LINE
  5
1AF
330
1F
100
AcDbEntity
  8
2
  6
Continuous
 62
     3
100
AcDbLine
 10
292.591509772161
 20
260.495063912567
 30
0.0
 11
361.954913394097
 21
260.495063912567
 31
0.0
  0
LINE
  5
1B0
330
1F
100
AcDbEntity
  8
2
  6
Continuous
 62
     3
100
AcDbLine
 10
264.957939232671
 20
241.995063912567
 30
0.0
 11
270.631141340374
 21
241.995063912567
 31
0.0
  0
LINE
  5
1B1
330
1F
100
AcDbEntity
  8
2
  6
Continuous
 62
     3
100
AcDbLine
 10
389.588483933588
 20
241.995063912567
 30
0.0
 11
383.811252950502
 21
241.995063912567
 31
0.0
  0
LINE
  5
1B2
330
1F
100
AcDbEntity
  8
1
  6
CENTER
 62
     1
100
AcDbLine
 10
510.299702385394
 20
74.0
 30
0.0
 11
582.299702385394
 21
74.0
 31
0.0
  0
LINE
  5
1B3
330
1F
100
AcDbEntity
  8
100
  6
Continuous
 62
     3
100
AcDbLine
 10
577.299702385394
 20
83.1104335791443
 30
0.0
 11
577.299702385394
 21
138.70027047861
 31
0.0
  0
LINE
  5
1B4
330
1F
100
AcDbEntity
  8
100
  6
Continuous
 62
     3
100
AcDbLine
 10
515.299702385394
 20
83.1104335791443
 30
0.0
 11
515.299702385394
 21
138.700270669342
 31
0.0
  0
LINE
  5
1B5
330
1F
100
AcDbEntity
  8
100
  6
Continuous
 62
     3
100
AcDbLine
 10
564.299702396395
 20
159.947687796317
 30
0.0
 11
564.299702396395
 21
169.0
 31
0.0
  0
LINE
  5
1B6
330
1F
100
AcDbEntity
  8
100
  6
Continuous
 62
     3
100
AcDbLine
 10
528.299702396395
 20
159.947687805298
 30
0.0
 11
528.299702396395
 21
169.0
 31
0.0
  0
LINE
  5
1B7
330
1F
100
AcDbEntity
  8
1
  6
CENTER
 62
     1
100
AcDbLine
 10
546.299702385394
 20
34.999999996
 30
0.0
 11
546.299702385394
 21
270.0
 31
0.0
  0
LINE
  5
1B8
330
1F
100
AcDbEntity
  8
100
  6
Continuous
 62
     3
100
AcDbLine
 10
531.299702385394
 20
189.990381056767
 30
0.0
 11
561.299702385394
 21
189.990381056767
 31
0.0
  0
LINE
  5
1B9
330
1F
100
AcDbEntity
  8
100
  6
Continuous
 62
     3
100
AcDbLine
 10
561.299702385394
 20
189.990381056767
 30
0.0
 11
561.299702385394
 21
181.990381056767
 31
0.0
  0
LINE
  5
1BA
330
1F
100
AcDbEntity
  8
100
  6
Continuous
 62
     3
100
AcDbLine
 10
531.299702385394
 20
181.990381056767
 30
0.0
 11
531.299702385394
 21
189.990381056767
 31
0.0
  0
LINE
  5
1BB
330
1F
100
AcDbEntity
  8
100
  6
Continuous
 62
     3
100
AcDbLine
 10
568.799702385394
 20
169.0
 30
0.0
 11
568.799702385394
 21
181.990381056767
 31
0.0
  0
LINE
  5
1BC
330
1F
100
AcDbEntity
  8
100
  6
Continuous
 62
     3
100
AcDbLine
 10
523.799702385394
 20
181.990381056767
 30
0.0
 11
523.799702385394
 21
169.0
 31
0.0
  0
LINE
  5
1BD
330
1F
100
AcDbEntity
  8
100
  6
Continuous
 62
     3
100
AcDbLine
 10
568.799702385394
 20
169.0
 30
0.0
 11
523.799702385394
 21
169.0
 31
0.0
  0
LINE
  5
1BE
330
1F
100
AcDbEntity
  8
100
  6
Continuous
 62
     3
100
AcDbLine
 10
568.799702385394
 20
181.990381056767
 30
0.0
 11
523.799702385394
 21
181.990381056767
 31
0.0
  0
LINE
  5
1BF
330
1F
100
AcDbEntity
  8
100
  6
Continuous
 62
     3
100
AcDbLine
 10
546.299702385394
 20
179.980762113533
 30
0.0
 11
546.299702385394
 21
171.0
 31
0.0
  0
LINE
  5
1C0
330
1F
100
AcDbEntity
  8
100
  6
Continuous
 62
     3
100
AcDbLine
 10
537.299702385394
 20
190.0
 30
0.0
 11
537.299702385394
 21
212.995063912566
 31
0.0
  0
LINE
  5
1C1
330
1F
100
AcDbEntity
  8
100
  6
Continuous
 62
     3
100
AcDbLine
 10
561.299702385394
 20
190.0
 30
0.0
 11
561.299702385394
 21
182.0
 31
0.0
  0
LINE
  5
1C2
330
1F
100
AcDbEntity
  8
100
  6
Continuous
 62
     3
100
AcDbLine
 10
531.299702385394
 20
182.0
 30
0.0
 11
531.299702385394
 21
190.0
 31
0.0
  0
LINE
  5
1C3
330
1F
100
AcDbEntity
  8
100
  6
Continuous
 62
     3
100
AcDbLine
 10
555.299702385394
 20
190.0
 30
0.0
 11
555.299702385394
 21
212.995063912566
 31
0.0
  0
LINE
  5
1C4
330
1F
100
AcDbEntity
  8
100
  6
Continuous
 62
     3
100
AcDbLine
 10
531.299702385394
 20
190.0
 30
0.0
 11
561.299702385394
 21
190.0
 31
0.0
  0
LINE
  5
1C5
330
1F
100
AcDbEntity
  8
100
  6
Continuous
 62
     3
100
AcDbLine
 10
288.428801379417
 20
426.306626719424
 30
0.0
 11
320.747631560486
 21
426.306626719424
 31
0.0
  0
LINE
  5
1C6
330
1F
100
AcDbEntity
  8
100
  6
Continuous
 62
     3
100
AcDbLine
 10
333.798791605773
 20
426.306626719424
 30
0.0
 11
367.770125045762
 21
426.306626719424
 31
0.0
  0
LINE
  5
1C7
330
1F
100
AcDbEntity
  8
100
  6
Continuous
 62
     3
100
AcDbLine
 10
288.428801379417
 20
364.306626719425
 30
0.0
 11
320.747631560486
 21
364.306626719425
 31
0.0
  0
LINE
  5
1C8
330
1F
100
AcDbEntity
  8
100
  6
Continuous
 62
     3
100
AcDbLine
 10
333.798791605773
 20
364.306626719425
 30
0.0
 11
367.770125045762
 21
364.306626719425
 31
0.0
  0
LINE
  5
1C9
330
1F
100
AcDbEntity
  8
100
  6
Continuous
 62
     3
100
AcDbLine
 10
416.273211583129
 20
424.956626719424
 30
0.0
 11
416.273211583129
 21
365.656626719424
 31
0.0
  0
LINE
  5
1CA
330
1F
100
AcDbEntity
  8
100
  6
Continuous
 62
     3
100
AcDbLine
 10
399.273211583129
 20
424.956626719424
 30
0.0
 11
416.273211583129
 21
424.956626719424
 31
0.0
  0
LINE
  5
1CB
330
1F
100
AcDbEntity
  8
1
  6
Continuous
 62
     3
100
AcDbLine
 10
416.273211583129
 20
423.634626719424
 30
0.0
 11
399.273211583129
 21
423.634626719424
 31
0.0
  0
LINE
  5
1CC
330
1F
100
AcDbEntity
  8
100
  6
Continuous
 62
     3
100
AcDbLine
 10
416.273211583129
 20
365.656626719424
 30
0.0
 11
399.273211583129
 21
365.656626719424
 31
0.0
  0
LINE
  5
1CD
330
1F
100
AcDbEntity
  8
1
  6
Continuous
 62
     3
100
AcDbLine
 10
416.273211583129
 20
366.978626719424
 30
0.0
 11
399.273211583129
 21
366.978626719424
 31
0.0
  0
LINE
  5
1CE
330
1F
100
AcDbEntity
  8
100
  6
Continuous
 62
     3
100
AcDbLine
 10
399.273211583129
 20
365.656626719424
 30
0.0
 11
399.273211583129
 21
387.255155911133
 31
0.0
  0
LINE
  5
1CF
330
1F
100
AcDbEntity
  8
100
  6
Continuous
 62
     3
100
AcDbLine
 10
399.273211583129
 20
403.358097527716
 30
0.0
 11
399.273211583129
 21
424.956626719424
 31
0.0
  0
LINE
  5
1D0
330
1F
100
AcDbEntity
  8
100
  6
Continuous
 62
     3
100
AcDbLine
 10
269.041511676906
 20
424.956626719424
 30
0.0
 11
264.273211583129
 21
424.956626719424
 31
0.0
  0
LINE
  5
1D1
330
1F
100
AcDbEntity
  8
100
  6
Continuous
 62
     3
100
AcDbLine
 10
264.273211583129
 20
424.956626719424
 30
0.0
 11
264.273211583129
 21
414.036848326261
 31
0.0
  0
LINE
  5
1D2
330
1F
100
AcDbEntity
  8
100
  6
Continuous
 62
     3
100
AcDbLine
 10
264.273211583129
 20
376.576405112588
 30
0.0
 11
264.273211583129
 21
365.656626719424
 31
0.0
  0
LINE
  5
1D3
330
1F
100
AcDbEntity
  8
1
  6
Continuous
 62
     3
100
AcDbLine
 10
264.273211583129
 20
423.634626719424
 30
0.0
 11
268.640845886155
 21
423.634626719424
 31
0.0
  0
LINE
  5
1D4
330
1F
100
AcDbEntity
  8
100
  6
Continuous
 62
     3
100
AcDbLine
 10
264.273211583129
 20
365.656626719424
 30
0.0
 11
269.041511676906
 21
365.656626719424
 31
0.0
  0
LINE
  5
1D5
330
1F
100
AcDbEntity
  8
1
  6
Continuous
 62
     3
100
AcDbLine
 10
264.273211583129
 20
366.978626719424
 30
0.0
 11
268.640845886155
 21
366.978626719424
 31
0.0
  0
LINE
  5
1D6
330
1F
100
AcDbEntity
  8
100
  6
Continuous
 62
     3
100
AcDbLine
 10
281.273211583129
 20
417.32934226497
 30
0.0
 11
281.273211583129
 21
401.430915438951
 31
0.0
  0
LINE
  5
1D7
330
1F
100
AcDbEntity
  8
100
  6
Continuous
 62
     3
100
AcDbLine
 10
281.273211583129
 20
389.182337999898
 30
0.0
 11
281.273211583129
 21
373.28391117388
 31
0.0
  0
LINE
  5
1D8
330
1F
100
AcDbEntity
  8
100
  6
Continuous
 62
     3
100
AcDbLine
 10
399.273211583129
 20
368.306626719425
 30
0.0
 11
386.35333609025
 21
368.306626719425
 31
0.0
  0
LINE
  5
1D9
330
1F
100
AcDbEntity
  8
100
  6
Continuous
 62
     3
100
AcDbLine
 10
284.006596277562
 20
368.306626719425
 30
0.0
 11
288.428801379417
 21
368.306626719425
 31
0.0
  0
LINE
  5
1DA
330
1F
100
AcDbEntity
  8
100
  6
Continuous
 62
     3
100
AcDbLine
 10
399.273211583129
 20
422.306626719424
 30
0.0
 11
386.35333609025
 21
422.306626719424
 31
0.0
  0
LINE
  5
1DB
330
1F
100
AcDbEntity
  8
100
  6
Continuous
 62
     3
100
AcDbLine
 10
284.006596277561
 20
422.306626719424
 30
0.0
 11
288.428801379417
 21
422.306626719424
 31
0.0
  0
LINE
  5
1DC
330
1F
100
AcDbEntity
  8
100
  6
Continuous
 62
     3
100
AcDbLine
 10
288.428801379417
 20
364.306626719425
 30
0.0
 11
288.428801379417
 21
388.990906269637
 31
0.0
  0
LINE
  5
1DD
330
1F
100
AcDbEntity
  8
100
  6
Continuous
 62
     3
100
AcDbLine
 10
288.428801379417
 20
401.622347169212
 30
0.0
 11
288.428801379417
 21
426.306626719424
 31
0.0
  0
LINE
  5
1DE
330
1F
100
AcDbEntity
  8
100
  6
Continuous
 62
     3
100
AcDbLine
 10
515.299702385394
 20
123.814954576224
 30
0.0
 11
509.299702385394
 21
123.814954576224
 31
0.0
  0
LINE
  5
1DF
330
1F
100
AcDbEntity
  8
100
  6
Continuous
 62
     3
100
AcDbLine
 10
509.299702385394
 20
104.185045423776
 30
0.0
 11
515.299702385394
 21
104.185045423776
 31
0.0
  0
LINE
  5
1E0
330
1F
100
AcDbEntity
  8
100
  6
Continuous
 62
     3
100
AcDbLine
 10
509.299702385394
 20
123.814954576224
 30
0.0
 11
509.299702385394
 21
104.185045423776
 31
0.0
  0
LINE
  5
1E1
330
1F
100
AcDbEntity
  8
100
  6
Continuous
 62
     3
100
AcDbLine
 10
509.299702385394
 20
118.907477288112
 30
0.0
 11
515.299702385394
 21
118.907477288112
 31
0.0
  0
LINE
  5
1E2
330
1F
100
AcDbEntity
  8
100
  6
Continuous
 62
     3
100
AcDbLine
 10
509.299702385394
 20
109.092522711888
 30
0.0
 11
515.299702385394
 21
109.092522711888
 31
0.0
  0
LINE
  5
1E3
330
1F
100
AcDbEntity
  8
100
  6
Continuous
 62
     3
100
AcDbLine
 10
295.752725579558
 20
358.306626719425
 30
0.0
 11
312.752725579558
 21
358.306626719425
 31
0.0
  0
LINE
  5
1E4
330
1F
100
AcDbEntity
  8
100
  6
Continuous
 62
     3
100
AcDbLine
 10
312.752725579558
 20
358.306626719425
 30
0.0
 11
312.752725579558
 21
364.306626719425
 31
0.0
  0
LINE
  5
1E5
330
1F
100
AcDbEntity
  8
100
  6
Continuous
 62
     3
100
AcDbLine
 10
304.273211583129
 20
358.306626719425
 30
0.0
 11
304.273211583129
 21
364.306626719425
 31
0.0
  0
LINE
  5
1E6
330
1F
100
AcDbEntity
  8
100
  6
Continuous
 62
     3
100
AcDbLine
 10
295.752725579558
 20
358.306626719425
 30
0.0
 11
295.752725579558
 21
364.306626719425
 31
0.0
  0
LINE
  5
1E7
330
1F
100
AcDbEntity
  8
100
  6
Continuous
 62
     3
100
AcDbLine
 10
264.273211583129
 20
44.35
 30
0.0
 11
281.273211583129
 21
44.35
 31
0.0
  0
LINE
  5
1E8
330
1F
100
AcDbEntity
  8
2
  6
Continuous
 62
     3
100
AcDbLine
 10
608.614974735853
 20
241.995063912567
 30
0.0
 11
602.837743752767
 21
241.995063912567
 31
0.0
  0
LINE
  5
1E9
330
1F
100
AcDbEntity
  8
2
  6
Continuous
 62
     3
100
AcDbLine
 10
483.984430034936
 20
241.995063912567
 30
0.0
 11
489.657632142639
 21
241.995063912567
 31
0.0
  0
LINE
  5
1EA
330
1F
100
AcDbEntity
  8
2
  6
Continuous
 62
     3
100
AcDbLine
 10
511.618000574426
 20
260.495063912567
 30
0.0
 11
580.981404196362
 21
260.495063912567
 31
0.0
  0
LINE
  5
1EB
330
1F
100
AcDbEntity
  8
2
  6
Continuous
 62
     3
100
AcDbLine
 10
506.917030818242
 20
241.995063912567
 30
0.0
 11
585.682373952546
 21
241.995063912567
 31
0.0
  0
LINE
  5
1EC
330
1F
100
AcDbEntity
  8
2
  6
Continuous
 62
     3
100
AcDbLine
 10
537.299702385394
 20
261.995063912567
 30
0.0
 11
555.299702385394
 21
261.995063912567
 31
0.0
  0
LINE
  5
1ED
330
1F
100
AcDbEntity
  8
2
  6
Continuous
 62
     3
100
AcDbLine
 10
491.761661018022
 20
239.995063912567
 30
0.0
 11
504.088603693496
 21
239.995063912567
 31
0.0
  0
LINE
  5
1EE
330
1F
100
AcDbEntity
  8
2
  6
Continuous
 62
     3
100
AcDbLine
 10
600.837743752767
 20
239.995063912567
 30
0.0
 11
588.510801077293
 21
239.995063912567
 31
0.0
  0
LINE
  5
1EF
330
1F
100
AcDbEntity
  8
2
  6
Continuous
 62
     3
100
AcDbLine
 10
617.903278078614
 20
239.995063912567
 30
0.0
 11
611.443401860599
 21
239.995063912567
 31
0.0
  0
LINE
  5
1F0
330
1F
100
AcDbEntity
  8
2
  6
Continuous
 62
     3
100
AcDbLine
 10
617.903278078614
 20
261.995063912567
 30
0.0
 11
581.847429600147
 21
261.995063912567
 31
0.0
  0
LINE
  5
1F1
330
1F
100
AcDbEntity
  8
2
  6
Continuous
 62
     3
100
AcDbLine
 10
474.696126692174
 20
239.995063912567
 30
0.0
 11
481.15600291019
 21
239.995063912567
 31
0.0
  0
LINE
  5
1F2
330
1F
100
AcDbEntity
  8
2
  6
Continuous
 62
     3
100
AcDbLine
 10
474.696126692174
 20
261.995063912567
 30
0.0
 11
510.751975170642
 21
261.995063912567
 31
0.0
  0
LINE
  5
1F3
330
1F
100
AcDbEntity
  8
100
  6
Continuous
 62
     3
100
AcDbLine
 10
561.299702385394
 20
235.995063912567
 30
0.0
 11
531.299702385394
 21
235.995063912567
 31
0.0
  0
LINE
  5
1F4
330
1F
100
AcDbEntity
  8
100
  6
DOT_CENTER
 62
     6
100
AcDbLine
 10
537.299702385394
 20
243.995063912567
 30
0.0
 11
555.299702385394
 21
243.995063912567
 31
0.0
  0
LINE
  5
1F5
330
1F
100
AcDbEntity
  8
100
  6
Continuous
 62
     3
100
AcDbLine
 10
578.607394693087
 20
241.995063912567
 30
0.0
 11
561.299702385394
 21
235.995063912567
 31
0.0
  0
LINE
  5
1F6
330
1F
100
AcDbEntity
  8
100
  6
Continuous
 62
     3
100
AcDbLine
 10
513.992010077702
 20
241.995063912567
 30
0.0
 11
531.299702385394
 21
235.995063912567
 31
0.0
  0
LINE
  5
1F7
330
1F
100
AcDbEntity
  8
100
  6
PHANTOM
 62
     6
100
AcDbLine
 10
506.917030818242
 20
223.995063912567
 30
0.0
 11
585.682373952546
 21
223.995063912567
 31
0.0
  0
LINE
  5
1F8
330
1F
100
AcDbEntity
  8
100
  6
DOT_CENTER
 62
     6
100
AcDbLine
 10
491.761661018022
 20
221.995063912567
 30
0.0
 11
504.088603693496
 21
221.995063912567
 31
0.0
  0
LINE
  5
1F9
330
1F
100
AcDbEntity
  8
100
  6
DOT_CENTER
 62
     6
100
AcDbLine
 10
483.984430034936
 20
223.995063912567
 30
0.0
 11
489.657632142639
 21
223.995063912567
 31
0.0
  0
LINE
  5
1FA
330
1F
100
AcDbEntity
  8
100
  6
PHANTOM
 62
     6
100
AcDbLine
 10
600.837743752767
 20
221.995063912567
 30
0.0
 11
588.510801077293
 21
221.995063912567
 31
0.0
  0
LINE
  5
1FB
330
1F
100
AcDbEntity
  8
100
  6
PHANTOM
 62
     6
100
AcDbLine
 10
608.614974735853
 20
223.995063912567
 30
0.0
 11
602.837743752767
 21
223.995063912567
 31
0.0
  0
LINE
  5
1FC
330
1F
100
AcDbEntity
  8
100
  6
PHANTOM
 62
     6
100
AcDbLine
 10
617.903278078614
 20
221.995063912567
 30
0.0
 11
611.443401860599
 21
221.995063912567
 31
0.0
  0
LINE
  5
1FD
330
1F
100
AcDbEntity
  8
100
  6
PHANTOM
 62
     6
100
AcDbLine
 10
617.903278078614
 20
243.995063912567
 30
0.0
 11
581.847429600147
 21
243.995063912567
 31
0.0
  0
LINE
  5
1FE
330
1F
100
AcDbEntity
  8
100
  6
DOT_CENTER
 62
     6
100
AcDbLine
 10
511.618000574426
 20
242.495063912567
 30
0.0
 11
580.981404196362
 21
242.495063912567
 31
0.0
  0
LINE
  5
1FF
330
1F
100
AcDbEntity
  8
100
  6
DOT_CENTER
 62
     6
100
AcDbLine
 10
474.696126692174
 20
221.995063912567
 30
0.0
 11
481.15600291019
 21
221.995063912567
 31
0.0
  0
LINE
  5
200
330
1F
100
AcDbEntity
  8
100
  6
DOT_CENTER
 62
     6
100
AcDbLine
 10
474.696126692174
 20
243.995063912567
 30
0.0
 11
510.751975170642
 21
243.995063912567
 31
0.0
  0
LINE
  5
201
330
1F
100
AcDbEntity
  8
100
  6
Continuous
 62
     3
100
AcDbLine
 10
531.299702385394
 20
235.995063912567
 30
0.0
 11
531.299702385394
 21
231.995063912567
 31
0.0
  0
LINE
  5
202
330
1F
100
AcDbEntity
  8
100
  6
Continuous
 62
     3
100
AcDbLine
 10
561.299702385394
 20
231.995063912567
 30
0.0
 11
531.299702385394
 21
231.995063912567
 31
0.0
  0
LINE
  5
203
330
1F
100
AcDbEntity
  8
100
  6
Continuous
 62
     3
100
AcDbLine
 10
561.299702385394
 20
235.995063912567
 30
0.0
 11
561.299702385394
 21
231.995063912567
 31
0.0
  0
LINE
  5
204
330
1F
100
AcDbEntity
  8
100
  6
Continuous
 62
     3
100
AcDbLine
 10
555.299702385394
 20
229.795063912566
 30
0.0
 11
555.299702385394
 21
231.995063912566
 31
0.0
  0
LINE
  5
205
330
1F
100
AcDbEntity
  8
100
  6
Continuous
 62
     3
100
AcDbLine
 10
537.299702385394
 20
229.795063912567
 30
0.0
 11
537.299702385394
 21
231.995063912567
 31
0.0
  0
LINE
  5
206
330
1F
100
AcDbEntity
  8
100
  6
Continuous
 62
     3
100
AcDbLine
 10
533.299702385394
 20
229.795063912567
 30
0.0
 11
559.299702385394
 21
229.795063912567
 31
0.0
  0
LINE
  5
207
330
1F
100
AcDbEntity
  8
100
  6
Continuous
 62
     3
100
AcDbLine
 10
533.299702385394
 20
212.995063912566
 30
0.0
 11
559.299702385394
 21
212.995063912566
 31
0.0
  0
LINE
  5
208
330
1F
100
AcDbEntity
  8
100
  6
Continuous
 62
     3
100
AcDbLine
 10
533.299702385394
 20
212.995063912566
 30
0.0
 11
533.299702385394
 21
229.795063912567
 31
0.0
  0
LINE
  5
209
330
1F
100
AcDbEntity
  8
100
  6
Continuous
 62
     3
100
AcDbLine
 10
559.299702385394
 20
212.995063912566
 30
0.0
 11
559.299702385394
 21
229.795063912567
 31
0.0
  0
ARC
  5
20A
330
1F
100
AcDbEntity
  8
100
  6
Continuous
 62
     3
100
AcDbCircle
 10
395.507909470416
 20
43.0
 30
0.0
 40
4.000000000000138
100
AcDbArc
 50
19.724633558701
 51
90.0
  0
ARC
  5
20B
330
1F
100
AcDbEntity
  8
100
  6
Continuous
 62
     3
100
AcDbCircle
 10
340.273211583129
 20
192.0
 30
0.0
 40
150.0
100
AcDbArc
 50
256.3101132603697
 51
283.6898867396303
  0
ARC
  5
20C
330
1F
100
AcDbEntity
  8
100
  6
Continuous
 62
     3
100
AcDbCircle
 10
381.926542782446
 20
21.0
 30
0.0
 40
26.0
100
AcDbArc
 50
90.0
 51
103.6898867396305
  0
ARC
  5
20D
330
1F
100
AcDbEntity
  8
100
  6
Continuous
 62
     3
100
AcDbCircle
 10
285.038513695842
 20
43.0
 30
0.0
 40
4.0
100
AcDbArc
 50
90.0
 51
160.275366441299
  0
ARC
  5
20E
330
1F
100
AcDbEntity
  8
100
  6
Continuous
 62
     3
100
AcDbCircle
 10
298.619880383812
 20
21.0
 30
0.0
 40
25.99999999999997
100
AcDbArc
 50
76.31011326036965
 51
90.0
  0
ARC
  5
20F
330
1F
100
AcDbEntity
  8
100
  6
Continuous
 62
     3
100
AcDbCircle
 10
317.273211583129
 20
117.0
 30
0.0
 40
28.99999999999971
100
AcDbArc
 50
121.5153700020894
 51
198.876503630558
  0
ARC
  5
210
330
1F
100
AcDbEntity
  8
100
  6
Continuous
 62
     3
100
AcDbCircle
 10
285.038513695842
 20
105.0
 30
0.0
 40
4.000000000000136
100
AcDbArc
 50
199.7246335587009
 51
270.0
  0
ARC
  5
211
330
1F
100
AcDbEntity
  8
100
  6
Continuous
 62
     3
100
AcDbCircle
 10
285.101795698838
 20
106.0
 30
0.0
 40
5.0
100
AcDbArc
 50
270.0
 51
18.87650363056526
  0
ARC
  5
212
330
1F
100
AcDbEntity
  8
100
  6
Continuous
 62
     3
100
AcDbCircle
 10
294.273211583129
 20
154.509998667022
 30
0.0
 40
15.0000000000002
100
AcDbArc
 50
301.515370002088
 51
0.0
  0
ARC
  5
213
330
1F
100
AcDbEntity
  8
100
  6
Continuous
 62
     3
100
AcDbCircle
 10
348.273211583129
 20
154.399707849083
 30
0.0
 40
3.0
100
AcDbArc
 50
180.0
 51
262.098182599961
  0
ARC
  5
214
330
1F
100
AcDbEntity
  8
100
  6
Continuous
 62
     3
100
AcDbCircle
 10
393.563579485001
 20
104.5
 30
0.0
 40
3.500000000000109
100
AcDbArc
 50
135.0
 51
270.0
  0
ARC
  5
215
330
1F
100
AcDbEntity
  8
100
  6
Continuous
 62
     3
100
AcDbCircle
 10
395.507909470416
 20
105.0
 30
0.0
 40
4.0
100
AcDbArc
 50
270.0
 51
340.2753664412991
  0
ARC
  5
216
330
1F
100
AcDbEntity
  8
100
  6
DOT_CENTER
 62
     6
100
AcDbCircle
 10
282.183783057035
 20
232.995063912567
 30
0.0
 40
30.00000000000053
100
AcDbArc
 50
161.2506591529818
 51
198.7493408470182
  0
ARC
  5
217
330
1F
100
AcDbEntity
  8
100
  6
DOT_CENTER
 62
     6
100
AcDbCircle
 10
255.669635889909
 20
241.995063912567
 30
0.0
 40
2.0
100
AcDbArc
 50
90.0
 51
161.250659152988
  0
ARC
  5
218
330
1F
100
AcDbEntity
  8
100
  6
DOT_CENTER
 62
     6
100
AcDbCircle
 10
255.669635889909
 20
223.995063912567
 30
0.0
 40
2.000000000000246
100
AcDbArc
 50
198.749340847012
 51
270.0
  0
ARC
  5
219
330
1F
100
AcDbEntity
  8
100
  6
DOT_CENTER
 62
     6
100
AcDbCircle
 10
291.725484368377
 20
242.995063912567
 30
0.0
 40
1.0
100
AcDbArc
 50
0.0
 51
90.0
  0
ARC
  5
21A
330
1F
100
AcDbEntity
  8
100
  6
DOT_CENTER
 62
     6
100
AcDbCircle
 10
293.225484368377
 20
242.995063912567
 30
0.0
 40
0.5
100
AcDbArc
 50
180.0
 51
270.0
  0
ARC
  5
21B
330
1F
100
AcDbEntity
  8
100
  6
DOT_CENTER
 62
     6
100
AcDbCircle
 10
362.820938797882
 20
242.995063912567
 30
0.0
 40
1.0
100
AcDbArc
 50
90.0
 51
180.0
  0
ARC
  5
21C
330
1F
100
AcDbEntity
  8
100
  6
Continuous
 62
     6
100
AcDbCircle
 10
361.320938797882
 20
242.995063912567
 30
0.0
 40
0.5
100
AcDbArc
 50
270.0
 51
0.0
  0
ARC
  5
21D
330
1F
100
AcDbEntity
  8
100
  6
DOT_CENTER
 62
     6
100
AcDbCircle
 10
398.876787276349
 20
241.995063912567
 30
0.0
 40
2.000000000000273
100
AcDbArc
 50
18.74934084701176
 51
90.0
  0
ARC
  5
21E
330
1F
100
AcDbEntity
  8
100
  6
PHANTOM
 62
     6
100
AcDbCircle
 10
398.876787276349
 20
223.995063912567
 30
0.0
 40
2.0
100
AcDbArc
 50
270.0
 51
341.2506591529882
  0
ARC
  5
21F
330
1F
100
AcDbEntity
  8
100
  6
PHANTOM
 62
     6
100
AcDbCircle
 10
372.362640109223
 20
232.995063912567
 30
0.0
 40
30.00000000000055
100
AcDbArc
 50
341.2506591529818
 51
18.74934084701818
  0
ARC
  5
220
330
1F
100
AcDbEntity
  8
100
  6
DOT_CENTER
 62
     6
100
AcDbCircle
 10
285.062112891231
 20
223.995063912567
 30
0.0
 40
2.0
100
AcDbArc
 50
270.0
 51
340.528779365499
  0
ARC
  5
221
330
1F
100
AcDbEntity
  8
100
  6
DOT_CENTER
 62
     6
100
AcDbCircle
 10
287.890540015977
 20
222.995063912567
 30
0.0
 40
1.0
100
AcDbArc
 50
90.0
 51
160.528779365527
  0
ARC
  5
222
330
1F
100
AcDbEntity
  8
100
  6
PHANTOM
 62
     6
100
AcDbCircle
 10
369.484310275028
 20
223.995063912567
 30
0.0
 40
2.000000000000946
100
AcDbArc
 50
199.4712206344912
 51
270.0
  0
ARC
  5
223
330
1F
100
AcDbEntity
  8
100
  6
PHANTOM
 62
     6
100
AcDbCircle
 10
366.655883150281
 20
222.995063912567
 30
0.0
 40
0.9999999999998253
100
AcDbArc
 50
19.47122063447408
 51
90.0
  0
ARC
  5
224
330
1F
100
AcDbEntity
  8
100
  6
PHANTOM
 62
     6
100
AcDbCircle
 10
381.811252950502
 20
223.995063912567
 30
0.0
 40
2.0
100
AcDbArc
 50
270.0
 51
341.2506591529877
  0
ARC
  5
225
330
1F
100
AcDbEntity
  8
100
  6
PHANTOM
 62
     6
100
AcDbCircle
 10
355.297105783376
 20
232.995063912567
 30
0.0
 40
30.0000000000005
100
AcDbArc
 50
341.2506591529818
 51
342.5423968762782
  0
ARC
  5
226
330
1F
100
AcDbEntity
  8
100
  6
PHANTOM
 62
     6
100
AcDbCircle
 10
392.416911058334
 20
223.995063912567
 30
0.0
 40
1.999999999999982
100
AcDbArc
 50
199.4712206345009
 51
270.0
  0
ARC
  5
227
330
1F
100
AcDbEntity
  8
100
  6
PHANTOM
 62
     6
100
AcDbCircle
 10
389.588483933588
 20
222.995063912567
 30
0.0
 40
0.9999999999998253
100
AcDbArc
 50
19.47122063447408
 51
90.0
  0
ARC
  5
228
330
1F
100
AcDbEntity
  8
100
  6
DOT_CENTER
 62
     6
100
AcDbCircle
 10
262.129512107925
 20
223.995063912567
 30
0.0
 40
2.0
100
AcDbArc
 50
270.0
 51
340.528779365499
  0
ARC
  5
229
330
1F
100
AcDbEntity
  8
100
  6
DOT_CENTER
 62
     6
100
AcDbCircle
 10
264.957939232671
 20
222.995063912567
 30
0.0
 40
1.0
100
AcDbArc
 50
90.0
 51
160.5287793655259
  0
ARC
  5
22A
330
1F
100
AcDbEntity
  8
100
  6
DOT_CENTER
 62
     6
100
AcDbCircle
 10
272.735170215757
 20
223.995063912567
 30
0.0
 40
2.000000000000273
100
AcDbArc
 50
198.7493408470118
 51
270.0
  0
ARC
  5
22B
330
1F
100
AcDbEntity
  8
100
  6
DOT_CENTER
 62
     6
100
AcDbCircle
 10
299.249317382882
 20
232.995063912567
 30
0.0
 40
29.99999999999967
100
AcDbArc
 50
197.4576031237223
 51
198.7493408470188
  0
ARC
  5
22C
330
1F
100
AcDbEntity
  8
100
  6
DOT_CENTER
 62
     6
100
AcDbCircle
 10
318.273211583129
 20
242.995063912567
 30
0.0
 40
1.0
100
AcDbArc
 50
90.0
 51
180.0
  0
ARC
  5
22D
330
1F
100
AcDbEntity
  8
100
  6
DOT_CENTER
 62
     6
100
AcDbCircle
 10
316.773211583129
 20
242.995063912567
 30
0.0
 40
0.5
100
AcDbArc
 50
270.0
 51
0.0
  0
ARC
  5
22E
330
1F
100
AcDbEntity
  8
100
  6
DOT_CENTER
 62
     6
100
AcDbCircle
 10
336.273211583129
 20
242.995063912567
 30
0.0
 40
1.0
100
AcDbArc
 50
0.0
 51
90.0
  0
ARC
  5
22F
330
1F
100
AcDbEntity
  8
100
  6
DOT_CENTER
 62
     6
100
AcDbCircle
 10
337.773211583129
 20
242.995063912567
 30
0.0
 40
0.5
100
AcDbArc
 50
180.0
 51
270.0
  0
ARC
  5
230
330
1F
100
AcDbEntity
  8
100
  6
Continuous
 62
     3
100
AcDbCircle
 10
307.787639997979
 20
170.498797632096
 30
0.0
 40
11.50120236790479
100
AcDbArc
 50
55.61575253195583
 51
124.38424746804
  0
ARC
  5
231
330
1F
100
AcDbEntity
  8
100
  6
Continuous
 62
     3
100
AcDbCircle
 10
307.787639997979
 20
180.501202367904
 30
0.0
 40
11.50120236790421
100
AcDbArc
 50
235.61575253196
 51
304.3842474680442
  0
ARC
  5
232
330
1F
100
AcDbEntity
  8
100
  6
Continuous
 62
     3
100
AcDbCircle
 10
327.273211583129
 20
139.009618943234
 30
0.0
 40
42.99038105676657
100
AcDbArc
 50
72.41204622600567
 51
107.5879537739931
  0
ARC
  5
233
330
1F
100
AcDbEntity
  8
100
  6
Continuous
 62
     3
100
AcDbCircle
 10
327.273211583129
 20
211.990381056767
 30
0.0
 40
42.99038105676722
100
AcDbArc
 50
252.4120462260073
 51
287.5879537739939
  0
ARC
  5
234
330
1F
100
AcDbEntity
  8
100
  6
Continuous
 62
     3
100
AcDbCircle
 10
346.758783168279
 20
170.498797632096
 30
0.0
 40
11.50120236790421
100
AcDbArc
 50
55.61575253196003
 51
124.3842474680402
  0
ARC
  5
235
330
1F
100
AcDbEntity
  8
100
  6
Continuous
 62
     3
100
AcDbCircle
 10
346.758783168279
 20
180.501202367904
 30
0.0
 40
11.50120236790424
100
AcDbArc
 50
235.6157525319598
 51
304.38424746804
  0
ARC
  5
236
330
1F
100
AcDbEntity
  8
100
  6
Continuous
 62
     3
100
AcDbCircle
 10
371.820938797882
 20
439.854353934177
 30
0.0
 40
11.99999999999982
100
AcDbArc
 50
357.4780207936514
 51
92.52197920634862
  0
ARC
  5
237
330
1F
100
AcDbEntity
  8
100
  6
Continuous
 62
     3
100
AcDbCircle
 10
327.273211583129
 20
458.306626719424
 30
0.0
 40
11.99999999999996
100
AcDbArc
 50
42.47802079365363
 51
137.5219792063465
  0
ARC
  5
238
330
1F
100
AcDbEntity
  8
100
  6
Continuous
 62
     3
100
AcDbCircle
 10
282.725484368377
 20
439.854353934177
 30
0.0
 40
11.99999999999976
100
AcDbArc
 50
87.4780207936516
 51
182.5219792063486
  0
ARC
  5
239
330
1F
100
AcDbEntity
  8
100
  6
Continuous
 62
     3
100
AcDbCircle
 10
264.273211583129
 20
395.306626719425
 30
0.0
 40
11.9999999999993
100
AcDbArc
 50
132.4780207936502
 51
227.5219792063533
  0
ARC
  5
23A
330
1F
100
AcDbEntity
  8
100
  6
Continuous
 62
     3
100
AcDbCircle
 10
282.725484368377
 20
350.758899504672
 30
0.0
 40
11.99999999999981
100
AcDbArc
 50
177.4780207936516
 51
272.5219792063484
  0
ARC
  5
23B
330
1F
100
AcDbEntity
  8
100
  6
Continuous
 62
     3
100
AcDbCircle
 10
327.273211583129
 20
332.306626719425
 30
0.0
 40
12.00000000000004
100
AcDbArc
 50
222.4780207936536
 51
317.5219792063461
  0
ARC
  5
23C
330
1F
100
AcDbEntity
  8
100
  6
Continuous
 62
     3
100
AcDbCircle
 10
371.820938797882
 20
350.758899504672
 30
0.0
 40
11.99999999999981
100
AcDbArc
 50
267.4780207936516
 51
2.5219792063484
  0
ARC
  5
23D
330
1F
100
AcDbEntity
  8
100
  6
Continuous
 62
     3
100
AcDbCircle
 10
390.273211583129
 20
395.306626719425
 30
0.0
 40
12.00000000000075
100
AcDbArc
 50
312.4780207936502
 51
47.52197920634978
  0
ARC
  5
23E
330
1F
100
AcDbEntity
  8
100
  6
Continuous
 62
     3
100
AcDbCircle
 10
428.765729467817
 20
437.346204106656
 30
0.0
 40
45.00000000000028
100
AcDbArc
 50
177.4780207936515
 51
227.5219792063473
  0
ARC
  5
23F
330
1F
100
AcDbEntity
  8
100
  6
Continuous
 62
     3
100
AcDbCircle
 10
369.312788970361
 20
496.799144604112
 30
0.0
 40
45.00000000000084
100
AcDbArc
 50
222.4780207936509
 51
272.5219792063485
  0
ARC
  5
240
330
1F
100
AcDbEntity
  8
100
  6
Continuous
 62
     3
100
AcDbCircle
 10
285.233634195898
 20
496.799144604112
 30
0.0
 40
45.00000000000028
100
AcDbArc
 50
267.4780207936515
 51
317.5219792063482
  0
ARC
  5
241
330
1F
100
AcDbEntity
  8
100
  6
Continuous
 62
     3
100
AcDbCircle
 10
225.780693698442
 20
437.346204106656
 30
0.0
 40
45.00000000000008
100
AcDbArc
 50
312.4780207936518
 51
2.52197920634849
  0
ARC
  5
242
330
1F
100
AcDbEntity
  8
100
  6
Continuous
 62
     3
100
AcDbCircle
 10
225.780693698442
 20
353.267049332193
 30
0.0
 40
45.00000000000028
100
AcDbArc
 50
357.4780207936515
 51
47.52197920634821
  0
ARC
  5
243
330
1F
100
AcDbEntity
  8
100
  6
Continuous
 62
     3
100
AcDbCircle
 10
285.233634195898
 20
293.814108834737
 30
0.0
 40
45.00000000000008
100
AcDbArc
 50
42.4780207936518
 51
92.52197920634849
  0
ARC
  5
244
330
1F
100
AcDbEntity
  8
100
  6
Continuous
 62
     3
100
AcDbCircle
 10
369.312788970361
 20
293.814108834737
 30
0.0
 40
45.00000000000028
100
AcDbArc
 50
87.47802079365151
 51
137.5219792063491
  0
ARC
  5
245
330
1F
100
AcDbEntity
  8
100
  6
Continuous
 62
     3
100
AcDbCircle
 10
428.765729467817
 20
353.267049332193
 30
0.0
 40
45.00000000000008
100
AcDbArc
 50
132.4780207936518
 51
182.5219792063484
  0
ARC
  5
246
330
1F
100
AcDbEntity
  8
100
  6
Continuous
 62
     3
100
AcDbCircle
 10
339.200418194083
 20
411.360963904734
 30
0.0
 40
5.00000000000054
100
AcDbArc
 50
181.5324543404707
 51
233.3903321492589
  0
ARC
  5
247
330
1F
100
AcDbEntity
  8
100
  6
Continuous
 62
     3
100
AcDbCircle
 10
315.346004972176
 20
411.360963904734
 30
0.0
 40
4.999999999999374
100
AcDbArc
 50
306.6096678507317
 51
358.467545659529
  0
ARC
  5
248
330
1F
100
AcDbEntity
  8
100
  6
Continuous
 62
     3
100
AcDbCircle
 10
311.218874397819
 20
407.233833330378
 30
0.0
 40
5.000000000000542
100
AcDbArc
 50
271.5324543404713
 51
323.3903321492664
  0
ARC
  5
249
330
1F
100
AcDbEntity
  8
100
  6
Continuous
 62
     3
100
AcDbCircle
 10
311.218874397819
 20
383.379420108471
 30
0.0
 40
5.000000000000195
100
AcDbArc
 50
36.60966785072467
 51
88.4675456595284
  0
ARC
  5
24A
330
1F
100
AcDbEntity
  8
100
  6
Continuous
 62
     3
100
AcDbCircle
 10
315.346004972176
 20
379.252289534114
 30
0.0
 40
4.999999999999518
100
AcDbArc
 50
1.53245434047097
 51
53.39033214926834
  0
ARC
  5
24B
330
1F
100
AcDbEntity
  8
100
  6
Continuous
 62
     3
100
AcDbCircle
 10
339.200418194083
 20
379.252289534114
 30
0.0
 40
5.000000000000759
100
AcDbArc
 50
126.6096678507345
 51
178.4675456595293
  0
ARC
  5
24C
330
1F
100
AcDbEntity
  8
100
  6
Continuous
 62
     3
100
AcDbCircle
 10
343.327548768439
 20
383.379420108471
 30
0.0
 40
4.999999999999576
100
AcDbArc
 50
91.53245434047162
 51
143.3903321492683
  0
ARC
  5
24D
330
1F
100
AcDbEntity
  8
100
  6
Continuous
 62
     3
100
AcDbCircle
 10
343.327548768439
 20
407.233833330378
 30
0.0
 40
4.999999999999374
100
AcDbArc
 50
216.6096678507317
 51
268.4675456595284
  0
ARC
  5
24E
330
1F
100
AcDbEntity
  8
100
  6
Continuous
 62
     3
100
AcDbCircle
 10
374.403656092638
 20
404.401746308307
 30
0.0
 40
2.999999999999894
100
AcDbArc
 50
268.4675456595361
 51
10.92253591139782
  0
ARC
  5
24F
330
1F
100
AcDbEntity
  8
100
  6
Continuous
 62
     3
100
AcDbCircle
 10
336.368331172012
 20
442.437071228934
 30
0.0
 40
2.999999999999698
100
AcDbArc
 50
79.0774640886205
 51
181.5324543404824
  0
ARC
  5
250
330
1F
100
AcDbEntity
  8
100
  6
Continuous
 62
     3
100
AcDbCircle
 10
280.14276707362
 20
404.401746308307
 30
0.0
 40
3.000000000000831
100
AcDbArc
 50
169.0774640886059
 51
271.5324543404824
  0
ARC
  5
251
330
1F
100
AcDbEntity
  8
100
  6
Continuous
 62
     3
100
AcDbCircle
 10
318.178091994246
 20
442.437071228934
 30
0.0
 40
3.000000000000943
100
AcDbArc
 50
358.4675456595181
 51
100.922535911376
  0
ARC
  5
252
330
1F
100
AcDbEntity
  8
100
  6
Continuous
 62
     3
100
AcDbCircle
 10
318.178091994246
 20
348.176182209915
 30
0.0
 40
2.999999999998694
100
AcDbArc
 50
259.0774640886168
 51
1.53245434048186
  0
ARC
  5
253
330
1F
100
AcDbEntity
  8
100
  6
Continuous
 62
     3
100
AcDbCircle
 10
327.273211583129
 20
395.306626719425
 30
0.0
 40
50.99999999999974
100
AcDbArc
 50
190.9225359113829
 51
259.0774640886182
  0
ARC
  5
254
330
1F
100
AcDbEntity
  8
100
  6
Continuous
 62
     3
100
AcDbCircle
 10
280.14276707362
 20
386.211507130542
 30
0.0
 40
2.999999999999977
100
AcDbArc
 50
88.46754565951765
 51
190.9225359113978
  0
ARC
  5
255
330
1F
100
AcDbEntity
  8
100
  6
Continuous
 62
     3
100
AcDbCircle
 10
374.403656092638
 20
386.211507130542
 30
0.0
 40
3.000000000000775
100
AcDbArc
 50
349.0774640886057
 51
91.5324543404639
  0
ARC
  5
256
330
1F
100
AcDbEntity
  8
100
  6
Continuous
 62
     3
100
AcDbCircle
 10
327.273211583129
 20
395.306626719425
 30
0.0
 40
51.00000000000055
100
AcDbArc
 50
280.9225359113815
 51
349.0774640886174
  0
ARC
  5
257
330
1F
100
AcDbEntity
  8
100
  6
Continuous
 62
     3
100
AcDbCircle
 10
336.368331172012
 20
348.176182209915
 30
0.0
 40
2.99999999999992
100
AcDbArc
 50
178.4675456595176
 51
280.9225359113797
  0
ARC
  5
258
330
1F
100
AcDbEntity
  8
100
  6
Continuous
 62
     3
100
AcDbCircle
 10
327.273211583129
 20
395.306626719425
 30
0.0
 40
50.99999999999953
100
AcDbArc
 50
10.92253591138167
 51
79.07746408861827
  0
ARC
  5
259
330
1F
100
AcDbEntity
  8
100
  6
Continuous
 62
     3
100
AcDbCircle
 10
327.273211583129
 20
395.306626719425
 30
0.0
 40
51.0000000000005
100
AcDbArc
 50
100.9225359113815
 51
169.0774640886186
  0
ARC
  5
25A
330
1F
100
AcDbEntity
  8
2
  6
Continuous
 62
     3
100
AcDbCircle
 10
282.183783057035
 20
250.995063912567
 30
0.0
 40
30.00000000000053
100
AcDbArc
 50
161.2506591529818
 51
198.7493408470182
  0
ARC
  5
25B
330
1F
100
AcDbEntity
  8
2
  6
Continuous
 62
     3
100
AcDbCircle
 10
255.669635889909
 20
259.995063912567
 30
0.0
 40
2.0
100
AcDbArc
 50
90.0
 51
161.250659152988
  0
ARC
  5
25C
330
1F
100
AcDbEntity
  8
2
  6
Continuous
 62
     3
100
AcDbCircle
 10
255.669635889909
 20
241.995063912567
 30
0.0
 40
2.000000000000246
100
AcDbArc
 50
198.749340847012
 51
270.0
  0
ARC
  5
25D
330
1F
100
AcDbEntity
  8
2
  6
Continuous
 62
     3
100
AcDbCircle
 10
291.725484368377
 20
260.995063912567
 30
0.0
 40
1.0
100
AcDbArc
 50
0.0
 51
90.0
  0
ARC
  5
25E
330
1F
100
AcDbEntity
  8
2
  6
Continuous
 62
     3
100
AcDbCircle
 10
293.225484368377
 20
260.995063912567
 30
0.0
 40
0.5
100
AcDbArc
 50
180.0
 51
270.0
  0
ARC
  5
25F
330
1F
100
AcDbEntity
  8
2
  6
Continuous
 62
     3
100
AcDbCircle
 10
362.820938797882
 20
260.995063912567
 30
0.0
 40
1.0
100
AcDbArc
 50
90.0
 51
180.0
  0
ARC
  5
260
330
1F
100
AcDbEntity
  8
2
  6
Continuous
 62
     3
100
AcDbCircle
 10
361.320938797882
 20
260.995063912567
 30
0.0
 40
0.5
100
AcDbArc
 50
270.0
 51
0.0
  0
ARC
  5
261
330
1F
100
AcDbEntity
  8
2
  6
Continuous
 62
     3
100
AcDbCircle
 10
398.876787276349
 20
259.995063912567
 30
0.0
 40
2.000000000000273
100
AcDbArc
 50
18.74934084701176
 51
90.0
  0
ARC
  5
262
330
1F
100
AcDbEntity
  8
2
  6
Continuous
 62
     3
100
AcDbCircle
 10
398.876787276349
 20
241.995063912567
 30
0.0
 40
2.0
100
AcDbArc
 50
270.0
 51
341.2506591529882
  0
ARC
  5
263
330
1F
100
AcDbEntity
  8
2
  6
Continuous
 62
     3
100
AcDbCircle
 10
372.362640109223
 20
250.995063912567
 30
0.0
 40
30.00000000000055
100
AcDbArc
 50
341.2506591529818
 51
18.74934084701818
  0
ARC
  5
264
330
1F
100
AcDbEntity
  8
2
  6
Continuous
 62
     3
100
AcDbCircle
 10
285.062112891231
 20
241.995063912567
 30
0.0
 40
2.0
100
AcDbArc
 50
270.0
 51
340.528779365499
  0
ARC
  5
265
330
1F
100
AcDbEntity
  8
2
  6
Continuous
 62
     3
100
AcDbCircle
 10
287.890540015977
 20
240.995063912567
 30
0.0
 40
1.0
100
AcDbArc
 50
90.0
 51
160.528779365527
  0
ARC
  5
266
330
1F
100
AcDbEntity
  8
2
  6
Continuous
 62
     3
100
AcDbCircle
 10
369.484310275028
 20
241.995063912567
 30
0.0
 40
2.000000000000946
100
AcDbArc
 50
199.4712206344912
 51
270.0
  0
ARC
  5
267
330
1F
100
AcDbEntity
  8
2
  6
Continuous
 62
     3
100
AcDbCircle
 10
366.655883150281
 20
240.995063912567
 30
0.0
 40
0.9999999999998253
100
AcDbArc
 50
19.47122063447408
 51
90.0
  0
ARC
  5
268
330
1F
100
AcDbEntity
  8
2
  6
Continuous
 62
     3
100
AcDbCircle
 10
381.811252950502
 20
241.995063912567
 30
0.0
 40
2.0
100
AcDbArc
 50
270.0
 51
341.2506591529877
  0
ARC
  5
269
330
1F
100
AcDbEntity
  8
2
  6
Continuous
 62
     3
100
AcDbCircle
 10
355.297105783376
 20
250.995063912567
 30
0.0
 40
30.0000000000005
100
AcDbArc
 50
341.2506591529818
 51
342.5423968762782
  0
ARC
  5
26A
330
1F
100
AcDbEntity
  8
2
  6
Continuous
 62
     3
100
AcDbCircle
 10
392.416911058334
 20
241.995063912567
 30
0.0
 40
1.999999999999982
100
AcDbArc
 50
199.4712206345009
 51
270.0
  0
ARC
  5
26B
330
1F
100
AcDbEntity
  8
2
  6
Continuous
 62
     3
100
AcDbCircle
 10
389.588483933588
 20
240.995063912567
 30
0.0
 40
0.9999999999998253
100
AcDbArc
 50
19.47122063447408
 51
90.0
  0
ARC
  5
26C
330
1F
100
AcDbEntity
  8
2
  6
Continuous
 62
     3
100
AcDbCircle
 10
262.129512107925
 20
241.995063912567
 30
0.0
 40
2.0
100
AcDbArc
 50
270.0
 51
340.528779365499
  0
ARC
  5
26D
330
1F
100
AcDbEntity
  8
2
  6
Continuous
 62
     3
100
AcDbCircle
 10
264.957939232671
 20
240.995063912567
 30
0.0
 40
1.0
100
AcDbArc
 50
90.0
 51
160.5287793655259
  0
ARC
  5
26E
330
1F
100
AcDbEntity
  8
2
  6
Continuous
 62
     3
100
AcDbCircle
 10
272.735170215757
 20
241.995063912567
 30
0.0
 40
2.000000000000273
100
AcDbArc
 50
198.7493408470118
 51
270.0
  0
ARC
  5
26F
330
1F
100
AcDbEntity
  8
2
  6
Continuous
 62
     3
100
AcDbCircle
 10
299.249317382882
 20
250.995063912567
 30
0.0
 40
29.99999999999967
100
AcDbArc
 50
197.4576031237223
 51
198.7493408470188
  0
ARC
  5
270
330
1F
100
AcDbEntity
  8
2
  6
Continuous
 62
     3
100
AcDbCircle
 10
318.273211583129
 20
260.995063912567
 30
0.0
 40
1.0
100
AcDbArc
 50
90.0
 51
180.0
  0
ARC
  5
271
330
1F
100
AcDbEntity
  8
2
  6
Continuous
 62
     3
100
AcDbCircle
 10
316.773211583129
 20
260.995063912567
 30
0.0
 40
0.5
100
AcDbArc
 50
270.0
 51
0.0
  0
ARC
  5
272
330
1F
100
AcDbEntity
  8
2
  6
Continuous
 62
     3
100
AcDbCircle
 10
336.273211583129
 20
260.995063912567
 30
0.0
 40
1.0
100
AcDbArc
 50
0.0
 51
90.0
  0
ARC
  5
273
330
1F
100
AcDbEntity
  8
2
  6
Continuous
 62
     3
100
AcDbCircle
 10
337.773211583129
 20
260.995063912567
 30
0.0
 40
0.5
100
AcDbArc
 50
180.0
 51
270.0
  0
ARC
  5
274
330
1F
100
AcDbEntity
  8
100
  6
Continuous
 62
     3
100
AcDbCircle
 10
546.299702385394
 20
74.0
 30
0.0
 40
31.99999999999973
100
AcDbArc
 50
167.4720945601454
 51
12.52790543985419
  0
ARC
  5
275
330
1F
100
AcDbEntity
  8
100
  6
Continuous
 62
     3
100
AcDbCircle
 10
505.299702385394
 20
83.1104335791443
 30
0.0
 40
10.00000000000021
100
AcDbArc
 50
347.472094560146
 51
0.0
  0
ARC
  5
276
330
1F
100
AcDbEntity
  8
100
  6
Continuous
 62
     3
100
AcDbCircle
 10
587.299702385394
 20
83.1104335791443
 30
0.0
 40
10.0
100
AcDbArc
 50
180.0
 51
192.5279054398552
  0
ARC
  5
277
330
1F
100
AcDbEntity
  8
100
  6
Continuous
 62
     3
100
AcDbCircle
 10
535.049702385394
 20
149.496392896288
 30
0.0
 40
32.49398816047845
100
AcDbArc
 50
69.74384199958322
 51
110.2561580004168
  0
ARC
  5
278
330
1F
100
AcDbEntity
  8
100
  6
Continuous
 62
     3
100
AcDbCircle
 10
557.549702385394
 20
149.496392896288
 30
0.0
 40
32.49398816047845
100
AcDbArc
 50
69.74384199958322
 51
110.2561580004168
  0
ARC
  5
279
330
1F
100
AcDbEntity
  8
100
  6
Continuous
 62
     3
100
AcDbCircle
 10
557.549702385394
 20
201.640625
 30
0.0
 40
32.640625
100
AcDbArc
 50
249.8388040249154
 51
290.1611959750846
  0
ARC
  5
27A
330
1F
100
AcDbEntity
  8
100
  6
Continuous
 62
     3
100
AcDbCircle
 10
535.049702385394
 20
201.640625
 30
0.0
 40
32.640625
100
AcDbArc
 50
249.8388040249154
 51
290.1611959750846
  0
ARC
  5
27B
330
1F
100
AcDbEntity
  8
2
  6
Continuous
 62
     3
100
AcDbCircle
 10
556.799702385394
 20
260.995063912567
 30
0.0
 40
0.5
100
AcDbArc
 50
180.0
 51
270.0
  0
ARC
  5
27C
330
1F
100
AcDbEntity
  8
2
  6
Continuous
 62
     3
100
AcDbCircle
 10
555.299702385394
 20
260.995063912567
 30
0.0
 40
1.0
100
AcDbArc
 50
0.0
 51
90.0
  0
ARC
  5
27D
330
1F
100
AcDbEntity
  8
2
  6
Continuous
 62
     3
100
AcDbCircle
 10
535.799702385394
 20
260.995063912567
 30
0.0
 40
0.5
100
AcDbArc
 50
270.0
 51
0.0
  0
ARC
  5
27E
330
1F
100
AcDbEntity
  8
2
  6
Continuous
 62
     3
100
AcDbCircle
 10
537.299702385394
 20
260.995063912567
 30
0.0
 40
1.0
100
AcDbArc
 50
90.0
 51
180.0
  0
ARC
  5
27F
330
1F
100
AcDbEntity
  8
2
  6
Continuous
 62
     3
100
AcDbCircle
 10
518.275808185147
 20
250.995063912567
 30
0.0
 40
29.99999999999962
100
AcDbArc
 50
197.4576031237224
 51
198.7493408470189
  0
ARC
  5
280
330
1F
100
AcDbEntity
  8
2
  6
Continuous
 62
     3
100
AcDbCircle
 10
491.761661018022
 20
241.995063912567
 30
0.0
 40
2.000000000000219
100
AcDbArc
 50
198.7493408470123
 51
270.0
  0
ARC
  5
281
330
1F
100
AcDbEntity
  8
2
  6
Continuous
 62
     3
100
AcDbCircle
 10
483.984430034936
 20
240.995063912567
 30
0.0
 40
1.0
100
AcDbArc
 50
90.0
 51
160.5287793655259
  0
ARC
  5
282
330
1F
100
AcDbEntity
  8
2
  6
Continuous
 62
     3
100
AcDbCircle
 10
481.15600291019
 20
241.995063912567
 30
0.0
 40
2.0
100
AcDbArc
 50
270.0
 51
340.528779365499
  0
ARC
  5
283
330
1F
100
AcDbEntity
  8
2
  6
Continuous
 62
     3
100
AcDbCircle
 10
608.614974735853
 20
240.995063912567
 30
0.0
 40
0.9999999999998253
100
AcDbArc
 50
19.47122063447408
 51
90.0
  0
ARC
  5
284
330
1F
100
AcDbEntity
  8
2
  6
Continuous
 62
     3
100
AcDbCircle
 10
611.443401860599
 20
241.995063912567
 30
0.0
 40
1.999999999999982
100
AcDbArc
 50
199.4712206345009
 51
270.0
  0
ARC
  5
285
330
1F
100
AcDbEntity
  8
2
  6
Continuous
 62
     3
100
AcDbCircle
 10
574.323596585641
 20
250.995063912567
 30
0.0
 40
30.00000000000055
100
AcDbArc
 50
341.2506591529818
 51
342.5423968762783
  0
ARC
  5
286
330
1F
100
AcDbEntity
  8
2
  6
Continuous
 62
     3
100
AcDbCircle
 10
600.837743752767
 20
241.995063912567
 30
0.0
 40
2.0
100
AcDbArc
 50
270.0
 51
341.2506591529882
  0
ARC
  5
287
330
1F
100
AcDbEntity
  8
2
  6
Continuous
 62
     3
100
AcDbCircle
 10
585.682373952546
 20
240.995063912567
 30
0.0
 40
0.9999999999998253
100
AcDbArc
 50
19.47122063447408
 51
90.0
  0
ARC
  5
288
330
1F
100
AcDbEntity
  8
2
  6
Continuous
 62
     3
100
AcDbCircle
 10
588.510801077293
 20
241.995063912567
 30
0.0
 40
2.000000000000946
100
AcDbArc
 50
199.4712206344912
 51
270.0
  0
ARC
  5
289
330
1F
100
AcDbEntity
  8
2
  6
Continuous
 62
     3
100
AcDbCircle
 10
506.917030818242
 20
240.995063912567
 30
0.0
 40
1.0
100
AcDbArc
 50
90.0
 51
160.5287793655259
  0
ARC
  5
28A
330
1F
100
AcDbEntity
  8
2
  6
Continuous
 62
     3
100
AcDbCircle
 10
504.088603693496
 20
241.995063912567
 30
0.0
 40
2.0
100
AcDbArc
 50
270.0
 51
340.528779365499
  0
ARC
  5
28B
330
1F
100
AcDbEntity
  8
2
  6
Continuous
 62
     3
100
AcDbCircle
 10
591.389130911488
 20
250.995063912567
 30
0.0
 40
30.00000000000055
100
AcDbArc
 50
341.2506591529818
 51
18.74934084701818
  0
ARC
  5
28C
330
1F
100
AcDbEntity
  8
2
  6
Continuous
 62
     3
100
AcDbCircle
 10
617.903278078614
 20
241.995063912567
 30
0.0
 40
2.0
100
AcDbArc
 50
270.0
 51
341.2506591529882
  0
ARC
  5
28D
330
1F
100
AcDbEntity
  8
2
  6
Continuous
 62
     3
100
AcDbCircle
 10
617.903278078614
 20
259.995063912567
 30
0.0
 40
2.000000000000273
100
AcDbArc
 50
18.74934084701176
 51
90.0
  0
ARC
  5
28E
330
1F
100
AcDbEntity
  8
2
  6
Continuous
 62
     3
100
AcDbCircle
 10
580.347429600147
 20
260.995063912567
 30
0.0
 40
0.5
100
AcDbArc
 50
270.0
 51
0.0
  0
ARC
  5
28F
330
1F
100
AcDbEntity
  8
2
  6
Continuous
 62
     3
100
AcDbCircle
 10
581.847429600147
 20
260.995063912567
 30
0.0
 40
1.0
100
AcDbArc
 50
90.0
 51
180.0
  0
ARC
  5
290
330
1F
100
AcDbEntity
  8
2
  6
Continuous
 62
     3
100
AcDbCircle
 10
512.251975170642
 20
260.995063912567
 30
0.0
 40
0.5
100
AcDbArc
 50
180.0
 51
270.0
  0
ARC
  5
291
330
1F
100
AcDbEntity
  8
2
  6
Continuous
 62
     3
100
AcDbCircle
 10
510.751975170642
 20
260.995063912567
 30
0.0
 40
1.0
100
AcDbArc
 50
0.0
 51
90.0
  0
ARC
  5
292
330
1F
100
AcDbEntity
  8
2
  6
Continuous
 62
     3
100
AcDbCircle
 10
474.696126692174
 20
241.995063912567
 30
0.0
 40
2.000000000000273
100
AcDbArc
 50
198.7493408470118
 51
270.0
  0
ARC
  5
293
330
1F
100
AcDbEntity
  8
2
  6
Continuous
 62
     3
100
AcDbCircle
 10
474.696126692174
 20
259.995063912567
 30
0.0
 40
2.0
100
AcDbArc
 50
90.0
 51
161.2506591529882
  0
ARC
  5
294
330
1F
100
AcDbEntity
  8
2
  6
Continuous
 62
     3
100
AcDbCircle
 10
501.2102738593
 20
250.995063912567
 30
0.0
 40
30.00000000000055
100
AcDbArc
 50
161.2506591529818
 51
198.7493408470182
  0
ARC
  5
295
330
1F
100
AcDbEntity
  8
100
  6
DOT_CENTER
 62
     6
100
AcDbCircle
 10
556.799702385394
 20
242.995063912567
 30
0.0
 40
0.5
100
AcDbArc
 50
180.0
 51
270.0
  0
ARC
  5
296
330
1F
100
AcDbEntity
  8
100
  6
DOT_CENTER
 62
     6
100
AcDbCircle
 10
555.299702385394
 20
242.995063912567
 30
0.0
 40
1.0
100
AcDbArc
 50
0.0
 51
90.0
  0
ARC
  5
297
330
1F
100
AcDbEntity
  8
100
  6
DOT_CENTER
 62
     6
100
AcDbCircle
 10
535.799702385394
 20
242.995063912567
 30
0.0
 40
0.5
100
AcDbArc
 50
270.0
 51
0.0
  0
ARC
  5
298
330
1F
100
AcDbEntity
  8
100
  6
DOT_CENTER
 62
     6
100
AcDbCircle
 10
537.299702385394
 20
242.995063912567
 30
0.0
 40
1.0
100
AcDbArc
 50
90.0
 51
180.0
  0
ARC
  5
299
330
1F
100
AcDbEntity
  8
100
  6
DOT_CENTER
 62
     6
100
AcDbCircle
 10
518.275808185147
 20
232.995063912567
 30
0.0
 40
29.99999999999962
100
AcDbArc
 50
197.4576031237224
 51
198.7493408470189
  0
ARC
  5
29A
330
1F
100
AcDbEntity
  8
100
  6
DOT_CENTER
 62
     6
100
AcDbCircle
 10
491.761661018022
 20
223.995063912567
 30
0.0
 40
2.000000000000219
100
AcDbArc
 50
198.7493408470123
 51
270.0
  0
ARC
  5
29B
330
1F
100
AcDbEntity
  8
100
  6
DOT_CENTER
 62
     6
100
AcDbCircle
 10
483.984430034936
 20
222.995063912567
 30
0.0
 40
1.0
100
AcDbArc
 50
90.0
 51
160.5287793655259
  0
ARC
  5
29C
330
1F
100
AcDbEntity
  8
100
  6
DOT_CENTER
 62
     6
100
AcDbCircle
 10
481.15600291019
 20
223.995063912567
 30
0.0
 40
2.0
100
AcDbArc
 50
270.0
 51
340.528779365499
  0
ARC
  5
29D
330
1F
100
AcDbEntity
  8
100
  6
PHANTOM
 62
     6
100
AcDbCircle
 10
608.614974735853
 20
222.995063912567
 30
0.0
 40
0.9999999999998253
100
AcDbArc
 50
19.47122063447408
 51
90.0
  0
ARC
  5
29E
330
1F
100
AcDbEntity
  8
100
  6
PHANTOM
 62
     6
100
AcDbCircle
 10
611.443401860599
 20
223.995063912567
 30
0.0
 40
1.999999999999982
100
AcDbArc
 50
199.4712206345009
 51
270.0
  0
ARC
  5
29F
330
1F
100
AcDbEntity
  8
100
  6
PHANTOM
 62
     6
100
AcDbCircle
 10
574.323596585641
 20
232.995063912567
 30
0.0
 40
30.00000000000055
100
AcDbArc
 50
341.2506591529818
 51
342.5423968762783
  0
ARC
  5
2A0
330
1F
100
AcDbEntity
  8
100
  6
PHANTOM
 62
     6
100
AcDbCircle
 10
600.837743752767
 20
223.995063912567
 30
0.0
 40
2.0
100
AcDbArc
 50
270.0
 51
341.2506591529882
  0
ARC
  5
2A1
330
1F
100
AcDbEntity
  8
100
  6
PHANTOM
 62
     6
100
AcDbCircle
 10
585.682373952546
 20
222.995063912567
 30
0.0
 40
0.9999999999998253
100
AcDbArc
 50
19.47122063447408
 51
90.0
  0
ARC
  5
2A2
330
1F
100
AcDbEntity
  8
100
  6
PHANTOM
 62
     6
100
AcDbCircle
 10
588.510801077293
 20
223.995063912567
 30
0.0
 40
2.000000000000946
100
AcDbArc
 50
199.4712206344912
 51
270.0
  0
ARC
  5
2A3
330
1F
100
AcDbEntity
  8
100
  6
DOT_CENTER
 62
     6
100
AcDbCircle
 10
506.917030818242
 20
222.995063912567
 30
0.0
 40
1.0
100
AcDbArc
 50
90.0
 51
160.5287793655259
  0
ARC
  5
2A4
330
1F
100
AcDbEntity
  8
100
  6
DOT_CENTER
 62
     6
100
AcDbCircle
 10
504.088603693496
 20
223.995063912567
 30
0.0
 40
2.0
100
AcDbArc
 50
270.0
 51
340.528779365499
  0
ARC
  5
2A5
330
1F
100
AcDbEntity
  8
100
  6
PHANTOM
 62
     6
100
AcDbCircle
 10
591.389130911488
 20
232.995063912567
 30
0.0
 40
30.00000000000055
100
AcDbArc
 50
341.2506591529818
 51
18.74934084701818
  0
ARC
  5
2A6
330
1F
100
AcDbEntity
  8
100
  6
PHANTOM
 62
     6
100
AcDbCircle
 10
617.903278078614
 20
223.995063912567
 30
0.0
 40
2.0
100
AcDbArc
 50
270.0
 51
341.2506591529882
  0
ARC
  5
2A7
330
1F
100
AcDbEntity
  8
100
  6
DOT_CENTER
 62
     6
100
AcDbCircle
 10
617.903278078614
 20
241.995063912567
 30
0.0
 40
2.000000000000273
100
AcDbArc
 50
18.74934084701176
 51
90.0
  0
ARC
  5
2A8
330
1F
100
AcDbEntity
  8
100
  6
Continuous
 62
     6
100
AcDbCircle
 10
580.347429600147
 20
242.995063912567
 30
0.0
 40
0.5
100
AcDbArc
 50
270.0
 51
0.0
  0
ARC
  5
2A9
330
1F
100
AcDbEntity
  8
100
  6
DOT_CENTER
 62
     6
100
AcDbCircle
 10
581.847429600147
 20
242.995063912567
 30
0.0
 40
1.0
100
AcDbArc
 50
90.0
 51
180.0
  0
ARC
  5
2AA
330
1F
100
AcDbEntity
  8
100
  6
DOT_CENTER
 62
     6
100
AcDbCircle
 10
512.251975170642
 20
242.995063912567
 30
0.0
 40
0.5
100
AcDbArc
 50
180.0
 51
270.0
  0
ARC
  5
2AB
330
1F
100
AcDbEntity
  8
100
  6
DOT_CENTER
 62
     6
100
AcDbCircle
 10
510.751975170642
 20
242.995063912567
 30
0.0
 40
1.0
100
AcDbArc
 50
0.0
 51
90.0
  0
ARC
  5
2AC
330
1F
100
AcDbEntity
  8
100
  6
DOT_CENTER
 62
     6
100
AcDbCircle
 10
474.696126692174
 20
223.995063912567
 30
0.0
 40
2.000000000000273
100
AcDbArc
 50
198.7493408470118
 51
270.0
  0
ARC
  5
2AD
330
1F
100
AcDbEntity
  8
100
  6
DOT_CENTER
 62
     6
100
AcDbCircle
 10
474.696126692174
 20
241.995063912567
 30
0.0
 40
2.0
100
AcDbArc
 50
90.0
 51
161.2506591529882
  0
ARC
  5
2AE
330
1F
100
AcDbEntity
  8
100
  6
DOT_CENTER
 62
     6
100
AcDbCircle
 10
501.2102738593
 20
232.995063912567
 30
0.0
 40
30.00000000000055
100
AcDbArc
 50
161.2506591529818
 51
198.7493408470182
  0
CIRCLE
  5
2AF
330
1F
100
AcDbEntity
  8
100
  6
Continuous
 62
     3
100
AcDbCircle
 10
304.273211583129
 20
114.0
 30
0.0
 40
10.0
  0
CIRCLE
  5
2B0
330
1F
100
AcDbEntity
  8
100
  6
Continuous
 62
     3
100
AcDbCircle
 10
304.252725579558
 20
114.178997995293
 30
0.0
 40
8.5
  0
CIRCLE
  5
2B1
330
1F
100
AcDbEntity
  8
100
  6
Continuous
 62
     3
100
AcDbCircle
 10
327.273211583129
 20
395.306626719425
 30
0.0
 40
15.0
  0
CIRCLE
  5
2B2
330
1F
100
AcDbEntity
  8
2
  6
Continuous
 62
     3
100
AcDbCircle
 10
371.820938797882
 20
439.854353934177
 30
0.0
 40
10.0
  0
CIRCLE
  5
2B3
330
1F
100
AcDbEntity
  8
2
  6
Continuous
 62
     3
100
AcDbCircle
 10
327.273211583129
 20
458.306626719424
 30
0.0
 40
10.0
  0
CIRCLE
  5
2B4
330
1F
100
AcDbEntity
  8
2
  6
Continuous
 62
     3
100
AcDbCircle
 10
282.725484368377
 20
439.854353934177
 30
0.0
 40
10.0
  0
CIRCLE
  5
2B5
330
1F
100
AcDbEntity
  8
2
  6
Continuous
 62
     3
100
AcDbCircle
 10
264.273211583129
 20
395.306626719425
 30
0.0
 40
10.0
  0
CIRCLE
  5
2B6
330
1F
100
AcDbEntity
  8
2
  6
Continuous
 62
     3
100
AcDbCircle
 10
282.725484368377
 20
350.758899504672
 30
0.0
 40
10.0
  0
CIRCLE
  5
2B7
330
1F
100
AcDbEntity
  8
2
  6
Continuous
 62
     3
100
AcDbCircle
 10
327.273211583129
 20
332.306626719425
 30
0.0
 40
10.0
  0
CIRCLE
  5
2B8
330
1F
100
AcDbEntity
  8
2
  6
Continuous
 62
     3
100
AcDbCircle
 10
371.820938797882
 20
350.758899504672
 30
0.0
 40
10.0
  0
CIRCLE
  5
2B9
330
1F
100
AcDbEntity
  8
2
  6
Continuous
 62
     3
100
AcDbCircle
 10
390.273211583129
 20
395.306626719425
 30
0.0
 40
10.0
  0
CIRCLE
  5
2BA
330
1F
100
AcDbEntity
  8
100
  6
Continuous
 62
     3
100
AcDbCircle
 10
546.299702385394
 20
74.0
 30
0.0
 40
20.0
  0
CIRCLE
  5
2BB
330
1F
100
AcDbEntity
  8
100
  6
Continuous
 62
     3
100
AcDbCircle
 10
546.299702385394
 20
74.0
 30
0.0
 40
29.64999999999998
  0
CIRCLE
  5
2BC
330
1F
100
AcDbEntity
  8
1
  6
Continuous
 62
     3
100
AcDbCircle
 10
546.299702385394
 20
74.0
 30
0.0
 40
28.32799999999997
  0
CIRCLE
  5
2BD
330
1F
100
AcDbEntity
  8
100
  6
Continuous
 62
     3
100
AcDbCircle
 10
327.273211583129
 20
395.306626719425
 30
0.0
 40
8.25
  0
LWPOLYLINE
  5
2BE
330
1F
100
AcDbEntity
  8
100
  6
Continuous
 62
     3
100
AcDbPolyline
 90
        8
 70
     1
 43
0.0
 10
304.252725579558
 20
123.919355533938
 10
304.252725579558
 20
123.919355533938
 10
312.752725579558
 20
119.011878245826
 10
312.752725579558
 20
109.196923669603
 10
304.252725579558
 20
104.289446381491
 10
295.752725579558
 20
109.196923669603
 10
295.752725579558
 20
119.011878245826
 10
304.252725579558
 20
123.919355533938
  0
LWPOLYLINE
  5
2BF
330
1F
100
AcDbEntity
  8
100
  6
Continuous
 62
     3
100
AcDbPolyline
 90
       13
 70
     0
 43
0.0
 10
522.299702385394
 20
152.575715865348
 10
519.297426467627
 20
149.475555216772
 10
517.093617051053
 20
146.066674303083
 10
515.75061887712
 20
142.446402390856
 10
515.299702385394
 20
138.700270478569
 10
517.647269622385
 20
130.317532353295
 10
524.379392168612
 20
123.200310206925
 10
534.444690052993
 20
118.439992904004
 10
546.299702385394
 20
116.780016446166
 10
558.154714717796
 20
118.439992904004
 10
568.220012602177
 20
123.200310206925
 10
574.952135148404
 20
130.317532353295
 10
577.299702385394
 20
138.70027047861
  0
LWPOLYLINE
  5
2C0
330
1F
100
AcDbEntity
  8
100
  6
Continuous
 62
     3
100
AcDbPolyline
 90
        5
 70
     0
 43
0.0
 10
577.299702385394
 20
138.70027047861
 10
576.848785893669
 20
142.446402390856
 10
575.505787719736
 20
146.066674303083
 10
573.301978303162
 20
149.475555216772
 10
570.299702385395
 20
152.575715865348
  0
LWPOLYLINE
  5
2C1
330
1F
100
AcDbEntity
  8
100
  6
Continuous
 62
     3
100
AcDbPolyline
 90
        5
 70
     0
 43
0.0
 10
522.299702385394
 20
137.902336620778
 10
522.299702385394
 20
128.902336620778
 10
546.299702385394
 20
119.104402762987
 10
570.299702385394
 20
128.902336620778
 10
570.299702385394
 20
137.902336620778
  0
LWPOLYLINE
  5
2C2
330
1F
100
AcDbEntity
  8
100
  6
Continuous
 62
     3
100
AcDbPolyline
 90
        8
 70
     1
 43
0.0
 10
546.299702385394
 20
167.296138194151
 10
546.299702385394
 20
167.296138194151
 10
570.299702385394
 20
157.49820433636
 10
570.299702385394
 20
137.902336620778
 10
546.299702385394
 20
128.104402762987
 10
522.299702385394
 20
137.902336620778
 10
522.299702385394
 20
157.49820433636
 10
546.299702385394
 20
167.296138194151
  0
LWPOLYLINE
  5
2C3
330
1F
100
AcDbEntity
  8
100
  6
Continuous
 62
     3
100
AcDbPolyline
 90
        9
 70
     0
 43
0.0
 10
515.299702385394
 20
134.700270478569
 10
517.647269622385
 20
126.317532353295
 10
524.379392168612
 20
119.200310206925
 10
534.444690052993
 20
114.439992904004
 10
546.299702385394
 20
112.780016446166
 10
558.154714717796
 20
114.439992904004
 10
568.220012602177
 20
119.200310206925
 10
574.952135148404
 20
126.317532353295
 10
577.299702385394
 20
134.700270478569
  0
LWPOLYLINE
  5
2C4
330
1F
100
AcDbEntity
  8
100
  6
Continuous
 62
     3
100
AcDbPolyline
 90
        2
 70
     0
 43
0.0
 10
388.771466146173
 20
371.306626719425
 10
391.999809476412
 20
379.214440861702
  0
LWPOLYLINE
  5
2C5
330
1F
100
AcDbEntity
  8
100
  6
Continuous
 62
     3
100
AcDbPolyline
 90
        3
 70
     0
 43
0.0
 10
391.999809476412
 20
411.398812577147
 10
388.771466146173
 20
419.306626719424
 10
387.53984381705
 20
419.306626719424
  0
LWPOLYLINE
  5
2C6
330
1F
100
AcDbEntity
  8
100
  6
Continuous
 62
     3
100
AcDbPolyline
 90
        3
 70
     0
 43
0.0
 10
372.273211583129
 20
419.306626719424
 10
369.175598430591
 20
419.306626719424
 10
362.001000697364
 20
401.732478118642
  0
LWPOLYLINE
  5
2C7
330
1F
100
AcDbEntity
  8
100
  6
Continuous
 62
     3
100
AcDbPolyline
 90
        3
 70
     0
 43
0.0
 10
362.001000697364
 20
388.880775320207
 10
369.175598430591
 20
371.306626719425
 10
372.273211583129
 20
371.306626719425
  0
LWPOLYLINE
  5
2C8
330
1F
100
AcDbEntity
  8
100
  6
Continuous
 62
     3
100
AcDbPolyline
 90
        2
 70
     0
 43
0.0
 10
387.53984381705
 20
371.306626719425
 10
388.771466146173
 20
371.306626719425
  0
LWPOLYLINE
  5
2C9
330
1F
100
AcDbEntity
  8
100
  6
Continuous
 62
     3
100
AcDbPolyline
 90
        5
 70
     0
 43
0.0
 10
365.973532288382
 20
426.306626719424
 10
358.739059271746
 20
424.578593985497
 10
352.317016740131
 20
419.556788083747
 10
347.404812045506
 20
411.788576966274
 10
344.596866047158
 20
402.198086643536
  0
LWPOLYLINE
  5
2CA
330
1F
100
AcDbEntity
  8
100
  6
Continuous
 62
     3
100
AcDbPolyline
 90
        5
 70
     0
 43
0.0
 10
344.596866047158
 20
388.415166795313
 10
347.404812045505
 20
378.824676472576
 10
352.317016740131
 20
371.056465355102
 10
358.739059271746
 20
366.034659453352
 10
365.973532288382
 20
364.306626719425
  0
LWPOLYLINE
  5
2CB
330
1F
100
AcDbEntity
  8
100
  6
Continuous
 62
     3
100
AcDbPolyline
 90
        3
 70
     0
 43
0.0
 10
369.175598430591
 20
419.306626719424
 10
360.175598430591
 20
419.306626719424
 10
353.098234377733
 20
401.970651631825
  0
LWPOLYLINE
  5
2CC
330
1F
100
AcDbEntity
  8
100
  6
Continuous
 62
     3
100
AcDbPolyline
 90
        3
 70
     0
 43
0.0
 10
353.098234377733
 20
388.642601807024
 10
360.175598430591
 20
371.306626719425
 10
369.175598430591
 20
371.306626719425
  0
LWPOLYLINE
  5
2CD
330
1F
100
AcDbEntity
  8
100
  6
Continuous
 62
     3
100
AcDbPolyline
 90
        7
 70
     0
 43
0.0
 10
367.876886072697
 20
426.166659414566
 10
364.498484626197
 20
425.331816048945
 10
361.259104397136
 20
423.760199404916
 10
358.227407931629
 20
421.48485561443
 10
355.478208223313
 20
418.561570517454
 10
351.100046411063
 20
411.082591209599
 10
348.579902515503
 20
402.091529450553
  0
LWPOLYLINE
  5
2CE
330
1F
100
AcDbEntity
  8
100
  6
Continuous
 62
     3
100
AcDbPolyline
 90
        7
 70
     0
 43
0.0
 10
348.579902515503
 20
388.521723988297
 10
351.100046411063
 20
379.53066222925
 10
355.478208223313
 20
372.051682921395
 10
358.227407931629
 20
369.128397824419
 10
361.259104397135
 20
366.853054033933
 10
364.498484626196
 20
365.281437389905
 10
367.876886072697
 20
364.446594024283
  0
LWPOLYLINE
  5
2CF
330
1F
100
AcDbEntity
  8
100
  6
Continuous
 62
     3
100
AcDbPolyline
 90
        8
 70
     1
 43
0.0
 10
327.273211583129
 20
405.121581295648
 10
327.273211583129
 20
405.121581295648
 10
335.773211583129
 20
400.214104007536
 10
335.773211583129
 20
390.399149431313
 10
327.273211583129
 20
385.491672143201
 10
318.773211583129
 20
390.399149431313
 10
318.773211583129
 20
400.214104007536
 10
327.273211583129
 20
405.121581295648
  0
LEADER
  5
2D0
330
1F
100
AcDbEntity
  8
1
  6
Continuous
 62
     4
100
AcDbLeader
  3
Standard
 71
     0
 76
     3
 10
408.050089301381
 20
44.35
 30
0.0
 10
422.176127733323
 20
11.0181136965748
 30
0.0
 10
442.529774506229
 20
11.0181136965748
 30
0.0
  0
LEADER
  5
2D1
330
1F
100
AcDbEntity
  8
1
  6
Continuous
 62
     4
100
AcDbLeader
  3
Standard
 71
     0
 76
     3
 10
272.865420436558
 20
44.35
 30
0.0
 10
253.035370638424
 20
10.0033462330112
 30
0.0
 10
233.373269981665
 20
10.0033462330112
 30
0.0
  0
DIMENSION
  5
307
330
1F
100
AcDbEntity
  8
1
100
AcDbDimension
  2
*D1
 10
416.273211583129
 20
-5.7066132472082
 30
0.0
 11
340.273211583129
 21
0.2933867527918
 31
0.0
 70
    32
  1
152
 71
     5
 42
-1.0
 53
0.00013888888889
  3
ME10_DIM_10
100
AcDbAlignedDimension
 13
264.273211583129
 23
44.35
 33
0.0
 14
416.273211583129
 24
44.35
 34
0.0
100
AcDbRotatedDimension
  0
DIMENSION
  5
314
330
1F
100
AcDbEntity
  8
1
100
AcDbDimension
  2
*D3
 10
438.415250628665
 20
261.995063912567
 30
0.0
 11
432.415250628665
 21
169.280785795321
 31
0.0
 70
    32
  1
187
 71
     5
 42
-1.0
 53
90.0
  3
ME10_DIM_11
100
AcDbAlignedDimension
 13
421.273211583129
 23
74.0
 33
0.0
 14
398.876787276349
 24
261.995063912567
 34
0.0
 50
90.0
100
AcDbRotatedDimension
  0
ENDSEC
  0
SECTION
  2
OBJECTS
  0
DICTIONARY
  5
C
330
0
100
AcDbDictionary
281
     1
  3
ACAD_GROUP
350
D
  3
ACAD_LAYOUT
350
1A
  3
ACAD_MATERIAL
350
3B
  3
ACAD_MLEADERSTYLE
350
317
  3
ACAD_MLINESTYLE
350
17
  3
ACAD_PLOTSETTINGS
350
19
  3
ACAD_PLOTSTYLENAME
350
E
  3
ACAD_SCALELIST
350
2DB
  3
ACAD_VISUALSTYLE
350
2A
  3
AcDbVariableDictionary
350
315
  0
DICTIONARY
  5
D
102
{ACAD_REACTORS
330
C
102
}
330
C
100
AcDbDictionary
281
     1
  0
DICTIONARY
  5
1A
102
{ACAD_REACTORS
330
C
102
}
330
C
100
AcDbDictionary
281
     1
  3
Layout1
350
1E
  3
Layout2
350
26
  3
Model
350
22
  0
DICTIONARY
  5
3B
102
{ACAD_REACTORS
330
C
102
}
330
C
100
AcDbDictionary
281
     1
  3
ByBlock
350
3D
  3
ByLayer
350
3C
  3
Global
350
3E
  0
DICTIONARY
  5
317
102
{ACAD_REACTORS
330
C
102
}
330
C
100
AcDbDictionary
281
     1
  0
DICTIONARY
  5
17
102
{ACAD_REACTORS
330
C
102
}
330
C
100
AcDbDictionary
281
     1
  3
Standard
350
18
  0
DICTIONARY
  5
19
102
{ACAD_REACTORS
330
C
102
}
330
C
100
AcDbDictionary
281
     1
  0
ACDBDICTIONARYWDFLT
  5
E
102
{ACAD_REACTORS
330
C
102
}
330
C
100
AcDbDictionary
281
     1
  3
Normal
350
F
100
AcDbDictionaryWithDefault
340
F
  0
DICTIONARY
  5
2DB
102
{ACAD_REACTORS
330
C
102
}
330
C
100
AcDbDictionary
281
     1
  3
A0
350
2DC
  3
A1
350
2DD
  3
A2
350
2DE
  3
A3
350
2DF
  3
A4
350
2E0
  3
A5
350
2E1
  3
A6
350
2E2
  3
A7
350
2E3
  3
A8
350
2E4
  3
A9
350
2E5
  3
B0
350
2E6
  3
B1
350
2E7
  3
B2
350
2E8
  3
B3
350
2E9
  3
B4
350
2EA
  3
B5
350
2EB
  3
B6
350
2EC
  3
B7
350
2ED
  3
B8
350
2EE
  3
B9
350
2EF
  3
C0
350
2F0
  3
C1
350
2F1
  3
C2
350
2F2
  3
C3
350
2F3
  3
C4
350
2F4
  3
C5
350
2F5
  3
C6
350
2F6
  3
C7
350
2F7
  3
C8
350
2F8
  3
C9
350
2F9
  3
D0
350
2FA
  3
D1
350
2FB
  3
D2
350
2FC
  0
DICTIONARY
  5
2A
102
{ACAD_REACTORS
330
C
102
}
330
C
100
AcDbDictionary
281
     1
  3
2dWireframe
350
2F
  3
3D Hidden
350
31
  3
3dWireframe
350
30
  3
Basic
350
32
  3
Brighten
350
36
  3
ColorChange
350
3A
  3
Conceptual
350
34
  3
Dim
350
35
  3
Facepattern
350
39
  3
Flat
350
2B
  3
FlatWithEdges
350
2C
  3
Gouraud
350
2D
  3
GouraudWithEdges
350
2E
  3
Linepattern
350
38
  3
Realistic
350
33
  3
Thicken
350
37
  0
DICTIONARY
  5
315
102
{ACAD_REACTORS
330
C
102
}
330
C
100
AcDbDictionary
281
     1
  3
CANNOSCALE
350
318
  3
DIMASSOC
350
319
  3
HIDETEXT
350
31A
  0
LAYOUT
  5
1E
102
{ACAD_REACTORS
330
1A
102
}
330
1A
100
AcDbPlotSettings
  1

  2
none_device
  4

  6

 40
0.0
 41
0.0
 42
0.0
 43
0.0
 44
0.0
 45
0.0
 46
0.0
 47
0.0
 48
0.0
 49
0.0
140
0.0
141
0.0
142
1.0
143
1.0
 70
   688
 72
     0
 73
     0
 74
     5
  7

 75
    16
147
1.0
148
0.0
149
0.0
100
AcDbLayout
  1
Layout1
 70
     1
 71
     1
 10
0.0
 20
0.0
 11
12.0
 21
9.0
 12
0.0
 22
0.0
 32
0.0
 14
1.00000000000000E+20
 24
1.00000000000000E+20
 34
1.00000000000000E+20
 15
-1.00000000000000E+20
 25
-1.00000000000000E+20
 35
-1.00000000000000E+20
146
0.0
 13
0.0
 23
0.0
 33
0.0
 16
1.0
 26
0.0
 36
0.0
 17
0.0
 27
1.0
 37
0.0
 76
     0
330
1B
  0
LAYOUT
  5
26
102
{ACAD_REACTORS
330
1A
102
}
330
1A
100
AcDbPlotSettings
  1

  2
none_device
  4

  6

 40
0.0
 41
0.0
 42
0.0
 43
0.0
 44
0.0
 45
0.0
 46
0.0
 47
0.0
 48
0.0
 49
0.0
140
0.0
141
0.0
142
1.0
143
1.0
 70
   688
 72
     0
 73
     0
 74
     5
  7

 75
    16
147
1.0
148
0.0
149
0.0
100
AcDbLayout
  1
Layout2
 70
     1
 71
     2
 10
0.0
 20
0.0
 11
0.0
 21
0.0
 12
0.0
 22
0.0
 32
0.0
 14
0.0
 24
0.0
 34
0.0
 15
0.0
 25
0.0
 35
0.0
146
0.0
 13
0.0
 23
0.0
 33
0.0
 16
1.0
 26
0.0
 36
0.0
 17
0.0
 27
1.0
 37
0.0
 76
     0
330
23
  0
LAYOUT
  5
22
102
{ACAD_REACTORS
330
1A
102
}
330
1A
100
AcDbPlotSettings
  1

  2
none_device
  4

  6

 40
0.0
 41
0.0
 42
0.0
 43
0.0
 44
0.0
 45
0.0
 46
0.0
 47
0.0
 48
0.0
 49
0.0
140
0.0
141
0.0
142
1.0
143
1.0
 70
  1712
 72
     0
 73
     0
 74
     0
  7

 75
     0
147
1.0
148
0.0
149
0.0
100
AcDbLayout
  1
Model
 70
     1
 71
     0
 10
0.0
 20
0.0
 11
12.0
 21
9.0
 12
0.0
 22
0.0
 32
0.0
 14
233.373269981665
 24
-7.85020678665718
 34
0.0
 15
621.3891309114886
 25
472.806626719424
 35
0.0
146
0.0
 13
0.0
 23
0.0
 33
0.0
 16
1.0
 26
0.0
 36
0.0
 17
0.0
 27
1.0
 37
0.0
 76
     0
330
1F
331
29
  0
MATERIAL
  5
3D
102
{ACAD_REACTORS
330
3B
102
}
102
{ACAD_XDICTIONARY
360
33D
102
}
330
3B
100
AcDbMaterial
  1
ByBlock
  0
MATERIAL
  5
3C
102
{ACAD_REACTORS
330
3B
102
}
102
{ACAD_XDICTIONARY
360
33B
102
}
330
3B
100
AcDbMaterial
  1
ByLayer
  0
MATERIAL
  5
3E
102
{ACAD_REACTORS
330
3B
102
}
102
{ACAD_XDICTIONARY
360
33F
102
}
330
3B
100
AcDbMaterial
  1
Global
  0
MLINESTYLE
  5
18
102
{ACAD_REACTORS
330
17
102
}
330
17
100
AcDbMlineStyle
  2
Standard
 70
     0
  3

 62
   256
 51
90.0
 52
90.0
 71
     2
 49
0.5
 62
   256
  6
BYLAYER
 49
-0.5
 62
   256
  6
BYLAYER
  0
ACDBPLACEHOLDER
  5
F
102
{ACAD_REACTORS
330
E
102
}
330
E
  0
SCALE
  5
2DC
102
{ACAD_REACTORS
330
2DB
102
}
330
2DB
100
AcDbScale
 70
     0
300
1:1
140
1.0
141
1.0
290
     1
  0
SCALE
  5
2DD
102
{ACAD_REACTORS
330
2DB
102
}
330
2DB
100
AcDbScale
 70
     0
300
1:2
140
1.0
141
2.0
290
     0
  0
SCALE
  5
2DE
102
{ACAD_REACTORS
330
2DB
102
}
330
2DB
100
AcDbScale
 70
     0
300
1:4
140
1.0
141
4.0
290
     0
  0
SCALE
  5
2DF
102
{ACAD_REACTORS
330
2DB
102
}
330
2DB
100
AcDbScale
 70
     0
300
1:5
140
1.0
141
5.0
290
     0
  0
SCALE
  5
2E0
102
{ACAD_REACTORS
330
2DB
102
}
330
2DB
100
AcDbScale
 70
     0
300
1:8
140
1.0
141
8.0
290
     0
  0
SCALE
  5
2E1
102
{ACAD_REACTORS
330
2DB
102
}
330
2DB
100
AcDbScale
 70
     0
300
1:10
140
1.0
141
10.0
290
     0
  0
SCALE
  5
2E2
102
{ACAD_REACTORS
330
2DB
102
}
330
2DB
100
AcDbScale
 70
     0
300
1:16
140
1.0
141
16.0
290
     0
  0
SCALE
  5
2E3
102
{ACAD_REACTORS
330
2DB
102
}
330
2DB
100
AcDbScale
 70
     0
300
1:20
140
1.0
141
20.0
290
     0
  0
SCALE
  5
2E4
102
{ACAD_REACTORS
330
2DB
102
}
330
2DB
100
AcDbScale
 70
     0
300
1:30
140
1.0
141
30.0
290
     0
  0
SCALE
  5
2E5
102
{ACAD_REACTORS
330
2DB
102
}
330
2DB
100
AcDbScale
 70
     0
300
1:40
140
1.0
141
40.0
290
     0
  0
SCALE
  5
2E6
102
{ACAD_REACTORS
330
2DB
102
}
330
2DB
100
AcDbScale
 70
     0
300
1:50
140
1.0
141
50.0
290
     0
  0
SCALE
  5
2E7
102
{ACAD_REACTORS
330
2DB
102
}
330
2DB
100
AcDbScale
 70
     0
300
1:100
140
1.0
141
100.0
290
     0
  0
SCALE
  5
2E8
102
{ACAD_REACTORS
330
2DB
102
}
330
2DB
100
AcDbScale
 70
     0
300
2:1
140
2.0
141
1.0
290
     0
  0
SCALE
  5
2E9
102
{ACAD_REACTORS
330
2DB
102
}
330
2DB
100
AcDbScale
 70
     0
300
4:1
140
4.0
141
1.0
290
     0
  0
SCALE
  5
2EA
102
{ACAD_REACTORS
330
2DB
102
}
330
2DB
100
AcDbScale
 70
     0
300
8:1
140
8.0
141
1.0
290
     0
  0
SCALE
  5
2EB
102
{ACAD_REACTORS
330
2DB
102
}
330
2DB
100
AcDbScale
 70
     0
300
10:1
140
10.0
141
1.0
290
     0
  0
SCALE
  5
2EC
102
{ACAD_REACTORS
330
2DB
102
}
330
2DB
100
AcDbScale
 70
     0
300
100:1
140
100.0
141
1.0
290
     0
  0
SCALE
  5
2ED
102
{ACAD_REACTORS
330
2DB
102
}
330
2DB
100
AcDbScale
 70
     0
300
1/128" = 1'-0"
140
0.0078125
141
12.0
290
     0
  0
SCALE
  5
2EE
102
{ACAD_REACTORS
330
2DB
102
}
330
2DB
100
AcDbScale
 70
     0
300
1/64" = 1'-0"
140
0.015625
141
12.0
290
     0
  0
SCALE
  5
2EF
102
{ACAD_REACTORS
330
2DB
102
}
330
2DB
100
AcDbScale
 70
     0
300
1/32" = 1'-0"
140
0.03125
141
12.0
290
     0
  0
SCALE
  5
2F0
102
{ACAD_REACTORS
330
2DB
102
}
330
2DB
100
AcDbScale
 70
     0
300
1/16" = 1'-0"
140
0.0625
141
12.0
290
     0
  0
SCALE
  5
2F1
102
{ACAD_REACTORS
330
2DB
102
}
330
2DB
100
AcDbScale
 70
     0
300
3/32" = 1'-0"
140
0.09375
141
12.0
290
     0
  0
SCALE
  5
2F2
102
{ACAD_REACTORS
330
2DB
102
}
330
2DB
100
AcDbScale
 70
     0
300
1/8" = 1'-0"
140
0.125
141
12.0
290
     0
  0
SCALE
  5
2F3
102
{ACAD_REACTORS
330
2DB
102
}
330
2DB
100
AcDbScale
 70
     0
300
3/16" = 1'-0"
140
0.1875
141
12.0
290
     0
  0
SCALE
  5
2F4
102
{ACAD_REACTORS
330
2DB
102
}
330
2DB
100
AcDbScale
 70
     0
300
1/4" = 1'-0"
140
0.25
141
12.0
290
     0
  0
SCALE
  5
2F5
102
{ACAD_REACTORS
330
2DB
102
}
330
2DB
100
AcDbScale
 70
     0
300
3/8" = 1'-0"
140
0.375
141
12.0
290
     0
  0
SCALE
  5
2F6
102
{ACAD_REACTORS
330
2DB
102
}
330
2DB
100
AcDbScale
 70
     0
300
1/2" = 1'-0"
140
0.5
141
12.0
290
     0
  0
SCALE
  5
2F7
102
{ACAD_REACTORS
330
2DB
102
}
330
2DB
100
AcDbScale
 70
     0
300
3/4" = 1'-0"
140
0.75
141
12.0
290
     0
  0
SCALE
  5
2F8
102
{ACAD_REACTORS
330
2DB
102
}
330
2DB
100
AcDbScale
 70
     0
300
1" = 1'-0"
140
1.0
141
12.0
290
     0
  0
SCALE
  5
2F9
102
{ACAD_REACTORS
330
2DB
102
}
330
2DB
100
AcDbScale
 70
     0
300
1-1/2" = 1'-0"
140
1.5
141
12.0
290
     0
  0
SCALE
  5
2FA
102
{ACAD_REACTORS
330
2DB
102
}
330
2DB
100
AcDbScale
 70
     0
300
3" = 1'-0"
140
3.0
141
12.0
290
     0
  0
SCALE
  5
2FB
102
{ACAD_REACTORS
330
2DB
102
}
330
2DB
100
AcDbScale
 70
     0
300
6" = 1'-0"
140
6.0
141
12.0
290
     0
  0
SCALE
  5
2FC
102
{ACAD_REACTORS
330
2DB
102
}
330
2DB
100
AcDbScale
 70
     0
300
1'-0" = 1'-0"
140
12.0
141
12.0
290
     0
  0
VISUALSTYLE
  5
2F
102
{ACAD_REACTORS
330
2A
102
}
102
{ACAD_XDICTIONARY
360
323
102
}
330
2A
100
AcDbVisualStyle
  2
2dWireframe
 70
     4
 71
     0
 72
     2
 73
     0
 90
        0
 40
-0.6
 41
-30.0
 62
     5
 63
     7
 74
     1
 91
        4
 64
     7
 65
   257
 75
     1
175
     1
 42
1.0
 92
        0
 66
   257
 43
1.0
 76
     1
 77
     6
 78
     2
 67
     7
 79
     5
170
     0
171
     0
290
     0
174
     0
 93
        1
 44
0.0
173
     0
291
     0
 45
0.0
1001
ACAD
1000
AcDbSavedByObjectVersion
1070
     0
  0
VISUALSTYLE
  5
31
102
{ACAD_REACTORS
330
2A
102
}
102
{ACAD_XDICTIONARY
360
327
102
}
330
2A
100
AcDbVisualStyle
  2
3D Hidden
 70
     6
 71
     1
 72
     2
 73
     2
 90
        0
 40
-0.6
 41
-30.0
 62
     5
 63
     7
 74
     2
 91
        2
 64
     7
 65
   257
 75
     2
175
     1
 42
40.0
 92
        0
 66
   257
 43
1.0
 76
     1
 77
     6
 78
     2
 67
     7
 79
     3
170
     0
171
     0
290
     0
174
     0
 93
        1
 44
0.0
173
     0
291
     0
 45
0.0
1001
ACAD
1000
AcDbSavedByObjectVersion
1070
     0
  0
VISUALSTYLE
  5
30
102
{ACAD_REACTORS
330
2A
102
}
102
{ACAD_XDICTIONARY
360
325
102
}
330
2A
100
AcDbVisualStyle
  2
3dWireframe
 70
     5
 71
     0
 72
     2
 73
     0
 90
        0
 40
-0.6
 41
-30.0
 62
     5
 63
     7
 74
     1
 91
        4
 64
     7
 65
   257
 75
     1
175
     1
 42
1.0
 92
        0
 66
   257
 43
1.0
 76
     1
 77
     6
 78
     2
 67
     7
 79
     5
170
     0
171
     0
290
     0
174
     0
 93
        1
 44
0.0
173
     0
291
     0
 45
0.0
1001
ACAD
1000
AcDbSavedByObjectVersion
1070
     0
  0
VISUALSTYLE
  5
32
102
{ACAD_REACTORS
330
2A
102
}
102
{ACAD_XDICTIONARY
360
329
102
}
330
2A
100
AcDbVisualStyle
  2
Basic
 70
     7
 71
     1
 72
     0
 73
     1
 90
        0
 40
-0.6
 41
-30.0
 62
     5
 63
     7
 74
     0
 91
        4
 64
     7
 65
   257
 75
     1
175
     1
 42
1.0
 92
        8
 66
     7
 43
1.0
 76
     1
 77
     6
 78
     2
 67
     7
 79
     5
170
     0
171
     0
290
     0
174
     0
 93
        1
 44
0.0
173
     0
291
     1
 45
0.0
1001
ACAD
1000
AcDbSavedByObjectVersion
1070
     0
  0
VISUALSTYLE
  5
36
102
{ACAD_REACTORS
330
2A
102
}
102
{ACAD_XDICTIONARY
360
331
102
}
330
2A
100
AcDbVisualStyle
  2
Brighten
 70
    12
 71
     2
 72
     2
 73
     0
 90
        0
 40
-0.6
 41
-30.0
 62
     5
 63
     7
 74
     1
 91
        4
 64
     7
 65
   257
 75
     1
175
     1
 42
1.0
 92
        8
 66
     7
 43
1.0
 76
     1
 77
     6
 78
     2
 67
     7
 79
     5
170
     0
171
     0
290
     0
174
     0
 93
        1
 44
50.0
173
     0
291
     1
 45
0.0
1001
ACAD
1000
AcDbSavedByObjectVersion
1070
     0
  0
VISUALSTYLE
  5
3A
102
{ACAD_REACTORS
330
2A
102
}
102
{ACAD_XDICTIONARY
360
339
102
}
330
2A
100
AcDbVisualStyle
  2
ColorChange
 70
    16
 71
     2
 72
     2
 73
     3
 90
        0
 40
-0.6
 41
-30.0
 62
     5
 63
     8
 74
     1
 91
        4
 64
     7
 65
   257
 75
     1
175
     1
 42
1.0
 92
        8
 66
     8
 43
1.0
 76
     1
 77
     6
 78
     2
 67
     7
 79
     5
170
     0
171
     0
290
     0
174
     0
 93
        1
 44
0.0
173
     0
291
     1
 45
0.0
1001
ACAD
1000
AcDbSavedByObjectVersion
1070
     0
  0
VISUALSTYLE
  5
34
102
{ACAD_REACTORS
330
2A
102
}
102
{ACAD_XDICTIONARY
360
32D
102
}
330
2A
100
AcDbVisualStyle
  2
Conceptual
 70
     9
 71
     3
 72
     2
 73
     0
 90
        0
 40
-0.6
 41
-30.0
 62
     5
 63
     7
 74
     2
 91
        2
 64
     7
 65
   257
 75
     1
175
     1
 42
40.0
 92
        8
 66
     7
 43
1.0
 76
     1
 77
     6
 78
     2
 67
     7
 79
     3
170
     0
171
     0
290
     0
174
     0
 93
        1
 44
0.0
173
     0
291
     0
 45
0.0
1001
ACAD
1000
AcDbSavedByObjectVersion
1070
     0
  0
VISUALSTYLE
  5
35
102
{ACAD_REACTORS
330
2A
102
}
102
{ACAD_XDICTIONARY
360
32F
102
}
330
2A
100
AcDbVisualStyle
  2
Dim
 70
    11
 71
     2
 72
     2
 73
     0
 90
        0
 40
-0.6
 41
-30.0
 62
     5
 63
     7
 74
     1
 91
        4
 64
     7
 65
   257
 75
     1
175
     1
 42
1.0
 92
        8
 66
     7
 43
1.0
 76
     1
 77
     6
 78
     2
 67
     7
 79
     5
170
     0
171
     0
290
     0
174
     0
 93
        1
 44
-50.0
173
     0
291
     1
 45
0.0
1001
ACAD
1000
AcDbSavedByObjectVersion
1070
     0
  0
VISUALSTYLE
  5
39
102
{ACAD_REACTORS
330
2A
102
}
102
{ACAD_XDICTIONARY
360
337
102
}
330
2A
100
AcDbVisualStyle
  2
Facepattern
 70
    15
 71
     2
 72
     2
 73
     0
 90
        0
 40
-0.6
 41
-30.0
 62
     5
 63
     7
 74
     1
 91
        4
 64
     7
 65
   257
 75
     1
175
     1
 42
1.0
 92
        8
 66
     7
 43
1.0
 76
     1
 77
     6
 78
     2
 67
     7
 79
     5
170
     0
171
     0
290
     0
174
     0
 93
        1
 44
0.0
173
     0
291
     1
 45
0.0
1001
ACAD
1000
AcDbSavedByObjectVersion
1070
     0
  0
VISUALSTYLE
  5
2B
102
{ACAD_REACTORS
330
2A
102
}
102
{ACAD_XDICTIONARY
360
31B
102
}
330
2A
100
AcDbVisualStyle
  2
Flat
 70
     0
 71
     2
 72
     1
 73
     1
 90
        2
 40
-0.6
 41
30.0
 62
     5
 63
     7
 74
     0
 91
        4
 64
     7
 65
   257
 75
     1
175
     1
 42
1.0
 92
        8
 66
     7
 43
1.0
 76
     1
 77
     6
 78
     2
 67
     7
 79
     5
170
     0
171
     0
290
     0
174
     0
 93
       13
 44
0.0
173
     0
291
     1
 45
0.0
1001
ACAD
1000
AcDbSavedByObjectVersion
1070
     0
  0
VISUALSTYLE
  5
2C
102
{ACAD_REACTORS
330
2A
102
}
102
{ACAD_XDICTIONARY
360
31D
102
}
330
2A
100
AcDbVisualStyle
  2
FlatWithEdges
 70
     1
 71
     2
 72
     1
 73
     1
 90
        2
 40
-0.6
 41
30.0
 62
     5
 63
     7
 74
     1
 91
        4
 64
     7
 65
   257
 75
     1
175
     1
 42
1.0
 92
        0
 66
   257
 43
1.0
 76
     1
 77
     6
 78
     2
 67
     7
 79
     5
170
     0
171
     0
290
     0
174
     0
 93
       13
 44
0.0
173
     0
291
     1
 45
0.0
1001
ACAD
1000
AcDbSavedByObjectVersion
1070
     0
  0
VISUALSTYLE
  5
2D
102
{ACAD_REACTORS
330
2A
102
}
102
{ACAD_XDICTIONARY
360
31F
102
}
330
2A
100
AcDbVisualStyle
  2
Gouraud
 70
     2
 71
     2
 72
     2
 73
     1
 90
        2
 40
-0.6
 41
30.0
 62
     5
 63
     7
 74
     0
 91
        4
 64
     7
 65
   257
 75
     1
175
     1
 42
1.0
 92
        0
 66
     7
 43
1.0
 76
     1
 77
     6
 78
     2
 67
     7
 79
     5
170
     0
171
     0
290
     0
174
     0
 93
       13
 44
0.0
173
     0
291
     1
 45
0.0
1001
ACAD
1000
AcDbSavedByObjectVersion
1070
     0
  0
VISUALSTYLE
  5
2E
102
{ACAD_REACTORS
330
2A
102
}
102
{ACAD_XDICTIONARY
360
321
102
}
330
2A
100
AcDbVisualStyle
  2
GouraudWithEdges
 70
     3
 71
     2
 72
     2
 73
     1
 90
        2
 40
-0.6
 41
30.0
 62
     5
 63
     7
 74
     1
 91
        4
 64
     7
 65
   257
 75
     1
175
     1
 42
1.0
 92
        0
 66
   257
 43
1.0
 76
     1
 77
     6
 78
     2
 67
     7
 79
     5
170
     0
171
     0
290
     0
174
     0
 93
       13
 44
0.0
173
     0
291
     1
 45
0.0
1001
ACAD
1000
AcDbSavedByObjectVersion
1070
     0
  0
VISUALSTYLE
  5
38
102
{ACAD_REACTORS
330
2A
102
}
102
{ACAD_XDICTIONARY
360
335
102
}
330
2A
100
AcDbVisualStyle
  2
Linepattern
 70
    14
 71
     2
 72
     2
 73
     0
 90
        0
 40
-0.6
 41
-30.0
 62
     5
 63
     7
 74
     1
 91
        4
 64
     7
 65
   257
 75
     7
175
     7
 42
1.0
 92
        8
 66
     7
 43
1.0
 76
     1
 77
     6
 78
     2
 67
     7
 79
     5
170
     0
171
     0
290
     0
174
     0
 93
        1
 44
0.0
173
     0
291
     1
 45
0.0
1001
ACAD
1000
AcDbSavedByObjectVersion
1070
     0
  0
VISUALSTYLE
  5
33
102
{ACAD_REACTORS
330
2A
102
}
102
{ACAD_XDICTIONARY
360
32B
102
}
330
2A
100
AcDbVisualStyle
  2
Realistic
 70
     8
 71
     2
 72
     2
 73
     0
 90
        0
 40
-0.6
 41
-30.0
 62
     5
 63
     7
 74
     1
 91
        0
 64
     7
 65
   257
 75
     1
175
     1
 42
1.0
 92
        8
 66
     8
 43
1.0
 76
     1
 77
     6
 78
     2
 67
     7
 79
     5
170
     0
171
     0
290
     0
174
     0
 93
       13
 44
0.0
173
     0
291
     0
 45
0.0
1001
ACAD
1000
AcDbSavedByObjectVersion
1070
     0
  0
VISUALSTYLE
  5
37
102
{ACAD_REACTORS
330
2A
102
}
102
{ACAD_XDICTIONARY
360
333
102
}
330
2A
100
AcDbVisualStyle
  2
Thicken
 70
    13
 71
     2
 72
     2
 73
     0
 90
        0
 40
-0.6
 41
-30.0
 62
     5
 63
     7
 74
     1
 91
        4
 64
     7
 65
   257
 75
     1
175
     1
 42
1.0
 92
       12
 66
     7
 43
1.0
 76
     1
 77
     6
 78
     2
 67
     7
 79
     5
170
     0
171
     0
290
     0
174
     0
 93
        1
 44
0.0
173
     0
291
     1
 45
0.0
1001
ACAD
1000
AcDbSavedByObjectVersion
1070
     0
  0
DICTIONARYVAR
  5
318
102
{ACAD_REACTORS
330
315
102
}
330
315
100
DictionaryVariables
280
     0
  1
1:1
  0
DICTIONARYVAR
  5
319
102
{ACAD_REACTORS
330
315
102
}
330
315
100
DictionaryVariables
280
     0
  1
2
  0
DICTIONARYVAR
  5
31A
102
{ACAD_REACTORS
330
315
102
}
330
315
100
DictionaryVariables
280
     0
  1
1
  0
DICTIONARY
  5
33D
330
3D
100
AcDbDictionary
280
     1
281
     1
  3
ACAD_XREC_ROUNDTRIP
360
33E
  0
DICTIONARY
  5
33B
330
3C
100
AcDbDictionary
280
     1
281
     1
  3
ACAD_XREC_ROUNDTRIP
360
33C
  0
DICTIONARY
  5
33F
330
3E
100
AcDbDictionary
280
     1
281
     1
  3
ACAD_XREC_ROUNDTRIP
360
340
  0
DICTIONARY
  5
323
330
2F
100
AcDbDictionary
280
     1
281
     1
  3
ACAD_XREC_ROUNDTRIP
360
324
  0
DICTIONARY
  5
327
330
31
100
AcDbDictionary
280
     1
281
     1
  3
ACAD_XREC_ROUNDTRIP
360
328
  0
DICTIONARY
  5
325
330
30
100
AcDbDictionary
280
     1
281
     1
  3
ACAD_XREC_ROUNDTRIP
360
326
  0
DICTIONARY
  5
329
330
32
100
AcDbDictionary
280
     1
281
     1
  3
ACAD_XREC_ROUNDTRIP
360
32A
  0
DICTIONARY
  5
331
330
36
100
AcDbDictionary
280
     1
281
     1
  3
ACAD_XREC_ROUNDTRIP
360
332
  0
DICTIONARY
  5
339
330
3A
100
AcDbDictionary
280
     1
281
     1
  3
ACAD_XREC_ROUNDTRIP
360
33A
  0
DICTIONARY
  5
32D
330
34
100
AcDbDictionary
280
     1
281
     1
  3
ACAD_XREC_ROUNDTRIP
360
32E
  0
DICTIONARY
  5
32F
330
35
100
AcDbDictionary
280
     1
281
     1
  3
ACAD_XREC_ROUNDTRIP
360
330
  0
DICTIONARY
  5
337
330
39
100
AcDbDictionary
280
     1
281
     1
  3
ACAD_XREC_ROUNDTRIP
360
338
  0
DICTIONARY
  5
31B
330
2B
100
AcDbDictionary
280
     1
281
     1
  3
ACAD_XREC_ROUNDTRIP
360
31C
  0
DICTIONARY
  5
31D
330
2C
100
AcDbDictionary
280
     1
281
     1
  3
ACAD_XREC_ROUNDTRIP
360
31E
  0
DICTIONARY
  5
31F
330
2D
100
AcDbDictionary
280
     1
281
     1
  3
ACAD_XREC_ROUNDTRIP
360
320
  0
DICTIONARY
  5
321
330
2E
100
AcDbDictionary
280
     1
281
     1
  3
ACAD_XREC_ROUNDTRIP
360
322
  0
DICTIONARY
  5
335
330
38
100
AcDbDictionary
280
     1
281
     1
  3
ACAD_XREC_ROUNDTRIP
360
336
  0
DICTIONARY
  5
32B
330
33
100
AcDbDictionary
280
     1
281
     1
  3
ACAD_XREC_ROUNDTRIP
360
32C
  0
DICTIONARY
  5
333
330
37
100
AcDbDictionary
280
     1
281
     1
  3
ACAD_XREC_ROUNDTRIP
360
334
  0
XRECORD
  5
33E
102
{ACAD_REACTORS
330
33D
102
}
330
33D
100
AcDbXrecord
280
     1
102
MATERIAL
148
0.0
149
0.0
149
0.0
 93
        0
 94
      127
282
     0
 72
     1
 77
     1
171
     1
175
     1
179
     1
273
     0
  0
XRECORD
  5
33C
102
{ACAD_REACTORS
330
33B
102
}
330
33B
100
AcDbXrecord
280
     1
102
MATERIAL
148
0.0
149
0.0
149
0.0
 93
        0
 94
      127
282
     0
 72
     1
 77
     1
171
     1
175
     1
179
     1
273
     0
  0
XRECORD
  5
340
102
{ACAD_REACTORS
330
33F
102
}
330
33F
100
AcDbXrecord
280
     1
102
MATERIAL
148
0.0
149
0.0
149
0.0
 93
        0
 94
      127
282
     0
 72
     1
 77
     1
171
     1
175
     1
179
     1
273
     0
  0
XRECORD
  5
324
102
{ACAD_REACTORS
330
323
102
}
330
323
100
AcDbXrecord
280
     1
102
RTVSPropertyOp0
 70
     1
102
RTVSPropertyOp1
 70
     1
102
RTVSPropertyOp2
 70
     1
102
RTVSPropertyOp3
 70
     1
102
RTVSPropertyOp4
 70
     1
102
RTVSPropertyOp5
 70
     1
102
RTVSPropertyOp6
 70
     1
102
RTVSPropertyOp7
 70
     1
102
RTVSPropertyOp8
 70
     1
102
RTVSPropertyOp9
 70
     1
102
RTVSPropertyOp10
 70
     1
102
RTVSPropertyOp11
 70
     1
102
RTVSPropertyOp12
 70
     1
102
RTVSPropertyOp13
 70
     1
102
RTVSPropertyOp14
 70
     1
102
RTVSPropertyOp15
 70
     1
102
RTVSPropertyOp16
 70
     1
102
RTVSPropertyOp17
 70
     1
102
RTVSPropertyOp18
 70
     1
102
RTVSPropertyOp19
 70
     1
102
RTVSPropertyOp20
 70
     1
102
RTVSPropertyOp21
 70
     1
102
RTVSPropertyOp22
 70
     1
102
RTVSPropertyOp23
 70
     1
102
RTVSPropertyOp24
 70
     1
102
RTVSPropertyOp25
 70
     1
102
RTVSPropertyOp26
 70
     1
102
RTVSPropertyOp27
 70
     1
  0
XRECORD
  5
328
102
{ACAD_REACTORS
330
327
102
}
330
327
100
AcDbXrecord
280
     1
102
RTVSPropertyOp0
 70
     1
102
RTVSPropertyOp1
 70
     1
102
RTVSPropertyOp2
 70
     1
102
RTVSPropertyOp3
 70
     1
102
RTVSPropertyOp4
 70
     1
102
RTVSPropertyOp5
 70
     1
102
RTVSPropertyOp6
 70
     1
102
RTVSPropertyOp7
 70
     1
102
RTVSPropertyOp8
 70
     1
102
RTVSPropertyOp9
 70
     1
102
RTVSPropertyOp10
 70
     1
102
RTVSPropertyOp11
 70
     1
102
RTVSPropertyOp12
 70
     1
102
RTVSPropertyOp13
 70
     1
102
RTVSPropertyOp14
 70
     1
102
RTVSPropertyOp15
 70
     1
102
RTVSPropertyOp16
 70
     1
102
RTVSPropertyOp17
 70
     1
102
RTVSPropertyOp18
 70
     1
102
RTVSPropertyOp19
 70
     1
102
RTVSPropertyOp20
 70
     1
102
RTVSPropertyOp21
 70
     1
102
RTVSPropertyOp22
 70
     1
102
RTVSPropertyOp23
 70
     1
102
RTVSPropertyOp24
 70
     1
102
RTVSPropertyOp25
 70
     1
102
RTVSPropertyOp26
 70
     1
102
RTVSPropertyOp27
 70
     1
  0
XRECORD
  5
326
102
{ACAD_REACTORS
330
325
102
}
330
325
100
AcDbXrecord
280
     1
102
RTVSPropertyOp0
 70
     1
102
RTVSPropertyOp1
 70
     1
102
RTVSPropertyOp2
 70
     1
102
RTVSPropertyOp3
 70
     1
102
RTVSPropertyOp4
 70
     1
102
RTVSPropertyOp5
 70
     1
102
RTVSPropertyOp6
 70
     1
102
RTVSPropertyOp7
 70
     1
102
RTVSPropertyOp8
 70
     1
102
RTVSPropertyOp9
 70
     1
102
RTVSPropertyOp10
 70
     1
102
RTVSPropertyOp11
 70
     1
102
RTVSPropertyOp12
 70
     1
102
RTVSPropertyOp13
 70
     1
102
RTVSPropertyOp14
 70
     1
102
RTVSPropertyOp15
 70
     1
102
RTVSPropertyOp16
 70
     1
102
RTVSPropertyOp17
 70
     1
102
RTVSPropertyOp18
 70
     1
102
RTVSPropertyOp19
 70
     1
102
RTVSPropertyOp20
 70
     1
102
RTVSPropertyOp21
 70
     1
102
RTVSPropertyOp22
 70
     1
102
RTVSPropertyOp23
 70
     1
102
RTVSPropertyOp24
 70
     1
102
RTVSPropertyOp25
 70
     1
102
RTVSPropertyOp26
 70
     1
102
RTVSPropertyOp27
 70
     1
  0
XRECORD
  5
32A
102
{ACAD_REACTORS
330
329
102
}
330
329
100
AcDbXrecord
280
     1
102
RTVSPropertyOp0
 70
     1
102
RTVSPropertyOp1
 70
     1
102
RTVSPropertyOp2
 70
     1
102
RTVSPropertyOp3
 70
     1
102
RTVSPropertyOp4
 70
     1
102
RTVSPropertyOp5
 70
     1
102
RTVSPropertyOp6
 70
     1
102
RTVSPropertyOp7
 70
     1
102
RTVSPropertyOp8
 70
     1
102
RTVSPropertyOp9
 70
     1
102
RTVSPropertyOp10
 70
     1
102
RTVSPropertyOp11
 70
     1
102
RTVSPropertyOp12
 70
     1
102
RTVSPropertyOp13
 70
     1
102
RTVSPropertyOp14
 70
     1
102
RTVSPropertyOp15
 70
     1
102
RTVSPropertyOp16
 70
     1
102
RTVSPropertyOp17
 70
     1
102
RTVSPropertyOp18
 70
     1
102
RTVSPropertyOp19
 70
     1
102
RTVSPropertyOp20
 70
     1
102
RTVSPropertyOp21
 70
     1
102
RTVSPropertyOp22
 70
     1
102
RTVSPropertyOp23
 70
     1
102
RTVSPropertyOp24
 70
     1
102
RTVSPropertyOp25
 70
     1
102
RTVSPropertyOp26
 70
     1
102
RTVSPropertyOp27
 70
     1
  0
XRECORD
  5
332
102
{ACAD_REACTORS
330
331
102
}
330
331
100
AcDbXrecord
280
     1
102
RTVSPropertyOp0
 70
     1
102
RTVSPropertyOp1
 70
     1
102
RTVSPropertyOp2
 70
     1
102
RTVSPropertyOp3
 70
     1
102
RTVSPropertyOp4
 70
     1
102
RTVSPropertyOp5
 70
     1
102
RTVSPropertyOp6
 70
     1
102
RTVSPropertyOp7
 70
     1
102
RTVSPropertyOp8
 70
     1
102
RTVSPropertyOp9
 70
     1
102
RTVSPropertyOp10
 70
     1
102
RTVSPropertyOp11
 70
     1
102
RTVSPropertyOp12
 70
     1
102
RTVSPropertyOp13
 70
     1
102
RTVSPropertyOp14
 70
     1
102
RTVSPropertyOp15
 70
     1
102
RTVSPropertyOp16
 70
     1
102
RTVSPropertyOp17
 70
     1
102
RTVSPropertyOp18
 70
     1
102
RTVSPropertyOp19
 70
     1
102
RTVSPropertyOp20
 70
     1
102
RTVSPropertyOp21
 70
     1
102
RTVSPropertyOp22
 70
     1
102
RTVSPropertyOp23
 70
     1
102
RTVSPropertyOp24
 70
     1
102
RTVSPropertyOp25
 70
     1
102
RTVSPropertyOp26
 70
     1
102
RTVSPropertyOp27
 70
     1
  0
XRECORD
  5
33A
102
{ACAD_REACTORS
330
339
102
}
330
339
100
AcDbXrecord
280
     1
102
RTVSPropertyOp0
 70
     1
102
RTVSPropertyOp1
 70
     1
102
RTVSPropertyOp2
 70
     1
102
RTVSPropertyOp3
 70
     1
102
RTVSPropertyOp4
 70
     1
102
RTVSPropertyOp5
 70
     1
102
RTVSPropertyOp6
 70
     1
102
RTVSPropertyOp7
 70
     1
102
RTVSPropertyOp8
 70
     1
102
RTVSPropertyOp9
 70
     1
102
RTVSPropertyOp10
 70
     1
102
RTVSPropertyOp11
 70
     1
102
RTVSPropertyOp12
 70
     1
102
RTVSPropertyOp13
 70
     1
102
RTVSPropertyOp14
 70
     1
102
RTVSPropertyOp15
 70
     1
102
RTVSPropertyOp16
 70
     1
102
RTVSPropertyOp17
 70
     1
102
RTVSPropertyOp18
 70
     1
102
RTVSPropertyOp19
 70
     1
102
RTVSPropertyOp20
 70
     1
102
RTVSPropertyOp21
 70
     1
102
RTVSPropertyOp22
 70
     1
102
RTVSPropertyOp23
 70
     1
102
RTVSPropertyOp24
 70
     1
102
RTVSPropertyOp25
 70
     1
102
RTVSPropertyOp26
 70
     1
102
RTVSPropertyOp27
 70
     1
  0
XRECORD
  5
32E
102
{ACAD_REACTORS
330
32D
102
}
330
32D
100
AcDbXrecord
280
     1
102
RTVSPropertyOp0
 70
     1
102
RTVSPropertyOp1
 70
     1
102
RTVSPropertyOp2
 70
     1
102
RTVSPropertyOp3
 70
     1
102
RTVSPropertyOp4
 70
     1
102
RTVSPropertyOp5
 70
     1
102
RTVSPropertyOp6
 70
     1
102
RTVSPropertyOp7
 70
     1
102
RTVSPropertyOp8
 70
     1
102
RTVSPropertyOp9
 70
     1
102
RTVSPropertyOp10
 70
     1
102
RTVSPropertyOp11
 70
     1
102
RTVSPropertyOp12
 70
     1
102
RTVSPropertyOp13
 70
     1
102
RTVSPropertyOp14
 70
     1
102
RTVSPropertyOp15
 70
     1
102
RTVSPropertyOp16
 70
     1
102
RTVSPropertyOp17
 70
     1
102
RTVSPropertyOp18
 70
     1
102
RTVSPropertyOp19
 70
     1
102
RTVSPropertyOp20
 70
     1
102
RTVSPropertyOp21
 70
     1
102
RTVSPropertyOp22
 70
     1
102
RTVSPropertyOp23
 70
     1
102
RTVSPropertyOp24
 70
     1
102
RTVSPropertyOp25
 70
     1
102
RTVSPropertyOp26
 70
     1
102
RTVSPropertyOp27
 70
     1
  0
XRECORD
  5
330
102
{ACAD_REACTORS
330
32F
102
}
330
32F
100
AcDbXrecord
280
     1
102
RTVSPropertyOp0
 70
     1
102
RTVSPropertyOp1
 70
     1
102
RTVSPropertyOp2
 70
     1
102
RTVSPropertyOp3
 70
     1
102
RTVSPropertyOp4
 70
     1
102
RTVSPropertyOp5
 70
     1
102
RTVSPropertyOp6
 70
     1
102
RTVSPropertyOp7
 70
     1
102
RTVSPropertyOp8
 70
     1
102
RTVSPropertyOp9
 70
     1
102
RTVSPropertyOp10
 70
     1
102
RTVSPropertyOp11
 70
     1
102
RTVSPropertyOp12
 70
     1
102
RTVSPropertyOp13
 70
     1
102
RTVSPropertyOp14
 70
     1
102
RTVSPropertyOp15
 70
     1
102
RTVSPropertyOp16
 70
     1
102
RTVSPropertyOp17
 70
     1
102
RTVSPropertyOp18
 70
     1
102
RTVSPropertyOp19
 70
     1
102
RTVSPropertyOp20
 70
     1
102
RTVSPropertyOp21
 70
     1
102
RTVSPropertyOp22
 70
     1
102
RTVSPropertyOp23
 70
     1
102
RTVSPropertyOp24
 70
     1
102
RTVSPropertyOp25
 70
     1
102
RTVSPropertyOp26
 70
     1
102
RTVSPropertyOp27
 70
     1
  0
XRECORD
  5
338
102
{ACAD_REACTORS
330
337
102
}
330
337
100
AcDbXrecord
280
     1
102
RTVSPropertyOp0
 70
     1
102
RTVSPropertyOp1
 70
     1
102
RTVSPropertyOp2
 70
     1
102
RTVSPropertyOp3
 70
     1
102
RTVSPropertyOp4
 70
     1
102
RTVSPropertyOp5
 70
     1
102
RTVSPropertyOp6
 70
     1
102
RTVSPropertyOp7
 70
     1
102
RTVSPropertyOp8
 70
     1
102
RTVSPropertyOp9
 70
     1
102
RTVSPropertyOp10
 70
     1
102
RTVSPropertyOp11
 70
     1
102
RTVSPropertyOp12
 70
     1
102
RTVSPropertyOp13
 70
     1
102
RTVSPropertyOp14
 70
     1
102
RTVSPropertyOp15
 70
     1
102
RTVSPropertyOp16
 70
     1
102
RTVSPropertyOp17
 70
     1
102
RTVSPropertyOp18
 70
     1
102
RTVSPropertyOp19
 70
     1
102
RTVSPropertyOp20
 70
     1
102
RTVSPropertyOp21
 70
     1
102
RTVSPropertyOp22
 70
     1
102
RTVSPropertyOp23
 70
     1
102
RTVSPropertyOp24
 70
     1
102
RTVSPropertyOp25
 70
     1
102
RTVSPropertyOp26
 70
     1
102
RTVSPropertyOp27
 70
     1
  0
XRECORD
  5
31C
102
{ACAD_REACTORS
330
31B
102
}
330
31B
100
AcDbXrecord
280
     1
102
RTVSPropertyOp0
 70
     1
102
RTVSPropertyOp1
 70
     1
102
RTVSPropertyOp2
 70
     1
102
RTVSPropertyOp3
 70
     1
102
RTVSPropertyOp4
 70
     1
102
RTVSPropertyOp5
 70
     1
102
RTVSPropertyOp6
 70
     1
102
RTVSPropertyOp7
 70
     1
102
RTVSPropertyOp8
 70
     1
102
RTVSPropertyOp9
 70
     1
102
RTVSPropertyOp10
 70
     1
102
RTVSPropertyOp11
 70
     1
102
RTVSPropertyOp12
 70
     1
102
RTVSPropertyOp13
 70
     1
102
RTVSPropertyOp14
 70
     1
102
RTVSPropertyOp15
 70
     1
102
RTVSPropertyOp16
 70
     1
102
RTVSPropertyOp17
 70
     1
102
RTVSPropertyOp18
 70
     1
102
RTVSPropertyOp19
 70
     1
102
RTVSPropertyOp20
 70
     1
102
RTVSPropertyOp21
 70
     1
102
RTVSPropertyOp22
 70
     1
102
RTVSPropertyOp23
 70
     1
102
RTVSPropertyOp24
 70
     1
102
RTVSPropertyOp25
 70
     1
102
RTVSPropertyOp26
 70
     1
102
RTVSPropertyOp27
 70
     1
  0
XRECORD
  5
31E
102
{ACAD_REACTORS
330
31D
102
}
330
31D
100
AcDbXrecord
280
     1
102
RTVSPropertyOp0
 70
     1
102
RTVSPropertyOp1
 70
     1
102
RTVSPropertyOp2
 70
     1
102
RTVSPropertyOp3
 70
     1
102
RTVSPropertyOp4
 70
     1
102
RTVSPropertyOp5
 70
     1
102
RTVSPropertyOp6
 70
     1
102
RTVSPropertyOp7
 70
     1
102
RTVSPropertyOp8
 70
     1
102
RTVSPropertyOp9
 70
     1
102
RTVSPropertyOp10
 70
     1
102
RTVSPropertyOp11
 70
     1
102
RTVSPropertyOp12
 70
     1
102
RTVSPropertyOp13
 70
     1
102
RTVSPropertyOp14
 70
     1
102
RTVSPropertyOp15
 70
     1
102
RTVSPropertyOp16
 70
     1
102
RTVSPropertyOp17
 70
     1
102
RTVSPropertyOp18
 70
     1
102
RTVSPropertyOp19
 70
     1
102
RTVSPropertyOp20
 70
     1
102
RTVSPropertyOp21
 70
     1
102
RTVSPropertyOp22
 70
     1
102
RTVSPropertyOp23
 70
     1
102
RTVSPropertyOp24
 70
     1
102
RTVSPropertyOp25
 70
     1
102
RTVSPropertyOp26
 70
     1
102
RTVSPropertyOp27
 70
     1
  0
XRECORD
  5
320
102
{ACAD_REACTORS
330
31F
102
}
330
31F
100
AcDbXrecord
280
     1
102
RTVSPropertyOp0
 70
     1
102
RTVSPropertyOp1
 70
     1
102
RTVSPropertyOp2
 70
     1
102
RTVSPropertyOp3
 70
     1
102
RTVSPropertyOp4
 70
     1
102
RTVSPropertyOp5
 70
     1
102
RTVSPropertyOp6
 70
     1
102
RTVSPropertyOp7
 70
     1
102
RTVSPropertyOp8
 70
     1
102
RTVSPropertyOp9
 70
     1
102
RTVSPropertyOp10
 70
     1
102
RTVSPropertyOp11
 70
     1
102
RTVSPropertyOp12
 70
     1
102
RTVSPropertyOp13
 70
     1
102
RTVSPropertyOp14
 70
     1
102
RTVSPropertyOp15
 70
     1
102
RTVSPropertyOp16
 70
     1
102
RTVSPropertyOp17
 70
     1
102
RTVSPropertyOp18
 70
     1
102
RTVSPropertyOp19
 70
     1
102
RTVSPropertyOp20
 70
     1
102
RTVSPropertyOp21
 70
     1
102
RTVSPropertyOp22
 70
     1
102
RTVSPropertyOp23
 70
     1
102
RTVSPropertyOp24
 70
     1
102
RTVSPropertyOp25
 70
     1
102
RTVSPropertyOp26
 70
     1
102
RTVSPropertyOp27
 70
     1
  0
XRECORD
  5
322
102
{ACAD_REACTORS
330
321
102
}
330
321
100
AcDbXrecord
280
     1
102
RTVSPropertyOp0
 70
     1
102
RTVSPropertyOp1
 70
     1
102
RTVSPropertyOp2
 70
     1
102
RTVSPropertyOp3
 70
     1
102
RTVSPropertyOp4
 70
     1
102
RTVSPropertyOp5
 70
     1
102
RTVSPropertyOp6
 70
     1
102
RTVSPropertyOp7
 70
     1
102
RTVSPropertyOp8
 70
     1
102
RTVSPropertyOp9
 70
     1
102
RTVSPropertyOp10
 70
     1
102
RTVSPropertyOp11
 70
     1
102
RTVSPropertyOp12
 70
     1
102
RTVSPropertyOp13
 70
     1
102
RTVSPropertyOp14
 70
     1
102
RTVSPropertyOp15
 70
     1
102
RTVSPropertyOp16
 70
     1
102
RTVSPropertyOp17
 70
     1
102
RTVSPropertyOp18
 70
     1
102
RTVSPropertyOp19
 70
     1
102
RTVSPropertyOp20
 70
     1
102
RTVSPropertyOp21
 70
     1
102
RTVSPropertyOp22
 70
     1
102
RTVSPropertyOp23
 70
     1
102
RTVSPropertyOp24
 70
     1
102
RTVSPropertyOp25
 70
     1
102
RTVSPropertyOp26
 70
     1
102
RTVSPropertyOp27
 70
     1
  0
XRECORD
  5
336
102
{ACAD_REACTORS
330
335
102
}
330
335
100
AcDbXrecord
280
     1
102
RTVSPropertyOp0
 70
     1
102
RTVSPropertyOp1
 70
     1
102
RTVSPropertyOp2
 70
     1
102
RTVSPropertyOp3
 70
     1
102
RTVSPropertyOp4
 70
     1
102
RTVSPropertyOp5
 70
     1
102
RTVSPropertyOp6
 70
     1
102
RTVSPropertyOp7
 70
     1
102
RTVSPropertyOp8
 70
     1
102
RTVSPropertyOp9
 70
     1
102
RTVSPropertyOp10
 70
     1
102
RTVSPropertyOp11
 70
     1
102
RTVSPropertyOp12
 70
     1
102
RTVSPropertyOp13
 70
     1
102
RTVSPropertyOp14
 70
     1
102
RTVSPropertyOp15
 70
     1
102
RTVSPropertyOp16
 70
     1
102
RTVSPropertyOp17
 70
     1
102
RTVSPropertyOp18
 70
     1
102
RTVSPropertyOp19
 70
     1
102
RTVSPropertyOp20
 70
     1
102
RTVSPropertyOp21
 70
     1
102
RTVSPropertyOp22
 70
     1
102
RTVSPropertyOp23
 70
     1
102
RTVSPropertyOp24
 70
     1
102
RTVSPropertyOp25
 70
     1
102
RTVSPropertyOp26
 70
     1
102
RTVSPropertyOp27
 70
     1
  0
XRECORD
  5
32C
102
{ACAD_REACTORS
330
32B
102
}
330
32B
100
AcDbXrecord
280
     1
102
RTVSPropertyOp0
 70
     1
102
RTVSPropertyOp1
 70
     1
102
RTVSPropertyOp2
 70
     1
102
RTVSPropertyOp3
 70
     1
102
RTVSPropertyOp4
 70
     1
102
RTVSPropertyOp5
 70
     1
102
RTVSPropertyOp6
 70
     1
102
RTVSPropertyOp7
 70
     1
102
RTVSPropertyOp8
 70
     1
102
RTVSPropertyOp9
 70
     1
102
RTVSPropertyOp10
 70
     1
102
RTVSPropertyOp11
 70
     1
102
RTVSPropertyOp12
 70
     1
102
RTVSPropertyOp13
 70
     1
102
RTVSPropertyOp14
 70
     1
102
RTVSPropertyOp15
 70
     1
102
RTVSPropertyOp16
 70
     1
102
RTVSPropertyOp17
 70
     1
102
RTVSPropertyOp18
 70
     1
102
RTVSPropertyOp19
 70
     1
102
RTVSPropertyOp20
 70
     1
102
RTVSPropertyOp21
 70
     1
102
RTVSPropertyOp22
 70
     1
102
RTVSPropertyOp23
 70
     1
102
RTVSPropertyOp24
 70
     1
102
RTVSPropertyOp25
 70
     1
102
RTVSPropertyOp26
 70
     1
102
RTVSPropertyOp27
 70
     1
  0
XRECORD
  5
334
102
{ACAD_REACTORS
330
333
102
}
330
333
100
AcDbXrecord
280
     1
102
RTVSPropertyOp0
 70
     1
102
RTVSPropertyOp1
 70
     1
102
RTVSPropertyOp2
 70
     1
102
RTVSPropertyOp3
 70
     1
102
RTVSPropertyOp4
 70
     1
102
RTVSPropertyOp5
 70
     1
102
RTVSPropertyOp6
 70
     1
102
RTVSPropertyOp7
 70
     1
102
RTVSPropertyOp8
 70
     1
102
RTVSPropertyOp9
 70
     1
102
RTVSPropertyOp10
 70
     1
102
RTVSPropertyOp11
 70
     1
102
RTVSPropertyOp12
 70
     1
102
RTVSPropertyOp13
 70
     1
102
RTVSPropertyOp14
 70
     1
102
RTVSPropertyOp15
 70
     1
102
RTVSPropertyOp16
 70
     1
102
RTVSPropertyOp17
 70
     1
102
RTVSPropertyOp18
 70
     1
102
RTVSPropertyOp19
 70
     1
102
RTVSPropertyOp20
 70
     1
102
RTVSPropertyOp21
 70
     1
102
RTVSPropertyOp22
 70
     1
102
RTVSPropertyOp23
 70
     1
102
RTVSPropertyOp24
 70
     1
102
RTVSPropertyOp25
 70
     1
102
RTVSPropertyOp26
 70
     1
102
RTVSPropertyOp27
 70
     1
  0
ENDSEC
  0
EOF
