  0
SECTION
  2
HEADER
  9
$ACADVER
  1
AC1015
  9
$ACADMAINTVER
 70
     6
  9
$DWGCODEPAGE
  3
ANSI_932
  9
$INSBASE
 10
0.0
 20
0.0
 30
0.0
  9
$EXTMIN
 10
33.9346706795506
 20
47.25214623518743
 30
0.0
  9
$EXTMAX
 10
481.5563149270413
 20
424.330863142633
 30
0.0
  9
$LIMMIN
 10
0.0
 20
0.0
  9
$LIMMAX
 10
12.0
 20
9.0
  9
$ORTHOMODE
 70
     0
  9
$REGENMODE
 70
     1
  9
$FILLMODE
 70
     1
  9
$QTEXTMODE
 70
     0
  9
$MIRRTEXT
 70
     1
  9
$LTSCALE
 40
1.0
  9
$ATTMODE
 70
     1
  9
$TEXTSIZE
 40
0.2
  9
$TRACEWID
 40
0.05
  9
$TEXTSTYLE
  7
Standard
  9
$CLAYER
  8
0
  9
$CELTYPE
  6
ByLayer
  9
$CECOLOR
 62
   256
  9
$CELTSCALE
 40
1.0
  9
$DISPSILH
 70
     0
  9
$DIMSCALE
 40
1.0
  9
$DIMASZ
 40
0.18
  9
$DIMEXO
 40
0.0625
  9
$DIMDLI
 40
0.38
  9
$DIMRND
 40
0.0
  9
$DIMDLE
 40
0.0
  9
$DIMEXE
 40
0.18
  9
$DIMTP
 40
0.0
  9
$DIMTM
 40
0.0
  9
$DIMTXT
 40
0.18
  9
$DIMCEN
 40
0.09
  9
$DIMTSZ
 40
0.0
  9
$DIMTOL
 70
     0
  9
$DIMLIM
 70
     0
  9
$DIMTIH
 70
     1
  9
$DIMTOH
 70
     1
  9
$DIMSE1
 70
     0
  9
$DIMSE2
 70
     0
  9
$DIMTAD
 70
     0
  9
$DIMZIN
 70
     0
  9
$DIMBLK
  1

  9
$DIMASO
 70
     1
  9
$DIMSHO
 70
     1
  9
$DIMPOST
  1

  9
$DIMAPOST
  1

  9
$DIMALT
 70
     0
  9
$DIMALTD
 70
     2
  9
$DIMALTF
 40
25.4
  9
$DIMLFAC
 40
1.0
  9
$DIMTOFL
 70
     0
  9
$DIMTVP
 40
0.0
  9
$DIMTIX
 70
     0
  9
$DIMSOXD
 70
     0
  9
$DIMSAH
 70
     0
  9
$DIMBLK1
  1

  9
$DIMBLK2
  1

  9
$DIMSTYLE
  2
Standard
  9
$DIMCLRD
 70
     0
  9
$DIMCLRE
 70
     0
  9
$DIMCLRT
 70
     0
  9
$DIMTFAC
 40
1.0
  9
$DIMGAP
 40
0.09
  9
$DIMJUST
 70
     0
  9
$DIMSD1
 70
     0
  9
$DIMSD2
 70
     0
  9
$DIMTOLJ
 70
     1
  9
$DIMTZIN
 70
     0
  9
$DIMALTZ
 70
     0
  9
$DIMALTTZ
 70
     0
  9
$DIMUPT
 70
     0
  9
$DIMDEC
 70
     4
  9
$DIMTDEC
 70
     4
  9
$DIMALTU
 70
     2
  9
$DIMALTTD
 70
     2
  9
$DIMTXSTY
  7
Standard
  9
$DIMAUNIT
 70
     0
  9
$DIMADEC
 70
     0
  9
$DIMALTRND
 40
0.0
  9
$DIMAZIN
 70
     0
  9
$DIMDSEP
 70
    46
  9
$DIMATFIT
 70
     3
  9
$DIMFRAC
 70
     0
  9
$DIMLDRBLK
  1

  9
$DIMLUNIT
 70
     2
  9
$DIMLWD
 70
    -2
  9
$DIMLWE
 70
    -2
  9
$DIMTMOVE
 70
     0
  9
$LUNITS
 70
     2
  9
$LUPREC
 70
     4
  9
$SKETCHINC
 40
0.1
  9
$FILLETRAD
 40
0.5
  9
$AUNITS
 70
     0
  9
$AUPREC
 70
     0
  9
$MENU
  1
.
  9
$ELEVATION
 40
0.0
  9
$PELEVATION
 40
0.0
  9
$THICKNESS
 40
0.0
  9
$LIMCHECK
 70
     0
  9
$CHAMFERA
 40
0.5
  9
$CHAMFERB
 40
0.5
  9
$CHAMFERC
 40
1.0
  9
$CHAMFERD
 40
0.0
  9
$SKPOLY
 70
     0
  9
$TDCREATE
 40
2457624.55582059
  9
$TDUCREATE
 40
2457624.18082059
  9
$TDUPDATE
 40
2457624.555820602
  9
$TDUUPDATE
 40
2457624.180820602
  9
$TDINDWG
 40
0.0000000116
  9
$TDUSRTIMER
 40
0.0000000116
  9
$USRTIMER
 70
     1
  9
$ANGBASE
 50
0.0
  9
$ANGDIR
 70
     0
  9
$PDMODE
 70
     0
  9
$PDSIZE
 40
0.0
  9
$PLINEWID
 40
0.0
  9
$SPLFRAME
 70
     0
  9
$SPLINETYPE
 70
     6
  9
$SPLINESEGS
 70
     8
  9
$HANDSEED
  5
477
  9
$SURFTAB1
 70
     6
  9
$SURFTAB2
 70
     6
  9
$SURFTYPE
 70
     6
  9
$SURFU
 70
     6
  9
$SURFV
 70
     6
  9
$UCSBASE
  2

  9
$UCSNAME
  2

  9
$UCSORG
 10
0.0
 20
0.0
 30
0.0
  9
$UCSXDIR
 10
1.0
 20
0.0
 30
0.0
  9
$UCSYDIR
 10
0.0
 20
1.0
 30
0.0
  9
$UCSORTHOREF
  2

  9
$UCSORTHOVIEW
 70
     0
  9
$UCSORGTOP
 10
0.0
 20
0.0
 30
0.0
  9
$UCSORGBOTTOM
 10
0.0
 20
0.0
 30
0.0
  9
$UCSORGLEFT
 10
0.0
 20
0.0
 30
0.0
  9
$UCSORGRIGHT
 10
0.0
 20
0.0
 30
0.0
  9
$UCSORGFRONT
 10
0.0
 20
0.0
 30
0.0
  9
$UCSORGBACK
 10
0.0
 20
0.0
 30
0.0
  9
$PUCSBASE
  2

  9
$PUCSNAME
  2

  9
$PUCSORG
 10
0.0
 20
0.0
 30
0.0
  9
$PUCSXDIR
 10
1.0
 20
0.0
 30
0.0
  9
$PUCSYDIR
 10
0.0
 20
1.0
 30
0.0
  9
$PUCSORTHOREF
  2

  9
$PUCSORTHOVIEW
 70
     0
  9
$PUCSORGTOP
 10
0.0
 20
0.0
 30
0.0
  9
$PUCSORGBOTTOM
 10
0.0
 20
0.0
 30
0.0
  9
$PUCSORGLEFT
 10
0.0
 20
0.0
 30
0.0
  9
$PUCSORGRIGHT
 10
0.0
 20
0.0
 30
0.0
  9
$PUCSORGFRONT
 10
0.0
 20
0.0
 30
0.0
  9
$PUCSORGBACK
 10
0.0
 20
0.0
 30
0.0
  9
$USERI1
 70
     0
  9
$USERI2
 70
     0
  9
$USERI3
 70
     0
  9
$USERI4
 70
     0
  9
$USERI5
 70
     0
  9
$USERR1
 40
18.0
  9
$USERR2
 40
0.0
  9
$USERR3
 40
0.0
  9
$USERR4
 40
0.0
  9
$USERR5
 40
0.0
  9
$WORLDVIEW
 70
     1
  9
$SHADEDGE
 70
     3
  9
$SHADEDIF
 70
    70
  9
$TILEMODE
 70
     1
  9
$MAXACTVP
 70
    64
  9
$PINSBASE
 10
0.0
 20
0.0
 30
0.0
  9
$PLIMCHECK
 70
     0
  9
$PEXTMIN
 10
1.00000000000000E+20
 20
1.00000000000000E+20
 30
1.00000000000000E+20
  9
$PEXTMAX
 10
-1.00000000000000E+20
 20
-1.00000000000000E+20
 30
-1.00000000000000E+20
  9
$PLIMMIN
 10
0.0
 20
0.0
  9
$PLIMMAX
 10
12.0
 20
9.0
  9
$UNITMODE
 70
     0
  9
$VISRETAIN
 70
     1
  9
$PLINEGEN
 70
     0
  9
$PSLTSCALE
 70
     1
  9
$TREEDEPTH
 70
  3020
  9
$CMLSTYLE
  2
Standard
  9
$CMLJUST
 70
     0
  9
$CMLSCALE
 40
1.0
  9
$PROXYGRAPHICS
 70
     1
  9
$MEASUREMENT
 70
     1
  9
$CELWEIGHT
370
    -1
  9
$ENDCAPS
280
     0
  9
$JOINSTYLE
280
     0
  9
$LWDISPLAY
290
     0
  9
$INSUNITS
 70
     1
  9
$HYPERLINKBASE
  1

  9
$STYLESHEET
  1

  9
$XEDIT
290
     1
  9
$CEPSNTYPE
380
     0
  9
$PSTYLEMODE
290
     1
  9
$FINGERPRINTGUID
  2
{AD01FD94-4790-4C8C-A6D2-3A1501856503}
  9
$VERSIONGUID
  2
{FAEB1C32-E019-11D5-929B-00C0DF256EC4}
  9
$EXTNAMES
290
     1
  9
$PSVPSCALE
 40
0.0
  9
$OLESTARTUP
290
     0
  0
ENDSEC
  0
SECTION
  2
CLASSES
  0
CLASS
  1
ACDBDICTIONARYWDFLT
  2
AcDbDictionaryWithDefault
  3
ObjectDBX Classes
 90
        0
280
     0
281
     0
  0
CLASS
  1
VISUALSTYLE
  2
AcDbVisualStyle
  3
ObjectDBX Classes
 90
     4095
280
     0
281
     0
  0
CLASS
  1
MATERIAL
  2
AcDbMaterial
  3
ObjectDBX Classes
 90
     1153
280
     0
281
     0
  0
CLASS
  1

  2
exOdDbCircle
  3

 90
        0
280
     0
281
     1
  0
CLASS
  1

  2
exOdDbPolyline
  3

 90
        0
280
     0
281
     1
  0
CLASS
  1
SCALE
  2
AcDbScale
  3
ObjectDBX Classes
 90
     1153
280
     0
281
     0
  0
CLASS
  1
DICTIONARYVAR
  2
AcDbDictionaryVar
  3
ObjectDBX Classes
 90
        0
280
     0
281
     0
  0
CLASS
  1
ACDBPLACEHOLDER
  2
AcDbPlaceHolder
  3
ObjectDBX Classes
 90
        0
280
     0
281
     0
  0
CLASS
  1
LAYOUT
  2
AcDbLayout
  3
ObjectDBX Classes
 90
        0
280
     0
281
     0
  0
ENDSEC
  0
SECTION
  2
TABLES
  0
TABLE
  2
VPORT
  5
8
330
0
100
AcDbSymbolTable
 70
     1
  0
VPORT
  5
29
330
8
100
AcDbSymbolTableRecord
100
AcDbViewportTableRecord
  2
*Active
 70
     0
 10
0.0
 20
0.0
 11
1.0
 21
1.0
 12
257.7454928032959
 22
235.7915046889102
 13
0.0
 23
0.0
 14
0.5
 24
0.5
 15
0.5
 25
0.5
 16
0.0
 26
0.0
 36
1.0
 17
0.0
 27
0.0
 37
0.0
 40
414.7865885981902
 41
1.60267857142857
 42
50.0
 43
0.0
 44
0.0
 50
0.0
 51
0.0
 71
     0
 72
   100
 73
     1
 74
     3
 75
     0
 76
     0
 77
     0
 78
     0
281
     0
 65
     1
110
0.0
120
0.0
130
0.0
111
1.0
121
0.0
131
0.0
112
0.0
122
1.0
132
0.0
 79
     0
146
0.0
  0
ENDTAB
  0
TABLE
  2
LTYPE
  5
5
330
0
100
AcDbSymbolTable
 70
     9
  0
LTYPE
  5
14
330
5
100
AcDbSymbolTableRecord
100
AcDbLinetypeTableRecord
  2
ByBlock
 70
     0
  3

 72
    65
 73
     0
 40
0.0
  0
LTYPE
  5
15
330
5
100
AcDbSymbolTableRecord
100
AcDbLinetypeTableRecord
  2
ByLayer
 70
     0
  3

 72
    65
 73
     0
 40
0.0
  0
LTYPE
  5
16
330
5
100
AcDbSymbolTableRecord
100
AcDbLinetypeTableRecord
  2
Continuous
 70
     0
  3
Solid line
 72
    65
 73
     0
 40
0.0
  0
LTYPE
  5
3F
330
5
100
AcDbSymbolTableRecord
100
AcDbLinetypeTableRecord
  2
DASHED
 70
     0
  3
Dashed
 72
    65
 73
     2
 40
15.0
 49
7.0
 74
     0
 49
-8.0
 74
     0
  0
LTYPE
  5
40
330
5
100
AcDbSymbolTableRecord
100
AcDbLinetypeTableRecord
  2
DOTTED
 70
     0
  3
Dotted
 72
    65
 73
     2
 40
1.0
 49
0.0
 74
     0
 49
-1.0
 74
     0
  0
LTYPE
  5
41
330
5
100
AcDbSymbolTableRecord
100
AcDbLinetypeTableRecord
  2
DOT_CENTER
 70
     0
  3
Dot_Center
 72
    65
 73
     4
 40
14.0
 49
12.0
 74
     0
 49
-1.0
 74
     0
 49
0.0
 74
     0
 49
-1.0
 74
     0
  0
LTYPE
  5
42
330
5
100
AcDbSymbolTableRecord
100
AcDbLinetypeTableRecord
  2
LONG_DASHED
 70
     0
  3
Long_Dashed
 72
    65
 73
     2
 40
15.0
 49
10.0
 74
     0
 49
-5.0
 74
     0
  0
LTYPE
  5
43
330
5
100
AcDbSymbolTableRecord
100
AcDbLinetypeTableRecord
  2
DASH_CENTER
 70
     0
  3
Dash_Center
 72
    65
 73
     4
 40
14.0
 49
11.0
 74
     0
 49
-1.0
 74
     0
 49
1.0
 74
     0
 49
-1.0
 74
     0
  0
LTYPE
  5
44
330
5
100
AcDbSymbolTableRecord
100
AcDbLinetypeTableRecord
  2
PHANTOM
 70
     0
  3
Phantom
 72
    65
 73
     6
 40
13.0
 49
10.0
 74
     0
 49
-1.0
 74
     0
 49
0.0
 74
     0
 49
-1.0
 74
     0
 49
0.0
 74
     0
 49
-1.0
 74
     0
  0
LTYPE
  5
45
330
5
100
AcDbSymbolTableRecord
100
AcDbLinetypeTableRecord
  2
CENTER_DASH_DASH
 70
     0
  3
Center_Dash_Dash
 72
    65
 73
     6
 40
14.0
 49
9.0
 74
     0
 49
-1.0
 74
     0
 49
1.0
 74
     0
 49
-1.0
 74
     0
 49
1.0
 74
     0
 49
-1.0
 74
     0
  0
LTYPE
  5
46
330
5
100
AcDbSymbolTableRecord
100
AcDbLinetypeTableRecord
  2
CENTER
 70
     0
  3
CENTER
 72
    65
 73
     4
 40
6.0
 49
3.0
 74
     0
 49
-1.0
 74
     0
 49
1.0
 74
     0
 49
-1.0
 74
     0
  0
ENDTAB
  0
TABLE
  2
LAYER
  5
2
330
0
100
AcDbSymbolTable
 70
     4
  0
LAYER
  5
10
330
2
100
AcDbSymbolTableRecord
100
AcDbLayerTableRecord
  2
0
 70
     0
 62
     7
  6
Continuous
370
    -3
390
F
  0
LAYER
  5
47
330
2
100
AcDbSymbolTableRecord
100
AcDbLayerTableRecord
  2
1
 70
     0
 62
     7
  6
Continuous
370
    -3
390
F
  0
LAYER
  5
48
330
2
100
AcDbSymbolTableRecord
100
AcDbLayerTableRecord
  2
100
 70
     0
 62
     7
  6
Continuous
370
    -3
390
F
  0
LAYER
  5
49
330
2
100
AcDbSymbolTableRecord
100
AcDbLayerTableRecord
  2
2
 70
     0
 62
     7
  6
Continuous
370
    -3
390
F
  0
ENDTAB
  0
TABLE
  2
STYLE
  5
3
330
0
100
AcDbSymbolTable
 70
     2
  0
STYLE
  5
11
330
3
100
AcDbSymbolTableRecord
100
AcDbTextStyleTableRecord
  2
Standard
 70
     0
 40
0.0
 41
1.0
 50
0.0
 71
     0
 42
0.2
  3
txt
  4

  0
STYLE
  5
403
330
3
100
AcDbSymbolTableRecord
100
AcDbTextStyleTableRecord
  2
CONVERTER_11
 70
     0
 40
0.0
 41
0.9
 50
0.0
 71
     0
 42
0.2
  3
txt.shx
  4

  0
ENDTAB
  0
TABLE
  2
VIEW
  5
6
330
0
100
AcDbSymbolTable
 70
     0
  0
ENDTAB
  0
TABLE
  2
UCS
  5
7
330
0
100
AcDbSymbolTable
 70
     0
  0
ENDTAB
  0
TABLE
  2
APPID
  5
9
330
0
100
AcDbSymbolTable
 70
     1
  0
APPID
  5
12
330
9
100
AcDbSymbolTableRecord
100
AcDbRegAppTableRecord
  2
ACAD
 70
     0
  0
ENDTAB
  0
TABLE
  2
DIMSTYLE
  5
A
330
0
100
AcDbSymbolTable
 70
     4
100
AcDbDimStyleTable
  0
DIMSTYLE
105
27
330
A
100
AcDbSymbolTableRecord
100
AcDbDimStyleTableRecord
  2
Standard
 70
     0
340
11
  0
DIMSTYLE
105
42F
102
{ACAD_REACTORS
330
430
102
}
330
A
100
AcDbSymbolTableRecord
100
AcDbDimStyleTableRecord
  2
ME10_DIM_10
 70
     0
 41
8.0
 42
1.0
 44
1.0
 73
     0
 74
     0
 77
     1
 78
    12
140
10.0
147
1.0
172
     1
173
     1
174
     1
175
     1
176
     2
177
     2
178
     2
271
     3
340
403
343
429
344
429
  0
DIMSTYLE
105
43C
102
{ACAD_REACTORS
330
43D
102
}
330
A
100
AcDbSymbolTableRecord
100
AcDbDimStyleTableRecord
  2
ME10_DIM_11
 70
     0
 41
8.0
 42
1.0
 44
1.0
 73
     0
 74
     0
 77
     1
 78
    12
140
10.0
147
1.0
172
     1
173
     1
174
     1
175
     1
176
     2
177
     2
178
     2
271
     3
340
403
343
429
344
429
  0
DIMSTYLE
105
449
102
{ACAD_REACTORS
330
44A
102
}
330
A
100
AcDbSymbolTableRecord
100
AcDbDimStyleTableRecord
  2
ME10_DIM_12
 70
     0
 41
8.0
 42
1.0
 44
1.0
 73
     0
 74
     0
 77
     1
 78
    12
140
10.0
147
1.0
172
     1
173
     1
174
     1
175
     1
176
     2
177
     2
178
     2
271
     3
340
403
343
429
344
429
  0
ENDTAB
  0
TABLE
  2
BLOCK_RECORD
  5
1
330
0
100
AcDbSymbolTable
 70
     5
  0
BLOCK_RECORD
  5
1F
330
1
100
AcDbSymbolTableRecord
100
AcDbBlockTableRecord
  2
*Model_Space
340
22
  0
BLOCK_RECORD
  5
1B
330
1
100
AcDbSymbolTableRecord
100
AcDbBlockTableRecord
  2
*Paper_Space
340
1E
  0
BLOCK_RECORD
  5
23
330
1
100
AcDbSymbolTableRecord
100
AcDbBlockTableRecord
  2
*Paper_Space0
340
26
  0
BLOCK_RECORD
  5
3FB
330
1
100
AcDbSymbolTableRecord
100
AcDbBlockTableRecord
  2
*D1
340
0
  0
BLOCK_RECORD
  5
429
330
1
100
AcDbSymbolTableRecord
100
AcDbBlockTableRecord
  2
_OPEN30
340
0
  0
BLOCK_RECORD
  5
431
330
1
100
AcDbSymbolTableRecord
100
AcDbBlockTableRecord
  2
*D3
340
0
  0
BLOCK_RECORD
  5
43E
330
1
100
AcDbSymbolTableRecord
100
AcDbBlockTableRecord
  2
*D4
340
0
  0
ENDTAB
  0
ENDSEC
  0
SECTION
  2
BLOCKS
  0
BLOCK
  5
20
330
1F
100
AcDbEntity
  8
0
100
AcDbBlockBegin
  2
*Model_Space
 70
     0
 10
0.0
 20
0.0
 30
0.0
  3
*Model_Space
  1

  0
ENDBLK
  5
21
330
1F
100
AcDbEntity
  8
0
100
AcDbBlockEnd
  0
BLOCK
  5
1C
330
1B
100
AcDbEntity
 67
     1
  8
0
100
AcDbBlockBegin
  2
*Paper_Space
 70
     0
 10
0.0
 20
0.0
 30
0.0
  3
*Paper_Space
  1

  0
ENDBLK
  5
1D
330
1B
100
AcDbEntity
 67
     1
  8
0
100
AcDbBlockEnd
  0
BLOCK
  5
24
330
23
100
AcDbEntity
  8
0
100
AcDbBlockBegin
  2
*Paper_Space0
 70
     0
 10
0.0
 20
0.0
 30
0.0
  3
*Paper_Space0
  1

  0
ENDBLK
  5
25
330
23
100
AcDbEntity
  8
0
100
AcDbBlockEnd
  0
BLOCK
  5
427
330
3FB
100
AcDbEntity
  8
0
100
AcDbBlockBegin
  2
*D1
 70
     1
 10
0.0
 20
0.0
 30
0.0
  3
*D1
  1

  0
LINE
  5
3FC
330
3FB
100
AcDbEntity
  8
1
  6
Continuous
 62
     2
100
AcDbLine
 10
320.0
 20
49.39573977463641
 30
0.0
 11
86.0
 21
49.39573977463641
 31
0.0
  0
LINE
  5
3FD
330
3FB
100
AcDbEntity
  8
1
  6
Continuous
 62
     2
100
AcDbLine
 10
320.0
 20
118.0
 30
0.0
 11
320.0
 21
48.39573977463641
 31
0.0
  0
LINE
  5
3FE
330
3FB
100
AcDbEntity
  8
1
  6
Continuous
 62
     2
100
AcDbLine
 10
86.0
 20
115.25
 30
0.0
 11
86.0
 21
48.39573977463641
 31
0.0
  0
LINE
  5
3FF
330
3FB
100
AcDbEntity
  8
1
 62
     2
100
AcDbLine
 10
86.0
 20
49.39573977463641
 30
0.0
 11
94.0
 21
51.53933331408539
 31
0.0
  0
LINE
  5
400
330
3FB
100
AcDbEntity
  8
1
 62
     2
100
AcDbLine
 10
86.0
 20
49.39573977463641
 30
0.0
 11
94.0
 21
47.25214623518743
 31
0.0
  0
LINE
  5
401
330
3FB
100
AcDbEntity
  8
1
 62
     2
100
AcDbLine
 10
320.0
 20
49.39573977463641
 30
0.0
 11
312.0
 21
47.25214623518743
 31
0.0
  0
LINE
  5
402
330
3FB
100
AcDbEntity
  8
1
 62
     2
100
AcDbLine
 10
320.0
 20
49.39573977463641
 30
0.0
 11
312.0
 21
51.5393333140854
 31
0.0
  0
MTEXT
  5
426
330
3FB
100
AcDbEntity
  8
1
 62
     2
100
AcDbMText
 10
158.7200121204721
 20
50.5621917658374
 30
0.0
 40
10.0
 41
0.0
 71
     7
 72
     1
  1
\U+53ef\U+52d5\U+7bc4\U+56f2\U+3000214\U+ff5e234
  7
CONVERTER_11
 11
0.9999999999882478
 21
4.848136811095759E-6
 31
0.0
 73
     1
 44
0.60024009603842
  0
ENDBLK
  5
428
330
3FB
100
AcDbEntity
  8
0
100
AcDbBlockEnd
  0
BLOCK
  5
42A
330
429
100
AcDbEntity
  8
0
100
AcDbBlockBegin
  2
_OPEN30
 70
     0
 10
0.0
 20
0.0
 30
0.0
  3
_OPEN30
  1

  0
LINE
  5
42C
330
429
100
AcDbEntity
  8
0
  6
ByBlock
 62
     0
370
    -2
100
AcDbLine
 10
-1.0
 20
0.267949
 30
0.0
 11
0.0
 21
0.0
 31
0.0
  0
LINE
  5
42D
330
429
100
AcDbEntity
  8
0
  6
ByBlock
 62
     0
370
    -2
100
AcDbLine
 10
0.0
 20
0.0
 30
0.0
 11
-1.0
 21
-0.267949
 31
0.0
  0
LINE
  5
42E
330
429
100
AcDbEntity
  8
0
  6
ByBlock
 62
     0
370
    -2
100
AcDbLine
 10
0.0
 20
0.0
 30
0.0
 11
-1.0
 21
0.0
 31
0.0
  0
ENDBLK
  5
42B
330
429
100
AcDbEntity
  8
0
100
AcDbBlockEnd
  0
BLOCK
  5
43A
330
431
100
AcDbEntity
  8
0
100
AcDbBlockBegin
  2
*D3
 70
     1
 10
0.0
 20
0.0
 30
0.0
  3
*D3
  1

  0
LINE
  5
432
330
431
100
AcDbEntity
  8
1
  6
Continuous
 62
     2
100
AcDbLine
 10
226.0
 20
71.0529299658368
 30
0.0
 11
86.00000000000001
 21
71.0529299658368
 31
0.0
  0
LINE
  5
433
330
431
100
AcDbEntity
  8
1
  6
Continuous
 62
     2
100
AcDbLine
 10
226.0
 20
115.25
 30
0.0
 11
226.0
 21
70.0529299658368
 31
0.0
  0
LINE
  5
434
330
431
100
AcDbEntity
  8
1
  6
Continuous
 62
     2
100
AcDbLine
 10
86.00000000000001
 20
115.25
 30
0.0
 11
86.00000000000001
 21
70.0529299658368
 31
0.0
  0
LINE
  5
435
330
431
100
AcDbEntity
  8
1
 62
     2
100
AcDbLine
 10
86.00000000000001
 20
71.0529299658368
 30
0.0
 11
94.00000000000001
 21
73.19652350528578
 31
0.0
  0
LINE
  5
436
330
431
100
AcDbEntity
  8
1
 62
     2
100
AcDbLine
 10
86.00000000000001
 20
71.0529299658368
 30
0.0
 11
94.00000000000001
 21
68.90933642638781
 31
0.0
  0
LINE
  5
437
330
431
100
AcDbEntity
  8
1
 62
     2
100
AcDbLine
 10
226.0
 20
71.0529299658368
 30
0.0
 11
218.0
 21
68.90933642638781
 31
0.0
  0
LINE
  5
438
330
431
100
AcDbEntity
  8
1
 62
     2
100
AcDbLine
 10
226.0
 20
71.0529299658368
 30
0.0
 11
218.0
 21
73.19652350528578
 31
0.0
  0
MTEXT
  5
439
330
431
100
AcDbEntity
  8
1
 62
     2
100
AcDbMText
 10
142.7281102045736
 20
72.05290313141424
 30
0.0
 40
10.0
 41
0.0
 71
     7
 72
     1
  1
140
  7
CONVERTER_11
 11
0.9999999999882478
 21
4.848136811095759E-6
 31
0.0
 73
     1
 44
0.60024009603842
  0
ENDBLK
  5
43B
330
431
100
AcDbEntity
  8
0
100
AcDbBlockEnd
  0
BLOCK
  5
447
330
43E
100
AcDbEntity
  8
0
100
AcDbBlockBegin
  2
*D4
 70
     1
 10
0.0
 20
0.0
 30
0.0
  3
*D4
  1

  0
LINE
  5
43F
330
43E
100
AcDbEntity
  8
1
  6
Continuous
 62
     2
100
AcDbLine
 10
367.082639697098
 20
308.202036206331
 30
0.0
 11
367.082639697098
 21
140.0
 31
0.0
  0
LINE
  5
440
330
43E
100
AcDbEntity
  8
1
  6
Continuous
 62
     2
100
AcDbLine
 10
184.658386005604
 20
308.202036206331
 30
0.0
 11
368.082639697098
 21
308.202036206331
 31
0.0
  0
LINE
  5
441
330
43E
100
AcDbEntity
  8
1
  6
Continuous
 62
     2
100
AcDbLine
 10
350.0
 20
140.0
 30
0.0
 11
368.082639697098
 21
140.0
 31
0.0
  0
LINE
  5
442
330
43E
100
AcDbEntity
  8
1
 62
     2
100
AcDbLine
 10
367.082639697098
 20
140.0
 30
0.0
 11
364.939046157649
 21
148.0
 31
0.0
  0
LINE
  5
443
330
43E
100
AcDbEntity
  8
1
 62
     2
100
AcDbLine
 10
367.082639697098
 20
140.0
 30
0.0
 11
369.226233236547
 21
148.0
 31
0.0
  0
LINE
  5
444
330
43E
100
AcDbEntity
  8
1
 62
     2
100
AcDbLine
 10
367.082639697098
 20
308.202036206331
 30
0.0
 11
369.226233236547
 21
300.202036206331
 31
0.0
  0
LINE
  5
445
330
43E
100
AcDbEntity
  8
1
 62
     2
100
AcDbLine
 10
367.082639697098
 20
308.202036206331
 30
0.0
 11
364.939046157649
 21
300.202036206331
 31
0.0
  0
MTEXT
  5
446
330
43E
100
AcDbEntity
  8
1
 62
     2
100
AcDbMText
 10
366.082639697098
 20
222.223650141669
 30
0.0
 40
10.0
 41
0.0
 71
     7
 72
     1
  1
167
  7
CONVERTER_11
 11
0.0
 21
1.0
 31
0.0
 73
     1
 44
0.60024009603842
  0
ENDBLK
  5
448
330
43E
100
AcDbEntity
  8
0
100
AcDbBlockEnd
  0
ENDSEC
  0
SECTION
  2
ENTITIES
  0
POINT
  5
4A
330
1F
100
AcDbEntity
  8
1
 62
     7
100
AcDbPoint
 10
320.0
 20
119.0
 30
0.0
  0
POINT
  5
4B
330
1F
100
AcDbEntity
  8
1
 62
     7
100
AcDbPoint
 10
86.0
 20
116.25
 30
0.0
  0
POINT
  5
4C
330
1F
100
AcDbEntity
  8
1
 62
     7
100
AcDbPoint
 10
226.0
 20
116.25
 30
0.0
  0
POINT
  5
4D
330
1F
100
AcDbEntity
  8
1
 62
     7
100
AcDbPoint
 10
86.0
 20
116.25
 30
0.0
  0
POINT
  5
4E
330
1F
100
AcDbEntity
  8
1
 62
     7
100
AcDbPoint
 10
183.658386005604
 20
308.202036206331
 30
0.0
  0
POINT
  5
4F
330
1F
100
AcDbEntity
  8
1
 62
     7
100
AcDbPoint
 10
349.0
 20
140.0
 30
0.0
  0
POINT
  5
50
330
1F
100
AcDbEntity
  8
1
 62
     7
100
AcDbPoint
 10
320.0
 20
119.0
 30
0.0
  0
POINT
  5
51
330
1F
100
AcDbEntity
  8
1
 62
     7
100
AcDbPoint
 10
86.0
 20
116.25
 30
0.0
  0
POINT
  5
52
330
1F
100
AcDbEntity
  8
1
 62
     7
100
AcDbPoint
 10
226.0
 20
116.25
 30
0.0
  0
POINT
  5
53
330
1F
100
AcDbEntity
  8
1
 62
     7
100
AcDbPoint
 10
86.0
 20
116.25
 30
0.0
  0
POINT
  5
54
330
1F
100
AcDbEntity
  8
1
 62
     7
100
AcDbPoint
 10
183.658386005604
 20
308.202036206331
 30
0.0
  0
POINT
  5
55
330
1F
100
AcDbEntity
  8
1
 62
     7
100
AcDbPoint
 10
349.0
 20
140.0
 30
0.0
  0
LINE
  5
56
330
1F
100
AcDbEntity
  8
1
  6
Continuous
 62
     4
100
AcDbLine
 10
173.427500597673
 20
94.1407652458243
 30
0.0
 11
172.722531597673
 21
92.8907652458243
 31
0.0
  0
LINE
  5
57
330
1F
100
AcDbEntity
  8
1
  6
Continuous
 62
     4
100
AcDbLine
 10
172.722531597673
 20
95.3907652458243
 30
0.0
 11
173.427500597673
 21
94.1407652458243
 31
0.0
  0
LINE
  5
58
330
1F
100
AcDbEntity
  8
1
  6
Continuous
 62
     4
100
AcDbLine
 10
168.140233097673
 20
94.1407652458243
 30
0.0
 11
173.427500597673
 21
94.1407652458243
 31
0.0
  0
LINE
  5
59
330
1F
100
AcDbEntity
  8
1
  6
Continuous
 62
     4
100
AcDbLine
 10
162.324238847673
 20
97.0157652458243
 30
0.0
 11
166.377810597673
 21
97.0157652458243
 31
0.0
  0
LINE
  5
5A
330
1F
100
AcDbEntity
  8
1
  6
Continuous
 62
     4
100
AcDbLine
 10
162.324238847673
 20
97.0157652458243
 30
0.0
 11
163.293571222673
 21
98.8907652458243
 31
0.0
  0
LINE
  5
5B
330
1F
100
AcDbEntity
  8
1
  6
Continuous
 62
     4
100
AcDbLine
 10
164.615388097673
 20
92.2657652458243
 30
0.0
 11
163.117328972673
 21
92.2657652458243
 31
0.0
  0
LINE
  5
5C
330
1F
100
AcDbEntity
  8
1
  6
Continuous
 62
     4
100
AcDbLine
 10
164.615388097673
 20
94.7657652458243
 30
0.0
 11
164.615388097673
 21
92.2657652458243
 31
0.0
  0
LINE
  5
5D
330
1F
100
AcDbEntity
  8
1
  6
Continuous
 62
     4
100
AcDbLine
 10
163.117328972673
 20
94.7657652458243
 30
0.0
 11
164.615388097673
 21
94.7657652458243
 31
0.0
  0
LINE
  5
5E
330
1F
100
AcDbEntity
  8
1
  6
Continuous
 62
     4
100
AcDbLine
 10
163.117328972673
 20
92.2657652458243
 30
0.0
 11
163.117328972673
 21
94.7657652458243
 31
0.0
  0
LINE
  5
5F
330
1F
100
AcDbEntity
  8
1
  6
Continuous
 62
     4
100
AcDbLine
 10
166.377810597673
 20
89.5157652458243
 30
0.0
 11
165.408478222673
 21
89.5157652458243
 31
0.0
  0
LINE
  5
60
330
1F
100
AcDbEntity
  8
1
  6
Continuous
 62
     4
100
AcDbLine
 10
166.377810597673
 20
97.0157652458243
 30
0.0
 11
166.377810597673
 21
89.5157652458243
 31
0.0
  0
LINE
  5
61
330
1F
100
AcDbEntity
  8
1
  6
Continuous
 62
     4
100
AcDbLine
 10
161.354906472673
 20
97.0157652458243
 30
0.0
 11
162.324238847673
 21
97.0157652458243
 31
0.0
  0
LINE
  5
62
330
1F
100
AcDbEntity
  8
1
  6
Continuous
 62
     4
100
AcDbLine
 10
161.354906472673
 20
89.5157652458243
 30
0.0
 11
161.354906472673
 21
97.0157652458243
 31
0.0
  0
LINE
  5
63
330
1F
100
AcDbEntity
  8
1
  6
Continuous
 62
     4
100
AcDbLine
 10
157.565698097673
 20
89.1407652458243
 30
0.0
 11
156.860729097673
 21
89.7657652458243
 31
0.0
  0
LINE
  5
64
330
1F
100
AcDbEntity
  8
1
  6
Continuous
 62
     4
100
AcDbLine
 10
158.006303722673
 20
90.1407652458243
 30
0.0
 11
157.565698097673
 21
89.1407652458243
 31
0.0
  0
LINE
  5
65
330
1F
100
AcDbEntity
  8
1
  6
Continuous
 62
     4
100
AcDbLine
 10
158.358788222673
 20
91.6407652458243
 30
0.0
 11
158.006303722673
 21
90.1407652458243
 31
0.0
  0
LINE
  5
66
330
1F
100
AcDbEntity
  8
1
  6
Continuous
 62
     4
100
AcDbLine
 10
158.799393847673
 20
93.8907652458243
 30
0.0
 11
158.358788222673
 21
91.6407652458243
 31
0.0
  0
LINE
  5
67
330
1F
100
AcDbEntity
  8
1
  6
Continuous
 62
     4
100
AcDbLine
 10
158.799393847673
 20
94.7657652458243
 30
0.0
 11
158.799393847673
 21
93.8907652458243
 31
0.0
  0
LINE
  5
68
330
1F
100
AcDbEntity
  8
1
  6
Continuous
 62
     4
100
AcDbLine
 10
156.243881222673
 20
94.7657652458243
 30
0.0
 11
158.799393847673
 21
94.7657652458243
 31
0.0
  0
LINE
  5
69
330
1F
100
AcDbEntity
  8
1
  6
Continuous
 62
     4
100
AcDbLine
 10
153.864610847673
 20
97.2657652458243
 30
0.0
 11
159.768726222673
 21
97.2657652458243
 31
0.0
  0
LINE
  5
6A
330
1F
100
AcDbEntity
  8
1
  6
Continuous
 62
     4
100
AcDbLine
 10
156.420123472673
 20
96.3907652458243
 30
0.0
 11
156.596365722673
 21
98.8907652458243
 31
0.0
  0
LINE
  5
6B
330
1F
100
AcDbEntity
  8
1
  6
Continuous
 62
     4
100
AcDbLine
 10
156.067638972673
 20
93.8907652458243
 30
0.0
 11
156.420123472673
 21
96.3907652458243
 31
0.0
  0
LINE
  5
6C
330
1F
100
AcDbEntity
  8
1
  6
Continuous
 62
     4
100
AcDbLine
 10
155.627033347673
 20
92.2657652458243
 30
0.0
 11
156.067638972673
 21
93.8907652458243
 31
0.0
  0
LINE
  5
6D
330
1F
100
AcDbEntity
  8
1
  6
Continuous
 62
     4
100
AcDbLine
 10
155.098306597673
 20
90.7657652458243
 30
0.0
 11
155.627033347673
 21
92.2657652458243
 31
0.0
  0
LINE
  5
6E
330
1F
100
AcDbEntity
  8
1
  6
Continuous
 62
     4
100
AcDbLine
 10
154.305216472673
 20
89.5157652458243
 30
0.0
 11
155.098306597673
 21
90.7657652458243
 31
0.0
  0
LINE
  5
6F
330
1F
100
AcDbEntity
  8
1
  6
Continuous
 62
     4
100
AcDbLine
 10
151.925946097673
 20
92.2657652458243
 30
0.0
 11
152.895278472673
 21
90.7657652458243
 31
0.0
  0
LINE
  5
70
330
1F
100
AcDbEntity
  8
1
  6
Continuous
 62
     4
100
AcDbLine
 10
151.132855972673
 20
94.1407652458243
 30
0.0
 11
151.925946097673
 21
92.2657652458243
 31
0.0
  0
LINE
  5
71
330
1F
100
AcDbEntity
  8
1
  6
Continuous
 62
     4
100
AcDbLine
 10
150.516008097673
 20
96.3907652458243
 30
0.0
 11
151.132855972673
 21
94.1407652458243
 31
0.0
  0
LINE
  5
72
330
1F
100
AcDbEntity
  8
1
  6
Continuous
 62
     4
100
AcDbLine
 10
152.278430597673
 20
96.6407652458243
 30
0.0
 11
150.956613722673
 21
95.1407652458243
 31
0.0
  0
LINE
  5
73
330
1F
100
AcDbEntity
  8
1
  6
Continuous
 62
     4
100
AcDbLine
 10
149.987281347673
 20
89.1407652458243
 30
0.0
 11
149.370433472673
 21
89.5157652458243
 31
0.0
  0
LINE
  5
74
330
1F
100
AcDbEntity
  8
1
  6
Continuous
 62
     4
100
AcDbLine
 10
149.987281347673
 20
98.8907652458243
 30
0.0
 11
149.987281347673
 21
89.1407652458243
 31
0.0
  0
LINE
  5
75
330
1F
100
AcDbEntity
  8
1
  6
Continuous
 62
     4
100
AcDbLine
 10
149.017948972673
 20
95.7657652458243
 30
0.0
 11
146.991163097673
 21
95.7657652458243
 31
0.0
  0
LINE
  5
76
330
1F
100
AcDbEntity
  8
1
  6
Continuous
 62
     4
100
AcDbLine
 10
148.577343347673
 20
93.8907652458243
 30
0.0
 11
149.017948972673
 21
95.7657652458243
 31
0.0
  0
LINE
  5
77
330
1F
100
AcDbEntity
  8
1
  6
Continuous
 62
     4
100
AcDbLine
 10
147.784253222673
 20
92.0157652458243
 30
0.0
 11
148.577343347673
 21
93.8907652458243
 31
0.0
  0
LINE
  5
78
330
1F
100
AcDbEntity
  8
1
  6
Continuous
 62
     4
100
AcDbLine
 10
146.991163097673
 20
90.7657652458243
 30
0.0
 11
147.784253222673
 21
92.0157652458243
 31
0.0
  0
LINE
  5
79
330
1F
100
AcDbEntity
  8
1
  6
Continuous
 62
     4
100
AcDbLine
 10
143.113833597673
 20
97.6407652458243
 30
0.0
 11
145.493103972673
 21
97.6407652458243
 31
0.0
  0
LINE
  5
7A
330
1F
100
AcDbEntity
  8
1
  6
Continuous
 62
     4
100
AcDbLine
 10
145.845588472673
 20
90.1407652458243
 30
0.0
 11
145.845588472673
 21
90.7657652458243
 31
0.0
  0
LINE
  5
7B
330
1F
100
AcDbEntity
  8
1
  6
Continuous
 62
     4
100
AcDbLine
 10
145.493103972673
 20
89.5157652458243
 30
0.0
 11
145.845588472673
 21
90.1407652458243
 31
0.0
  0
LINE
  5
7C
330
1F
100
AcDbEntity
  8
1
  6
Continuous
 62
     4
100
AcDbLine
 10
144.700013847673
 20
89.5157652458243
 30
0.0
 11
145.493103972673
 21
89.5157652458243
 31
0.0
  0
LINE
  5
7D
330
1F
100
AcDbEntity
  8
1
  6
Continuous
 62
     4
100
AcDbLine
 10
144.259408222673
 20
90.3907652458243
 30
0.0
 11
144.700013847673
 21
89.5157652458243
 31
0.0
  0
LINE
  5
7E
330
1F
100
AcDbEntity
  8
1
  6
Continuous
 62
     4
100
AcDbLine
 10
144.259408222673
 20
93.5157652458243
 30
0.0
 11
144.259408222673
 21
90.3907652458243
 31
0.0
  0
LINE
  5
7F
330
1F
100
AcDbEntity
  8
1
  6
Continuous
 62
     4
100
AcDbLine
 10
143.113833597673
 20
89.5157652458243
 30
0.0
 11
143.113833597673
 21
93.5157652458243
 31
0.0
  0
LINE
  5
80
330
1F
100
AcDbEntity
  8
1
  6
Continuous
 62
     4
100
AcDbLine
 10
141.351411097673
 20
89.7657652458243
 30
0.0
 11
140.734563222673
 21
89.1407652458243
 31
0.0
  0
LINE
  5
81
330
1F
100
AcDbEntity
  8
1
  6
Continuous
 62
     4
100
AcDbLine
 10
141.703895597673
 20
90.3907652458243
 30
0.0
 11
141.351411097673
 21
89.7657652458243
 31
0.0
  0
LINE
  5
82
330
1F
100
AcDbEntity
  8
1
  6
Continuous
 62
     4
100
AcDbLine
 10
141.968258972673
 20
91.3907652458243
 30
0.0
 11
141.703895597673
 21
90.3907652458243
 31
0.0
  0
LINE
  5
83
330
1F
100
AcDbEntity
  8
1
  6
Continuous
 62
     4
100
AcDbLine
 10
142.144501222673
 20
93.5157652458243
 30
0.0
 11
141.968258972673
 21
91.3907652458243
 31
0.0
  0
LINE
  5
84
330
1F
100
AcDbEntity
  8
1
  6
Continuous
 62
     4
100
AcDbLine
 10
144.083165972673
 20
96.6407652458243
 30
0.0
 11
144.876256097673
 21
94.5157652458243
 31
0.0
  0
LINE
  5
85
330
1F
100
AcDbEntity
  8
1
  6
Continuous
 62
     4
100
AcDbLine
 10
141.527653347673
 20
95.1407652458243
 30
0.0
 11
144.523771597673
 21
95.3907652458243
 31
0.0
  0
LINE
  5
86
330
1F
100
AcDbEntity
  8
1
  6
Continuous
 62
     4
100
AcDbLine
 10
143.113833597673
 20
97.6407652458243
 30
0.0
 11
142.320743472673
 21
95.1407652458243
 31
0.0
  0
LINE
  5
87
330
1F
100
AcDbEntity
  8
1
  6
Continuous
 62
     4
100
AcDbLine
 10
143.290075847673
 20
99.1407652458243
 30
0.0
 11
143.290075847673
 21
97.6407652458243
 31
0.0
  0
LINE
  5
88
330
1F
100
AcDbEntity
  8
1
  6
Continuous
 62
     4
100
AcDbLine
 10
141.175168847673
 20
97.6407652458243
 30
0.0
 11
143.113833597673
 21
97.6407652458243
 31
0.0
  0
LINE
  5
89
330
1F
100
AcDbEntity
  8
1
  6
Continuous
 62
     4
100
AcDbLine
 10
139.765230847673
 20
89.5157652458243
 30
0.0
 11
140.558320972673
 21
93.5157652458243
 31
0.0
  0
LINE
  5
8A
330
1F
100
AcDbEntity
  8
1
  6
Continuous
 62
     4
100
AcDbLine
 10
139.588988597673
 20
96.0157652458243
 30
0.0
 11
140.205836472673
 21
95.1407652458243
 31
0.0
  0
LINE
  5
8B
330
1F
100
AcDbEntity
  8
1
  6
Continuous
 62
     4
100
AcDbLine
 10
140.205836472673
 20
98.8907652458243
 30
0.0
 11
140.558320972673
 21
97.8907652458243
 31
0.0
  0
LINE
  5
8C
330
1F
100
AcDbEntity
  8
1
  6
Continuous
 62
     4
100
AcDbLine
 10
471.588383679411
 20
370.844062676214
 30
0.0
 11
471.088383679411
 21
371.344062676214
 31
0.0
  0
LINE
  5
8D
330
1F
100
AcDbEntity
  8
1
  6
Continuous
 62
     4
100
AcDbLine
 10
472.588383679411
 20
370.344062676214
 30
0.0
 11
471.588383679411
 21
370.844062676214
 31
0.0
  0
LINE
  5
8E
330
1F
100
AcDbEntity
  8
1
  6
Continuous
 62
     4
100
AcDbLine
 10
473.838383679411
 20
370.094062676214
 30
0.0
 11
472.588383679411
 21
370.344062676214
 31
0.0
  0
LINE
  5
8F
330
1F
100
AcDbEntity
  8
1
  6
Continuous
 62
     4
100
AcDbLine
 10
475.338383679411
 20
370.094062676214
 30
0.0
 11
473.838383679411
 21
370.094062676214
 31
0.0
  0
LINE
  5
90
330
1F
100
AcDbEntity
  8
1
  6
Continuous
 62
     4
100
AcDbLine
 10
476.588383679411
 20
370.344062676214
 30
0.0
 11
475.338383679411
 21
370.094062676214
 31
0.0
  0
LINE
  5
91
330
1F
100
AcDbEntity
  8
1
  6
Continuous
 62
     4
100
AcDbLine
 10
477.338383679411
 20
370.844062676214
 30
0.0
 11
476.588383679411
 21
370.344062676214
 31
0.0
  0
LINE
  5
92
330
1F
100
AcDbEntity
  8
1
  6
Continuous
 62
     4
100
AcDbLine
 10
477.838383679411
 20
371.594062676214
 30
0.0
 11
477.338383679411
 21
370.844062676214
 31
0.0
  0
LINE
  5
93
330
1F
100
AcDbEntity
  8
1
  6
Continuous
 62
     4
100
AcDbLine
 10
478.088383679411
 20
372.344062676214
 30
0.0
 11
477.838383679411
 21
371.594062676214
 31
0.0
  0
LINE
  5
94
330
1F
100
AcDbEntity
  8
1
  6
Continuous
 62
     4
100
AcDbLine
 10
478.088383679411
 20
372.844062676214
 30
0.0
 11
478.088383679411
 21
372.344062676214
 31
0.0
  0
LINE
  5
95
330
1F
100
AcDbEntity
  8
1
  6
Continuous
 62
     4
100
AcDbLine
 10
477.838383679411
 20
373.594062676214
 30
0.0
 11
478.088383679411
 21
372.844062676214
 31
0.0
  0
LINE
  5
96
330
1F
100
AcDbEntity
  8
1
  6
Continuous
 62
     4
100
AcDbLine
 10
477.338383679411
 20
374.344062676214
 30
0.0
 11
477.838383679411
 21
373.594062676214
 31
0.0
  0
LINE
  5
97
330
1F
100
AcDbEntity
  8
1
  6
Continuous
 62
     4
100
AcDbLine
 10
476.588383679411
 20
374.844062676214
 30
0.0
 11
477.338383679411
 21
374.344062676214
 31
0.0
  0
LINE
  5
98
330
1F
100
AcDbEntity
  8
1
  6
Continuous
 62
     4
100
AcDbLine
 10
472.338383679411
 20
376.594062676214
 30
0.0
 11
476.588383679411
 21
374.844062676214
 31
0.0
  0
LINE
  5
99
330
1F
100
AcDbEntity
  8
1
  6
Continuous
 62
     4
100
AcDbLine
 10
471.588383679411
 20
377.094062676214
 30
0.0
 11
472.338383679411
 21
376.594062676214
 31
0.0
  0
LINE
  5
9A
330
1F
100
AcDbEntity
  8
1
  6
Continuous
 62
     4
100
AcDbLine
 10
471.338383679411
 20
377.844062676214
 30
0.0
 11
471.588383679411
 21
377.094062676214
 31
0.0
  0
LINE
  5
9B
330
1F
100
AcDbEntity
  8
1
  6
Continuous
 62
     4
100
AcDbLine
 10
471.338383679411
 20
378.344062676214
 30
0.0
 11
471.338383679411
 21
377.844062676214
 31
0.0
  0
LINE
  5
9C
330
1F
100
AcDbEntity
  8
1
  6
Continuous
 62
     4
100
AcDbLine
 10
471.588383679411
 20
379.094062676214
 30
0.0
 11
471.338383679411
 21
378.344062676214
 31
0.0
  0
LINE
  5
9D
330
1F
100
AcDbEntity
  8
1
  6
Continuous
 62
     4
100
AcDbLine
 10
472.338383679411
 20
379.594062676214
 30
0.0
 11
471.588383679411
 21
379.094062676214
 31
0.0
  0
LINE
  5
9E
330
1F
100
AcDbEntity
  8
1
  6
Continuous
 62
     4
100
AcDbLine
 10
473.088383679411
 20
379.844062676214
 30
0.0
 11
472.338383679411
 21
379.594062676214
 31
0.0
  0
LINE
  5
9F
330
1F
100
AcDbEntity
  8
1
  6
Continuous
 62
     4
100
AcDbLine
 10
474.088383679411
 20
380.094062676214
 30
0.0
 11
473.088383679411
 21
379.844062676214
 31
0.0
  0
LINE
  5
A0
330
1F
100
AcDbEntity
  8
1
  6
Continuous
 62
     4
100
AcDbLine
 10
475.088383679411
 20
380.094062676214
 30
0.0
 11
474.088383679411
 21
380.094062676214
 31
0.0
  0
LINE
  5
A1
330
1F
100
AcDbEntity
  8
1
  6
Continuous
 62
     4
100
AcDbLine
 10
476.338383679411
 20
379.844062676214
 30
0.0
 11
475.088383679411
 21
380.094062676214
 31
0.0
  0
LINE
  5
A2
330
1F
100
AcDbEntity
  8
1
  6
Continuous
 62
     4
100
AcDbLine
 10
477.088383679411
 20
379.594062676214
 30
0.0
 11
476.338383679411
 21
379.844062676214
 31
0.0
  0
LINE
  5
A3
330
1F
100
AcDbEntity
  8
1
  6
Continuous
 62
     4
100
AcDbLine
 10
477.838383679411
 20
379.094062676214
 30
0.0
 11
477.088383679411
 21
379.594062676214
 31
0.0
  0
LINE
  5
A4
330
1F
100
AcDbEntity
  8
1
  6
Continuous
 62
     4
100
AcDbLine
 10
468.088383679411
 20
376.344062676214
 30
0.0
 11
468.088383679411
 21
373.844062676214
 31
0.0
  0
LINE
  5
A5
330
1F
100
AcDbEntity
  8
1
  6
Continuous
 62
     4
100
AcDbLine
 10
467.838383679411
 20
377.844062676214
 30
0.0
 11
468.088383679411
 21
376.344062676214
 31
0.0
  0
LINE
  5
A6
330
1F
100
AcDbEntity
  8
1
  6
Continuous
 62
     4
100
AcDbLine
 10
467.338383679411
 20
378.844062676214
 30
0.0
 11
467.838383679411
 21
377.844062676214
 31
0.0
  0
LINE
  5
A7
330
1F
100
AcDbEntity
  8
1
  6
Continuous
 62
     4
100
AcDbLine
 10
466.838383679411
 20
379.344062676214
 30
0.0
 11
467.338383679411
 21
378.844062676214
 31
0.0
  0
LINE
  5
A8
330
1F
100
AcDbEntity
  8
1
  6
Continuous
 62
     4
100
AcDbLine
 10
466.088383679411
 20
379.844062676214
 30
0.0
 11
466.838383679411
 21
379.344062676214
 31
0.0
  0
LINE
  5
A9
330
1F
100
AcDbEntity
  8
1
  6
Continuous
 62
     4
100
AcDbLine
 10
465.338383679411
 20
380.094062676214
 30
0.0
 11
466.088383679411
 21
379.844062676214
 31
0.0
  0
LINE
  5
AA
330
1F
100
AcDbEntity
  8
1
  6
Continuous
 62
     4
100
AcDbLine
 10
464.838383679411
 20
380.094062676214
 30
0.0
 11
465.338383679411
 21
380.094062676214
 31
0.0
  0
LINE
  5
AB
330
1F
100
AcDbEntity
  8
1
  6
Continuous
 62
     4
100
AcDbLine
 10
464.088383679411
 20
379.844062676214
 30
0.0
 11
464.838383679411
 21
380.094062676214
 31
0.0
  0
LINE
  5
AC
330
1F
100
AcDbEntity
  8
1
  6
Continuous
 62
     4
100
AcDbLine
 10
463.338383679411
 20
379.344062676214
 30
0.0
 11
464.088383679411
 21
379.844062676214
 31
0.0
  0
LINE
  5
AD
330
1F
100
AcDbEntity
  8
1
  6
Continuous
 62
     4
100
AcDbLine
 10
462.838383679411
 20
378.844062676214
 30
0.0
 11
463.338383679411
 21
379.344062676214
 31
0.0
  0
LINE
  5
AE
330
1F
100
AcDbEntity
  8
1
  6
Continuous
 62
     4
100
AcDbLine
 10
462.338383679411
 20
377.844062676214
 30
0.0
 11
462.838383679411
 21
378.844062676214
 31
0.0
  0
LINE
  5
AF
330
1F
100
AcDbEntity
  8
1
  6
Continuous
 62
     4
100
AcDbLine
 10
462.088383679411
 20
376.344062676214
 30
0.0
 11
462.338383679411
 21
377.844062676214
 31
0.0
  0
LINE
  5
B0
330
1F
100
AcDbEntity
  8
1
  6
Continuous
 62
     4
100
AcDbLine
 10
462.088383679411
 20
373.844062676214
 30
0.0
 11
462.088383679411
 21
376.344062676214
 31
0.0
  0
LINE
  5
B1
330
1F
100
AcDbEntity
  8
1
  6
Continuous
 62
     4
100
AcDbLine
 10
462.338383679411
 20
372.344062676214
 30
0.0
 11
462.088383679411
 21
373.844062676214
 31
0.0
  0
LINE
  5
B2
330
1F
100
AcDbEntity
  8
1
  6
Continuous
 62
     4
100
AcDbLine
 10
462.838383679411
 20
371.344062676214
 30
0.0
 11
462.338383679411
 21
372.344062676214
 31
0.0
  0
LINE
  5
B3
330
1F
100
AcDbEntity
  8
1
  6
Continuous
 62
     4
100
AcDbLine
 10
463.338383679411
 20
370.844062676214
 30
0.0
 11
462.838383679411
 21
371.344062676214
 31
0.0
  0
LINE
  5
B4
330
1F
100
AcDbEntity
  8
1
  6
Continuous
 62
     4
100
AcDbLine
 10
464.088383679411
 20
370.344062676214
 30
0.0
 11
463.338383679411
 21
370.844062676214
 31
0.0
  0
LINE
  5
B5
330
1F
100
AcDbEntity
  8
1
  6
Continuous
 62
     4
100
AcDbLine
 10
464.838383679411
 20
370.094062676214
 30
0.0
 11
464.088383679411
 21
370.344062676214
 31
0.0
  0
LINE
  5
B6
330
1F
100
AcDbEntity
  8
1
  6
Continuous
 62
     4
100
AcDbLine
 10
465.338383679411
 20
370.094062676214
 30
0.0
 11
464.838383679411
 21
370.094062676214
 31
0.0
  0
LINE
  5
B7
330
1F
100
AcDbEntity
  8
1
  6
Continuous
 62
     4
100
AcDbLine
 10
466.088383679411
 20
370.344062676214
 30
0.0
 11
465.338383679411
 21
370.094062676214
 31
0.0
  0
LINE
  5
B8
330
1F
100
AcDbEntity
  8
1
  6
Continuous
 62
     4
100
AcDbLine
 10
466.838383679411
 20
370.844062676214
 30
0.0
 11
466.088383679411
 21
370.344062676214
 31
0.0
  0
LINE
  5
B9
330
1F
100
AcDbEntity
  8
1
  6
Continuous
 62
     4
100
AcDbLine
 10
467.338383679411
 20
371.344062676214
 30
0.0
 11
466.838383679411
 21
370.844062676214
 31
0.0
  0
LINE
  5
BA
330
1F
100
AcDbEntity
  8
1
  6
Continuous
 62
     4
100
AcDbLine
 10
467.838383679411
 20
372.344062676214
 30
0.0
 11
467.338383679411
 21
371.344062676214
 31
0.0
  0
LINE
  5
BB
330
1F
100
AcDbEntity
  8
1
  6
Continuous
 62
     4
100
AcDbLine
 10
468.088383679411
 20
373.844062676214
 30
0.0
 11
467.838383679411
 21
372.344062676214
 31
0.0
  0
LINE
  5
BC
330
1F
100
AcDbEntity
  8
1
  6
Continuous
 62
     4
100
AcDbLine
 10
456.838383679411
 20
370.094062676214
 30
0.0
 11
453.088383679411
 21
370.094062676214
 31
0.0
  0
LINE
  5
BD
330
1F
100
AcDbEntity
  8
1
  6
Continuous
 62
     4
100
AcDbLine
 10
457.588383679411
 20
370.344062676214
 30
0.0
 11
456.838383679411
 21
370.094062676214
 31
0.0
  0
LINE
  5
BE
330
1F
100
AcDbEntity
  8
1
  6
Continuous
 62
     4
100
AcDbLine
 10
458.338383679411
 20
370.844062676214
 30
0.0
 11
457.588383679411
 21
370.344062676214
 31
0.0
  0
LINE
  5
BF
330
1F
100
AcDbEntity
  8
1
  6
Continuous
 62
     4
100
AcDbLine
 10
458.838383679411
 20
371.594062676214
 30
0.0
 11
458.338383679411
 21
370.844062676214
 31
0.0
  0
LINE
  5
C0
330
1F
100
AcDbEntity
  8
1
  6
Continuous
 62
     4
100
AcDbLine
 10
459.088383679411
 20
372.594062676214
 30
0.0
 11
458.838383679411
 21
371.594062676214
 31
0.0
  0
LINE
  5
C1
330
1F
100
AcDbEntity
  8
1
  6
Continuous
 62
     4
100
AcDbLine
 10
459.088383679411
 20
373.844062676214
 30
0.0
 11
459.088383679411
 21
372.594062676214
 31
0.0
  0
LINE
  5
C2
330
1F
100
AcDbEntity
  8
1
  6
Continuous
 62
     4
100
AcDbLine
 10
458.838383679411
 20
374.844062676214
 30
0.0
 11
459.088383679411
 21
373.844062676214
 31
0.0
  0
LINE
  5
C3
330
1F
100
AcDbEntity
  8
1
  6
Continuous
 62
     4
100
AcDbLine
 10
458.588383679411
 20
375.344062676214
 30
0.0
 11
458.838383679411
 21
374.844062676214
 31
0.0
  0
LINE
  5
C4
330
1F
100
AcDbEntity
  8
1
  6
Continuous
 62
     4
100
AcDbLine
 10
458.088383679411
 20
375.844062676214
 30
0.0
 11
458.588383679411
 21
375.344062676214
 31
0.0
  0
LINE
  5
C5
330
1F
100
AcDbEntity
  8
1
  6
Continuous
 62
     4
100
AcDbLine
 10
457.088383679411
 20
376.094062676214
 30
0.0
 11
458.088383679411
 21
375.844062676214
 31
0.0
  0
LINE
  5
C6
330
1F
100
AcDbEntity
  8
1
  6
Continuous
 62
     4
100
AcDbLine
 10
457.838383679411
 20
376.344062676214
 30
0.0
 11
457.088383679411
 21
376.094062676214
 31
0.0
  0
LINE
  5
C7
330
1F
100
AcDbEntity
  8
1
  6
Continuous
 62
     4
100
AcDbLine
 10
458.338383679411
 20
376.594062676214
 30
0.0
 11
457.838383679411
 21
376.344062676214
 31
0.0
  0
LINE
  5
C8
330
1F
100
AcDbEntity
  8
1
  6
Continuous
 62
     4
100
AcDbLine
 10
458.838383679411
 20
377.094062676214
 30
0.0
 11
458.338383679411
 21
376.594062676214
 31
0.0
  0
LINE
  5
C9
330
1F
100
AcDbEntity
  8
1
  6
Continuous
 62
     4
100
AcDbLine
 10
459.088383679411
 20
377.844062676214
 30
0.0
 11
458.838383679411
 21
377.094062676214
 31
0.0
  0
LINE
  5
CA
330
1F
100
AcDbEntity
  8
1
  6
Continuous
 62
     4
100
AcDbLine
 10
459.088383679411
 20
378.594062676214
 30
0.0
 11
459.088383679411
 21
377.844062676214
 31
0.0
  0
LINE
  5
CB
330
1F
100
AcDbEntity
  8
1
  6
Continuous
 62
     4
100
AcDbLine
 10
458.838383679411
 20
379.344062676214
 30
0.0
 11
459.088383679411
 21
378.594062676214
 31
0.0
  0
LINE
  5
CC
330
1F
100
AcDbEntity
  8
1
  6
Continuous
 62
     4
100
AcDbLine
 10
458.088383679411
 20
379.844062676214
 30
0.0
 11
458.838383679411
 21
379.344062676214
 31
0.0
  0
LINE
  5
CD
330
1F
100
AcDbEntity
  8
1
  6
Continuous
 62
     4
100
AcDbLine
 10
456.838383679411
 20
380.094062676214
 30
0.0
 11
458.088383679411
 21
379.844062676214
 31
0.0
  0
LINE
  5
CE
330
1F
100
AcDbEntity
  8
1
  6
Continuous
 62
     4
100
AcDbLine
 10
453.088383679411
 20
380.094062676214
 30
0.0
 11
456.838383679411
 21
380.094062676214
 31
0.0
  0
LINE
  5
CF
330
1F
100
AcDbEntity
  8
1
  6
Continuous
 62
     4
100
AcDbLine
 10
454.588383679411
 20
376.094062676214
 30
0.0
 11
457.088383679411
 21
376.094062676214
 31
0.0
  0
LINE
  5
D0
330
1F
100
AcDbEntity
  8
1
  6
Continuous
 62
     4
100
AcDbLine
 10
445.088383679411
 20
373.594062676214
 30
0.0
 11
450.088383679411
 21
373.594062676214
 31
0.0
  0
LINE
  5
D1
330
1F
100
AcDbEntity
  8
1
  6
Continuous
 62
     4
100
AcDbLine
 10
438.838383679411
 20
380.094062676214
 30
0.0
 11
442.088383679411
 21
380.094062676214
 31
0.0
  0
LINE
  5
D2
330
1F
100
AcDbEntity
  8
1
  6
Continuous
 62
     4
100
AcDbLine
 10
437.838383679411
 20
379.844062676214
 30
0.0
 11
438.838383679411
 21
380.094062676214
 31
0.0
  0
LINE
  5
D3
330
1F
100
AcDbEntity
  8
1
  6
Continuous
 62
     4
100
AcDbLine
 10
437.088383679411
 20
379.344062676214
 30
0.0
 11
437.838383679411
 21
379.844062676214
 31
0.0
  0
LINE
  5
D4
330
1F
100
AcDbEntity
  8
1
  6
Continuous
 62
     4
100
AcDbLine
 10
436.588383679411
 20
378.844062676214
 30
0.0
 11
437.088383679411
 21
379.344062676214
 31
0.0
  0
LINE
  5
D5
330
1F
100
AcDbEntity
  8
1
  6
Continuous
 62
     4
100
AcDbLine
 10
436.338383679411
 20
378.094062676214
 30
0.0
 11
436.588383679411
 21
378.844062676214
 31
0.0
  0
LINE
  5
D6
330
1F
100
AcDbEntity
  8
1
  6
Continuous
 62
     4
100
AcDbLine
 10
436.088383679411
 20
377.094062676214
 30
0.0
 11
436.338383679411
 21
378.094062676214
 31
0.0
  0
LINE
  5
D7
330
1F
100
AcDbEntity
  8
1
  6
Continuous
 62
     4
100
AcDbLine
 10
436.088383679411
 20
373.094062676214
 30
0.0
 11
436.088383679411
 21
377.094062676214
 31
0.0
  0
LINE
  5
D8
330
1F
100
AcDbEntity
  8
1
  6
Continuous
 62
     4
100
AcDbLine
 10
436.338383679411
 20
372.094062676214
 30
0.0
 11
436.088383679411
 21
373.094062676214
 31
0.0
  0
LINE
  5
D9
330
1F
100
AcDbEntity
  8
1
  6
Continuous
 62
     4
100
AcDbLine
 10
436.588383679411
 20
371.344062676214
 30
0.0
 11
436.338383679411
 21
372.094062676214
 31
0.0
  0
LINE
  5
DA
330
1F
100
AcDbEntity
  8
1
  6
Continuous
 62
     4
100
AcDbLine
 10
437.088383679411
 20
370.844062676214
 30
0.0
 11
436.588383679411
 21
371.344062676214
 31
0.0
  0
LINE
  5
DB
330
1F
100
AcDbEntity
  8
1
  6
Continuous
 62
     4
100
AcDbLine
 10
437.838383679411
 20
370.344062676214
 30
0.0
 11
437.088383679411
 21
370.844062676214
 31
0.0
  0
LINE
  5
DC
330
1F
100
AcDbEntity
  8
1
  6
Continuous
 62
     4
100
AcDbLine
 10
438.838383679411
 20
370.094062676214
 30
0.0
 11
437.838383679411
 21
370.344062676214
 31
0.0
  0
LINE
  5
DD
330
1F
100
AcDbEntity
  8
1
  6
Continuous
 62
     4
100
AcDbLine
 10
442.088383679411
 20
370.094062676214
 30
0.0
 11
438.838383679411
 21
370.094062676214
 31
0.0
  0
LINE
  5
DE
330
1F
100
AcDbEntity
  8
1
  6
Continuous
 62
     4
100
AcDbLine
 10
429.838383679411
 20
380.094062676214
 30
0.0
 11
433.088383679411
 21
380.094062676214
 31
0.0
  0
LINE
  5
DF
330
1F
100
AcDbEntity
  8
1
  6
Continuous
 62
     4
100
AcDbLine
 10
428.838383679411
 20
379.844062676214
 30
0.0
 11
429.838383679411
 21
380.094062676214
 31
0.0
  0
LINE
  5
E0
330
1F
100
AcDbEntity
  8
1
  6
Continuous
 62
     4
100
AcDbLine
 10
428.088383679411
 20
379.344062676214
 30
0.0
 11
428.838383679411
 21
379.844062676214
 31
0.0
  0
LINE
  5
E1
330
1F
100
AcDbEntity
  8
1
  6
Continuous
 62
     4
100
AcDbLine
 10
427.588383679411
 20
378.844062676214
 30
0.0
 11
428.088383679411
 21
379.344062676214
 31
0.0
  0
LINE
  5
E2
330
1F
100
AcDbEntity
  8
1
  6
Continuous
 62
     4
100
AcDbLine
 10
427.338383679411
 20
378.094062676214
 30
0.0
 11
427.588383679411
 21
378.844062676214
 31
0.0
  0
LINE
  5
E3
330
1F
100
AcDbEntity
  8
1
  6
Continuous
 62
     4
100
AcDbLine
 10
427.088383679411
 20
377.094062676214
 30
0.0
 11
427.338383679411
 21
378.094062676214
 31
0.0
  0
LINE
  5
E4
330
1F
100
AcDbEntity
  8
1
  6
Continuous
 62
     4
100
AcDbLine
 10
427.088383679411
 20
373.094062676214
 30
0.0
 11
427.088383679411
 21
377.094062676214
 31
0.0
  0
LINE
  5
E5
330
1F
100
AcDbEntity
  8
1
  6
Continuous
 62
     4
100
AcDbLine
 10
427.338383679411
 20
372.094062676214
 30
0.0
 11
427.088383679411
 21
373.094062676214
 31
0.0
  0
LINE
  5
E6
330
1F
100
AcDbEntity
  8
1
  6
Continuous
 62
     4
100
AcDbLine
 10
427.588383679411
 20
371.344062676214
 30
0.0
 11
427.338383679411
 21
372.094062676214
 31
0.0
  0
LINE
  5
E7
330
1F
100
AcDbEntity
  8
1
  6
Continuous
 62
     4
100
AcDbLine
 10
428.088383679411
 20
370.844062676214
 30
0.0
 11
427.588383679411
 21
371.344062676214
 31
0.0
  0
LINE
  5
E8
330
1F
100
AcDbEntity
  8
1
  6
Continuous
 62
     4
100
AcDbLine
 10
428.838383679411
 20
370.344062676214
 30
0.0
 11
428.088383679411
 21
370.844062676214
 31
0.0
  0
LINE
  5
E9
330
1F
100
AcDbEntity
  8
1
  6
Continuous
 62
     4
100
AcDbLine
 10
429.838383679411
 20
370.094062676214
 30
0.0
 11
428.838383679411
 21
370.344062676214
 31
0.0
  0
LINE
  5
EA
330
1F
100
AcDbEntity
  8
1
  6
Continuous
 62
     4
100
AcDbLine
 10
433.088383679411
 20
370.094062676214
 30
0.0
 11
429.838383679411
 21
370.094062676214
 31
0.0
  0
LINE
  5
EB
330
1F
100
AcDbEntity
  8
1
  6
Continuous
 62
     4
100
AcDbLine
 10
419.088383679411
 20
373.594062676214
 30
0.0
 11
424.088383679411
 21
373.594062676214
 31
0.0
  0
LINE
  5
EC
330
1F
100
AcDbEntity
  8
1
  6
Continuous
 62
     4
100
AcDbLine
 10
409.088383679411
 20
370.094062676214
 30
0.0
 11
409.088383679411
 21
375.094062676214
 31
0.0
  0
LINE
  5
ED
330
1F
100
AcDbEntity
  8
1
  6
Continuous
 62
     4
100
AcDbLine
 10
413.088383679411
 20
375.094062676214
 30
0.0
 11
416.088383679411
 21
370.094062676214
 31
0.0
  0
LINE
  5
EE
330
1F
100
AcDbEntity
  8
1
  6
Continuous
 62
     4
100
AcDbLine
 10
413.838383679411
 20
375.094062676214
 30
0.0
 11
413.088383679411
 21
375.094062676214
 31
0.0
  0
LINE
  5
EF
330
1F
100
AcDbEntity
  8
1
  6
Continuous
 62
     4
100
AcDbLine
 10
414.838383679411
 20
375.344062676214
 30
0.0
 11
413.838383679411
 21
375.094062676214
 31
0.0
  0
LINE
  5
F0
330
1F
100
AcDbEntity
  8
1
  6
Continuous
 62
     4
100
AcDbLine
 10
415.588383679411
 20
375.844062676214
 30
0.0
 11
414.838383679411
 21
375.344062676214
 31
0.0
  0
LINE
  5
F1
330
1F
100
AcDbEntity
  8
1
  6
Continuous
 62
     4
100
AcDbLine
 10
415.838383679411
 20
376.344062676214
 30
0.0
 11
415.588383679411
 21
375.844062676214
 31
0.0
  0
LINE
  5
F2
330
1F
100
AcDbEntity
  8
1
  6
Continuous
 62
     4
100
AcDbLine
 10
416.088383679411
 20
377.094062676214
 30
0.0
 11
415.838383679411
 21
376.344062676214
 31
0.0
  0
LINE
  5
F3
330
1F
100
AcDbEntity
  8
1
  6
Continuous
 62
     4
100
AcDbLine
 10
416.088383679411
 20
378.094062676214
 30
0.0
 11
416.088383679411
 21
377.094062676214
 31
0.0
  0
LINE
  5
F4
330
1F
100
AcDbEntity
  8
1
  6
Continuous
 62
     4
100
AcDbLine
 10
415.838383679411
 20
378.844062676214
 30
0.0
 11
416.088383679411
 21
378.094062676214
 31
0.0
  0
LINE
  5
F5
330
1F
100
AcDbEntity
  8
1
  6
Continuous
 62
     4
100
AcDbLine
 10
415.588383679411
 20
379.344062676214
 30
0.0
 11
415.838383679411
 21
378.844062676214
 31
0.0
  0
LINE
  5
F6
330
1F
100
AcDbEntity
  8
1
  6
Continuous
 62
     4
100
AcDbLine
 10
414.838383679411
 20
379.844062676214
 30
0.0
 11
415.588383679411
 21
379.344062676214
 31
0.0
  0
LINE
  5
F7
330
1F
100
AcDbEntity
  8
1
  6
Continuous
 62
     4
100
AcDbLine
 10
413.838383679411
 20
380.094062676214
 30
0.0
 11
414.838383679411
 21
379.844062676214
 31
0.0
  0
LINE
  5
F8
330
1F
100
AcDbEntity
  8
1
  6
Continuous
 62
     4
100
AcDbLine
 10
409.088383679411
 20
380.094062676214
 30
0.0
 11
413.838383679411
 21
380.094062676214
 31
0.0
  0
LINE
  5
F9
330
1F
100
AcDbEntity
  8
1
  6
Continuous
 62
     4
100
AcDbLine
 10
409.088383679411
 20
375.094062676214
 30
0.0
 11
409.088383679411
 21
380.094062676214
 31
0.0
  0
LINE
  5
FA
330
1F
100
AcDbEntity
  8
1
  6
Continuous
 62
     4
100
AcDbLine
 10
413.088383679411
 20
375.094062676214
 30
0.0
 11
409.088383679411
 21
375.094062676214
 31
0.0
  0
LINE
  5
FB
330
1F
100
AcDbEntity
  8
1
  6
Continuous
 62
     4
100
AcDbLine
 10
401.088383679411
 20
373.594062676214
 30
0.0
 11
406.088383679411
 21
373.594062676214
 31
0.0
  0
LINE
  5
FC
330
1F
100
AcDbEntity
  8
1
  6
Continuous
 62
     4
100
AcDbLine
 10
391.088383679411
 20
373.094062676214
 30
0.0
 11
391.088383679411
 21
380.094062676214
 31
0.0
  0
LINE
  5
FD
330
1F
100
AcDbEntity
  8
1
  6
Continuous
 62
     4
100
AcDbLine
 10
391.088383679411
 20
370.094062676214
 30
0.0
 11
391.088383679411
 21
373.094062676214
 31
0.0
  0
LINE
  5
FE
330
1F
100
AcDbEntity
  8
1
  6
Continuous
 62
     4
100
AcDbLine
 10
393.088383679411
 20
375.094062676214
 30
0.0
 11
398.088383679411
 21
370.094062676214
 31
0.0
  0
LINE
  5
FF
330
1F
100
AcDbEntity
  8
1
  6
Continuous
 62
     4
100
AcDbLine
 10
398.088383679411
 20
380.094062676214
 30
0.0
 11
393.088383679411
 21
375.094062676214
 31
0.0
  0
LINE
  5
100
330
1F
100
AcDbEntity
  8
1
  6
Continuous
 62
     4
100
AcDbLine
 10
393.088383679411
 20
375.094062676214
 30
0.0
 11
391.088383679411
 21
373.094062676214
 31
0.0
  0
LINE
  5
101
330
1F
100
AcDbEntity
  8
1
  6
Continuous
 62
     4
100
AcDbLine
 10
267.173748019289
 20
97.4487557977999
 30
0.0
 11
273.173748019289
 21
97.4487557977999
 31
0.0
  0
LINE
  5
102
330
1F
100
AcDbEntity
  8
1
  6
Continuous
 62
     4
100
AcDbLine
 10
272.673748019289
 20
103.9487557977999
 30
0.0
 11
267.173748019289
 21
97.4487557977999
 31
0.0
  0
LINE
  5
103
330
1F
100
AcDbEntity
  8
1
  6
Continuous
 62
     4
100
AcDbLine
 10
273.173748019289
 20
104.9487557977999
 30
0.0
 11
272.673748019289
 21
103.9487557977999
 31
0.0
  0
LINE
  5
104
330
1F
100
AcDbEntity
  8
1
  6
Continuous
 62
     4
100
AcDbLine
 10
273.173748019289
 20
105.9487557977999
 30
0.0
 11
273.173748019289
 21
104.9487557977999
 31
0.0
  0
LINE
  5
105
330
1F
100
AcDbEntity
  8
1
  6
Continuous
 62
     4
100
AcDbLine
 10
272.673748019289
 20
106.6987557977999
 30
0.0
 11
273.173748019289
 21
105.9487557977999
 31
0.0
  0
LINE
  5
106
330
1F
100
AcDbEntity
  8
1
  6
Continuous
 62
     4
100
AcDbLine
 10
271.923748019289
 20
107.1987557977999
 30
0.0
 11
272.673748019289
 21
106.6987557977999
 31
0.0
  0
LINE
  5
107
330
1F
100
AcDbEntity
  8
1
  6
Continuous
 62
     4
100
AcDbLine
 10
270.923748019289
 20
107.4487557977999
 30
0.0
 11
271.923748019289
 21
107.1987557977999
 31
0.0
  0
LINE
  5
108
330
1F
100
AcDbEntity
  8
1
  6
Continuous
 62
     4
100
AcDbLine
 10
269.423748019289
 20
107.4487557977999
 30
0.0
 11
270.923748019289
 21
107.4487557977999
 31
0.0
  0
LINE
  5
109
330
1F
100
AcDbEntity
  8
1
  6
Continuous
 62
     4
100
AcDbLine
 10
268.423748019289
 20
107.1987557977999
 30
0.0
 11
269.423748019289
 21
107.4487557977999
 31
0.0
  0
LINE
  5
10A
330
1F
100
AcDbEntity
  8
1
  6
Continuous
 62
     4
100
AcDbLine
 10
267.673748019289
 20
106.6987557977999
 30
0.0
 11
268.423748019289
 21
107.1987557977999
 31
0.0
  0
LINE
  5
10B
330
1F
100
AcDbEntity
  8
1
  6
Continuous
 62
     4
100
AcDbLine
 10
267.173748019289
 20
105.9487557977999
 30
0.0
 11
267.673748019289
 21
106.6987557977999
 31
0.0
  0
LINE
  5
10C
330
1F
100
AcDbEntity
  8
1
  6
Continuous
 62
     4
100
AcDbLine
 10
260.173748019289
 20
97.4487557977999
 30
0.0
 11
264.173748019289
 21
107.4487557977999
 31
0.0
  0
LINE
  5
10D
330
1F
100
AcDbEntity
  8
1
  6
Continuous
 62
     4
100
AcDbLine
 10
257.173748019289
 20
107.4487557977999
 30
0.0
 11
257.173748019289
 21
97.4487557977999
 31
0.0
  0
LINE
  5
10E
330
1F
100
AcDbEntity
  8
1
  6
Continuous
 62
     4
100
AcDbLine
 10
254.173748019289
 20
104.4487557977999
 30
0.0
 11
257.173748019289
 21
107.4487557977999
 31
0.0
  0
LINE
  5
10F
330
1F
100
AcDbEntity
  8
1
  6
Continuous
 62
     4
100
AcDbLine
 10
243.173748019289
 20
107.4487557977999
 30
0.0
 11
243.173748019289
 21
97.4487557977999
 31
0.0
  0
LINE
  5
110
330
1F
100
AcDbEntity
  8
1
  6
Continuous
 62
     4
100
AcDbLine
 10
240.173748019289
 20
104.4487557977999
 30
0.0
 11
243.173748019289
 21
107.4487557977999
 31
0.0
  0
LINE
  5
111
330
1F
100
AcDbEntity
  8
1
  6
Continuous
 62
     4
100
AcDbLine
 10
237.173748019289
 20
102.9487557977999
 30
0.0
 11
234.673748019289
 21
102.9487557977999
 31
0.0
  0
LINE
  5
112
330
1F
100
AcDbEntity
  8
1
  6
Continuous
 62
     4
100
AcDbLine
 10
237.173748019289
 20
97.4487557977999
 30
0.0
 11
237.173748019289
 21
102.9487557977999
 31
0.0
  0
LINE
  5
113
330
1F
100
AcDbEntity
  8
1
  6
Continuous
 62
     4
100
AcDbLine
 10
232.923748019289
 20
97.4487557977999
 30
0.0
 11
237.173748019289
 21
97.4487557977999
 31
0.0
  0
LINE
  5
114
330
1F
100
AcDbEntity
  8
1
  6
Continuous
 62
     4
100
AcDbLine
 10
232.173748019289
 20
97.6987557977999
 30
0.0
 11
232.923748019289
 21
97.4487557977999
 31
0.0
  0
LINE
  5
115
330
1F
100
AcDbEntity
  8
1
  6
Continuous
 62
     4
100
AcDbLine
 10
231.173748019289
 20
98.1987557977999
 30
0.0
 11
232.173748019289
 21
97.6987557977999
 31
0.0
  0
LINE
  5
116
330
1F
100
AcDbEntity
  8
1
  6
Continuous
 62
     4
100
AcDbLine
 10
230.673748019289
 20
98.6987557977999
 30
0.0
 11
231.173748019289
 21
98.1987557977999
 31
0.0
  0
LINE
  5
117
330
1F
100
AcDbEntity
  8
1
  6
Continuous
 62
     4
100
AcDbLine
 10
230.423748019289
 20
99.4487557977999
 30
0.0
 11
230.673748019289
 21
98.6987557977999
 31
0.0
  0
LINE
  5
118
330
1F
100
AcDbEntity
  8
1
  6
Continuous
 62
     4
100
AcDbLine
 10
230.173748019289
 20
100.4487557977999
 30
0.0
 11
230.423748019289
 21
99.4487557977999
 31
0.0
  0
LINE
  5
119
330
1F
100
AcDbEntity
  8
1
  6
Continuous
 62
     4
100
AcDbLine
 10
230.173748019289
 20
104.4487557977999
 30
0.0
 11
230.173748019289
 21
100.4487557977999
 31
0.0
  0
LINE
  5
11A
330
1F
100
AcDbEntity
  8
1
  6
Continuous
 62
     4
100
AcDbLine
 10
230.423748019289
 20
105.4487557977999
 30
0.0
 11
230.173748019289
 21
104.4487557977999
 31
0.0
  0
LINE
  5
11B
330
1F
100
AcDbEntity
  8
1
  6
Continuous
 62
     4
100
AcDbLine
 10
230.673748019289
 20
106.1987557977999
 30
0.0
 11
230.423748019289
 21
105.4487557977999
 31
0.0
  0
LINE
  5
11C
330
1F
100
AcDbEntity
  8
1
  6
Continuous
 62
     4
100
AcDbLine
 10
231.173748019289
 20
106.6987557977999
 30
0.0
 11
230.673748019289
 21
106.1987557977999
 31
0.0
  0
LINE
  5
11D
330
1F
100
AcDbEntity
  8
1
  6
Continuous
 62
     4
100
AcDbLine
 10
231.923748019289
 20
107.1987557977999
 30
0.0
 11
231.173748019289
 21
106.6987557977999
 31
0.0
  0
LINE
  5
11E
330
1F
100
AcDbEntity
  8
1
  6
Continuous
 62
     4
100
AcDbLine
 10
232.923748019289
 20
107.4487557977999
 30
0.0
 11
231.923748019289
 21
107.1987557977999
 31
0.0
  0
LINE
  5
11F
330
1F
100
AcDbEntity
  8
1
  6
Continuous
 62
     4
100
AcDbLine
 10
237.173748019289
 20
107.4487557977999
 30
0.0
 11
232.923748019289
 21
107.4487557977999
 31
0.0
  0
LINE
  5
120
330
1F
100
AcDbEntity
  8
1
  6
Continuous
 62
     4
100
AcDbLine
 10
73.1125345949443
 20
96.6855512723385
 30
0.0
 11
79.1125345949443
 21
96.6855512723385
 31
0.0
  0
LINE
  5
121
330
1F
100
AcDbEntity
  8
1
  6
Continuous
 62
     4
100
AcDbLine
 10
78.6125345949443
 20
103.1855512723385
 30
0.0
 11
73.1125345949443
 21
96.6855512723385
 31
0.0
  0
LINE
  5
122
330
1F
100
AcDbEntity
  8
1
  6
Continuous
 62
     4
100
AcDbLine
 10
79.1125345949443
 20
104.1855512723385
 30
0.0
 11
78.6125345949443
 21
103.1855512723385
 31
0.0
  0
LINE
  5
123
330
1F
100
AcDbEntity
  8
1
  6
Continuous
 62
     4
100
AcDbLine
 10
79.1125345949443
 20
105.1855512723385
 30
0.0
 11
79.1125345949443
 21
104.1855512723385
 31
0.0
  0
LINE
  5
124
330
1F
100
AcDbEntity
  8
1
  6
Continuous
 62
     4
100
AcDbLine
 10
78.6125345949443
 20
105.9355512723385
 30
0.0
 11
79.1125345949443
 21
105.1855512723385
 31
0.0
  0
LINE
  5
125
330
1F
100
AcDbEntity
  8
1
  6
Continuous
 62
     4
100
AcDbLine
 10
77.8625345949443
 20
106.4355512723385
 30
0.0
 11
78.6125345949443
 21
105.9355512723385
 31
0.0
  0
LINE
  5
126
330
1F
100
AcDbEntity
  8
1
  6
Continuous
 62
     4
100
AcDbLine
 10
76.8625345949443
 20
106.6855512723385
 30
0.0
 11
77.8625345949443
 21
106.4355512723385
 31
0.0
  0
LINE
  5
127
330
1F
100
AcDbEntity
  8
1
  6
Continuous
 62
     4
100
AcDbLine
 10
75.3625345949443
 20
106.6855512723385
 30
0.0
 11
76.8625345949443
 21
106.6855512723385
 31
0.0
  0
LINE
  5
128
330
1F
100
AcDbEntity
  8
1
  6
Continuous
 62
     4
100
AcDbLine
 10
74.3625345949443
 20
106.4355512723385
 30
0.0
 11
75.3625345949443
 21
106.6855512723385
 31
0.0
  0
LINE
  5
129
330
1F
100
AcDbEntity
  8
1
  6
Continuous
 62
     4
100
AcDbLine
 10
73.6125345949443
 20
105.9355512723385
 30
0.0
 11
74.3625345949443
 21
106.4355512723385
 31
0.0
  0
LINE
  5
12A
330
1F
100
AcDbEntity
  8
1
  6
Continuous
 62
     4
100
AcDbLine
 10
73.1125345949443
 20
105.1855512723385
 30
0.0
 11
73.6125345949443
 21
105.9355512723385
 31
0.0
  0
LINE
  5
12B
330
1F
100
AcDbEntity
  8
1
  6
Continuous
 62
     4
100
AcDbLine
 10
66.1125345949443
 20
96.6855512723385
 30
0.0
 11
70.1125345949443
 21
106.6855512723385
 31
0.0
  0
LINE
  5
12C
330
1F
100
AcDbEntity
  8
1
  6
Continuous
 62
     4
100
AcDbLine
 10
63.1125345949443
 20
106.6855512723385
 30
0.0
 11
63.1125345949443
 21
96.6855512723385
 31
0.0
  0
LINE
  5
12D
330
1F
100
AcDbEntity
  8
1
  6
Continuous
 62
     4
100
AcDbLine
 10
60.1125345949443
 20
103.6855512723385
 30
0.0
 11
63.1125345949443
 21
106.6855512723385
 31
0.0
  0
LINE
  5
12E
330
1F
100
AcDbEntity
  8
1
  6
Continuous
 62
     4
100
AcDbLine
 10
49.1125345949443
 20
106.6855512723385
 30
0.0
 11
49.1125345949443
 21
96.6855512723385
 31
0.0
  0
LINE
  5
12F
330
1F
100
AcDbEntity
  8
1
  6
Continuous
 62
     4
100
AcDbLine
 10
46.1125345949443
 20
103.6855512723385
 30
0.0
 11
49.1125345949443
 21
106.6855512723385
 31
0.0
  0
LINE
  5
130
330
1F
100
AcDbEntity
  8
1
  6
Continuous
 62
     4
100
AcDbLine
 10
43.1125345949443
 20
102.1855512723385
 30
0.0
 11
40.6125345949443
 21
102.1855512723385
 31
0.0
  0
LINE
  5
131
330
1F
100
AcDbEntity
  8
1
  6
Continuous
 62
     4
100
AcDbLine
 10
43.1125345949443
 20
96.6855512723385
 30
0.0
 11
43.1125345949443
 21
102.1855512723385
 31
0.0
  0
LINE
  5
132
330
1F
100
AcDbEntity
  8
1
  6
Continuous
 62
     4
100
AcDbLine
 10
38.8625345949443
 20
96.6855512723385
 30
0.0
 11
43.1125345949443
 21
96.6855512723385
 31
0.0
  0
LINE
  5
133
330
1F
100
AcDbEntity
  8
1
  6
Continuous
 62
     4
100
AcDbLine
 10
38.1125345949443
 20
96.9355512723385
 30
0.0
 11
38.8625345949443
 21
96.6855512723385
 31
0.0
  0
LINE
  5
134
330
1F
100
AcDbEntity
  8
1
  6
Continuous
 62
     4
100
AcDbLine
 10
37.1125345949443
 20
97.4355512723385
 30
0.0
 11
38.1125345949443
 21
96.9355512723385
 31
0.0
  0
LINE
  5
135
330
1F
100
AcDbEntity
  8
1
  6
Continuous
 62
     4
100
AcDbLine
 10
36.6125345949443
 20
97.9355512723385
 30
0.0
 11
37.1125345949443
 21
97.4355512723385
 31
0.0
  0
LINE
  5
136
330
1F
100
AcDbEntity
  8
1
  6
Continuous
 62
     4
100
AcDbLine
 10
36.3625345949443
 20
98.6855512723385
 30
0.0
 11
36.6125345949443
 21
97.9355512723385
 31
0.0
  0
LINE
  5
137
330
1F
100
AcDbEntity
  8
1
  6
Continuous
 62
     4
100
AcDbLine
 10
36.1125345949443
 20
99.6855512723385
 30
0.0
 11
36.3625345949443
 21
98.6855512723385
 31
0.0
  0
LINE
  5
138
330
1F
100
AcDbEntity
  8
1
  6
Continuous
 62
     4
100
AcDbLine
 10
36.1125345949443
 20
103.6855512723385
 30
0.0
 11
36.1125345949443
 21
99.6855512723385
 31
0.0
  0
LINE
  5
139
330
1F
100
AcDbEntity
  8
1
  6
Continuous
 62
     4
100
AcDbLine
 10
36.3625345949443
 20
104.6855512723385
 30
0.0
 11
36.1125345949443
 21
103.6855512723385
 31
0.0
  0
LINE
  5
13A
330
1F
100
AcDbEntity
  8
1
  6
Continuous
 62
     4
100
AcDbLine
 10
36.6125345949443
 20
105.4355512723385
 30
0.0
 11
36.3625345949443
 21
104.6855512723385
 31
0.0
  0
LINE
  5
13B
330
1F
100
AcDbEntity
  8
1
  6
Continuous
 62
     4
100
AcDbLine
 10
37.1125345949443
 20
105.9355512723385
 30
0.0
 11
36.6125345949443
 21
105.4355512723385
 31
0.0
  0
LINE
  5
13C
330
1F
100
AcDbEntity
  8
1
  6
Continuous
 62
     4
100
AcDbLine
 10
37.8625345949443
 20
106.4355512723385
 30
0.0
 11
37.1125345949443
 21
105.9355512723385
 31
0.0
  0
LINE
  5
13D
330
1F
100
AcDbEntity
  8
1
  6
Continuous
 62
     4
100
AcDbLine
 10
38.8625345949443
 20
106.6855512723385
 30
0.0
 11
37.8625345949443
 21
106.4355512723385
 31
0.0
  0
LINE
  5
13E
330
1F
100
AcDbEntity
  8
1
  6
Continuous
 62
     4
100
AcDbLine
 10
43.1125345949443
 20
106.6855512723385
 30
0.0
 11
38.8625345949443
 21
106.6855512723385
 31
0.0
  0
LINE
  5
13F
330
1F
100
AcDbEntity
  8
1
  6
Continuous
 62
     4
100
AcDbLine
 10
389.543290936967
 20
121.1987557978
 30
0.0
 11
395.543290936967
 21
121.1987557978
 31
0.0
  0
LINE
  5
140
330
1F
100
AcDbEntity
  8
1
  6
Continuous
 62
     4
100
AcDbLine
 10
395.043290936967
 20
127.6987557978
 30
0.0
 11
389.543290936967
 21
121.1987557978
 31
0.0
  0
LINE
  5
141
330
1F
100
AcDbEntity
  8
1
  6
Continuous
 62
     4
100
AcDbLine
 10
395.543290936967
 20
128.6987557978
 30
0.0
 11
395.043290936967
 21
127.6987557978
 31
0.0
  0
LINE
  5
142
330
1F
100
AcDbEntity
  8
1
  6
Continuous
 62
     4
100
AcDbLine
 10
395.543290936967
 20
129.6987557978
 30
0.0
 11
395.543290936967
 21
128.6987557978
 31
0.0
  0
LINE
  5
143
330
1F
100
AcDbEntity
  8
1
  6
Continuous
 62
     4
100
AcDbLine
 10
395.043290936967
 20
130.4487557978
 30
0.0
 11
395.543290936967
 21
129.6987557978
 31
0.0
  0
LINE
  5
144
330
1F
100
AcDbEntity
  8
1
  6
Continuous
 62
     4
100
AcDbLine
 10
394.293290936967
 20
130.9487557978
 30
0.0
 11
395.043290936967
 21
130.4487557978
 31
0.0
  0
LINE
  5
145
330
1F
100
AcDbEntity
  8
1
  6
Continuous
 62
     4
100
AcDbLine
 10
393.293290936967
 20
131.1987557978
 30
0.0
 11
394.293290936967
 21
130.9487557978
 31
0.0
  0
LINE
  5
146
330
1F
100
AcDbEntity
  8
1
  6
Continuous
 62
     4
100
AcDbLine
 10
391.793290936967
 20
131.1987557978
 30
0.0
 11
393.293290936967
 21
131.1987557978
 31
0.0
  0
LINE
  5
147
330
1F
100
AcDbEntity
  8
1
  6
Continuous
 62
     4
100
AcDbLine
 10
390.793290936967
 20
130.9487557978
 30
0.0
 11
391.793290936967
 21
131.1987557978
 31
0.0
  0
LINE
  5
148
330
1F
100
AcDbEntity
  8
1
  6
Continuous
 62
     4
100
AcDbLine
 10
390.043290936967
 20
130.4487557978
 30
0.0
 11
390.793290936967
 21
130.9487557978
 31
0.0
  0
LINE
  5
149
330
1F
100
AcDbEntity
  8
1
  6
Continuous
 62
     4
100
AcDbLine
 10
389.543290936967
 20
129.6987557978
 30
0.0
 11
390.043290936967
 21
130.4487557978
 31
0.0
  0
LINE
  5
14A
330
1F
100
AcDbEntity
  8
1
  6
Continuous
 62
     4
100
AcDbLine
 10
382.543290936967
 20
121.1987557978
 30
0.0
 11
386.543290936967
 21
131.1987557978
 31
0.0
  0
LINE
  5
14B
330
1F
100
AcDbEntity
  8
1
  6
Continuous
 62
     4
100
AcDbLine
 10
379.543290936967
 20
131.1987557978
 30
0.0
 11
379.543290936967
 21
121.1987557978
 31
0.0
  0
LINE
  5
14C
330
1F
100
AcDbEntity
  8
1
  6
Continuous
 62
     4
100
AcDbLine
 10
376.543290936967
 20
128.1987557978
 30
0.0
 11
379.543290936967
 21
131.1987557978
 31
0.0
  0
LINE
  5
14D
330
1F
100
AcDbEntity
  8
1
  6
Continuous
 62
     4
100
AcDbLine
 10
365.543290936967
 20
131.1987557978
 30
0.0
 11
365.543290936967
 21
121.1987557978
 31
0.0
  0
LINE
  5
14E
330
1F
100
AcDbEntity
  8
1
  6
Continuous
 62
     4
100
AcDbLine
 10
362.543290936967
 20
128.1987557978
 30
0.0
 11
365.543290936967
 21
131.1987557978
 31
0.0
  0
LINE
  5
14F
330
1F
100
AcDbEntity
  8
1
  6
Continuous
 62
     4
100
AcDbLine
 10
359.543290936967
 20
126.6987557978
 30
0.0
 11
357.043290936967
 21
126.6987557978
 31
0.0
  0
LINE
  5
150
330
1F
100
AcDbEntity
  8
1
  6
Continuous
 62
     4
100
AcDbLine
 10
359.543290936967
 20
121.1987557978
 30
0.0
 11
359.543290936967
 21
126.6987557978
 31
0.0
  0
LINE
  5
151
330
1F
100
AcDbEntity
  8
1
  6
Continuous
 62
     4
100
AcDbLine
 10
355.293290936967
 20
121.1987557978
 30
0.0
 11
359.543290936967
 21
121.1987557978
 31
0.0
  0
LINE
  5
152
330
1F
100
AcDbEntity
  8
1
  6
Continuous
 62
     4
100
AcDbLine
 10
354.543290936967
 20
121.4487557978
 30
0.0
 11
355.293290936967
 21
121.1987557978
 31
0.0
  0
LINE
  5
153
330
1F
100
AcDbEntity
  8
1
  6
Continuous
 62
     4
100
AcDbLine
 10
353.543290936967
 20
121.9487557978
 30
0.0
 11
354.543290936967
 21
121.4487557978
 31
0.0
  0
LINE
  5
154
330
1F
100
AcDbEntity
  8
1
  6
Continuous
 62
     4
100
AcDbLine
 10
353.043290936967
 20
122.4487557978
 30
0.0
 11
353.543290936967
 21
121.9487557978
 31
0.0
  0
LINE
  5
155
330
1F
100
AcDbEntity
  8
1
  6
Continuous
 62
     4
100
AcDbLine
 10
352.793290936967
 20
123.1987557978
 30
0.0
 11
353.043290936967
 21
122.4487557978
 31
0.0
  0
LINE
  5
156
330
1F
100
AcDbEntity
  8
1
  6
Continuous
 62
     4
100
AcDbLine
 10
352.543290936967
 20
124.1987557978
 30
0.0
 11
352.793290936967
 21
123.1987557978
 31
0.0
  0
LINE
  5
157
330
1F
100
AcDbEntity
  8
1
  6
Continuous
 62
     4
100
AcDbLine
 10
352.543290936967
 20
128.1987557978
 30
0.0
 11
352.543290936967
 21
124.1987557978
 31
0.0
  0
LINE
  5
158
330
1F
100
AcDbEntity
  8
1
  6
Continuous
 62
     4
100
AcDbLine
 10
352.793290936967
 20
129.1987557978
 30
0.0
 11
352.543290936967
 21
128.1987557978
 31
0.0
  0
LINE
  5
159
330
1F
100
AcDbEntity
  8
1
  6
Continuous
 62
     4
100
AcDbLine
 10
353.043290936967
 20
129.9487557978
 30
0.0
 11
352.793290936967
 21
129.1987557978
 31
0.0
  0
LINE
  5
15A
330
1F
100
AcDbEntity
  8
1
  6
Continuous
 62
     4
100
AcDbLine
 10
353.543290936967
 20
130.4487557978
 30
0.0
 11
353.043290936967
 21
129.9487557978
 31
0.0
  0
LINE
  5
15B
330
1F
100
AcDbEntity
  8
1
  6
Continuous
 62
     4
100
AcDbLine
 10
354.293290936967
 20
130.9487557978
 30
0.0
 11
353.543290936967
 21
130.4487557978
 31
0.0
  0
LINE
  5
15C
330
1F
100
AcDbEntity
  8
1
  6
Continuous
 62
     4
100
AcDbLine
 10
355.293290936967
 20
131.1987557978
 30
0.0
 11
354.293290936967
 21
130.9487557978
 31
0.0
  0
LINE
  5
15D
330
1F
100
AcDbEntity
  8
1
  6
Continuous
 62
     4
100
AcDbLine
 10
359.543290936967
 20
131.1987557978
 30
0.0
 11
355.293290936967
 21
131.1987557978
 31
0.0
  0
LINE
  5
1E0
330
1F
100
AcDbEntity
  8
1
  6
DOTTED
 62
     6
100
AcDbLine
 10
296.0
 20
158.0
 30
0.0
 11
292.0
 21
158.0
 31
0.0
  0
LINE
  5
1E1
330
1F
100
AcDbEntity
  8
1
  6
DOTTED
 62
     6
100
AcDbLine
 10
300.0
 20
161.0
 30
0.0
 11
296.0
 21
161.0
 31
0.0
  0
LINE
  5
1E2
330
1F
100
AcDbEntity
  8
1
  6
DOTTED
 62
     6
100
AcDbLine
 10
300.0
 20
119.0
 30
0.0
 11
300.0
 21
161.0
 31
0.0
  0
LINE
  5
1E3
330
1F
100
AcDbEntity
  8
1
  6
DOTTED
 62
     6
100
AcDbLine
 10
296.0
 20
119.0
 30
0.0
 11
300.0
 21
119.0
 31
0.0
  0
LINE
  5
1E4
330
1F
100
AcDbEntity
  8
1
  6
DOTTED
 62
     6
100
AcDbLine
 10
296.0
 20
122.0
 30
0.0
 11
296.0
 21
119.0
 31
0.0
  0
LINE
  5
1E5
330
1F
100
AcDbEntity
  8
1
  6
DOTTED
 62
     6
100
AcDbLine
 10
292.0
 20
122.0
 30
0.0
 11
296.0
 21
122.0
 31
0.0
  0
LINE
  5
1E6
330
1F
100
AcDbEntity
  8
1
  6
DOTTED
 62
     6
100
AcDbLine
 10
292.0
 20
123.5
 30
0.0
 11
292.0
 21
122.0
 31
0.0
  0
LINE
  5
1E7
330
1F
100
AcDbEntity
  8
1
  6
DOTTED
 62
     6
100
AcDbLine
 10
296.0
 20
161.0
 30
0.0
 11
296.0
 21
158.0
 31
0.0
  0
LINE
  5
1E8
330
1F
100
AcDbEntity
  8
1
  6
DOTTED
 62
     6
100
AcDbLine
 10
292.0
 20
158.0
 30
0.0
 11
292.0
 21
156.5
 31
0.0
  0
LINE
  5
1E9
330
1F
100
AcDbEntity
  8
1
  6
DOTTED
 62
     4
100
AcDbLine
 10
292.0
 20
156.5
 30
0.0
 11
288.8
 21
156.5
 31
0.0
  0
LINE
  5
1EA
330
1F
100
AcDbEntity
  8
1
  6
DOTTED
 62
     4
100
AcDbLine
 10
292.0
 20
123.5
 30
0.0
 11
288.8
 21
123.5
 31
0.0
  0
LINE
  5
1EB
330
1F
100
AcDbEntity
  8
1
  6
DOTTED
 62
     4
100
AcDbLine
 10
312.0
 20
123.5
 30
0.0
 11
308.8
 21
123.5
 31
0.0
  0
LINE
  5
1EC
330
1F
100
AcDbEntity
  8
1
  6
DOTTED
 62
     4
100
AcDbLine
 10
312.0
 20
156.5
 30
0.0
 11
308.8
 21
156.5
 31
0.0
  0
LINE
  5
1ED
330
1F
100
AcDbEntity
  8
1
  6
DOTTED
 62
     4
100
AcDbLine
 10
312.0
 20
158.0
 30
0.0
 11
312.0
 21
156.5
 31
0.0
  0
LINE
  5
1EE
330
1F
100
AcDbEntity
  8
1
  6
DOTTED
 62
     4
100
AcDbLine
 10
316.0
 20
161.0
 30
0.0
 11
316.0
 21
158.0
 31
0.0
  0
LINE
  5
1EF
330
1F
100
AcDbEntity
  8
1
  6
DOTTED
 62
     4
100
AcDbLine
 10
312.0
 20
123.5
 30
0.0
 11
312.0
 21
122.0
 31
0.0
  0
LINE
  5
1F0
330
1F
100
AcDbEntity
  8
1
  6
DOTTED
 62
     4
100
AcDbLine
 10
312.0
 20
122.0
 30
0.0
 11
316.0
 21
122.0
 31
0.0
  0
LINE
  5
1F1
330
1F
100
AcDbEntity
  8
1
  6
DOTTED
 62
     4
100
AcDbLine
 10
316.0
 20
122.0
 30
0.0
 11
316.0
 21
119.0
 31
0.0
  0
LINE
  5
1F2
330
1F
100
AcDbEntity
  8
1
  6
DOTTED
 62
     4
100
AcDbLine
 10
316.0
 20
119.0
 30
0.0
 11
320.0
 21
119.0
 31
0.0
  0
LINE
  5
1F3
330
1F
100
AcDbEntity
  8
1
  6
DOTTED
 62
     4
100
AcDbLine
 10
320.0
 20
119.0
 30
0.0
 11
320.0
 21
161.0
 31
0.0
  0
LINE
  5
1F4
330
1F
100
AcDbEntity
  8
1
  6
DOTTED
 62
     4
100
AcDbLine
 10
320.0
 20
161.0
 30
0.0
 11
316.0
 21
161.0
 31
0.0
  0
LINE
  5
1F5
330
1F
100
AcDbEntity
  8
1
  6
DOTTED
 62
     4
100
AcDbLine
 10
316.0
 20
158.0
 30
0.0
 11
312.0
 21
158.0
 31
0.0
  0
LINE
  5
1F6
330
1F
100
AcDbEntity
  8
100
  6
Continuous
 62
     3
100
AcDbLine
 10
157.0
 20
269.202036206331
 30
0.0
 11
157.0
 21
286.002036206331
 31
0.0
  0
LINE
  5
1F7
330
1F
100
AcDbEntity
  8
1
  6
CENTER
 62
     1
100
AcDbLine
 10
81.0
 20
140.0
 30
0.0
 11
349.0
 21
140.0
 31
0.0
  0
LINE
  5
1F8
330
1F
100
AcDbEntity
  8
1
  6
CENTER
 62
     1
100
AcDbLine
 10
144.0
 20
215.278501126126
 30
0.0
 11
144.0
 21
313.202036206331
 31
0.0
  0
LINE
  5
1F9
330
1F
100
AcDbEntity
  8
100
  6
Continuous
 62
     3
100
AcDbLine
 10
153.0
 20
246.0
 30
0.0
 11
153.0
 21
269.202036206331
 31
0.0
  0
LINE
  5
1FA
330
1F
100
AcDbEntity
  8
100
  6
Continuous
 62
     3
100
AcDbLine
 10
135.0
 20
246.0
 30
0.0
 11
135.0
 21
269.202036206331
 31
0.0
  0
LINE
  5
1FB
330
1F
100
AcDbEntity
  8
100
  6
Continuous
 62
     3
100
AcDbLine
 10
131.0
 20
269.202036206331
 30
0.0
 11
157.0
 21
269.202036206331
 31
0.0
  0
LINE
  5
1FC
330
1F
100
AcDbEntity
  8
100
  6
Continuous
 62
     3
100
AcDbLine
 10
171.709467702318
 20
307.202036206331
 30
0.0
 11
161.000000069775
 21
307.202036206331
 31
0.0
  0
LINE
  5
1FD
330
1F
100
AcDbEntity
  8
100
  6
Continuous
 62
     3
100
AcDbLine
 10
157.000000069775
 20
307.202036206331
 30
0.0
 11
126.500000069775
 21
307.202036206331
 31
0.0
  0
LINE
  5
1FE
330
1F
100
AcDbEntity
  8
100
  6
Continuous
 62
     3
100
AcDbLine
 10
114.558481629663
 20
308.202036206331
 30
0.0
 11
104.341613994396
 21
308.202036206331
 31
0.0
  0
LINE
  5
1FF
330
1F
100
AcDbEntity
  8
100
  6
Continuous
 62
     3
100
AcDbLine
 10
108.472136024774
 20
295.202036206331
 30
0.0
 11
118.527864114775
 21
295.202036206331
 31
0.0
  0
LINE
  5
200
330
1F
100
AcDbEntity
  8
100
  6
Continuous
 62
     3
100
AcDbLine
 10
119.422291305775
 20
294.990890588331
 30
0.0
 11
120.577708833774
 21
294.413181824331
 31
0.0
  0
LINE
  5
201
330
1F
100
AcDbEntity
  8
100
  6
Continuous
 62
     3
100
AcDbLine
 10
127.351587453958
 20
294.264916742449
 30
0.0
 11
130.75519228368
 21
295.139155670214
 31
0.0
  0
LINE
  5
202
330
1F
100
AcDbEntity
  8
100
  6
Continuous
 62
     3
100
AcDbLine
 10
131.252754523652
 20
295.202036206331
 30
0.0
 11
156.999999930226
 21
295.202036206331
 31
0.0
  0
LINE
  5
203
330
1F
100
AcDbEntity
  8
100
  6
Continuous
 62
     3
100
AcDbLine
 10
133.000000069775
 20
308.202036206331
 30
0.0
 11
121.000000069775
 21
308.202036206331
 31
0.0
  0
LINE
  5
204
330
1F
100
AcDbEntity
  8
100
  6
Continuous
 62
     3
100
AcDbLine
 10
120.000000069775
 20
307.202036206331
 30
0.0
 11
106.500000069775
 21
307.202036206331
 31
0.0
  0
LINE
  5
205
330
1F
100
AcDbEntity
  8
100
  6
Continuous
 62
     3
100
AcDbLine
 10
104.341613994396
 20
294.202036206331
 30
0.0
 11
105.527864114775
 21
294.202036206331
 31
0.0
  0
LINE
  5
206
330
1F
100
AcDbEntity
  8
100
  6
Continuous
 62
     3
100
AcDbLine
 10
106.422291305775
 20
294.413181824331
 30
0.0
 11
107.577708833774
 21
294.990890588331
 31
0.0
  0
LINE
  5
207
330
1F
100
AcDbEntity
  8
100
  6
Continuous
 62
     3
100
AcDbLine
 10
143.943170624711
 20
291.919708991667
 30
0.0
 11
132.164749215283
 21
291.919708991667
 31
0.0
  0
LINE
  5
208
330
1F
100
AcDbEntity
  8
100
  6
Continuous
 62
     3
100
AcDbLine
 10
121.472136024774
 20
294.202036206331
 30
0.0
 11
126.854025213985
 21
294.202036206331
 31
0.0
  0
LINE
  5
209
330
1F
100
AcDbEntity
  8
100
  6
Continuous
 62
     3
100
AcDbLine
 10
131.839223296802
 20
289.005920071193
 30
0.0
 11
131.53006262346
 21
290.551723437903
 31
0.0
  0
LINE
  5
20A
330
1F
100
AcDbEntity
  8
100
  6
Continuous
 62
     3
100
AcDbLine
 10
130.034076845704
 20
292.592022758519
 30
0.0
 11
127.106779667863
 21
294.202036206331
 31
0.0
  0
LINE
  5
20B
330
1F
100
AcDbEntity
  8
100
  6
Continuous
 62
     3
100
AcDbLine
 10
155.180196167056
 20
288.202036206331
 30
0.0
 11
132.819803972493
 21
288.202036206331
 31
0.0
  0
LINE
  5
20C
330
1F
100
AcDbEntity
  8
100
  6
Continuous
 62
     3
100
AcDbLine
 10
121.5
 20
225.0
 30
0.0
 11
166.5
 21
225.0
 31
0.0
  0
LINE
  5
20D
330
1F
100
AcDbEntity
  8
100
  6
Continuous
 62
     3
100
AcDbLine
 10
129.0
 20
246.0
 30
0.0
 11
159.0
 21
246.0
 31
0.0
  0
LINE
  5
20E
330
1F
100
AcDbEntity
  8
100
  6
Continuous
 62
     3
100
AcDbLine
 10
159.0
 20
246.0
 30
0.0
 11
159.0
 21
238.0
 31
0.0
  0
LINE
  5
20F
330
1F
100
AcDbEntity
  8
100
  6
Continuous
 62
     3
100
AcDbLine
 10
129.0
 20
238.0
 30
0.0
 11
129.0
 21
246.0
 31
0.0
  0
LINE
  5
210
330
1F
100
AcDbEntity
  8
100
  6
Continuous
 62
     3
100
AcDbLine
 10
121.5
 20
238.0
 30
0.0
 11
166.5
 21
238.0
 31
0.0
  0
LINE
  5
211
330
1F
100
AcDbEntity
  8
100
  6
Continuous
 62
     3
100
AcDbLine
 10
118.019237886467
 20
235.990381056767
 30
0.0
 11
118.019237886467
 21
227.009618943233
 31
0.0
  0
LINE
  5
212
330
1F
100
AcDbEntity
  8
100
  6
Continuous
 62
     3
100
AcDbLine
 10
169.980762113533
 20
235.990381056767
 30
0.0
 11
169.980762113533
 21
227.009618943233
 31
0.0
  0
LINE
  5
213
330
1F
100
AcDbEntity
  8
100
  6
Continuous
 62
     3
100
AcDbLine
 10
169.980762113533
 20
235.990381056767
 30
0.0
 11
166.5
 21
238.0
 31
0.0
  0
LINE
  5
214
330
1F
100
AcDbEntity
  8
100
  6
Continuous
 62
     3
100
AcDbLine
 10
121.5
 20
225.0
 30
0.0
 11
118.019237886467
 21
227.009618943233
 31
0.0
  0
LINE
  5
215
330
1F
100
AcDbEntity
  8
100
  6
Continuous
 62
     3
100
AcDbLine
 10
121.5
 20
238.0
 30
0.0
 11
118.019237886467
 21
235.990381056767
 31
0.0
  0
LINE
  5
216
330
1F
100
AcDbEntity
  8
100
  6
Continuous
 62
     3
100
AcDbLine
 10
169.980762113533
 20
227.009618943233
 30
0.0
 11
166.5
 21
225.0
 31
0.0
  0
LINE
  5
217
330
1F
100
AcDbEntity
  8
100
  6
Continuous
 62
     3
100
AcDbLine
 10
86.0
 20
163.75
 30
0.0
 11
86.0
 21
116.25
 31
0.0
  0
LINE
  5
218
330
1F
100
AcDbEntity
  8
100
  6
Continuous
 62
     3
100
AcDbLine
 10
161.5
 20
225.0
 30
0.0
 11
161.5
 21
211.459490632939
 31
0.0
  0
LINE
  5
219
330
1F
100
AcDbEntity
  8
100
  6
Continuous
 62
     3
100
AcDbLine
 10
126.5
 20
225.0
 30
0.0
 11
126.5
 21
206.464265445105
 31
0.0
  0
LINE
  5
21A
330
1F
100
AcDbEntity
  8
100
  6
Continuous
 62
     3
100
AcDbLine
 10
102.0
 20
163.75
 30
0.0
 11
86.0
 21
163.75
 31
0.0
  0
LINE
  5
21B
330
1F
100
AcDbEntity
  8
100
  6
Continuous
 62
     3
100
AcDbLine
 10
102.0
 20
116.25
 30
0.0
 11
86.0
 21
116.25
 31
0.0
  0
LINE
  5
21C
330
1F
100
AcDbEntity
  8
100
  6
Continuous
 62
     3
100
AcDbLine
 10
118.320429938759
 20
118.5
 30
0.0
 11
105.596873642485
 21
118.5
 31
0.0
  0
LINE
  5
21D
330
1F
100
AcDbEntity
  8
100
  6
Continuous
 62
     3
100
AcDbLine
 10
201.528697603315
 20
170.759144981615
 30
0.0
 11
164.759144981615
 21
207.528697603316
 31
0.0
  0
LINE
  5
21E
330
1F
100
AcDbEntity
  8
100
  6
DOTTED
 62
     4
100
AcDbLine
 10
226.0
 20
163.75
 30
0.0
 11
226.0
 21
116.25
 31
0.0
  0
LINE
  5
21F
330
1F
100
AcDbEntity
  8
100
  6
DOTTED
 62
     4
100
AcDbLine
 10
210.0
 20
116.25
 30
0.0
 11
226.0
 21
116.25
 31
0.0
  0
LINE
  5
220
330
1F
100
AcDbEntity
  8
100
  6
Continuous
 62
     3
100
AcDbLine
 10
193.679570061241
 20
118.5
 30
0.0
 11
206.403126357516
 21
118.5
 31
0.0
  0
LINE
  5
221
330
1F
100
AcDbEntity
  8
100
  6
DOTTED
 62
     4
100
AcDbLine
 10
210.0
 20
163.75
 30
0.0
 11
226.0
 21
163.75
 31
0.0
  0
LINE
  5
222
330
1F
100
AcDbEntity
  8
100
  6
Continuous
 62
     3
100
AcDbLine
 10
206.403126357516
 20
161.5
 30
0.0
 11
204.260618674254
 21
161.5
 31
0.0
  0
LINE
  5
223
330
1F
100
AcDbEntity
  8
100
  6
Continuous
 62
     3
100
AcDbLine
 10
200.396915369098
 20
166.53527618041
 30
0.0
 11
201.528697603315
 21
170.759144981615
 31
0.0
  0
LINE
  5
224
330
1F
100
AcDbEntity
  8
1
  6
DOTTED
 62
     4
100
AcDbLine
 10
208.958315929739
 20
162.4225
 30
0.0
 11
226.0
 21
162.4225
 31
0.0
  0
LINE
  5
225
330
1F
100
AcDbEntity
  8
1
  6
DOTTED
 62
     4
100
AcDbLine
 10
208.958315929739
 20
117.5775
 30
0.0
 11
226.0
 21
117.5775
 31
0.0
  0
LINE
  5
226
330
1F
100
AcDbEntity
  8
1
  6
Continuous
 62
     3
100
AcDbLine
 10
103.041684070261
 20
162.4225
 30
0.0
 11
86.0
 21
162.4225
 31
0.0
  0
LINE
  5
227
330
1F
100
AcDbEntity
  8
1
  6
Continuous
 62
     3
100
AcDbLine
 10
103.041684070261
 20
117.5775
 30
0.0
 11
86.0
 21
117.5775
 31
0.0
  0
LINE
  5
228
330
1F
100
AcDbEntity
  8
100
  6
Continuous
 62
     3
100
AcDbLine
 10
177.133513652379
 20
212.124891681028
 30
0.0
 11
206.124891681028
 21
183.133513652379
 31
0.0
  0
LINE
  5
229
330
1F
100
AcDbEntity
  8
100
  6
Continuous
 62
     3
100
AcDbLine
 10
173.596320035978
 20
213.072679854015
 30
0.0
 11
168.527061727006
 21
208.003421545043
 31
0.0
  0
LINE
  5
22A
330
1F
100
AcDbEntity
  8
100
  6
Continuous
 62
     3
100
AcDbLine
 10
181.965409990488
 20
204.703589899506
 30
0.0
 11
176.896151681516
 21
199.634331590534
 31
0.0
  0
LINE
  5
22B
330
1F
100
AcDbEntity
  8
100
  6
Continuous
 62
     3
100
AcDbLine
 10
207.072679854015
 20
179.596320035978
 30
0.0
 11
202.003421545043
 21
174.527061727006
 31
0.0
  0
LINE
  5
22C
330
1F
100
AcDbEntity
  8
100
  6
Continuous
 62
     3
100
AcDbLine
 10
203.650017946875
 20
172.880465325174
 30
0.0
 11
201.528697603315
 21
170.759144981615
 31
0.0
  0
LINE
  5
22D
330
1F
100
AcDbEntity
  8
100
  6
Continuous
 62
     3
100
AcDbLine
 10
166.880465325174
 20
209.650017946875
 30
0.0
 11
164.759144981615
 21
207.528697603316
 31
0.0
  0
LINE
  5
22E
330
1F
100
AcDbEntity
  8
100
  6
Continuous
 62
     3
100
AcDbLine
 10
177.133513652379
 20
212.124891681028
 30
0.0
 11
173.596320035978
 21
213.072679854015
 31
0.0
  0
LINE
  5
22F
330
1F
100
AcDbEntity
  8
100
  6
Continuous
 62
     3
100
AcDbLine
 10
206.124891681028
 20
183.133513652379
 30
0.0
 11
207.072679854015
 21
179.596320035978
 31
0.0
  0
LINE
  5
230
330
1F
100
AcDbEntity
  8
100
  6
Continuous
 62
     3
100
AcDbLine
 10
166.880465325174
 20
209.650017946875
 30
0.0
 11
203.650017946875
 21
172.880465325174
 31
0.0
  0
LINE
  5
231
330
1F
100
AcDbEntity
  8
1
  6
CENTER
 62
     1
100
AcDbLine
 10
156.0
 20
180.382111429316
 30
0.0
 11
156.0
 21
103.917972972973
 31
0.0
  0
LINE
  5
232
330
1F
100
AcDbEntity
  8
100
  6
Continuous
 62
     3
100
AcDbLine
 10
131.0
 20
269.202036206331
 30
0.0
 11
131.0
 21
286.002036206331
 31
0.0
  0
LINE
  5
233
330
1F
100
AcDbEntity
  8
100
  6
Continuous
 62
     3
100
AcDbLine
 10
157.0
 20
286.002036206331
 30
0.0
 11
131.0
 21
286.002036206331
 31
0.0
  0
LINE
  5
234
330
1F
100
AcDbEntity
  8
100
  6
Continuous
 62
     3
100
AcDbLine
 10
153.0
 20
286.002036206331
 30
0.0
 11
153.0
 21
288.202036206331
 31
0.0
  0
LINE
  5
235
330
1F
100
AcDbEntity
  8
100
  6
Continuous
 62
     3
100
AcDbLine
 10
135.0
 20
286.002036206331
 30
0.0
 11
135.0
 21
288.202036206331
 31
0.0
  0
LINE
  5
236
330
1F
100
AcDbEntity
  8
100
  6
Continuous
 62
     3
100
AcDbLine
 10
173.441518370337
 20
308.202036206331
 30
0.0
 11
183.658386005604
 21
308.202036206331
 31
0.0
  0
LINE
  5
237
330
1F
100
AcDbEntity
  8
100
  6
Continuous
 62
     3
100
AcDbLine
 10
179.527863975226
 20
295.202036206331
 30
0.0
 11
169.472135885225
 21
295.202036206331
 31
0.0
  0
LINE
  5
238
330
1F
100
AcDbEntity
  8
100
  6
Continuous
 62
     3
100
AcDbLine
 10
168.577708694225
 20
294.990890588331
 30
0.0
 11
167.422291166226
 21
294.413181824331
 31
0.0
  0
LINE
  5
239
330
1F
100
AcDbEntity
  8
100
  6
Continuous
 62
     3
100
AcDbLine
 10
160.648412546042
 20
294.264916742449
 30
0.0
 11
157.24480771632
 21
295.139155670214
 31
0.0
  0
LINE
  5
23A
330
1F
100
AcDbEntity
  8
100
  6
Continuous
 62
     3
100
AcDbLine
 10
154.999999930225
 20
308.202036206331
 30
0.0
 11
166.999999930225
 21
308.202036206331
 31
0.0
  0
LINE
  5
23B
330
1F
100
AcDbEntity
  8
100
  6
Continuous
 62
     3
100
AcDbLine
 10
167.999999930225
 20
307.202036206331
 30
0.0
 11
181.499999930225
 21
307.202036206331
 31
0.0
  0
LINE
  5
23C
330
1F
100
AcDbEntity
  8
100
  6
Continuous
 62
     3
100
AcDbLine
 10
183.658386005605
 20
294.202036206331
 30
0.0
 11
182.472135885225
 21
294.202036206331
 31
0.0
  0
LINE
  5
23D
330
1F
100
AcDbEntity
  8
100
  6
Continuous
 62
     3
100
AcDbLine
 10
181.577708694225
 20
294.413181824331
 30
0.0
 11
180.422291166226
 21
294.990890588331
 31
0.0
  0
LINE
  5
23E
330
1F
100
AcDbEntity
  8
100
  6
Continuous
 62
     3
100
AcDbLine
 10
166.527863975226
 20
294.202036206331
 30
0.0
 11
161.145974786015
 21
294.202036206331
 31
0.0
  0
LINE
  5
23F
330
1F
100
AcDbEntity
  8
100
  6
Continuous
 62
     3
100
AcDbLine
 10
157.965923154296
 20
292.592022758519
 30
0.0
 11
160.893220332137
 21
294.202036206331
 31
0.0
  0
LINE
  5
240
330
1F
100
AcDbEntity
  8
100
  6
Continuous
 62
     3
100
AcDbLine
 10
156.160776703198
 20
289.005920071193
 30
0.0
 11
156.46993737654
 21
290.551723437903
 31
0.0
  0
LINE
  5
241
330
1F
100
AcDbEntity
  8
100
  6
Continuous
 62
     3
100
AcDbLine
 10
144.056829375289
 20
291.919708991667
 30
0.0
 11
155.835250784717
 21
291.919708991667
 31
0.0
  0
LINE
  5
242
330
1F
100
AcDbEntity
  8
100
  6
Continuous
 62
     3
100
AcDbLine
 10
198.703589899506
 20
187.965409990487
 30
0.0
 11
193.634331590534
 21
182.896151681516
 31
0.0
  0
LINE
  5
243
330
1F
100
AcDbEntity
  8
100
  6
Continuous
 62
     3
100
AcDbLine
 10
102.0
 20
116.25
 30
0.0
 11
102.0
 21
163.75
 31
0.0
  0
LINE
  5
244
330
1F
100
AcDbEntity
  8
100
  6
DOTTED
 62
     4
100
AcDbLine
 10
210.0
 20
116.25
 30
0.0
 11
210.0
 21
163.75
 31
0.0
  0
LINE
  5
245
330
1F
100
AcDbEntity
  8
1
  6
CENTER
 62
     1
100
AcDbLine
 10
110.493309229859
 20
173.0
 30
0.0
 11
138.076272679853
 21
173.0
 31
0.0
  0
LINE
  5
246
330
1F
100
AcDbEntity
  8
1
  6
CENTER
 62
     1
100
AcDbLine
 10
124.0
 20
158.998606150481
 30
0.0
 11
124.0
 21
187.033749329163
 31
0.0
  0
LINE
  5
247
330
1F
100
AcDbEntity
  8
100
  6
Continuous
 62
     3
100
AcDbLine
 10
131.009618943233
 20
227.009618943233
 30
0.0
 11
131.009618943233
 21
235.990381056767
 31
0.0
  0
LINE
  5
248
330
1F
100
AcDbEntity
  8
100
  6
Continuous
 62
     3
100
AcDbLine
 10
156.990381056767
 20
227.009618943233
 30
0.0
 11
156.990381056767
 21
235.990381056767
 31
0.0
  0
LINE
  5
249
330
1F
100
AcDbEntity
  8
2
  6
PHANTOM
 62
     6
100
AcDbLine
 10
173.441518370337
 20
289.202036206331
 30
0.0
 11
183.658386005604
 21
289.202036206331
 31
0.0
  0
LINE
  5
24A
330
1F
100
AcDbEntity
  8
2
  6
PHANTOM
 62
     6
100
AcDbLine
 10
183.658386005605
 20
275.202036206331
 30
0.0
 11
182.472135885225
 21
275.202036206331
 31
0.0
  0
LINE
  5
24B
330
1F
100
AcDbEntity
  8
2
  6
PHANTOM
 62
     6
100
AcDbLine
 10
181.577708694225
 20
275.413181824332
 30
0.0
 11
180.422291166226
 21
275.990890588331
 31
0.0
  0
LINE
  5
24C
330
1F
100
AcDbEntity
  8
2
  6
PHANTOM
 62
     6
100
AcDbLine
 10
179.527863975226
 20
276.202036206331
 30
0.0
 11
168.999999930225
 21
276.202036206331
 31
0.0
  0
LINE
  5
24D
330
1F
100
AcDbEntity
  8
2
  6
PHANTOM
 62
     6
100
AcDbLine
 10
118.527864114775
 20
276.202036206331
 30
0.0
 11
108.472136024774
 21
276.202036206331
 31
0.0
  0
LINE
  5
24E
330
1F
100
AcDbEntity
  8
2
  6
PHANTOM
 62
     6
100
AcDbLine
 10
168.577708694225
 20
275.990890588331
 30
0.0
 11
167.422291166226
 21
275.413181824331
 31
0.0
  0
LINE
  5
24F
330
1F
100
AcDbEntity
  8
2
  6
PHANTOM
 62
     6
100
AcDbLine
 10
166.527863975226
 20
275.202036206331
 30
0.0
 11
121.000000069775
 21
275.202036206331
 31
0.0
  0
LINE
  5
250
330
1F
100
AcDbEntity
  8
2
  6
PHANTOM
 62
     6
100
AcDbLine
 10
119.422291305775
 20
275.990890588331
 30
0.0
 11
120.577708833774
 21
275.413181824331
 31
0.0
  0
LINE
  5
251
330
1F
100
AcDbEntity
  8
2
  6
PHANTOM
 62
     6
100
AcDbLine
 10
106.422291305775
 20
275.413181824332
 30
0.0
 11
107.577708833774
 21
275.990890588331
 31
0.0
  0
LINE
  5
252
330
1F
100
AcDbEntity
  8
2
  6
PHANTOM
 62
     6
100
AcDbLine
 10
104.341613994396
 20
275.202036206331
 30
0.0
 11
105.527864114775
 21
275.202036206331
 31
0.0
  0
LINE
  5
253
330
1F
100
AcDbEntity
  8
2
  6
PHANTOM
 62
     6
100
AcDbLine
 10
114.558481629663
 20
289.202036206331
 30
0.0
 11
104.341613994396
 21
289.202036206331
 31
0.0
  0
LINE
  5
254
330
1F
100
AcDbEntity
  8
2
  6
PHANTOM
 62
     6
100
AcDbLine
 10
133.000000069775
 20
289.202036206331
 30
0.0
 11
121.000000069775
 21
289.202036206331
 31
0.0
  0
LINE
  5
255
330
1F
100
AcDbEntity
  8
2
  6
PHANTOM
 62
     6
100
AcDbLine
 10
154.999999930225
 20
289.202036206331
 30
0.0
 11
166.999999930225
 21
289.202036206331
 31
0.0
  0
LINE
  5
256
330
1F
100
AcDbEntity
  8
2
  6
PHANTOM
 62
     6
100
AcDbLine
 10
116.290532437231
 20
288.202036206331
 30
0.0
 11
120.000000069775
 21
288.202036206331
 31
0.0
  0
LINE
  5
257
330
1F
100
AcDbEntity
  8
2
  6
PHANTOM
 62
     6
100
AcDbLine
 10
134.000000069775
 20
288.202036206331
 30
0.0
 11
153.999999930225
 21
288.202036206331
 31
0.0
  0
LINE
  5
258
330
1F
100
AcDbEntity
  8
2
  6
PHANTOM
 62
     6
100
AcDbLine
 10
167.999999930225
 20
288.202036206331
 30
0.0
 11
171.709467562769
 21
288.202036206331
 31
0.0
  0
LINE
  5
259
330
1F
100
AcDbEntity
  8
1
  6
CENTER
 62
     1
100
AcDbLine
 10
439.026490802265
 20
314.364384177072
 30
0.0
 11
439.026490802265
 21
111.5
 31
0.0
  0
LINE
  5
25A
330
1F
100
AcDbEntity
  8
100
  6
Continuous
 62
     3
100
AcDbLine
 10
413.026490802265
 20
191.264963466765
 30
0.0
 11
413.026490802265
 21
152.183766184074
 31
0.0
  0
LINE
  5
25B
330
1F
100
AcDbEntity
  8
100
  6
Continuous
 62
     3
100
AcDbLine
 10
465.026490802265
 20
191.2649634668
 30
0.0
 11
465.026490802265
 21
152.183766184074
 31
0.0
  0
LINE
  5
25C
330
1F
100
AcDbEntity
  8
100
  6
Continuous
 62
     3
100
AcDbLine
 10
456.526490802265
 20
226.015942425881
 30
0.0
 11
456.526490802265
 21
208.027638854243
 31
0.0
  0
LINE
  5
25D
330
1F
100
AcDbEntity
  8
100
  6
Continuous
 62
     3
100
AcDbLine
 10
421.526490802265
 20
226.015942425881
 30
0.0
 11
421.526490802265
 21
208.027638854243
 31
0.0
  0
LINE
  5
25E
330
1F
100
AcDbEntity
  8
100
  6
Continuous
 62
     3
100
AcDbLine
 10
418.526490802265
 20
182.896012596903
 30
0.0
 11
439.026490802265
 21
174.527061727006
 31
0.0
  0
LINE
  5
25F
330
1F
100
AcDbEntity
  8
100
  6
Continuous
 62
     3
100
AcDbLine
 10
439.026490802265
 20
174.527061727006
 30
0.0
 11
459.526490802265
 21
182.896012596903
 31
0.0
  0
LINE
  5
260
330
1F
100
AcDbEntity
  8
100
  6
Continuous
 62
     3
100
AcDbLine
 10
459.526490802265
 20
182.896012596903
 30
0.0
 11
459.526490802265
 21
206.802914336697
 31
0.0
  0
LINE
  5
261
330
1F
100
AcDbEntity
  8
100
  6
Continuous
 62
     3
100
AcDbLine
 10
459.526490802265
 20
206.802914336697
 30
0.0
 11
456.233642272189
 21
208.147191779147
 31
0.0
  0
LINE
  5
262
330
1F
100
AcDbEntity
  8
100
  6
Continuous
 62
     3
100
AcDbLine
 10
440.080478036121
 20
214.741583871099
 30
0.0
 11
439.026490802265
 21
215.171865206594
 31
0.0
  0
LINE
  5
263
330
1F
100
AcDbEntity
  8
100
  6
Continuous
 62
     3
100
AcDbLine
 10
439.026490802265
 20
215.171865206594
 30
0.0
 11
437.97250356841
 21
214.741583871099
 31
0.0
  0
LINE
  5
264
330
1F
100
AcDbEntity
  8
100
  6
Continuous
 62
     3
100
AcDbLine
 10
421.819339332342
 20
208.147191779147
 30
0.0
 11
418.526490802265
 21
206.802914336697
 31
0.0
  0
LINE
  5
265
330
1F
100
AcDbEntity
  8
100
  6
Continuous
 62
     3
100
AcDbLine
 10
418.526490802265
 20
206.802914336697
 30
0.0
 11
418.526490802265
 21
182.896012596903
 31
0.0
  0
LINE
  5
266
330
1F
100
AcDbEntity
  8
100
  6
Continuous
 62
     3
100
AcDbLine
 10
448.026490802265
 20
247.006323482648
 30
0.0
 11
448.026490802265
 21
270.208359688979
 31
0.0
  0
LINE
  5
267
330
1F
100
AcDbEntity
  8
100
  6
Continuous
 62
     3
100
AcDbLine
 10
430.026490802265
 20
247.006323482648
 30
0.0
 11
430.026490802265
 21
270.208359688979
 31
0.0
  0
LINE
  5
268
330
1F
100
AcDbEntity
  8
100
  6
Continuous
 62
     3
100
AcDbLine
 10
466.735958504583
 20
308.208359688979
 30
0.0
 11
456.02649087204
 21
308.208359688979
 31
0.0
  0
LINE
  5
269
330
1F
100
AcDbEntity
  8
100
  6
Continuous
 62
     3
100
AcDbLine
 10
452.02649087204
 20
308.208359688979
 30
0.0
 11
421.52649087204
 21
308.208359688979
 31
0.0
  0
LINE
  5
26A
330
1F
100
AcDbEntity
  8
100
  6
Continuous
 62
     3
100
AcDbLine
 10
409.584972431928
 20
309.208359688979
 30
0.0
 11
399.368104796661
 21
309.208359688979
 31
0.0
  0
LINE
  5
26B
330
1F
100
AcDbEntity
  8
100
  6
Continuous
 62
     3
100
AcDbLine
 10
403.49862682704
 20
296.208359688979
 30
0.0
 11
413.55435491704
 21
296.208359688979
 31
0.0
  0
LINE
  5
26C
330
1F
100
AcDbEntity
  8
100
  6
Continuous
 62
     3
100
AcDbLine
 10
414.44878210804
 20
295.997214070979
 30
0.0
 11
415.604199636039
 21
295.419505306979
 31
0.0
  0
LINE
  5
26D
330
1F
100
AcDbEntity
  8
100
  6
Continuous
 62
     3
100
AcDbLine
 10
422.378078256223
 20
295.271240225097
 30
0.0
 11
425.781683085945
 21
296.145479152862
 31
0.0
  0
LINE
  5
26E
330
1F
100
AcDbEntity
  8
100
  6
Continuous
 62
     3
100
AcDbLine
 10
426.279245325918
 20
296.208359688979
 30
0.0
 11
452.026490732491
 21
296.208359688979
 31
0.0
  0
LINE
  5
26F
330
1F
100
AcDbEntity
  8
100
  6
Continuous
 62
     3
100
AcDbLine
 10
428.02649087204
 20
309.208359688979
 30
0.0
 11
416.02649087204
 21
309.208359688979
 31
0.0
  0
LINE
  5
270
330
1F
100
AcDbEntity
  8
100
  6
Continuous
 62
     3
100
AcDbLine
 10
415.02649087204
 20
308.208359688979
 30
0.0
 11
401.52649087204
 21
308.208359688979
 31
0.0
  0
LINE
  5
271
330
1F
100
AcDbEntity
  8
100
  6
Continuous
 62
     3
100
AcDbLine
 10
399.368104796661
 20
295.208359688979
 30
0.0
 11
400.55435491704
 21
295.208359688979
 31
0.0
  0
LINE
  5
272
330
1F
100
AcDbEntity
  8
100
  6
Continuous
 62
     3
100
AcDbLine
 10
401.44878210804
 20
295.419505306979
 30
0.0
 11
402.604199636039
 21
295.997214070979
 31
0.0
  0
LINE
  5
273
330
1F
100
AcDbEntity
  8
100
  6
Continuous
 62
     3
100
AcDbLine
 10
438.969661426976
 20
292.926032474315
 30
0.0
 11
427.191240017548
 21
292.926032474315
 31
0.0
  0
LINE
  5
274
330
1F
100
AcDbEntity
  8
100
  6
Continuous
 62
     3
100
AcDbLine
 10
416.49862682704
 20
295.208359688979
 30
0.0
 11
421.880516016251
 21
295.208359688979
 31
0.0
  0
LINE
  5
275
330
1F
100
AcDbEntity
  8
100
  6
Continuous
 62
     3
100
AcDbLine
 10
426.865714099068
 20
290.012243553841
 30
0.0
 11
426.556553425725
 21
291.558046920551
 31
0.0
  0
LINE
  5
276
330
1F
100
AcDbEntity
  8
100
  6
Continuous
 62
     3
100
AcDbLine
 10
425.060567647969
 20
293.598346241167
 30
0.0
 11
422.133270470128
 21
295.208359688979
 31
0.0
  0
LINE
  5
277
330
1F
100
AcDbEntity
  8
100
  6
Continuous
 62
     3
100
AcDbLine
 10
450.206686969321
 20
289.208359688979
 30
0.0
 11
427.846294774758
 21
289.208359688979
 31
0.0
  0
LINE
  5
278
330
1F
100
AcDbEntity
  8
100
  6
Continuous
 62
     3
100
AcDbLine
 10
448.026490802265
 20
287.008359688979
 30
0.0
 11
448.026490802265
 21
289.208359688979
 31
0.0
  0
LINE
  5
279
330
1F
100
AcDbEntity
  8
100
  6
Continuous
 62
     3
100
AcDbLine
 10
430.026490802265
 20
287.008359688979
 30
0.0
 11
430.026490802265
 21
289.208359688979
 31
0.0
  0
LINE
  5
27A
330
1F
100
AcDbEntity
  8
100
  6
Continuous
 62
     3
100
AcDbLine
 10
468.468009172603
 20
309.208359688979
 30
0.0
 11
478.68487680787
 21
309.208359688979
 31
0.0
  0
LINE
  5
27B
330
1F
100
AcDbEntity
  8
100
  6
Continuous
 62
     3
100
AcDbLine
 10
474.554354777491
 20
296.208359688979
 30
0.0
 11
464.49862668749
 21
296.208359688979
 31
0.0
  0
LINE
  5
27C
330
1F
100
AcDbEntity
  8
100
  6
Continuous
 62
     3
100
AcDbLine
 10
463.60419949649
 20
295.997214070979
 30
0.0
 11
462.448781968491
 21
295.419505306979
 31
0.0
  0
LINE
  5
27D
330
1F
100
AcDbEntity
  8
100
  6
Continuous
 62
     3
100
AcDbLine
 10
455.674903348307
 20
295.271240225097
 30
0.0
 11
452.271298518586
 21
296.145479152862
 31
0.0
  0
LINE
  5
27E
330
1F
100
AcDbEntity
  8
100
  6
Continuous
 62
     3
100
AcDbLine
 10
450.026490732491
 20
309.208359688979
 30
0.0
 11
462.026490732491
 21
309.208359688979
 31
0.0
  0
LINE
  5
27F
330
1F
100
AcDbEntity
  8
100
  6
Continuous
 62
     3
100
AcDbLine
 10
463.026490732491
 20
308.208359688979
 30
0.0
 11
476.526490732491
 21
308.208359688979
 31
0.0
  0
LINE
  5
280
330
1F
100
AcDbEntity
  8
100
  6
Continuous
 62
     3
100
AcDbLine
 10
478.68487680787
 20
295.208359688979
 30
0.0
 11
477.49862668749
 21
295.208359688979
 31
0.0
  0
LINE
  5
281
330
1F
100
AcDbEntity
  8
100
  6
Continuous
 62
     3
100
AcDbLine
 10
476.60419949649
 20
295.419505306979
 30
0.0
 11
475.448781968491
 21
295.997214070979
 31
0.0
  0
LINE
  5
282
330
1F
100
AcDbEntity
  8
100
  6
Continuous
 62
     3
100
AcDbLine
 10
461.554354777491
 20
295.208359688979
 30
0.0
 11
456.17246558828
 21
295.208359688979
 31
0.0
  0
LINE
  5
283
330
1F
100
AcDbEntity
  8
100
  6
Continuous
 62
     3
100
AcDbLine
 10
452.992413956561
 20
293.598346241167
 30
0.0
 11
455.919711134402
 21
295.208359688979
 31
0.0
  0
LINE
  5
284
330
1F
100
AcDbEntity
  8
100
  6
Continuous
 62
     3
100
AcDbLine
 10
451.187267505463
 20
290.012243553841
 30
0.0
 11
451.496428178805
 21
291.558046920551
 31
0.0
  0
LINE
  5
285
330
1F
100
AcDbEntity
  8
100
  6
Continuous
 62
     3
100
AcDbLine
 10
439.083320177555
 20
292.926032474315
 30
0.0
 11
450.861741586983
 21
292.926032474315
 31
0.0
  0
LINE
  5
286
330
1F
100
AcDbEntity
  8
2
  6
PHANTOM
 62
     6
100
AcDbLine
 10
468.468009172603
 20
290.208359688979
 30
0.0
 11
478.68487680787
 21
290.208359688979
 31
0.0
  0
LINE
  5
287
330
1F
100
AcDbEntity
  8
2
  6
PHANTOM
 62
     6
100
AcDbLine
 10
478.68487680787
 20
276.208359688979
 30
0.0
 11
477.49862668749
 21
276.208359688979
 31
0.0
  0
LINE
  5
288
330
1F
100
AcDbEntity
  8
2
  6
PHANTOM
 62
     6
100
AcDbLine
 10
476.60419949649
 20
276.41950530698
 30
0.0
 11
475.448781968491
 21
276.997214070979
 31
0.0
  0
LINE
  5
289
330
1F
100
AcDbEntity
  8
2
  6
PHANTOM
 62
     6
100
AcDbLine
 10
474.554354777491
 20
277.208359688979
 30
0.0
 11
464.026490732491
 21
277.208359688979
 31
0.0
  0
LINE
  5
28A
330
1F
100
AcDbEntity
  8
2
  6
PHANTOM
 62
     6
100
AcDbLine
 10
413.55435491704
 20
277.208359688979
 30
0.0
 11
403.49862682704
 21
277.208359688979
 31
0.0
  0
LINE
  5
28B
330
1F
100
AcDbEntity
  8
2
  6
PHANTOM
 62
     6
100
AcDbLine
 10
463.60419949649
 20
276.997214070979
 30
0.0
 11
462.448781968491
 21
276.419505306979
 31
0.0
  0
LINE
  5
28C
330
1F
100
AcDbEntity
  8
2
  6
PHANTOM
 62
     6
100
AcDbLine
 10
461.554354777491
 20
276.208359688979
 30
0.0
 11
416.02649087204
 21
276.208359688979
 31
0.0
  0
LINE
  5
28D
330
1F
100
AcDbEntity
  8
2
  6
PHANTOM
 62
     6
100
AcDbLine
 10
414.44878210804
 20
276.997214070979
 30
0.0
 11
415.604199636039
 21
276.419505306979
 31
0.0
  0
LINE
  5
28E
330
1F
100
AcDbEntity
  8
2
  6
PHANTOM
 62
     6
100
AcDbLine
 10
401.44878210804
 20
276.41950530698
 30
0.0
 11
402.604199636039
 21
276.997214070979
 31
0.0
  0
LINE
  5
28F
330
1F
100
AcDbEntity
  8
2
  6
PHANTOM
 62
     6
100
AcDbLine
 10
399.368104796661
 20
276.208359688979
 30
0.0
 11
400.55435491704
 21
276.208359688979
 31
0.0
  0
LINE
  5
290
330
1F
100
AcDbEntity
  8
2
  6
PHANTOM
 62
     6
100
AcDbLine
 10
409.584972431928
 20
290.208359688979
 30
0.0
 11
399.368104796661
 21
290.208359688979
 31
0.0
  0
LINE
  5
291
330
1F
100
AcDbEntity
  8
2
  6
PHANTOM
 62
     6
100
AcDbLine
 10
428.02649087204
 20
290.208359688979
 30
0.0
 11
416.02649087204
 21
290.208359688979
 31
0.0
  0
LINE
  5
292
330
1F
100
AcDbEntity
  8
2
  6
PHANTOM
 62
     6
100
AcDbLine
 10
450.026490732491
 20
290.208359688979
 30
0.0
 11
462.026490732491
 21
290.208359688979
 31
0.0
  0
LINE
  5
293
330
1F
100
AcDbEntity
  8
2
  6
PHANTOM
 62
     6
100
AcDbLine
 10
411.317023239497
 20
289.208359688979
 30
0.0
 11
415.02649087204
 21
289.208359688979
 31
0.0
  0
LINE
  5
294
330
1F
100
AcDbEntity
  8
2
  6
PHANTOM
 62
     6
100
AcDbLine
 10
429.02649087204
 20
289.208359688979
 30
0.0
 11
449.026490732491
 21
289.208359688979
 31
0.0
  0
LINE
  5
295
330
1F
100
AcDbEntity
  8
2
  6
PHANTOM
 62
     6
100
AcDbLine
 10
463.026490732491
 20
289.208359688979
 30
0.0
 11
466.735958365034
 21
289.208359688979
 31
0.0
  0
LINE
  5
296
330
1F
100
AcDbEntity
  8
100
  6
Continuous
 62
     3
100
AcDbLine
 10
424.026490802265
 20
247.006323482648
 30
0.0
 11
454.026490802265
 21
247.006323482648
 31
0.0
  0
LINE
  5
297
330
1F
100
AcDbEntity
  8
100
  6
Continuous
 62
     3
100
AcDbLine
 10
454.026490802265
 20
247.006323482648
 30
0.0
 11
454.026490802265
 21
239.006323482648
 31
0.0
  0
LINE
  5
298
330
1F
100
AcDbEntity
  8
100
  6
Continuous
 62
     3
100
AcDbLine
 10
424.026490802265
 20
239.006323482648
 30
0.0
 11
424.026490802265
 21
247.006323482648
 31
0.0
  0
LINE
  5
299
330
1F
100
AcDbEntity
  8
100
  6
Continuous
 62
     3
100
AcDbLine
 10
426.026490802265
 20
270.208359688979
 30
0.0
 11
452.026490802265
 21
270.208359688979
 31
0.0
  0
LINE
  5
29A
330
1F
100
AcDbEntity
  8
100
  6
Continuous
 62
     3
100
AcDbLine
 10
452.026490802265
 20
270.208359688979
 30
0.0
 11
452.026490802265
 21
287.008359688979
 31
0.0
  0
LINE
  5
29B
330
1F
100
AcDbEntity
  8
100
  6
Continuous
 62
     3
100
AcDbLine
 10
452.026490802265
 20
287.008359688979
 30
0.0
 11
426.026490802265
 21
287.008359688979
 31
0.0
  0
LINE
  5
29C
330
1F
100
AcDbEntity
  8
100
  6
Continuous
 62
     3
100
AcDbLine
 10
426.026490802265
 20
270.208359688979
 30
0.0
 11
426.026490802265
 21
287.008359688979
 31
0.0
  0
LINE
  5
29D
330
1F
100
AcDbEntity
  8
100
  6
Continuous
 62
     3
100
AcDbLine
 10
461.526490802265
 20
226.015942425881
 30
0.0
 11
461.526490802265
 21
239.006323482648
 31
0.0
  0
LINE
  5
29E
330
1F
100
AcDbEntity
  8
100
  6
Continuous
 62
     3
100
AcDbLine
 10
416.526490802265
 20
239.006323482648
 30
0.0
 11
416.526490802265
 21
226.015942425881
 31
0.0
  0
LINE
  5
29F
330
1F
100
AcDbEntity
  8
100
  6
Continuous
 62
     3
100
AcDbLine
 10
461.526490802265
 20
226.015942425881
 30
0.0
 11
416.526490802265
 21
226.015942425881
 31
0.0
  0
LINE
  5
2A0
330
1F
100
AcDbEntity
  8
100
  6
Continuous
 62
     3
100
AcDbLine
 10
461.526490802265
 20
239.006323482648
 30
0.0
 11
416.526490802265
 21
239.006323482648
 31
0.0
  0
LINE
  5
2A1
330
1F
100
AcDbEntity
  8
100
  6
Continuous
 62
     3
100
AcDbLine
 10
439.026490802265
 20
236.996704539415
 30
0.0
 11
439.026490802265
 21
228.015942425881
 31
0.0
  0
LINE
  5
2A2
330
1F
100
AcDbEntity
  8
100
  6
Continuous
 62
     3
100
AcDbLine
 10
439.026490802265
 20
181.696061727006
 30
0.0
 11
439.026490802265
 21
174.527061727006
 31
0.0
  0
LINE
  5
2A3
330
1F
100
AcDbEntity
  8
1
  6
CENTER
 62
     1
100
AcDbLine
 10
79.0
 20
379.106526251803
 30
0.0
 11
348.0
 21
379.106526251803
 31
0.0
  0
LINE
  5
2A4
330
1F
100
AcDbEntity
  8
1
  6
Continuous
 62
     3
100
AcDbLine
 10
103.041684070261
 20
401.529026251803
 30
0.0
 11
86.0
 21
401.529026251803
 31
0.0
  0
LINE
  5
2A5
330
1F
100
AcDbEntity
  8
100
  6
Continuous
 62
     3
100
AcDbLine
 10
102.0
 20
355.356526251803
 30
0.0
 11
86.0
 21
355.356526251803
 31
0.0
  0
LINE
  5
2A6
330
1F
100
AcDbEntity
  8
1
  6
Continuous
 62
     3
100
AcDbLine
 10
103.041684070261
 20
356.684026251803
 30
0.0
 11
86.0
 21
356.684026251803
 31
0.0
  0
LINE
  5
2A7
330
1F
100
AcDbEntity
  8
100
  6
Continuous
 62
     3
100
AcDbLine
 10
86.0
 20
402.856526251803
 30
0.0
 11
86.0
 21
355.356526251803
 31
0.0
  0
LINE
  5
2A8
330
1F
100
AcDbEntity
  8
100
  6
Continuous
 62
     3
100
AcDbLine
 10
102.0
 20
402.856526251803
 30
0.0
 11
86.0
 21
402.856526251803
 31
0.0
  0
LINE
  5
2A9
330
1F
100
AcDbEntity
  8
100
  6
Continuous
 62
     3
100
AcDbLine
 10
102.0
 20
355.356526251803
 30
0.0
 11
102.0
 21
376.322644070388
 31
0.0
  0
LINE
  5
2AA
330
1F
100
AcDbEntity
  8
100
  6
Continuous
 62
     3
100
AcDbLine
 10
102.0
 20
383.174725322049
 30
0.0
 11
102.0
 21
402.856526251803
 31
0.0
  0
LINE
  5
2AB
330
1F
100
AcDbEntity
  8
100
  6
Continuous
 62
     3
100
AcDbLine
 10
176.896012596903
 20
399.606526251803
 30
0.0
 11
175.238092202712
 21
395.545399760648
 31
0.0
  0
LINE
  5
2AC
330
1F
100
AcDbEntity
  8
100
  6
Continuous
 62
     3
100
AcDbLine
 10
175.238092202712
 20
362.667652742958
 30
0.0
 11
176.896012596903
 21
358.606526251803
 31
0.0
  0
LINE
  5
2AD
330
1F
100
AcDbEntity
  8
100
  6
Continuous
 62
     3
100
AcDbLine
 10
185.264963449263
 20
353.106526251803
 30
0.0
 11
170.676942217185
 21
353.106526251803
 31
0.0
  0
LINE
  5
2AE
330
1F
100
AcDbEntity
  8
100
  6
Continuous
 62
     3
100
AcDbLine
 10
185.264963466766
 20
405.106526251803
 30
0.0
 11
170.676942217185
 21
405.106526251803
 31
0.0
  0
LINE
  5
2AF
330
1F
100
AcDbEntity
  8
100
  6
Continuous
 62
     3
100
AcDbLine
 10
176.896012596903
 20
358.606526251803
 30
0.0
 11
200.802914336697
 21
358.606526251803
 31
0.0
  0
LINE
  5
2B0
330
1F
100
AcDbEntity
  8
100
  6
Continuous
 62
     3
100
AcDbLine
 10
200.802914336697
 20
399.606526251803
 30
0.0
 11
176.896012596903
 21
399.606526251803
 31
0.0
  0
LINE
  5
2B1
330
1F
100
AcDbEntity
  8
100
  6
Continuous
 62
     3
100
AcDbLine
 10
200.802914336697
 20
358.606526251803
 30
0.0
 11
202.147191779147
 21
361.899374781879
 31
0.0
  0
LINE
  5
2B2
330
1F
100
AcDbEntity
  8
100
  6
Continuous
 62
     3
100
AcDbLine
 10
202.147191779147
 20
396.313677721726
 30
0.0
 11
200.802914336697
 21
399.606526251803
 31
0.0
  0
LINE
  5
2B3
330
1F
100
AcDbEntity
  8
100
  6
Continuous
 62
     3
100
AcDbLine
 10
195.60601108702
 20
357.606526251803
 30
0.0
 11
206.403126357516
 21
357.606526251803
 31
0.0
  0
LINE
  5
2B4
330
1F
100
AcDbEntity
  8
100
  6
Continuous
 62
     3
100
AcDbLine
 10
206.403126357516
 20
400.606526251803
 30
0.0
 11
195.60601108702
 21
400.606526251803
 31
0.0
  0
LINE
  5
2B5
330
1F
100
AcDbEntity
  8
100
  6
Continuous
 62
     3
100
AcDbLine
 10
105.596873642485
 20
400.606526251803
 30
0.0
 11
115.485853813647
 21
400.606526251803
 31
0.0
  0
LINE
  5
2B6
330
1F
100
AcDbEntity
  8
100
  6
Continuous
 62
     3
100
AcDbLine
 10
115.485853813647
 20
357.606526251803
 30
0.0
 11
105.596873642485
 21
357.606526251803
 31
0.0
  0
LINE
  5
2B7
330
1F
100
AcDbEntity
  8
1
  6
CENTER
 62
     1
100
AcDbLine
 10
144.0
 20
334.756879119547
 30
0.0
 11
144.0
 21
424.330863142633
 31
0.0
  0
LINE
  5
2B8
330
1F
100
AcDbEntity
  8
100
  6
Continuous
 62
     3
100
AcDbLine
 10
413.026490802265
 20
183.821278058872
 30
0.0
 11
407.026490802265
 21
183.821278058872
 31
0.0
  0
LINE
  5
2B9
330
1F
100
AcDbEntity
  8
100
  6
Continuous
 62
     3
100
AcDbLine
 10
407.026490802265
 20
164.191368906424
 30
0.0
 11
413.026490802265
 21
164.191368906424
 31
0.0
  0
LINE
  5
2BA
330
1F
100
AcDbEntity
  8
100
  6
Continuous
 62
     3
100
AcDbLine
 10
407.026490802265
 20
183.821278058872
 30
0.0
 11
407.026490802265
 21
164.191368906424
 31
0.0
  0
LINE
  5
2BB
330
1F
100
AcDbEntity
  8
100
  6
Continuous
 62
     3
100
AcDbLine
 10
407.026490802265
 20
178.91380077076
 30
0.0
 11
413.026490802265
 21
178.91380077076
 31
0.0
  0
LINE
  5
2BC
330
1F
100
AcDbEntity
  8
100
  6
Continuous
 62
     3
100
AcDbLine
 10
407.026490802265
 20
169.098846194536
 30
0.0
 11
413.026490802265
 21
169.098846194536
 31
0.0
  0
LINE
  5
2BD
330
1F
100
AcDbEntity
  8
1
  6
Continuous
 62
     3
100
AcDbLine
 10
273.5
 20
157.5
 30
0.0
 11
272.5
 21
158.5
 31
0.0
  0
LINE
  5
2BE
330
1F
100
AcDbEntity
  8
1
  6
Continuous
 62
     3
100
AcDbLine
 10
466.026490802265
 20
128.816233815926
 30
0.0
 11
466.026490802265
 21
151.183766184074
 31
0.0
  0
LINE
  5
2BF
330
1F
100
AcDbEntity
  8
1
  6
Continuous
 62
     3
100
AcDbLine
 10
450.210256986339
 20
113.0
 30
0.0
 11
466.026490802265
 21
128.816233815926
 31
0.0
  0
LINE
  5
2C0
330
1F
100
AcDbEntity
  8
1
  6
Continuous
 62
     3
100
AcDbLine
 10
427.842724618191
 20
113.0
 30
0.0
 11
450.210256986339
 21
113.0
 31
0.0
  0
LINE
  5
2C1
330
1F
100
AcDbEntity
  8
1
  6
Continuous
 62
     3
100
AcDbLine
 10
412.026490802265
 20
128.816233815926
 30
0.0
 11
427.842724618191
 21
113.0
 31
0.0
  0
LINE
  5
2C2
330
1F
100
AcDbEntity
  8
1
  6
Continuous
 62
     3
100
AcDbLine
 10
412.026490802265
 20
151.183766184074
 30
0.0
 11
412.026490802265
 21
128.816233815926
 31
0.0
  0
LINE
  5
2C3
330
1F
100
AcDbEntity
  8
1
  6
Continuous
 62
     3
100
AcDbLine
 10
427.842724618191
 20
167.0
 30
0.0
 11
412.026490802265
 21
151.183766184074
 31
0.0
  0
LINE
  5
2C4
330
1F
100
AcDbEntity
  8
1
  6
Continuous
 62
     3
100
AcDbLine
 10
450.210256986339
 20
167.0
 30
0.0
 11
427.842724618191
 21
167.0
 31
0.0
  0
LINE
  5
2C5
330
1F
100
AcDbEntity
  8
1
  6
Continuous
 62
     3
100
AcDbLine
 10
466.026490802265
 20
151.183766184074
 30
0.0
 11
450.210256986339
 21
167.0
 31
0.0
  0
LINE
  5
2C6
330
1F
100
AcDbEntity
  8
1
  6
Continuous
 62
     3
100
AcDbLine
 10
208.0
 20
113.0
 30
0.0
 11
208.0
 21
167.0
 31
0.0
  0
LINE
  5
2C7
330
1F
100
AcDbEntity
  8
1
  6
Continuous
 62
     3
100
AcDbLine
 10
208.0
 20
167.0
 30
0.0
 11
233.0
 21
167.0
 31
0.0
  0
LINE
  5
2C8
330
1F
100
AcDbEntity
  8
1
  6
Continuous
 62
     3
100
AcDbLine
 10
233.0
 20
163.5
 30
0.0
 11
241.0
 21
163.5
 31
0.0
  0
LINE
  5
2C9
330
1F
100
AcDbEntity
  8
1
  6
Continuous
 62
     3
100
AcDbLine
 10
208.0
 20
113.0
 30
0.0
 11
233.0
 21
113.0
 31
0.0
  0
LINE
  5
2CA
330
1F
100
AcDbEntity
  8
1
  6
Continuous
 62
     3
100
AcDbLine
 10
233.0
 20
167.0
 30
0.0
 11
233.0
 21
113.0
 31
0.0
  0
LINE
  5
2CB
330
1F
100
AcDbEntity
  8
1
  6
Continuous
 62
     3
100
AcDbLine
 10
233.0
 20
116.5
 30
0.0
 11
241.0
 21
116.5
 31
0.0
  0
LINE
  5
2CC
330
1F
100
AcDbEntity
  8
1
  6
Continuous
 62
     3
100
AcDbLine
 10
273.5
 20
156.5
 30
0.0
 11
308.8
 21
156.5
 31
0.0
  0
LINE
  5
2CD
330
1F
100
AcDbEntity
  8
1
  6
Continuous
 62
     3
100
AcDbLine
 10
273.5
 20
123.5
 30
0.0
 11
308.8
 21
123.5
 31
0.0
  0
LINE
  5
2CE
330
1F
100
AcDbEntity
  8
1
  6
Continuous
 62
     3
100
AcDbLine
 10
272.5
 20
113.0
 30
0.0
 11
272.5
 21
167.0
 31
0.0
  0
LINE
  5
2CF
330
1F
100
AcDbEntity
  8
1
  6
Continuous
 62
     3
100
AcDbLine
 10
241.0
 20
167.0
 30
0.0
 11
272.5
 21
167.0
 31
0.0
  0
LINE
  5
2D0
330
1F
100
AcDbEntity
  8
1
  6
Continuous
 62
     3
100
AcDbLine
 10
273.5
 20
157.5
 30
0.0
 11
273.5
 21
122.5
 31
0.0
  0
LINE
  5
2D1
330
1F
100
AcDbEntity
  8
1
  6
Continuous
 62
     3
100
AcDbLine
 10
272.5
 20
121.5
 30
0.0
 11
273.5
 21
122.5
 31
0.0
  0
LINE
  5
2D2
330
1F
100
AcDbEntity
  8
1
  6
Continuous
 62
     3
100
AcDbLine
 10
241.0
 20
113.0
 30
0.0
 11
272.5
 21
113.0
 31
0.0
  0
LINE
  5
2D3
330
1F
100
AcDbEntity
  8
1
  6
Continuous
 62
     3
100
AcDbLine
 10
241.0
 20
167.0
 30
0.0
 11
241.0
 21
113.0
 31
0.0
  0
LINE
  5
2D4
330
1F
100
AcDbEntity
  8
1
  6
Continuous
 62
     3
100
AcDbLine
 10
340.3
 20
113.0
 30
0.0
 11
340.3
 21
167.0
 31
0.0
  0
LINE
  5
2D5
330
1F
100
AcDbEntity
  8
1
  6
Continuous
 62
     3
100
AcDbLine
 10
340.3
 20
167.0
 30
0.0
 11
308.8
 21
167.0
 31
0.0
  0
LINE
  5
2D6
330
1F
100
AcDbEntity
  8
1
  6
Continuous
 62
     3
100
AcDbLine
 10
308.8
 20
167.0
 30
0.0
 11
308.8
 21
113.0
 31
0.0
  0
LINE
  5
2D7
330
1F
100
AcDbEntity
  8
1
  6
Continuous
 62
     3
100
AcDbLine
 10
340.3
 20
113.0
 30
0.0
 11
308.8
 21
113.0
 31
0.0
  0
LINE
  5
2D8
330
1F
100
AcDbEntity
  8
1
  6
Continuous
 62
     3
100
AcDbLine
 10
233.0
 20
153.669047558312
 30
0.0
 11
208.0
 21
153.669047558312
 31
0.0
  0
LINE
  5
2D9
330
1F
100
AcDbEntity
  8
1
  6
Continuous
 62
     3
100
AcDbLine
 10
208.0
 20
126.330952441688
 30
0.0
 11
233.0
 21
126.330952441688
 31
0.0
  0
LINE
  5
2DA
330
1F
100
AcDbEntity
  8
1
  6
Continuous
 62
     3
100
AcDbLine
 10
241.0
 20
126.330952441688
 30
0.0
 11
272.5
 21
126.330952441688
 31
0.0
  0
LINE
  5
2DB
330
1F
100
AcDbEntity
  8
1
  6
Continuous
 62
     3
100
AcDbLine
 10
272.5
 20
153.669047558312
 30
0.0
 11
241.0
 21
153.669047558312
 31
0.0
  0
LINE
  5
2DC
330
1F
100
AcDbEntity
  8
1
  6
Continuous
 62
     3
100
AcDbLine
 10
308.8
 20
151.183766184074
 30
0.0
 11
340.3
 21
151.183766184074
 31
0.0
  0
LINE
  5
2DD
330
1F
100
AcDbEntity
  8
1
  6
Continuous
 62
     3
100
AcDbLine
 10
340.3
 20
128.816233815926
 30
0.0
 11
308.8
 21
128.816233815926
 31
0.0
  0
LINE
  5
2DE
330
1F
100
AcDbEntity
  8
1
  6
CENTER
 62
     1
100
AcDbLine
 10
403.026490802265
 20
140.0
 30
0.0
 11
475.026490802265
 21
140.0
 31
0.0
  0
LINE
  5
2DF
330
1F
100
AcDbEntity
  8
1
  6
Continuous
 62
     4
100
AcDbLine
 10
452.695538360577
 20
173.0
 30
0.0
 11
452.695538360577
 21
173.0
 31
0.0
  0
LINE
  5
2E0
330
1F
100
AcDbEntity
  8
1
  6
Continuous
 62
     3
100
AcDbLine
 10
340.3
 20
367.922760067729
 30
0.0
 11
308.8
 21
367.922760067729
 31
0.0
  0
LINE
  5
2E1
330
1F
100
AcDbEntity
  8
1
  6
Continuous
 62
     3
100
AcDbLine
 10
308.8
 20
390.290292435877
 30
0.0
 11
340.3
 21
390.290292435877
 31
0.0
  0
LINE
  5
2E2
330
1F
100
AcDbEntity
  8
1
  6
Continuous
 62
     3
100
AcDbLine
 10
272.5
 20
392.775573810115
 30
0.0
 11
241.0
 21
392.775573810115
 31
0.0
  0
LINE
  5
2E3
330
1F
100
AcDbEntity
  8
1
  6
Continuous
 62
     3
100
AcDbLine
 10
241.0
 20
365.437478693491
 30
0.0
 11
272.5
 21
365.437478693491
 31
0.0
  0
LINE
  5
2E4
330
1F
100
AcDbEntity
  8
1
  6
Continuous
 62
     3
100
AcDbLine
 10
208.0
 20
365.437478693491
 30
0.0
 11
233.0
 21
365.437478693491
 31
0.0
  0
LINE
  5
2E5
330
1F
100
AcDbEntity
  8
1
  6
Continuous
 62
     3
100
AcDbLine
 10
233.0
 20
392.775573810115
 30
0.0
 11
208.0
 21
392.775573810115
 31
0.0
  0
LINE
  5
2E6
330
1F
100
AcDbEntity
  8
1
  6
Continuous
 62
     3
100
AcDbLine
 10
340.3
 20
352.106526251803
 30
0.0
 11
308.8
 21
352.106526251803
 31
0.0
  0
LINE
  5
2E7
330
1F
100
AcDbEntity
  8
1
  6
Continuous
 62
     3
100
AcDbLine
 10
308.8
 20
406.106526251803
 30
0.0
 11
308.8
 21
352.106526251803
 31
0.0
  0
LINE
  5
2E8
330
1F
100
AcDbEntity
  8
1
  6
Continuous
 62
     3
100
AcDbLine
 10
340.3
 20
406.106526251803
 30
0.0
 11
308.8
 21
406.106526251803
 31
0.0
  0
LINE
  5
2E9
330
1F
100
AcDbEntity
  8
1
  6
Continuous
 62
     3
100
AcDbLine
 10
340.3
 20
352.106526251803
 30
0.0
 11
340.3
 21
406.106526251803
 31
0.0
  0
LINE
  5
2EA
330
1F
100
AcDbEntity
  8
1
  6
Continuous
 62
     3
100
AcDbLine
 10
241.0
 20
406.106526251803
 30
0.0
 11
241.0
 21
352.106526251803
 31
0.0
  0
LINE
  5
2EB
330
1F
100
AcDbEntity
  8
1
  6
Continuous
 62
     3
100
AcDbLine
 10
241.0
 20
352.106526251803
 30
0.0
 11
272.5
 21
352.106526251803
 31
0.0
  0
LINE
  5
2EC
330
1F
100
AcDbEntity
  8
1
  6
Continuous
 62
     3
100
AcDbLine
 10
272.5
 20
360.606526251803
 30
0.0
 11
273.5
 21
361.606526251803
 31
0.0
  0
LINE
  5
2ED
330
1F
100
AcDbEntity
  8
1
  6
Continuous
 62
     3
100
AcDbLine
 10
273.5
 20
396.606526251803
 30
0.0
 11
273.5
 21
361.606526251803
 31
0.0
  0
LINE
  5
2EE
330
1F
100
AcDbEntity
  8
1
  6
Continuous
 62
     3
100
AcDbLine
 10
241.0
 20
406.106526251803
 30
0.0
 11
272.5
 21
406.106526251803
 31
0.0
  0
LINE
  5
2EF
330
1F
100
AcDbEntity
  8
1
  6
Continuous
 62
     3
100
AcDbLine
 10
272.5
 20
352.106526251803
 30
0.0
 11
272.5
 21
406.106526251803
 31
0.0
  0
LINE
  5
2F0
330
1F
100
AcDbEntity
  8
1
  6
Continuous
 62
     3
100
AcDbLine
 10
273.5
 20
362.606526251803
 30
0.0
 11
308.8
 21
362.606526251803
 31
0.0
  0
LINE
  5
2F1
330
1F
100
AcDbEntity
  8
1
  6
Continuous
 62
     3
100
AcDbLine
 10
273.5
 20
395.606526251803
 30
0.0
 11
308.8
 21
395.606526251803
 31
0.0
  0
LINE
  5
2F2
330
1F
100
AcDbEntity
  8
1
  6
Continuous
 62
     3
100
AcDbLine
 10
233.0
 20
355.606526251803
 30
0.0
 11
241.0
 21
355.606526251803
 31
0.0
  0
LINE
  5
2F3
330
1F
100
AcDbEntity
  8
1
  6
Continuous
 62
     3
100
AcDbLine
 10
233.0
 20
406.106526251803
 30
0.0
 11
233.0
 21
352.106526251803
 31
0.0
  0
LINE
  5
2F4
330
1F
100
AcDbEntity
  8
1
  6
Continuous
 62
     3
100
AcDbLine
 10
208.0
 20
352.106526251803
 30
0.0
 11
233.0
 21
352.106526251803
 31
0.0
  0
LINE
  5
2F5
330
1F
100
AcDbEntity
  8
1
  6
Continuous
 62
     3
100
AcDbLine
 10
233.0
 20
402.606526251803
 30
0.0
 11
241.0
 21
402.606526251803
 31
0.0
  0
LINE
  5
2F6
330
1F
100
AcDbEntity
  8
1
  6
Continuous
 62
     3
100
AcDbLine
 10
208.0
 20
406.106526251803
 30
0.0
 11
233.0
 21
406.106526251803
 31
0.0
  0
LINE
  5
2F7
330
1F
100
AcDbEntity
  8
1
  6
Continuous
 62
     3
100
AcDbLine
 10
208.0
 20
352.106526251803
 30
0.0
 11
208.0
 21
373.67583756925
 31
0.0
  0
LINE
  5
2F8
330
1F
100
AcDbEntity
  8
1
  6
Continuous
 62
     3
100
AcDbLine
 10
273.5
 20
396.606526251803
 30
0.0
 11
272.5
 21
397.606526251803
 31
0.0
  0
LINE
  5
2F9
330
1F
100
AcDbEntity
  8
100
  6
DOTTED
 62
     4
100
AcDbLine
 10
210.0
 20
355.356526251803
 30
0.0
 11
210.0
 21
402.856526251803
 31
0.0
  0
LINE
  5
2FA
330
1F
100
AcDbEntity
  8
1
  6
DOTTED
 62
     4
100
AcDbLine
 10
208.958315929739
 20
356.684026251803
 30
0.0
 11
226.0
 21
356.684026251803
 31
0.0
  0
LINE
  5
2FB
330
1F
100
AcDbEntity
  8
1
  6
DOTTED
 62
     4
100
AcDbLine
 10
208.958315929739
 20
401.529026251803
 30
0.0
 11
226.0
 21
401.529026251803
 31
0.0
  0
LINE
  5
2FC
330
1F
100
AcDbEntity
  8
100
  6
DOTTED
 62
     4
100
AcDbLine
 10
210.0
 20
402.856526251803
 30
0.0
 11
226.0
 21
402.856526251803
 31
0.0
  0
LINE
  5
2FD
330
1F
100
AcDbEntity
  8
100
  6
DOTTED
 62
     4
100
AcDbLine
 10
210.0
 20
355.356526251803
 30
0.0
 11
226.0
 21
355.356526251803
 31
0.0
  0
LINE
  5
2FE
330
1F
100
AcDbEntity
  8
100
  6
DOTTED
 62
     4
100
AcDbLine
 10
226.0
 20
402.856526251803
 30
0.0
 11
226.0
 21
355.356526251803
 31
0.0
  0
LINE
  5
2FF
330
1F
100
AcDbEntity
  8
1
  6
Continuous
 62
     3
100
AcDbLine
 10
208.0
 20
384.537214934356
 30
0.0
 11
208.0
 21
406.106526251803
 31
0.0
  0
LINE
  5
300
330
1F
100
AcDbEntity
  8
1
  6
Continuous
 62
     4
100
AcDbLine
 10
340.3
 20
140.0
 30
0.0
 11
345.626450778099
 21
133.657767319716
 31
0.0
  0
LINE
  5
301
330
1F
100
AcDbEntity
  8
1
  6
Continuous
 62
     4
100
AcDbLine
 10
340.3
 20
140.0
 30
0.0
 11
341.741725345699
 21
131.844239993113
 31
0.0
  0
LINE
  5
302
330
1F
100
AcDbEntity
  8
1
  6
Continuous
 62
     4
100
AcDbLine
 10
94.8331995795728
 20
116.25
 30
0.0
 11
92.3723321088021
 21
108.341831782665
 31
0.0
  0
LINE
  5
303
330
1F
100
AcDbEntity
  8
1
  6
Continuous
 62
     4
100
AcDbLine
 10
94.8331995795728
 20
116.25
 30
0.0
 11
88.747941725871
 21
110.631759161772
 31
0.0
  0
LINE
  5
304
330
1F
100
AcDbEntity
  8
1
  6
Continuous
 62
     3
100
AcDbLine
 10
217.930457082322
 20
116.25
 30
0.0
 11
223.25690786042
 21
109.907767319716
 31
0.0
  0
LINE
  5
305
330
1F
100
AcDbEntity
  8
1
  6
Continuous
 62
     3
100
AcDbLine
 10
217.930457082322
 20
116.25
 30
0.0
 11
219.37218242802
 21
108.094239993113
 31
0.0
  0
ARC
  5
336
330
1F
100
AcDbEntity
  8
100
  6
Continuous
 62
     3
100
AcDbCircle
 10
135.500000069775
 20
301.202036206331
 30
0.0
 40
16.77982419455029
100
AcDbArc
 50
161.2972207919406
 51
198.523063462584
  0
ARC
  5
337
330
1F
100
AcDbEntity
  8
100
  6
Continuous
 62
     3
100
AcDbCircle
 10
114.558481629663
 20
306.202036206331
 30
0.0
 40
1.999999999999229
100
AcDbArc
 50
30.00000000001276
 51
90.0
  0
ARC
  5
338
330
1F
100
AcDbEntity
  8
100
  6
Continuous
 62
     3
100
AcDbCircle
 10
118.527864114775
 20
293.202036206331
 30
0.0
 40
2.0000000000002
100
AcDbArc
 50
63.43494882292201
 51
90.0
  0
ARC
  5
339
330
1F
100
AcDbEntity
  8
100
  6
Continuous
 62
     3
100
AcDbCircle
 10
131.252754523652
 20
293.202036206331
 30
0.0
 40
2.0
100
AcDbArc
 50
90.0
 51
104.4053968714632
  0
ARC
  5
33A
330
1F
100
AcDbEntity
  8
100
  6
Continuous
 62
     3
100
AcDbCircle
 10
133.000000069775
 20
307.202036206331
 30
0.0
 40
1.0
100
AcDbArc
 50
0.0
 51
90.0
  0
ARC
  5
33B
330
1F
100
AcDbEntity
  8
100
  6
Continuous
 62
     3
100
AcDbCircle
 10
121.000000069775
 20
307.202036206331
 30
0.0
 40
1.0
100
AcDbArc
 50
90.0
 51
180.0
  0
ARC
  5
33C
330
1F
100
AcDbEntity
  8
100
  6
Continuous
 62
     3
100
AcDbCircle
 10
118.250000069775
 20
301.202036206331
 30
0.0
 40
16.77982419454934
100
AcDbArc
 50
160.2267251497064
 51
199.7732748502903
  0
ARC
  5
33D
330
1F
100
AcDbEntity
  8
100
  6
Continuous
 62
     3
100
AcDbCircle
 10
104.341613994396
 20
296.202036206331
 30
0.0
 40
1.999999999999304
100
AcDbArc
 50
199.7732748502821
 51
270.0
  0
ARC
  5
33E
330
1F
100
AcDbEntity
  8
100
  6
Continuous
 62
     3
100
AcDbCircle
 10
105.527864114775
 20
296.202036206331
 30
0.0
 40
2.0
100
AcDbArc
 50
270.0
 51
296.565051177078
  0
ARC
  5
33F
330
1F
100
AcDbEntity
  8
100
  6
Continuous
 62
     3
100
AcDbCircle
 10
108.472136024774
 20
293.202036206331
 30
0.0
 40
2.0
100
AcDbArc
 50
90.0
 51
116.565051177078
  0
ARC
  5
340
330
1F
100
AcDbEntity
  8
100
  6
Continuous
 62
     3
100
AcDbCircle
 10
104.341613994396
 20
306.202036206331
 30
0.0
 40
2.0
100
AcDbArc
 50
90.0
 51
160.2267251496903
  0
ARC
  5
341
330
1F
100
AcDbEntity
  8
100
  6
Continuous
 62
     3
100
AcDbCircle
 10
121.472136024774
 20
296.202036206331
 30
0.0
 40
2.0000000000002
100
AcDbArc
 50
243.434948822922
 51
270.0
  0
ARC
  5
342
330
1F
100
AcDbEntity
  8
100
  6
Continuous
 62
     3
100
AcDbCircle
 10
126.854025213985
 20
296.202036206331
 30
0.0
 40
2.0
100
AcDbArc
 50
270.0
 51
284.4053968714985
  0
ARC
  5
343
330
1F
100
AcDbEntity
  8
100
  6
Continuous
 62
     3
100
AcDbCircle
 10
128.588320596387
 20
289.963375032489
 30
0.0
 40
3.000000000000111
100
AcDbArc
 50
11.3099324740084
 51
61.18920625701891
  0
ARC
  5
344
330
1F
100
AcDbEntity
  8
100
  6
Continuous
 62
     3
100
AcDbCircle
 10
132.819803972493
 20
289.202036206331
 30
0.0
 40
1.000000000000035
100
AcDbArc
 50
191.3099324740106
 51
270.0
  0
ARC
  5
345
330
1F
100
AcDbEntity
  8
100
  6
Continuous
 62
     3
100
AcDbCircle
 10
105.596873642485
 20
165.5
 30
0.0
 40
4.000000000000409
100
AcDbArc
 50
205.9444797723672
 51
324.0560371471757
  0
ARC
  5
346
330
1F
100
AcDbEntity
  8
100
  6
Continuous
 62
     3
100
AcDbCircle
 10
105.596873642485
 20
114.5
 30
0.0
 40
4.0
100
AcDbArc
 50
90.0
 51
154.0555202276329
  0
ARC
  5
347
330
1F
100
AcDbEntity
  8
100
  6
Continuous
 62
     3
100
AcDbCircle
 10
135.0
 20
175.0
 30
0.0
 40
26.50000000000028
100
AcDbArc
 50
120.4541911441054
 51
196.436503241875
  0
ARC
  5
348
330
1F
100
AcDbEntity
  8
100
  6
Continuous
 62
     3
100
AcDbCircle
 10
116.5
 20
206.464265445105
 30
0.0
 40
10.00000000000013
100
AcDbArc
 50
300.4541911441059
 51
0.0
  0
ARC
  5
349
330
1F
100
AcDbEntity
  8
100
  6
Continuous
 62
     3
100
AcDbCircle
 10
156.0
 20
244.0
 30
0.0
 40
130.0000000000001
100
AcDbArc
 50
256.379060529741
 51
283.620939470259
  0
ARC
  5
34A
330
1F
100
AcDbEntity
  8
100
  6
Continuous
 62
     3
100
AcDbCircle
 10
206.403126357516
 20
114.5
 30
0.0
 40
3.999999999999482
100
AcDbArc
 50
66.47067335826338
 51
90.0
  0
ARC
  5
34B
330
1F
100
AcDbEntity
  8
100
  6
DOTTED
 62
     4
100
AcDbCircle
 10
206.403126357516
 20
165.5
 30
0.0
 40
3.999999999999482
100
AcDbArc
 50
293.5293266417366
 51
334.0555202276267
  0
ARC
  5
34C
330
1F
100
AcDbEntity
  8
100
  6
Continuous
 62
     3
100
AcDbCircle
 10
165.5
 20
211.459490632939
 30
0.0
 40
4.0
100
AcDbArc
 50
180.0
 51
259.3264049921501
  0
ARC
  5
34D
330
1F
100
AcDbEntity
  8
100
  6
Continuous
 62
     3
100
AcDbCircle
 10
118.320429938759
 20
88.5
 30
0.0
 40
29.99999999999982
100
AcDbArc
 50
76.37906052974256
 51
90.0
  0
ARC
  5
34E
330
1F
100
AcDbEntity
  8
100
  6
Continuous
 62
     3
100
AcDbCircle
 10
193.679570061241
 20
88.5
 30
0.0
 40
30.0
100
AcDbArc
 50
90.0
 51
103.6209394702575
  0
ARC
  5
34F
330
1F
100
AcDbEntity
  8
100
  6
Continuous
 62
     3
100
AcDbCircle
 10
204.260618674254
 20
165.5
 30
0.0
 40
3.999999999999721
100
AcDbArc
 50
165.0000000000003
 51
270.0
  0
ARC
  5
350
330
1F
100
AcDbEntity
  8
100
  6
Continuous
 62
     3
100
AcDbCircle
 10
171.665885387564
 20
202.773155251092
 30
0.0
 40
10.47887326853581
100
AcDbArc
 50
10.61575253195757
 51
79.38424746804144
  0
ARC
  5
351
330
1F
100
AcDbEntity
  8
100
  6
Continuous
 62
     3
100
AcDbCircle
 10
163.932527359762
 20
169.932527359762
 30
0.0
 40
39.1690138517214
100
AcDbArc
 50
45.0
 51
62.58795377399309
  0
ARC
  5
352
330
1F
100
AcDbEntity
  8
100
  6
Continuous
 62
     3
100
AcDbCircle
 10
104.787282161923
 20
166.086993726203
 30
0.0
 40
5.000000000001003
100
AcDbArc
 50
324.0560371471821
 51
16.43650324187722
  0
ARC
  5
353
330
1F
100
AcDbEntity
  8
100
  6
Continuous
 62
     3
100
AcDbCircle
 10
152.499999930225
 20
301.202036206331
 30
0.0
 40
16.7798241945505
100
AcDbArc
 50
341.476936537416
 51
18.70277920805936
  0
ARC
  5
354
330
1F
100
AcDbEntity
  8
100
  6
Continuous
 62
     3
100
AcDbCircle
 10
173.441518370337
 20
306.202036206331
 30
0.0
 40
2.0
100
AcDbArc
 50
90.0
 51
150.0000000000019
  0
ARC
  5
355
330
1F
100
AcDbEntity
  8
100
  6
Continuous
 62
     3
100
AcDbCircle
 10
169.472135885225
 20
293.202036206331
 30
0.0
 40
2.0
100
AcDbArc
 50
90.0
 51
116.5650511770773
  0
ARC
  5
356
330
1F
100
AcDbEntity
  8
100
  6
Continuous
 62
     3
100
AcDbCircle
 10
166.999999930225
 20
307.202036206331
 30
0.0
 40
1.0
100
AcDbArc
 50
0.0
 51
90.0
  0
ARC
  5
357
330
1F
100
AcDbEntity
  8
100
  6
Continuous
 62
     3
100
AcDbCircle
 10
169.749999930225
 20
301.202036206331
 30
0.0
 40
16.77982419455088
100
AcDbArc
 50
340.226725149712
 51
19.77327485029131
  0
ARC
  5
358
330
1F
100
AcDbEntity
  8
100
  6
Continuous
 62
     3
100
AcDbCircle
 10
183.658386005605
 20
296.202036206331
 30
0.0
 40
2.0
100
AcDbArc
 50
270.0
 51
340.2267251497275
  0
ARC
  5
359
330
1F
100
AcDbEntity
  8
100
  6
Continuous
 62
     3
100
AcDbCircle
 10
182.472135885225
 20
296.202036206331
 30
0.0
 40
2.000000000000187
100
AcDbArc
 50
243.4349488229228
 51
270.0
  0
ARC
  5
35A
330
1F
100
AcDbEntity
  8
100
  6
Continuous
 62
     3
100
AcDbCircle
 10
179.527863975226
 20
293.202036206331
 30
0.0
 40
2.000000000000187
100
AcDbArc
 50
63.43494882292274
 51
90.0
  0
ARC
  5
35B
330
1F
100
AcDbEntity
  8
100
  6
Continuous
 62
     3
100
AcDbCircle
 10
183.658386005604
 20
306.202036206331
 30
0.0
 40
2.000000000001522
100
AcDbArc
 50
19.77327485029039
 51
90.0
  0
ARC
  5
35C
330
1F
100
AcDbEntity
  8
100
  6
Continuous
 62
     3
100
AcDbCircle
 10
166.527863975226
 20
296.202036206331
 30
0.0
 40
2.0
100
AcDbArc
 50
270.0
 51
296.5650511770772
  0
ARC
  5
35D
330
1F
100
AcDbEntity
  8
100
  6
Continuous
 62
     3
100
AcDbCircle
 10
161.145974786015
 20
296.202036206331
 30
0.0
 40
1.99999999999938
100
AcDbArc
 50
255.5946031285023
 51
270.0
  0
ARC
  5
35E
330
1F
100
AcDbEntity
  8
100
  6
Continuous
 62
     3
100
AcDbCircle
 10
154.999999930225
 20
307.202036206331
 30
0.0
 40
1.0
100
AcDbArc
 50
90.0
 51
180.0
  0
ARC
  5
35F
330
1F
100
AcDbEntity
  8
100
  6
Continuous
 62
     3
100
AcDbCircle
 10
159.411679403613
 20
289.963375032489
 30
0.0
 40
3.00000000000031
100
AcDbArc
 50
118.8107937429811
 51
168.6900675259916
  0
ARC
  5
360
330
1F
100
AcDbEntity
  8
100
  6
Continuous
 62
     3
100
AcDbCircle
 10
155.180196027507
 20
289.202036206331
 30
0.0
 40
1.0
100
AcDbArc
 50
270.0
 51
348.6900675259894
  0
ARC
  5
361
330
1F
100
AcDbEntity
  8
100
  6
Continuous
 62
     3
100
AcDbCircle
 10
156.747245476348
 20
293.202036206331
 30
0.0
 40
2.000000000000068
100
AcDbArc
 50
75.5946031285368
 51
90.0
  0
ARC
  5
362
330
1F
100
AcDbEntity
  8
100
  6
Continuous
 62
     3
100
AcDbCircle
 10
163.932527359762
 20
169.932527359762
 30
0.0
 40
39.16901385172076
100
AcDbArc
 50
27.41204622600559
 51
45.0
  0
ARC
  5
363
330
1F
100
AcDbEntity
  8
100
  6
Continuous
 62
     3
100
AcDbCircle
 10
196.773155251092
 20
177.665885387564
 30
0.0
 40
10.47887326853483
100
AcDbArc
 50
10.61575253195857
 51
79.38424746804141
  0
ARC
  5
364
330
1F
100
AcDbEntity
  8
100
  6
Continuous
 62
     3
100
AcDbCircle
 10
124.51442841485
 20
226.498797632096
 30
0.0
 40
11.50120236790421
100
AcDbArc
 50
55.61575253195997
 51
124.3842474680401
  0
ARC
  5
365
330
1F
100
AcDbEntity
  8
100
  6
Continuous
 62
     3
100
AcDbCircle
 10
124.51442841485
 20
236.501202367904
 30
0.0
 40
11.50120236790422
100
AcDbArc
 50
235.6157525319599
 51
304.38424746804
  0
ARC
  5
366
330
1F
100
AcDbEntity
  8
100
  6
Continuous
 62
     3
100
AcDbCircle
 10
144.0
 20
195.009618943234
 30
0.0
 40
42.99038105676657
100
AcDbArc
 50
72.41204622600564
 51
107.5879537739944
  0
ARC
  5
367
330
1F
100
AcDbEntity
  8
100
  6
Continuous
 62
     3
100
AcDbCircle
 10
144.0
 20
267.990381056767
 30
0.0
 40
42.9903810567675
100
AcDbArc
 50
252.412046226006
 51
287.5879537739939
  0
ARC
  5
368
330
1F
100
AcDbEntity
  8
100
  6
Continuous
 62
     3
100
AcDbCircle
 10
163.48557158515
 20
226.498797632096
 30
0.0
 40
11.50120236790421
100
AcDbArc
 50
55.61575253196003
 51
124.3842474680401
  0
ARC
  5
369
330
1F
100
AcDbEntity
  8
100
  6
Continuous
 62
     3
100
AcDbCircle
 10
163.48557158515
 20
236.501202367904
 30
0.0
 40
11.50120236790422
100
AcDbArc
 50
235.6157525319599
 51
304.38424746804
  0
ARC
  5
36A
330
1F
100
AcDbEntity
  8
2
  6
PHANTOM
 62
     6
100
AcDbCircle
 10
183.658386005604
 20
287.202036206331
 30
0.0
 40
2.000000000001522
100
AcDbArc
 50
19.77327485029039
 51
90.0
  0
ARC
  5
36B
330
1F
100
AcDbEntity
  8
2
  6
PHANTOM
 62
     6
100
AcDbCircle
 10
169.749999930225
 20
282.202036206331
 30
0.0
 40
16.77982419455088
100
AcDbArc
 50
340.226725149712
 51
19.77327485029131
  0
ARC
  5
36C
330
1F
100
AcDbEntity
  8
2
  6
PHANTOM
 62
     6
100
AcDbCircle
 10
183.658386005605
 20
277.202036206331
 30
0.0
 40
2.0
100
AcDbArc
 50
270.0
 51
340.2267251497275
  0
ARC
  5
36D
330
1F
100
AcDbEntity
  8
2
  6
PHANTOM
 62
     6
100
AcDbCircle
 10
182.472135885225
 20
277.202036206331
 30
0.0
 40
1.999999999999272
100
AcDbArc
 50
243.4349488229096
 51
270.0
  0
ARC
  5
36E
330
1F
100
AcDbEntity
  8
2
  6
PHANTOM
 62
     6
100
AcDbCircle
 10
179.527863975226
 20
274.202036206331
 30
0.0
 40
2.000000000000187
100
AcDbArc
 50
63.43494882292274
 51
90.0
  0
ARC
  5
36F
330
1F
100
AcDbEntity
  8
2
  6
PHANTOM
 62
     6
100
AcDbCircle
 10
166.527863975226
 20
277.202036206331
 30
0.0
 40
2.0
100
AcDbArc
 50
270.0
 51
296.5650511770772
  0
ARC
  5
370
330
1F
100
AcDbEntity
  8
2
  6
PHANTOM
 62
     6
100
AcDbCircle
 10
169.472135885225
 20
274.202036206331
 30
0.0
 40
2.0
100
AcDbArc
 50
90.0
 51
116.5650511770773
  0
ARC
  5
371
330
1F
100
AcDbEntity
  8
2
  6
PHANTOM
 62
     6
100
AcDbCircle
 10
118.527864114775
 20
274.202036206331
 30
0.0
 40
2.0000000000002
100
AcDbArc
 50
63.43494882292201
 51
90.0
  0
ARC
  5
372
330
1F
100
AcDbEntity
  8
2
  6
PHANTOM
 62
     6
100
AcDbCircle
 10
108.472136024774
 20
274.202036206331
 30
0.0
 40
2.0
100
AcDbArc
 50
90.0
 51
116.565051177078
  0
ARC
  5
373
330
1F
100
AcDbEntity
  8
2
  6
PHANTOM
 62
     6
100
AcDbCircle
 10
105.527864114775
 20
277.202036206331
 30
0.0
 40
2.0
100
AcDbArc
 50
270.0
 51
296.565051177091
  0
ARC
  5
374
330
1F
100
AcDbEntity
  8
2
  6
PHANTOM
 62
     6
100
AcDbCircle
 10
104.341613994396
 20
277.202036206331
 30
0.0
 40
1.999999999999304
100
AcDbArc
 50
199.7732748502821
 51
270.0
  0
ARC
  5
375
330
1F
100
AcDbEntity
  8
2
  6
PHANTOM
 62
     6
100
AcDbCircle
 10
118.250000069775
 20
282.202036206331
 30
0.0
 40
16.77982419454934
100
AcDbArc
 50
160.2267251497064
 51
199.7732748502903
  0
ARC
  5
376
330
1F
100
AcDbEntity
  8
2
  6
PHANTOM
 62
     6
100
AcDbCircle
 10
104.341613994396
 20
287.202036206331
 30
0.0
 40
2.0
100
AcDbArc
 50
90.0
 51
160.2267251496903
  0
ARC
  5
377
330
1F
100
AcDbEntity
  8
2
  6
PHANTOM
 62
     6
100
AcDbCircle
 10
114.558481629663
 20
287.202036206331
 30
0.0
 40
1.999999999999229
100
AcDbArc
 50
30.00000000001276
 51
90.0
  0
ARC
  5
378
330
1F
100
AcDbEntity
  8
2
  6
PHANTOM
 62
     6
100
AcDbCircle
 10
121.000000069775
 20
288.202036206331
 30
0.0
 40
1.0
100
AcDbArc
 50
90.0
 51
180.0
  0
ARC
  5
379
330
1F
100
AcDbEntity
  8
2
  6
PHANTOM
 62
     6
100
AcDbCircle
 10
133.000000069775
 20
288.202036206331
 30
0.0
 40
1.0
100
AcDbArc
 50
0.0
 51
90.0
  0
ARC
  5
37A
330
1F
100
AcDbEntity
  8
2
  6
PHANTOM
 62
     6
100
AcDbCircle
 10
154.999999930225
 20
288.202036206331
 30
0.0
 40
1.0
100
AcDbArc
 50
90.0
 51
180.0
  0
ARC
  5
37B
330
1F
100
AcDbEntity
  8
2
  6
PHANTOM
 62
     6
100
AcDbCircle
 10
166.999999930225
 20
288.202036206331
 30
0.0
 40
1.0
100
AcDbArc
 50
0.0
 51
90.0
  0
ARC
  5
37C
330
1F
100
AcDbEntity
  8
2
  6
PHANTOM
 62
     6
100
AcDbCircle
 10
173.441518370337
 20
287.202036206331
 30
0.0
 40
2.0
100
AcDbArc
 50
90.0
 51
149.9999999999877
  0
ARC
  5
37D
330
1F
100
AcDbEntity
  8
2
  6
PHANTOM
 62
     6
100
AcDbCircle
 10
121.472136024774
 20
277.202036206331
 30
0.0
 40
2.0000000000002
100
AcDbArc
 50
243.434948822922
 51
270.0
  0
ARC
  5
37E
330
1F
100
AcDbEntity
  8
100
  6
Continuous
 62
     3
100
AcDbCircle
 10
430.52649087204
 20
302.208359688979
 30
0.0
 40
16.77982419455024
100
AcDbArc
 50
161.2972207919406
 51
198.5230634625841
  0
ARC
  5
37F
330
1F
100
AcDbEntity
  8
100
  6
Continuous
 62
     3
100
AcDbCircle
 10
409.584972431928
 20
307.208359688979
 30
0.0
 40
2.000000000000115
100
AcDbArc
 50
29.9999999999981
 51
90.0
  0
ARC
  5
380
330
1F
100
AcDbEntity
  8
100
  6
Continuous
 62
     3
100
AcDbCircle
 10
413.55435491704
 20
294.208359688979
 30
0.0
 40
2.000000000000213
100
AcDbArc
 50
63.43494882292129
 51
90.0
  0
ARC
  5
381
330
1F
100
AcDbEntity
  8
100
  6
Continuous
 62
     3
100
AcDbCircle
 10
426.279245325918
 20
294.208359688979
 30
0.0
 40
2.0
100
AcDbArc
 50
90.0
 51
104.4053968714908
  0
ARC
  5
382
330
1F
100
AcDbEntity
  8
100
  6
Continuous
 62
     3
100
AcDbCircle
 10
428.02649087204
 20
308.208359688979
 30
0.0
 40
1.0
100
AcDbArc
 50
0.0
 51
90.0
  0
ARC
  5
383
330
1F
100
AcDbEntity
  8
100
  6
Continuous
 62
     3
100
AcDbCircle
 10
416.02649087204
 20
308.208359688979
 30
0.0
 40
1.0
100
AcDbArc
 50
90.0
 51
180.0
  0
ARC
  5
384
330
1F
100
AcDbEntity
  8
100
  6
Continuous
 62
     3
100
AcDbCircle
 10
413.27649087204
 20
302.208359688979
 30
0.0
 40
16.77982419454933
100
AcDbArc
 50
160.2267251497064
 51
199.7732748502903
  0
ARC
  5
385
330
1F
100
AcDbEntity
  8
100
  6
Continuous
 62
     3
100
AcDbCircle
 10
399.368104796661
 20
297.208359688979
 30
0.0
 40
1.999999999999304
100
AcDbArc
 50
199.7732748502821
 51
270.0
  0
ARC
  5
386
330
1F
100
AcDbEntity
  8
100
  6
Continuous
 62
     3
100
AcDbCircle
 10
400.55435491704
 20
297.208359688979
 30
0.0
 40
2.0
100
AcDbArc
 50
270.0
 51
296.5650511770787
  0
ARC
  5
387
330
1F
100
AcDbEntity
  8
100
  6
Continuous
 62
     3
100
AcDbCircle
 10
403.49862682704
 20
294.208359688979
 30
0.0
 40
2.0
100
AcDbArc
 50
90.0
 51
116.5650511771035
  0
ARC
  5
388
330
1F
100
AcDbEntity
  8
100
  6
Continuous
 62
     3
100
AcDbCircle
 10
399.368104796661
 20
307.208359688979
 30
0.0
 40
2.0
100
AcDbArc
 50
90.0
 51
160.2267251496903
  0
ARC
  5
389
330
1F
100
AcDbEntity
  8
100
  6
Continuous
 62
     3
100
AcDbCircle
 10
416.49862682704
 20
297.208359688979
 30
0.0
 40
2.000000000000645
100
AcDbArc
 50
243.4349488228965
 51
270.0
  0
ARC
  5
38A
330
1F
100
AcDbEntity
  8
100
  6
Continuous
 62
     3
100
AcDbCircle
 10
421.880516016251
 20
297.208359688979
 30
0.0
 40
2.0
100
AcDbArc
 50
270.0
 51
284.4053968714697
  0
ARC
  5
38B
330
1F
100
AcDbEntity
  8
100
  6
Continuous
 62
     3
100
AcDbCircle
 10
423.614811398653
 20
290.969698515137
 30
0.0
 40
2.999999999999147
100
AcDbArc
 50
11.30993247401319
 51
61.18920625703554
  0
ARC
  5
38C
330
1F
100
AcDbEntity
  8
100
  6
Continuous
 62
     3
100
AcDbCircle
 10
427.846294774758
 20
290.208359688979
 30
0.0
 40
0.9999999999990763
100
AcDbArc
 50
191.3099324740183
 51
270.0
  0
ARC
  5
38D
330
1F
100
AcDbEntity
  8
100
  6
Continuous
 62
     3
100
AcDbCircle
 10
447.526490732491
 20
302.208359688979
 30
0.0
 40
16.7798241945495
100
AcDbArc
 50
341.4769365374148
 51
18.70277920806048
  0
ARC
  5
38E
330
1F
100
AcDbEntity
  8
100
  6
Continuous
 62
     3
100
AcDbCircle
 10
468.468009172603
 20
307.208359688979
 30
0.0
 40
2.0
100
AcDbArc
 50
90.0
 51
150.0000000000019
  0
ARC
  5
38F
330
1F
100
AcDbEntity
  8
100
  6
Continuous
 62
     3
100
AcDbCircle
 10
464.49862668749
 20
294.208359688979
 30
0.0
 40
2.0
100
AcDbArc
 50
90.0
 51
116.5650511770773
  0
ARC
  5
390
330
1F
100
AcDbEntity
  8
100
  6
Continuous
 62
     3
100
AcDbCircle
 10
462.026490732491
 20
308.208359688979
 30
0.0
 40
1.0
100
AcDbArc
 50
0.0
 51
90.0
  0
ARC
  5
391
330
1F
100
AcDbEntity
  8
100
  6
Continuous
 62
     3
100
AcDbCircle
 10
464.776490732491
 20
302.208359688979
 30
0.0
 40
16.77982419454989
100
AcDbArc
 50
340.2267251497108
 51
19.77327485029252
  0
ARC
  5
392
330
1F
100
AcDbEntity
  8
100
  6
Continuous
 62
     3
100
AcDbCircle
 10
478.68487680787
 20
297.208359688979
 30
0.0
 40
2.0
100
AcDbArc
 50
270.0
 51
340.2267251497273
  0
ARC
  5
393
330
1F
100
AcDbEntity
  8
100
  6
Continuous
 62
     3
100
AcDbCircle
 10
477.49862668749
 20
297.208359688979
 30
0.0
 40
2.000000000000187
100
AcDbArc
 50
243.4349488229228
 51
270.0
  0
ARC
  5
394
330
1F
100
AcDbEntity
  8
100
  6
Continuous
 62
     3
100
AcDbCircle
 10
474.554354777491
 20
294.208359688979
 30
0.0
 40
2.000000000000187
100
AcDbArc
 50
63.43494882292274
 51
90.0
  0
ARC
  5
395
330
1F
100
AcDbEntity
  8
100
  6
Continuous
 62
     3
100
AcDbCircle
 10
478.68487680787
 20
307.208359688979
 30
0.0
 40
2.000000000000559
100
AcDbArc
 50
19.77327485030031
 51
90.0
  0
ARC
  5
396
330
1F
100
AcDbEntity
  8
100
  6
Continuous
 62
     3
100
AcDbCircle
 10
461.554354777491
 20
297.208359688979
 30
0.0
 40
2.0
100
AcDbArc
 50
270.0
 51
296.5650511770772
  0
ARC
  5
397
330
1F
100
AcDbEntity
  8
100
  6
Continuous
 62
     3
100
AcDbCircle
 10
456.17246558828
 20
297.208359688979
 30
0.0
 40
1.999999999999325
100
AcDbArc
 50
255.5946031285019
 51
270.0
  0
ARC
  5
398
330
1F
100
AcDbEntity
  8
100
  6
Continuous
 62
     3
100
AcDbCircle
 10
450.026490732491
 20
308.208359688979
 30
0.0
 40
1.0
100
AcDbArc
 50
90.0
 51
180.0
  0
ARC
  5
399
330
1F
100
AcDbEntity
  8
100
  6
Continuous
 62
     3
100
AcDbCircle
 10
454.438170205878
 20
290.969698515137
 30
0.0
 40
3.000000000000324
100
AcDbArc
 50
118.8107937429816
 51
168.6900675259907
  0
ARC
  5
39A
330
1F
100
AcDbEntity
  8
100
  6
Continuous
 62
     3
100
AcDbCircle
 10
450.206686829772
 20
290.208359688979
 30
0.0
 40
1.0
100
AcDbArc
 50
270.0
 51
348.6900675259926
  0
ARC
  5
39B
330
1F
100
AcDbEntity
  8
100
  6
Continuous
 62
     3
100
AcDbCircle
 10
451.773736278613
 20
294.208359688979
 30
0.0
 40
2.000000000000316
100
AcDbArc
 50
75.59460312850919
 51
90.0
  0
ARC
  5
39C
330
1F
100
AcDbEntity
  8
2
  6
PHANTOM
 62
     6
100
AcDbCircle
 10
478.68487680787
 20
288.208359688979
 30
0.0
 40
2.000000000000559
100
AcDbArc
 50
19.77327485030031
 51
90.0
  0
ARC
  5
39D
330
1F
100
AcDbEntity
  8
2
  6
PHANTOM
 62
     6
100
AcDbCircle
 10
464.776490732491
 20
283.208359688979
 30
0.0
 40
16.77982419454989
100
AcDbArc
 50
340.2267251497108
 51
19.77327485029252
  0
ARC
  5
39E
330
1F
100
AcDbEntity
  8
2
  6
PHANTOM
 62
     6
100
AcDbCircle
 10
478.68487680787
 20
278.208359688979
 30
0.0
 40
2.0
100
AcDbArc
 50
270.0
 51
340.2267251497273
  0
ARC
  5
39F
330
1F
100
AcDbEntity
  8
2
  6
PHANTOM
 62
     6
100
AcDbCircle
 10
477.49862668749
 20
278.208359688979
 30
0.0
 40
1.999999999999272
100
AcDbArc
 50
243.4349488229096
 51
270.0
  0
ARC
  5
3A0
330
1F
100
AcDbEntity
  8
2
  6
PHANTOM
 62
     6
100
AcDbCircle
 10
474.554354777491
 20
275.208359688979
 30
0.0
 40
2.000000000000187
100
AcDbArc
 50
63.43494882292274
 51
90.0
  0
ARC
  5
3A1
330
1F
100
AcDbEntity
  8
2
  6
PHANTOM
 62
     6
100
AcDbCircle
 10
461.554354777491
 20
278.208359688979
 30
0.0
 40
2.0
100
AcDbArc
 50
270.0
 51
296.5650511770772
  0
ARC
  5
3A2
330
1F
100
AcDbEntity
  8
2
  6
PHANTOM
 62
     6
100
AcDbCircle
 10
464.49862668749
 20
275.208359688979
 30
0.0
 40
2.0
100
AcDbArc
 50
90.0
 51
116.5650511770773
  0
ARC
  5
3A3
330
1F
100
AcDbEntity
  8
2
  6
PHANTOM
 62
     6
100
AcDbCircle
 10
413.55435491704
 20
275.208359688979
 30
0.0
 40
2.000000000000213
100
AcDbArc
 50
63.43494882292129
 51
90.0
  0
ARC
  5
3A4
330
1F
100
AcDbEntity
  8
2
  6
PHANTOM
 62
     6
100
AcDbCircle
 10
403.49862682704
 20
275.208359688979
 30
0.0
 40
2.0
100
AcDbArc
 50
90.0
 51
116.5650511771035
  0
ARC
  5
3A5
330
1F
100
AcDbEntity
  8
2
  6
PHANTOM
 62
     6
100
AcDbCircle
 10
400.55435491704
 20
278.208359688979
 30
0.0
 40
2.0
100
AcDbArc
 50
270.0
 51
296.5650511770918
  0
ARC
  5
3A6
330
1F
100
AcDbEntity
  8
2
  6
PHANTOM
 62
     6
100
AcDbCircle
 10
399.368104796661
 20
278.208359688979
 30
0.0
 40
1.999999999999304
100
AcDbArc
 50
199.7732748502821
 51
270.0
  0
ARC
  5
3A7
330
1F
100
AcDbEntity
  8
2
  6
PHANTOM
 62
     6
100
AcDbCircle
 10
413.27649087204
 20
283.208359688979
 30
0.0
 40
16.77982419454933
100
AcDbArc
 50
160.2267251497064
 51
199.7732748502903
  0
ARC
  5
3A8
330
1F
100
AcDbEntity
  8
2
  6
PHANTOM
 62
     6
100
AcDbCircle
 10
399.368104796661
 20
288.208359688979
 30
0.0
 40
2.0
100
AcDbArc
 50
90.0
 51
160.2267251496903
  0
ARC
  5
3A9
330
1F
100
AcDbEntity
  8
2
  6
PHANTOM
 62
     6
100
AcDbCircle
 10
409.584972431928
 20
288.208359688979
 30
0.0
 40
2.000000000000115
100
AcDbArc
 50
29.9999999999981
 51
90.0
  0
ARC
  5
3AA
330
1F
100
AcDbEntity
  8
2
  6
PHANTOM
 62
     6
100
AcDbCircle
 10
416.02649087204
 20
289.208359688979
 30
0.0
 40
1.0
100
AcDbArc
 50
90.0
 51
180.0
  0
ARC
  5
3AB
330
1F
100
AcDbEntity
  8
2
  6
PHANTOM
 62
     6
100
AcDbCircle
 10
428.02649087204
 20
289.208359688979
 30
0.0
 40
1.0
100
AcDbArc
 50
0.0
 51
90.0
  0
ARC
  5
3AC
330
1F
100
AcDbEntity
  8
2
  6
PHANTOM
 62
     6
100
AcDbCircle
 10
450.026490732491
 20
289.208359688979
 30
0.0
 40
1.0
100
AcDbArc
 50
90.0
 51
180.0
  0
ARC
  5
3AD
330
1F
100
AcDbEntity
  8
2
  6
PHANTOM
 62
     6
100
AcDbCircle
 10
462.026490732491
 20
289.208359688979
 30
0.0
 40
1.0
100
AcDbArc
 50
0.0
 51
90.0
  0
ARC
  5
3AE
330
1F
100
AcDbEntity
  8
2
  6
PHANTOM
 62
     6
100
AcDbCircle
 10
468.468009172603
 20
288.208359688979
 30
0.0
 40
2.0
100
AcDbArc
 50
90.0
 51
150.0000000000019
  0
ARC
  5
3AF
330
1F
100
AcDbEntity
  8
2
  6
PHANTOM
 62
     6
100
AcDbCircle
 10
416.49862682704
 20
278.208359688979
 30
0.0
 40
2.000000000000645
100
AcDbArc
 50
243.4349488228965
 51
270.0
  0
ARC
  5
3B0
330
1F
100
AcDbEntity
  8
100
  6
Continuous
 62
     3
100
AcDbCircle
 10
427.776490802265
 20
206.512335322169
 30
0.0
 40
32.49398816047938
100
AcDbArc
 50
69.74384199958382
 51
110.2561580004162
  0
ARC
  5
3B1
330
1F
100
AcDbEntity
  8
100
  6
Continuous
 62
     3
100
AcDbCircle
 10
450.276490802265
 20
206.512335322169
 30
0.0
 40
32.49398816047938
100
AcDbArc
 50
69.74384199958382
 51
110.2561580004162
  0
ARC
  5
3B2
330
1F
100
AcDbEntity
  8
100
  6
Continuous
 62
     3
100
AcDbCircle
 10
450.276490802265
 20
258.656567425881
 30
0.0
 40
32.640625
100
AcDbArc
 50
249.8388040249154
 51
290.1611959750846
  0
ARC
  5
3B3
330
1F
100
AcDbEntity
  8
100
  6
Continuous
 62
     3
100
AcDbCircle
 10
427.776490802265
 20
258.656567425881
 30
0.0
 40
32.640625
100
AcDbArc
 50
249.8388040249154
 51
290.1611959750846
  0
ARC
  5
3B4
330
1F
100
AcDbEntity
  8
100
  6
Continuous
 62
     3
100
AcDbCircle
 10
415.549411864889
 20
153.480404525072
 30
0.0
 40
36.7055383664214
100
AcDbArc
 50
50.23756119834809
 51
85.34779660001621
  0
ARC
  5
3B5
330
1F
100
AcDbEntity
  8
100
  6
Continuous
 62
     3
100
AcDbCircle
 10
462.608858551449
 20
153.222496374385
 30
0.0
 40
36.97123195875018
100
AcDbArc
 50
94.78241843912586
 51
129.6322237625122
  0
ARC
  5
3B6
330
1F
100
AcDbEntity
  8
100
  6
Continuous
 62
     3
100
AcDbCircle
 10
161.25
 20
408.984402682366
 30
0.0
 40
7.999999999999574
100
AcDbArc
 50
59.99999999999824
 51
107.3023355693629
  0
ARC
  5
3B7
330
1F
100
AcDbEntity
  8
100
  6
Continuous
 62
     3
100
AcDbCircle
 10
126.75
 20
408.984402682366
 30
0.0
 40
8.000000000000256
100
AcDbArc
 50
72.69766443063709
 51
119.9999999999983
  0
ARC
  5
3B8
330
1F
100
AcDbEntity
  8
100
  6
Continuous
 62
     3
100
AcDbCircle
 10
144.0
 20
464.359825931313
 30
0.0
 40
49.99999999999993
100
AcDbArc
 50
252.6976644306402
 51
287.3023355693598
  0
ARC
  5
3B9
330
1F
100
AcDbEntity
  8
100
  6
Continuous
 62
     3
100
AcDbCircle
 10
70.1684767210966
 20
421.733176091558
 30
0.0
 40
50.00000000000048
100
AcDbArc
 50
312.697664430639
 51
347.3023355693599
  0
ARC
  5
3BA
330
1F
100
AcDbEntity
  8
100
  6
Continuous
 62
     3
100
AcDbCircle
 10
126.75
 20
408.984402682366
 30
0.0
 40
8.00000000000041
100
AcDbArc
 50
119.9999999999983
 51
167.3023355693621
  0
ARC
  5
3BB
330
1F
100
AcDbEntity
  8
100
  6
Continuous
 62
     3
100
AcDbCircle
 10
109.5
 20
379.106526251803
 30
0.0
 40
7.999999999999543
100
AcDbArc
 50
132.6976644306442
 51
180.0
  0
ARC
  5
3BC
330
1F
100
AcDbEntity
  8
100
  6
Continuous
 62
     3
100
AcDbCircle
 10
126.75
 20
349.22864982124
 30
0.0
 40
7.999999999999781
100
AcDbArc
 50
192.6976644306467
 51
239.9999999999982
  0
ARC
  5
3BD
330
1F
100
AcDbEntity
  8
100
  6
Continuous
 62
     3
100
AcDbCircle
 10
70.1684767210966
 20
336.479876412048
 30
0.0
 40
50.00000000000031
100
AcDbArc
 50
12.69766443063881
 51
47.30233556936017
  0
ARC
  5
3BE
330
1F
100
AcDbEntity
  8
100
  6
Continuous
 62
     3
100
AcDbCircle
 10
109.5
 20
379.106526251803
 30
0.0
 40
8.0
100
AcDbArc
 50
180.0
 51
227.302335569361
  0
ARC
  5
3BF
330
1F
100
AcDbEntity
  8
100
  6
Continuous
 62
     3
100
AcDbCircle
 10
217.831523278903
 20
421.733176091558
 30
0.0
 40
50.00000000000014
100
AcDbArc
 50
192.69766443064
 51
227.3023355693613
  0
ARC
  5
3C0
330
1F
100
AcDbEntity
  8
100
  6
Continuous
 62
     3
100
AcDbCircle
 10
161.25
 20
408.984402682366
 30
0.0
 40
7.999999999999542
100
AcDbArc
 50
12.69766443063955
 51
59.99999999999824
  0
ARC
  5
3C1
330
1F
100
AcDbEntity
  8
100
  6
Continuous
 62
     3
100
AcDbCircle
 10
217.831523278903
 20
336.479876412048
 30
0.0
 40
49.99999999999946
100
AcDbArc
 50
132.6976644306395
 51
167.3023355693608
  0
ARC
  5
3C2
330
1F
100
AcDbEntity
  8
100
  6
Continuous
 62
     3
100
AcDbCircle
 10
178.5
 20
379.106526251803
 30
0.0
 40
8.000000000000336
100
AcDbArc
 50
312.697664430639
 51
0.0
  0
ARC
  5
3C3
330
1F
100
AcDbEntity
  8
100
  6
Continuous
 62
     3
100
AcDbCircle
 10
178.5
 20
379.106526251803
 30
0.0
 40
8.0
100
AcDbArc
 50
0.0
 51
47.30233556935577
  0
ARC
  5
3C4
330
1F
100
AcDbEntity
  8
100
  6
Continuous
 62
     3
100
AcDbCircle
 10
161.25
 20
349.22864982124
 30
0.0
 40
8.00000000000046
100
AcDbArc
 50
299.9999999999981
 51
347.3023355693549
  0
ARC
  5
3C5
330
1F
100
AcDbEntity
  8
100
  6
Continuous
 62
     3
100
AcDbCircle
 10
161.25
 20
349.22864982124
 30
0.0
 40
8.000000000000309
100
AcDbArc
 50
252.6976644306372
 51
299.9999999999981
  0
ARC
  5
3C6
330
1F
100
AcDbEntity
  8
100
  6
Continuous
 62
     3
100
AcDbCircle
 10
144.0
 20
293.853226572293
 30
0.0
 40
49.99999999999988
100
AcDbArc
 50
72.69766443064019
 51
107.3023355693595
  0
ARC
  5
3C7
330
1F
100
AcDbEntity
  8
100
  6
Continuous
 62
     3
100
AcDbCircle
 10
126.75
 20
349.22864982124
 30
0.0
 40
7.999999999999574
100
AcDbArc
 50
239.9999999999982
 51
287.302335569365
  0
ARC
  5
3C8
330
1F
100
AcDbEntity
  8
100
  6
Continuous
 62
     3
100
AcDbCircle
 10
206.403126357516
 20
353.606526251803
 30
0.0
 40
3.999999999999482
100
AcDbArc
 50
66.47067335826338
 51
90.0
  0
ARC
  5
3C9
330
1F
100
AcDbEntity
  8
100
  6
Continuous
 62
     3
100
AcDbCircle
 10
147.222496374386
 20
355.524158502619
 30
0.0
 40
36.97123195874919
100
AcDbArc
 50
4.78241843912607
 51
23.69108231727973
  0
ARC
  5
3CA
330
1F
100
AcDbEntity
  8
100
  6
Continuous
 62
     3
100
AcDbCircle
 10
147.480404525072
 20
402.583605189179
 30
0.0
 40
36.70553836642168
100
AcDbArc
 50
336.288934871949
 51
355.3477966000162
  0
ARC
  5
3CB
330
1F
100
AcDbEntity
  8
100
  6
Continuous
 62
     3
100
AcDbCircle
 10
105.596873642485
 20
353.606526251803
 30
0.0
 40
4.0
100
AcDbArc
 50
90.0
 51
154.0555202276329
  0
ARC
  5
3CC
330
1F
100
AcDbEntity
  8
100
  6
Continuous
 62
     3
100
AcDbCircle
 10
105.596873642485
 20
404.606526251803
 30
0.0
 40
4.000000000000409
100
AcDbArc
 50
205.9444797723672
 51
270.0
  0
ARC
  5
3CD
330
1F
100
AcDbEntity
  8
100
  6
Continuous
 62
     3
100
AcDbCircle
 10
206.403126357516
 20
165.5
 30
0.0
 40
4.0
100
AcDbArc
 50
270.0
 51
293.5293266417366
  0
ARC
  5
3CE
330
1F
100
AcDbEntity
  8
100
  6
DOTTED
 62
     4
100
AcDbCircle
 10
206.403126357516
 20
114.5
 30
0.0
 40
3.999999999999527
100
AcDbArc
 50
25.94447977237331
 51
66.47067335826338
  0
ARC
  5
3CF
330
1F
100
AcDbEntity
  8
100
  6
DOTTED
 62
     4
100
AcDbCircle
 10
206.403126357516
 20
353.606526251803
 30
0.0
 40
3.999999999999527
100
AcDbArc
 50
25.94447977237331
 51
66.47067335826338
  0
ARC
  5
3D0
330
1F
100
AcDbEntity
  8
100
  6
DOTTED
 62
     4
100
AcDbCircle
 10
206.403126357516
 20
404.606526251803
 30
0.0
 40
3.999999999999482
100
AcDbArc
 50
293.5293266417366
 51
334.0555202276267
  0
ARC
  5
3D1
330
1F
100
AcDbEntity
  8
100
  6
Continuous
 62
     3
100
AcDbCircle
 10
206.403126357516
 20
404.606526251803
 30
0.0
 40
4.0
100
AcDbArc
 50
270.0
 51
293.5293266417366
  0
CIRCLE
  5
3D2
330
1F
100
AcDbEntity
  8
100
  6
Continuous
 62
     3
100
AcDbCircle
 10
124.0
 20
173.0
 30
0.0
 40
10.0
  0
CIRCLE
  5
3D3
330
1F
100
AcDbEntity
  8
100
  6
Continuous
 62
     3
100
AcDbCircle
 10
123.979513996429
 20
173.178997995293
 30
0.0
 40
8.5
  0
CIRCLE
  5
3D4
330
1F
100
AcDbEntity
  8
100
  6
Continuous
 62
     3
100
AcDbCircle
 10
161.25
 20
408.984402682366
 30
0.0
 40
6.5
  0
CIRCLE
  5
3D5
330
1F
100
AcDbEntity
  8
100
  6
Continuous
 62
     3
100
AcDbCircle
 10
144.0
 20
379.106526251803
 30
0.0
 40
28.0
  0
CIRCLE
  5
3D6
330
1F
100
AcDbEntity
  8
100
  6
Continuous
 62
     3
100
AcDbCircle
 10
144.0
 20
379.106526251803
 30
0.0
 40
12.0
  0
CIRCLE
  5
3D7
330
1F
100
AcDbEntity
  8
100
  6
Continuous
 62
     3
100
AcDbCircle
 10
126.75
 20
408.984402682366
 30
0.0
 40
6.5
  0
CIRCLE
  5
3D8
330
1F
100
AcDbEntity
  8
100
  6
Continuous
 62
     3
100
AcDbCircle
 10
109.5
 20
379.106526251803
 30
0.0
 40
6.5
  0
CIRCLE
  5
3D9
330
1F
100
AcDbEntity
  8
100
  6
Continuous
 62
     3
100
AcDbCircle
 10
126.75
 20
349.22864982124
 30
0.0
 40
6.5
  0
CIRCLE
  5
3DA
330
1F
100
AcDbEntity
  8
100
  6
Continuous
 62
     3
100
AcDbCircle
 10
161.25
 20
349.22864982124
 30
0.0
 40
6.5
  0
CIRCLE
  5
3DB
330
1F
100
AcDbEntity
  8
100
  6
Continuous
 62
     3
100
AcDbCircle
 10
178.5
 20
379.106526251803
 30
0.0
 40
6.5
  0
CIRCLE
  5
3DC
330
1F
100
AcDbEntity
  8
100
  6
Continuous
 62
     3
100
AcDbCircle
 10
144.0
 20
379.106526251803
 30
0.0
 40
5.25
  0
CIRCLE
  5
3DD
330
1F
100
AcDbEntity
  8
100
  6
Continuous
 62
     3
100
AcDbCircle
 10
144.0
 20
379.106526251803
 30
0.0
 40
6.099999999999994
  0
CIRCLE
  5
3DE
330
1F
100
AcDbEntity
  8
1
  6
Continuous
 62
     3
100
AcDbCircle
 10
439.026490802265
 20
140.0
 30
0.0
 40
14.5
  0
CIRCLE
  5
3DF
330
1F
100
AcDbEntity
  8
1
  6
Continuous
 62
     3
100
AcDbCircle
 10
439.026490802265
 20
140.0
 30
0.0
 40
23.75
  0
LWPOLYLINE
  5
3E0
330
1F
100
AcDbEntity
  8
100
  6
Continuous
 62
     3
100
AcDbPolyline
 90
        8
 70
     1
 43
0.0
 10
123.979513996429
 20
182.919355533938
 10
123.979513996429
 20
182.919355533938
 10
132.479513996429
 20
178.011878245826
 10
132.479513996429
 20
168.196923669603
 10
123.979513996429
 20
163.289446381491
 10
115.479513996429
 20
168.196923669603
 10
115.479513996429
 20
178.011878245826
 10
123.979513996429
 20
182.919355533938
  0
LWPOLYLINE
  5
3E1
330
1F
100
AcDbEntity
  8
100
  6
Continuous
 62
     3
100
AcDbPolyline
 90
       16
 70
     0
 43
0.0
 10
418.526490802265
 20
202.574293937447
 10
416.164054945264
 20
200.027448973851
 10
415.216469388194
 20
198.661572390102
 10
414.433451314968
 20
197.246108620747
 10
413.820307169192
 20
195.79100813162
 10
413.380009081086
 20
194.303779110923
 10
413.114974111436
 20
192.792626215041
 10
413.026490802265
 20
191.264963466765
 10
414.995418162322
 20
184.234378699473
 10
420.641714491415
 20
178.26517951179
 10
429.083577233155
 20
174.272711440212
 10
439.026490802265
 20
172.880492689705
 10
448.969404371376
 20
174.272711440212
 10
457.411267113116
 20
178.26517951179
 10
463.057563442208
 20
184.234378699473
 10
465.026490802265
 20
191.2649634668
  0
LWPOLYLINE
  5
3E2
330
1F
100
AcDbEntity
  8
100
  6
Continuous
 62
     3
100
AcDbPolyline
 90
        8
 70
     0
 43
0.0
 10
465.026490802265
 20
191.2649634668
 10
464.938007493094
 20
192.792626215041
 10
464.672972523444
 20
194.303779110923
 10
464.232674435339
 20
195.79100813162
 10
463.619530289562
 20
197.246108620747
 10
462.836512216337
 20
198.661572390102
 10
461.888926659267
 20
200.027448973851
 10
459.526490802265
 20
202.574293937447
  0
LWPOLYLINE
  5
3E3
330
1F
100
AcDbEntity
  8
100
  6
Continuous
 62
     3
100
AcDbPolyline
 90
        9
 70
     0
 43
0.0
 10
413.026490802265
 20
188.2649634668
 10
414.995418162322
 20
181.234378699473
 10
420.641714491415
 20
175.26517951179
 10
429.083577233155
 20
171.272711440212
 10
439.026490802265
 20
169.880492689705
 10
448.969404371376
 20
171.272711440212
 10
457.411267113116
 20
175.26517951179
 10
463.057563442208
 20
181.234378699473
 10
465.026490802265
 20
188.2649634668
  0
LWPOLYLINE
  5
3E4
330
1F
100
AcDbEntity
  8
100
  6
Continuous
 62
     3
100
AcDbPolyline
 90
       26
 70
     1
 43
0.0
 10
459.135556879331
 20
203.096553268769
 10
459.135556879331
 20
203.096553268769
 10
459.526490802265
 20
200.2649634668
 10
459.135556879331
 20
197.43337366483
 10
457.974067306836
 20
194.721617784869
 10
456.078619574154
 20
192.21638856582
 10
453.522179816589
 20
190.015133809965
 10
446.866095731756
 20
186.86722629199
 10
439.026490802265
 20
185.76951535409
 10
431.186885872774
 20
186.86722629199
 10
424.530801787941
 20
190.015133809965
 10
421.974362030377
 20
192.21638856582
 10
420.078914297695
 20
194.721617784869
 10
418.9174247252
 20
197.43337366483
 10
418.526490802265
 20
200.2649634668
 10
418.9174247252
 20
203.096553268769
 10
420.078914297695
 20
205.80830914873
 10
421.974362030377
 20
208.313538367779
 10
424.530801787941
 20
210.514793123634
 10
431.186885872774
 20
213.662700641609
 10
439.026490802265
 20
214.760411579509
 10
446.866095731756
 20
213.662700641609
 10
453.522179816589
 20
210.514793123634
 10
456.078619574154
 20
208.313538367779
 10
457.974067306836
 20
205.80830914873
 10
459.135556879331
 20
203.096553268769
  0
LWPOLYLINE
  5
3E5
330
1F
100
AcDbEntity
  8
100
  6
Continuous
 62
     3
100
AcDbPolyline
 90
        4
 70
     0
 43
0.0
 10
134.097302622293
 20
403.358511879124
 42
0.23133765090675
 10
134.5349962797738
 20
403.3225066072644
 42
-0.18848588941661
 10
153.465003720226
 20
403.322506607264
 42
0.23133765090675
 10
153.9026973777072
 20
403.3585118791237
  0
LWPOLYLINE
  5
3E6
330
1F
100
AcDbEntity
  8
100
  6
Continuous
 62
     3
100
AcDbPolyline
 90
        8
 70
     0
 43
0.0
 10
154.25141785277
 20
403.54335157769
 42
0.14401283997075
 10
152.560421488598
 20
402.047914715121
 10
147.192537026678
 20
393.498072965683
 42
-0.26894396973056
 10
144.529574482803
 20
392.095735268027
 42
0.02037670644276
 10
143.470425517197
 20
392.095735268027
 42
-0.26894396973056
 10
140.807462973322
 20
393.498072965683
 10
135.439578511402
 20
402.047914715121
 42
0.14401283997077
 10
133.7485821472298
 20
403.5433515776896
  0
LWPOLYLINE
  5
3E7
330
1F
100
AcDbEntity
  8
100
  6
Continuous
 62
     3
100
AcDbPolyline
 90
        8
 70
     0
 43
0.0
 10
127.962797406324
 20
400.202927200054
 42
0.14401283997072
 10
128.4123855369784
 20
397.9907629596902
 10
133.132823459368
 20
389.067117776368
 42
-0.26894396973058
 10
133.015802258285
 20
386.059755715218
 42
0.02037670644274
 10
132.4862277754824
 20
385.1425058046118
 42
-0.26894396973057
 10
129.94028643269
 20
383.537481441118
 10
119.85196404838
 20
383.163678007234
 42
0.14401283997074
 10
117.7113795535539
 20
382.4469506294381
  0
LWPOLYLINE
  5
3E8
330
1F
100
AcDbEntity
  8
100
  6
Continuous
 62
     3
100
AcDbPolyline
 90
        4
 70
     0
 43
0.0
 10
118.045815665672
 20
382.65653157038
 42
0.23133765090629
 10
118.2958439745119
 20
383.017582760903
 42
-0.18848588941661
 10
127.760847694738
 20
399.411450098164
 42
0.23133765090689
 10
127.9485130433778
 20
399.808506560547
  0
LWPOLYLINE
  5
3E9
330
1F
100
AcDbEntity
  8
100
  6
Continuous
 62
     3
100
AcDbPolyline
 90
        8
 70
     0
 43
0.0
 10
117.711379553554
 20
375.766101874167
 42
0.14401283997078
 10
119.85196404838
 20
375.0493744963715
 10
129.94028643269
 20
374.675571062488
 42
-0.26894396973045
 10
132.486227775482
 20
373.070546698994
 42
0.02037670644276
 10
133.0158022582851
 20
372.1532967883871
 42
-0.26894396973059
 10
133.132823459368
 20
369.145934727237
 10
128.412385536978
 20
360.222289543916
 42
0.14401283997079
 10
127.9627974063236
 20
358.0101253035509
  0
LWPOLYLINE
  5
3EA
330
1F
100
AcDbEntity
  8
100
  6
Continuous
 62
     3
100
AcDbPolyline
 90
        4
 70
     0
 43
0.0
 10
127.948513043378
 20
358.404545943059
 42
0.23133765090625
 10
127.7608476947379
 20
358.8016024054419
 42
-0.1884858894166
 10
118.295843974512
 20
375.195469742702
 42
0.23133765090629
 10
118.045815665672
 20
375.556520933225
  0
LWPOLYLINE
  5
3EB
330
1F
100
AcDbEntity
  8
100
  6
Continuous
 62
     3
100
AcDbPolyline
 90
        8
 70
     0
 43
0.0
 10
170.288620446446
 20
382.446950629438
 42
0.14401283997078
 10
168.14803595162
 20
383.1636780072335
 10
158.05971356731
 20
383.537481441118
 42
-0.26894396973057
 10
155.513772224518
 20
385.142505804612
 42
0.02037670644274
 10
154.9841977417153
 20
386.0597557152182
 42
-0.26894396973058
 10
154.867176540632
 20
389.067117776368
 10
159.587614463022
 20
397.99076295969
 42
0.14401283997068
 10
160.0372025936763
 20
400.202927200054
  0
LWPOLYLINE
  5
3EC
330
1F
100
AcDbEntity
  8
100
  6
Continuous
 62
     3
100
AcDbPolyline
 90
        4
 70
     0
 43
0.0
 10
160.051486956622
 20
399.808506560547
 42
0.23133765090689
 10
160.2391523052619
 20
399.4114500981638
 42
-0.18848588941661
 10
169.704156025488
 20
383.017582760903
 42
0.23133765090592
 10
169.9541843343277
 20
382.6565315703795
  0
LWPOLYLINE
  5
3ED
330
1F
100
AcDbEntity
  8
100
  6
Continuous
 62
     3
100
AcDbPolyline
 90
        8
 70
     0
 43
0.0
 10
160.037202593676
 20
358.010125303551
 42
0.14401283997079
 10
159.5876144630217
 20
360.2222895439158
 10
154.867176540633
 20
369.145934727237
 42
-0.26894396973063
 10
154.984197741715
 20
372.153296788387
 42
0.02037670644276
 10
155.5137722245181
 20
373.070546698994
 42
-0.26894396973045
 10
158.05971356731
 20
374.675571062488
 10
168.14803595162
 20
375.049374496372
 42
0.14401283997078
 10
170.2886204464457
 20
375.7661018741675
  0
LWPOLYLINE
  5
3EE
330
1F
100
AcDbEntity
  8
100
  6
Continuous
 62
     3
100
AcDbPolyline
 90
        4
 70
     0
 43
0.0
 10
169.954184334328
 20
375.556520933226
 42
0.23133765090662
 10
169.7041560254872
 20
375.195469742702
 42
-0.1884858894166
 10
160.239152305262
 20
358.801602405442
 42
0.23133765090625
 10
160.0514869566218
 20
358.404545943059
  0
LWPOLYLINE
  5
3EF
330
1F
100
AcDbEntity
  8
100
  6
Continuous
 62
     3
100
AcDbPolyline
 90
        8
 70
     0
 43
0.0
 10
133.74858214723
 20
354.669700925916
 42
0.14401283997081
 10
135.439578511402
 20
356.165137788485
 10
140.807462973322
 20
364.714979537922
 42
-0.26894396973056
 10
143.470425517197
 20
366.117317235578
 42
0.02037670644275
 10
144.529574482803
 20
366.117317235578
 42
-0.26894396973056
 10
147.192537026678
 20
364.714979537922
 10
152.560421488598
 20
356.165137788485
 42
0.1440128399708
 10
154.25141785277
 20
354.6697009259161
  0
LWPOLYLINE
  5
3F0
330
1F
100
AcDbEntity
  8
100
  6
Continuous
 62
     3
100
AcDbPolyline
 90
        4
 70
     0
 43
0.0
 10
153.902697377707
 20
354.854540624482
 42
0.23133765090625
 10
153.4650037202262
 20
354.8905458963416
 42
-0.18848588941661
 10
134.534996279774
 20
354.890545896341
 42
0.23133765090645
 10
134.0973026222932
 20
354.8545406244816
  0
LWPOLYLINE
  5
3F1
330
1F
100
AcDbEntity
  8
100
  6
Continuous
 62
     3
100
AcDbPolyline
 90
        5
 70
     0
 43
0.0
 10
173.347295218923
 20
359.308662054469
 10
175.990943456336
 20
356.652168909192
 10
178.916080988531
 20
354.698571064805
 10
182.033573929379
 20
353.506837690601
 10
185.2649634668
 20
353.106526251803
  0
LWPOLYLINE
  5
3F2
330
1F
100
AcDbEntity
  8
100
  6
Continuous
 62
     3
100
AcDbPolyline
 90
        8
 70
     0
 43
0.0
 10
185.2649634668
 20
353.106526251803
 10
186.792626215042
 20
353.195009560974
 10
188.303779110924
 20
353.460044530624
 10
189.791008131621
 20
353.900342618729
 10
191.246108620748
 20
354.513486764506
 10
192.661572390102
 20
355.296504837731
 10
194.027448973851
 20
356.244090394801
 10
196.574293937448
 20
358.606526251803
  0
LWPOLYLINE
  5
3F3
330
1F
100
AcDbEntity
  8
100
  6
Continuous
 62
     3
100
AcDbPolyline
 90
       12
 70
     0
 43
0.0
 10
196.574293937448
 20
399.606526251803
 10
194.027448973851
 20
401.968962108804
 10
192.661572390102
 20
402.916547665874
 10
191.246108620748
 20
403.6995657391
 10
189.791008131621
 20
404.312709884876
 10
188.303779110924
 20
404.753007972982
 10
186.792626215042
 20
405.018042942632
 10
185.264963466766
 20
405.106526251803
 10
182.033573929379
 20
404.706214813005
 10
178.916080988531
 20
403.514481438801
 10
175.990943456336
 20
401.560883594414
 10
173.347295218923
 20
398.904390449136
  0
LWPOLYLINE
  5
3F4
330
1F
100
AcDbEntity
  8
100
  6
Continuous
 62
     3
100
AcDbPolyline
 90
        5
 70
     0
 43
0.0
 10
182.2649634668
 20
405.106526251803
 10
179.64328537275
 20
404.844169593896
 10
177.086745905329
 20
404.060941982115
 10
174.635701700875
 20
402.769039791863
 10
172.33618481283
 20
400.992535362365
  0
LWPOLYLINE
  5
3F5
330
1F
100
AcDbEntity
  8
100
  6
Continuous
 62
     3
100
AcDbPolyline
 90
        5
 70
     0
 43
0.0
 10
172.33618481283
 20
357.22051714124
 10
174.635701700875
 20
355.444012711742
 10
177.086745905329
 20
354.15211052149
 10
179.64328537275
 20
353.368882909709
 10
182.2649634668
 20
353.106526251803
  0
LWPOLYLINE
  5
3F6
330
1F
100
AcDbEntity
  8
100
  6
Continuous
 62
     3
100
AcDbPolyline
 90
        8
 70
     0
 43
0.0
 10
181.127180602705
 20
370.432655807971
 10
183.373192063443
 20
365.57908793135
 10
184.838706223424
 20
363.532482048481
 10
186.492102989043
 20
361.799949511511
 10
188.294536789527
 20
360.420640689997
 10
190.213691768368
 20
359.417910313514
 10
192.214177804169
 20
358.810105125314
 10
194.2649634668
 20
358.606526251803
  0
LWPOLYLINE
  5
3F7
330
1F
100
AcDbEntity
  8
100
  6
Continuous
 62
     3
100
AcDbPolyline
 90
       20
 70
     0
 43
0.0
 10
194.2649634668
 20
358.606526251803
 10
197.09655326877
 20
358.997460174737
 10
199.808309148731
 20
360.158949747232
 10
202.31353836778
 20
362.054397479914
 10
204.514793123635
 20
364.610837237479
 10
207.66270064161
 20
371.266921322312
 10
208.76041157951
 20
379.106526251803
 10
207.66270064161
 20
386.946131181294
 10
204.514793123635
 20
393.602215266127
 10
202.31353836778
 20
396.158655023691
 10
199.808309148731
 20
398.054102756373
 10
197.09655326877
 20
399.215592328868
 10
194.2649634668
 20
399.606526251803
 10
192.214177804169
 20
399.402947378291
 10
190.213691768368
 20
398.795142190092
 10
188.294536789527
 20
397.792411813609
 10
186.492102989043
 20
396.413102992095
 10
184.838706223425
 20
394.680570455124
 10
183.373192063444
 20
392.633964572256
 10
181.127180602705
 20
387.780396695635
  0
LEADER
  5
3F8
330
1F
100
AcDbEntity
  8
1
  6
Continuous
 62
     4
100
AcDbLeader
  3
Standard
 71
     0
 76
     3
 10
340.3
 20
140.0
 30
0.0
 10
350.837006071095
 20
117.428862049513
 30
0.0
 10
396.170445298081
 20
117.428862049513
 30
0.0
  0
LEADER
  5
3F9
330
1F
100
AcDbEntity
  8
1
  6
Continuous
 62
     4
100
AcDbLeader
  3
Standard
 71
     0
 76
     3
 10
94.8331995795728
 20
116.25
 30
0.0
 10
80.7295119094091
 20
93.9273401541115
 30
0.0
 10
33.9346706795506
 20
93.9273401541115
 30
0.0
  0
LEADER
  5
3FA
330
1F
100
AcDbEntity
  8
1
  6
Continuous
 62
     3
100
AcDbLeader
  3
Standard
 71
     0
 76
     3
 10
217.930457082322
 20
116.25
 30
0.0
 10
228.467463153417
 20
93.6788620495126
 30
0.0
 10
273.800902380403
 20
93.6788620495126
 30
0.0
  0
DIMENSION
  5
430
330
1F
100
AcDbEntity
  8
1
100
AcDbDimension
  2
*D1
 10
86.0
 20
49.39573977463641
 30
0.0
 11
203.0
 21
55.5622991035717
 31
0.0
 70
    32
  1
可動範囲　214～234
 71
     5
 42
-1.0
 53
0.00013888888889
  3
ME10_DIM_10
100
AcDbAlignedDimension
 13
320.0
 23
119.0
 33
0.0
 14
86.0
 24
116.25
 34
0.0
100
AcDbRotatedDimension
  0
DIMENSION
  5
43D
330
1F
100
AcDbEntity
  8
1
100
AcDbDimension
  2
*D3
 10
86.00000000000001
 20
71.0529299658368
 30
0.0
 11
153.798098084199
 21
77.0529299658368
 31
0.0
 70
    32
  1
140
 71
     5
 42
-1.0
 53
0.00013888888889
  3
ME10_DIM_11
100
AcDbAlignedDimension
 13
226.0
 23
116.25
 33
0.0
 14
86.0
 24
116.25
 34
0.0
100
AcDbRotatedDimension
  0
DIMENSION
  5
44A
330
1F
100
AcDbEntity
  8
1
100
AcDbDimension
  2
*D4
 10
367.082639697098
 20
140.0
 30
0.0
 11
361.082639697098
 21
233.293650141669
 31
0.0
 70
    32
  1
167
 71
     5
 42
-1.0
 53
90.0
  3
ME10_DIM_12
100
AcDbAlignedDimension
 13
183.658386005604
 23
308.202036206331
 33
0.0
 14
349.0
 24
140.0
 34
0.0
 50
90.0
100
AcDbRotatedDimension
  0
ENDSEC
  0
SECTION
  2
OBJECTS
  0
DICTIONARY
  5
C
330
0
100
AcDbDictionary
281
     1
  3
ACAD_GROUP
350
D
  3
ACAD_LAYOUT
350
1A
  3
ACAD_MATERIAL
350
3B
  3
ACAD_MLEADERSTYLE
350
44D
  3
ACAD_MLINESTYLE
350
17
  3
ACAD_PLOTSETTINGS
350
19
  3
ACAD_PLOTSTYLENAME
350
E
  3
ACAD_SCALELIST
350
404
  3
ACAD_VISUALSTYLE
350
2A
  3
AcDbVariableDictionary
350
44B
  0
DICTIONARY
  5
D
102
{ACAD_REACTORS
330
C
102
}
330
C
100
AcDbDictionary
281
     1
  0
DICTIONARY
  5
1A
102
{ACAD_REACTORS
330
C
102
}
330
C
100
AcDbDictionary
281
     1
  3
Layout1
350
1E
  3
Layout2
350
26
  3
Model
350
22
  0
DICTIONARY
  5
3B
102
{ACAD_REACTORS
330
C
102
}
330
C
100
AcDbDictionary
281
     1
  3
ByBlock
350
3D
  3
ByLayer
350
3C
  3
Global
350
3E
  0
DICTIONARY
  5
44D
102
{ACAD_REACTORS
330
C
102
}
330
C
100
AcDbDictionary
281
     1
  0
DICTIONARY
  5
17
102
{ACAD_REACTORS
330
C
102
}
330
C
100
AcDbDictionary
281
     1
  3
Standard
350
18
  0
DICTIONARY
  5
19
102
{ACAD_REACTORS
330
C
102
}
330
C
100
AcDbDictionary
281
     1
  0
ACDBDICTIONARYWDFLT
  5
E
102
{ACAD_REACTORS
330
C
102
}
330
C
100
AcDbDictionary
281
     1
  3
Normal
350
F
100
AcDbDictionaryWithDefault
340
F
  0
DICTIONARY
  5
404
102
{ACAD_REACTORS
330
C
102
}
330
C
100
AcDbDictionary
281
     1
  3
A0
350
405
  3
A1
350
406
  3
A2
350
407
  3
A3
350
408
  3
A4
350
409
  3
A5
350
40A
  3
A6
350
40B
  3
A7
350
40C
  3
A8
350
40D
  3
A9
350
40E
  3
B0
350
40F
  3
B1
350
410
  3
B2
350
411
  3
B3
350
412
  3
B4
350
413
  3
B5
350
414
  3
B6
350
415
  3
B7
350
416
  3
B8
350
417
  3
B9
350
418
  3
C0
350
419
  3
C1
350
41A
  3
C2
350
41B
  3
C3
350
41C
  3
C4
350
41D
  3
C5
350
41E
  3
C6
350
41F
  3
C7
350
420
  3
C8
350
421
  3
C9
350
422
  3
D0
350
423
  3
D1
350
424
  3
D2
350
425
  0
DICTIONARY
  5
2A
102
{ACAD_REACTORS
330
C
102
}
330
C
100
AcDbDictionary
281
     1
  3
2dWireframe
350
2F
  3
3D Hidden
350
31
  3
3dWireframe
350
30
  3
Basic
350
32
  3
Brighten
350
36
  3
ColorChange
350
3A
  3
Conceptual
350
34
  3
Dim
350
35
  3
Facepattern
350
39
  3
Flat
350
2B
  3
FlatWithEdges
350
2C
  3
Gouraud
350
2D
  3
GouraudWithEdges
350
2E
  3
Linepattern
350
38
  3
Realistic
350
33
  3
Thicken
350
37
  0
DICTIONARY
  5
44B
102
{ACAD_REACTORS
330
C
102
}
330
C
100
AcDbDictionary
281
     1
  3
CANNOSCALE
350
44E
  3
DIMASSOC
350
44F
  3
HIDETEXT
350
450
  0
LAYOUT
  5
1E
102
{ACAD_REACTORS
330
1A
102
}
330
1A
100
AcDbPlotSettings
  1

  2
none_device
  4

  6

 40
0.0
 41
0.0
 42
0.0
 43
0.0
 44
0.0
 45
0.0
 46
0.0
 47
0.0
 48
0.0
 49
0.0
140
0.0
141
0.0
142
1.0
143
1.0
 70
   688
 72
     0
 73
     0
 74
     5
  7

 75
    16
147
1.0
148
0.0
149
0.0
100
AcDbLayout
  1
Layout1
 70
     1
 71
     1
 10
0.0
 20
0.0
 11
12.0
 21
9.0
 12
0.0
 22
0.0
 32
0.0
 14
1.00000000000000E+20
 24
1.00000000000000E+20
 34
1.00000000000000E+20
 15
-1.00000000000000E+20
 25
-1.00000000000000E+20
 35
-1.00000000000000E+20
146
0.0
 13
0.0
 23
0.0
 33
0.0
 16
1.0
 26
0.0
 36
0.0
 17
0.0
 27
1.0
 37
0.0
 76
     0
330
1B
  0
LAYOUT
  5
26
102
{ACAD_REACTORS
330
1A
102
}
330
1A
100
AcDbPlotSettings
  1

  2
none_device
  4

  6

 40
0.0
 41
0.0
 42
0.0
 43
0.0
 44
0.0
 45
0.0
 46
0.0
 47
0.0
 48
0.0
 49
0.0
140
0.0
141
0.0
142
1.0
143
1.0
 70
   688
 72
     0
 73
     0
 74
     5
  7

 75
    16
147
1.0
148
0.0
149
0.0
100
AcDbLayout
  1
Layout2
 70
     1
 71
     2
 10
0.0
 20
0.0
 11
0.0
 21
0.0
 12
0.0
 22
0.0
 32
0.0
 14
0.0
 24
0.0
 34
0.0
 15
0.0
 25
0.0
 35
0.0
146
0.0
 13
0.0
 23
0.0
 33
0.0
 16
1.0
 26
0.0
 36
0.0
 17
0.0
 27
1.0
 37
0.0
 76
     0
330
23
  0
LAYOUT
  5
22
102
{ACAD_REACTORS
330
1A
102
}
330
1A
100
AcDbPlotSettings
  1

  2
none_device
  4

  6

 40
0.0
 41
0.0
 42
0.0
 43
0.0
 44
0.0
 45
0.0
 46
0.0
 47
0.0
 48
0.0
 49
0.0
140
0.0
141
0.0
142
1.0
143
1.0
 70
  1712
 72
     0
 73
     0
 74
     0
  7

 75
     0
147
1.0
148
0.0
149
0.0
100
AcDbLayout
  1
Model
 70
     1
 71
     0
 10
0.0
 20
0.0
 11
12.0
 21
9.0
 12
0.0
 22
0.0
 32
0.0
 14
33.9346706795506
 24
47.25214623518743
 34
0.0
 15
481.5563149270413
 25
424.330863142633
 35
0.0
146
0.0
 13
0.0
 23
0.0
 33
0.0
 16
1.0
 26
0.0
 36
0.0
 17
0.0
 27
1.0
 37
0.0
 76
     0
330
1F
331
29
  0
MATERIAL
  5
3D
102
{ACAD_REACTORS
330
3B
102
}
102
{ACAD_XDICTIONARY
360
473
102
}
330
3B
100
AcDbMaterial
  1
ByBlock
  0
MATERIAL
  5
3C
102
{ACAD_REACTORS
330
3B
102
}
102
{ACAD_XDICTIONARY
360
471
102
}
330
3B
100
AcDbMaterial
  1
ByLayer
  0
MATERIAL
  5
3E
102
{ACAD_REACTORS
330
3B
102
}
102
{ACAD_XDICTIONARY
360
475
102
}
330
3B
100
AcDbMaterial
  1
Global
  0
MLINESTYLE
  5
18
102
{ACAD_REACTORS
330
17
102
}
330
17
100
AcDbMlineStyle
  2
Standard
 70
     0
  3

 62
   256
 51
90.0
 52
90.0
 71
     2
 49
0.5
 62
   256
  6
BYLAYER
 49
-0.5
 62
   256
  6
BYLAYER
  0
ACDBPLACEHOLDER
  5
F
102
{ACAD_REACTORS
330
E
102
}
330
E
  0
SCALE
  5
405
102
{ACAD_REACTORS
330
404
102
}
330
404
100
AcDbScale
 70
     0
300
1:1
140
1.0
141
1.0
290
     1
  0
SCALE
  5
406
102
{ACAD_REACTORS
330
404
102
}
330
404
100
AcDbScale
 70
     0
300
1:2
140
1.0
141
2.0
290
     0
  0
SCALE
  5
407
102
{ACAD_REACTORS
330
404
102
}
330
404
100
AcDbScale
 70
     0
300
1:4
140
1.0
141
4.0
290
     0
  0
SCALE
  5
408
102
{ACAD_REACTORS
330
404
102
}
330
404
100
AcDbScale
 70
     0
300
1:5
140
1.0
141
5.0
290
     0
  0
SCALE
  5
409
102
{ACAD_REACTORS
330
404
102
}
330
404
100
AcDbScale
 70
     0
300
1:8
140
1.0
141
8.0
290
     0
  0
SCALE
  5
40A
102
{ACAD_REACTORS
330
404
102
}
330
404
100
AcDbScale
 70
     0
300
1:10
140
1.0
141
10.0
290
     0
  0
SCALE
  5
40B
102
{ACAD_REACTORS
330
404
102
}
330
404
100
AcDbScale
 70
     0
300
1:16
140
1.0
141
16.0
290
     0
  0
SCALE
  5
40C
102
{ACAD_REACTORS
330
404
102
}
330
404
100
AcDbScale
 70
     0
300
1:20
140
1.0
141
20.0
290
     0
  0
SCALE
  5
40D
102
{ACAD_REACTORS
330
404
102
}
330
404
100
AcDbScale
 70
     0
300
1:30
140
1.0
141
30.0
290
     0
  0
SCALE
  5
40E
102
{ACAD_REACTORS
330
404
102
}
330
404
100
AcDbScale
 70
     0
300
1:40
140
1.0
141
40.0
290
     0
  0
SCALE
  5
40F
102
{ACAD_REACTORS
330
404
102
}
330
404
100
AcDbScale
 70
     0
300
1:50
140
1.0
141
50.0
290
     0
  0
SCALE
  5
410
102
{ACAD_REACTORS
330
404
102
}
330
404
100
AcDbScale
 70
     0
300
1:100
140
1.0
141
100.0
290
     0
  0
SCALE
  5
411
102
{ACAD_REACTORS
330
404
102
}
330
404
100
AcDbScale
 70
     0
300
2:1
140
2.0
141
1.0
290
     0
  0
SCALE
  5
412
102
{ACAD_REACTORS
330
404
102
}
330
404
100
AcDbScale
 70
     0
300
4:1
140
4.0
141
1.0
290
     0
  0
SCALE
  5
413
102
{ACAD_REACTORS
330
404
102
}
330
404
100
AcDbScale
 70
     0
300
8:1
140
8.0
141
1.0
290
     0
  0
SCALE
  5
414
102
{ACAD_REACTORS
330
404
102
}
330
404
100
AcDbScale
 70
     0
300
10:1
140
10.0
141
1.0
290
     0
  0
SCALE
  5
415
102
{ACAD_REACTORS
330
404
102
}
330
404
100
AcDbScale
 70
     0
300
100:1
140
100.0
141
1.0
290
     0
  0
SCALE
  5
416
102
{ACAD_REACTORS
330
404
102
}
330
404
100
AcDbScale
 70
     0
300
1/128" = 1'-0"
140
0.0078125
141
12.0
290
     0
  0
SCALE
  5
417
102
{ACAD_REACTORS
330
404
102
}
330
404
100
AcDbScale
 70
     0
300
1/64" = 1'-0"
140
0.015625
141
12.0
290
     0
  0
SCALE
  5
418
102
{ACAD_REACTORS
330
404
102
}
330
404
100
AcDbScale
 70
     0
300
1/32" = 1'-0"
140
0.03125
141
12.0
290
     0
  0
SCALE
  5
419
102
{ACAD_REACTORS
330
404
102
}
330
404
100
AcDbScale
 70
     0
300
1/16" = 1'-0"
140
0.0625
141
12.0
290
     0
  0
SCALE
  5
41A
102
{ACAD_REACTORS
330
404
102
}
330
404
100
AcDbScale
 70
     0
300
3/32" = 1'-0"
140
0.09375
141
12.0
290
     0
  0
SCALE
  5
41B
102
{ACAD_REACTORS
330
404
102
}
330
404
100
AcDbScale
 70
     0
300
1/8" = 1'-0"
140
0.125
141
12.0
290
     0
  0
SCALE
  5
41C
102
{ACAD_REACTORS
330
404
102
}
330
404
100
AcDbScale
 70
     0
300
3/16" = 1'-0"
140
0.1875
141
12.0
290
     0
  0
SCALE
  5
41D
102
{ACAD_REACTORS
330
404
102
}
330
404
100
AcDbScale
 70
     0
300
1/4" = 1'-0"
140
0.25
141
12.0
290
     0
  0
SCALE
  5
41E
102
{ACAD_REACTORS
330
404
102
}
330
404
100
AcDbScale
 70
     0
300
3/8" = 1'-0"
140
0.375
141
12.0
290
     0
  0
SCALE
  5
41F
102
{ACAD_REACTORS
330
404
102
}
330
404
100
AcDbScale
 70
     0
300
1/2" = 1'-0"
140
0.5
141
12.0
290
     0
  0
SCALE
  5
420
102
{ACAD_REACTORS
330
404
102
}
330
404
100
AcDbScale
 70
     0
300
3/4" = 1'-0"
140
0.75
141
12.0
290
     0
  0
SCALE
  5
421
102
{ACAD_REACTORS
330
404
102
}
330
404
100
AcDbScale
 70
     0
300
1" = 1'-0"
140
1.0
141
12.0
290
     0
  0
SCALE
  5
422
102
{ACAD_REACTORS
330
404
102
}
330
404
100
AcDbScale
 70
     0
300
1-1/2" = 1'-0"
140
1.5
141
12.0
290
     0
  0
SCALE
  5
423
102
{ACAD_REACTORS
330
404
102
}
330
404
100
AcDbScale
 70
     0
300
3" = 1'-0"
140
3.0
141
12.0
290
     0
  0
SCALE
  5
424
102
{ACAD_REACTORS
330
404
102
}
330
404
100
AcDbScale
 70
     0
300
6" = 1'-0"
140
6.0
141
12.0
290
     0
  0
SCALE
  5
425
102
{ACAD_REACTORS
330
404
102
}
330
404
100
AcDbScale
 70
     0
300
1'-0" = 1'-0"
140
12.0
141
12.0
290
     0
  0
VISUALSTYLE
  5
2F
102
{ACAD_REACTORS
330
2A
102
}
102
{ACAD_XDICTIONARY
360
459
102
}
330
2A
100
AcDbVisualStyle
  2
2dWireframe
 70
     4
 71
     0
 72
     2
 73
     0
 90
        0
 40
-0.6
 41
-30.0
 62
     5
 63
     7
 74
     1
 91
        4
 64
     7
 65
   257
 75
     1
175
     1
 42
1.0
 92
        0
 66
   257
 43
1.0
 76
     1
 77
     6
 78
     2
 67
     7
 79
     5
170
     0
171
     0
290
     0
174
     0
 93
        1
 44
0.0
173
     0
291
     0
 45
0.0
1001
ACAD
1000
AcDbSavedByObjectVersion
1070
     0
  0
VISUALSTYLE
  5
31
102
{ACAD_REACTORS
330
2A
102
}
102
{ACAD_XDICTIONARY
360
45D
102
}
330
2A
100
AcDbVisualStyle
  2
3D Hidden
 70
     6
 71
     1
 72
     2
 73
     2
 90
        0
 40
-0.6
 41
-30.0
 62
     5
 63
     7
 74
     2
 91
        2
 64
     7
 65
   257
 75
     2
175
     1
 42
40.0
 92
        0
 66
   257
 43
1.0
 76
     1
 77
     6
 78
     2
 67
     7
 79
     3
170
     0
171
     0
290
     0
174
     0
 93
        1
 44
0.0
173
     0
291
     0
 45
0.0
1001
ACAD
1000
AcDbSavedByObjectVersion
1070
     0
  0
VISUALSTYLE
  5
30
102
{ACAD_REACTORS
330
2A
102
}
102
{ACAD_XDICTIONARY
360
45B
102
}
330
2A
100
AcDbVisualStyle
  2
3dWireframe
 70
     5
 71
     0
 72
     2
 73
     0
 90
        0
 40
-0.6
 41
-30.0
 62
     5
 63
     7
 74
     1
 91
        4
 64
     7
 65
   257
 75
     1
175
     1
 42
1.0
 92
        0
 66
   257
 43
1.0
 76
     1
 77
     6
 78
     2
 67
     7
 79
     5
170
     0
171
     0
290
     0
174
     0
 93
        1
 44
0.0
173
     0
291
     0
 45
0.0
1001
ACAD
1000
AcDbSavedByObjectVersion
1070
     0
  0
VISUALSTYLE
  5
32
102
{ACAD_REACTORS
330
2A
102
}
102
{ACAD_XDICTIONARY
360
45F
102
}
330
2A
100
AcDbVisualStyle
  2
Basic
 70
     7
 71
     1
 72
     0
 73
     1
 90
        0
 40
-0.6
 41
-30.0
 62
     5
 63
     7
 74
     0
 91
        4
 64
     7
 65
   257
 75
     1
175
     1
 42
1.0
 92
        8
 66
     7
 43
1.0
 76
     1
 77
     6
 78
     2
 67
     7
 79
     5
170
     0
171
     0
290
     0
174
     0
 93
        1
 44
0.0
173
     0
291
     1
 45
0.0
1001
ACAD
1000
AcDbSavedByObjectVersion
1070
     0
  0
VISUALSTYLE
  5
36
102
{ACAD_REACTORS
330
2A
102
}
102
{ACAD_XDICTIONARY
360
467
102
}
330
2A
100
AcDbVisualStyle
  2
Brighten
 70
    12
 71
     2
 72
     2
 73
     0
 90
        0
 40
-0.6
 41
-30.0
 62
     5
 63
     7
 74
     1
 91
        4
 64
     7
 65
   257
 75
     1
175
     1
 42
1.0
 92
        8
 66
     7
 43
1.0
 76
     1
 77
     6
 78
     2
 67
     7
 79
     5
170
     0
171
     0
290
     0
174
     0
 93
        1
 44
50.0
173
     0
291
     1
 45
0.0
1001
ACAD
1000
AcDbSavedByObjectVersion
1070
     0
  0
VISUALSTYLE
  5
3A
102
{ACAD_REACTORS
330
2A
102
}
102
{ACAD_XDICTIONARY
360
46F
102
}
330
2A
100
AcDbVisualStyle
  2
ColorChange
 70
    16
 71
     2
 72
     2
 73
     3
 90
        0
 40
-0.6
 41
-30.0
 62
     5
 63
     8
 74
     1
 91
        4
 64
     7
 65
   257
 75
     1
175
     1
 42
1.0
 92
        8
 66
     8
 43
1.0
 76
     1
 77
     6
 78
     2
 67
     7
 79
     5
170
     0
171
     0
290
     0
174
     0
 93
        1
 44
0.0
173
     0
291
     1
 45
0.0
1001
ACAD
1000
AcDbSavedByObjectVersion
1070
     0
  0
VISUALSTYLE
  5
34
102
{ACAD_REACTORS
330
2A
102
}
102
{ACAD_XDICTIONARY
360
463
102
}
330
2A
100
AcDbVisualStyle
  2
Conceptual
 70
     9
 71
     3
 72
     2
 73
     0
 90
        0
 40
-0.6
 41
-30.0
 62
     5
 63
     7
 74
     2
 91
        2
 64
     7
 65
   257
 75
     1
175
     1
 42
40.0
 92
        8
 66
     7
 43
1.0
 76
     1
 77
     6
 78
     2
 67
     7
 79
     3
170
     0
171
     0
290
     0
174
     0
 93
        1
 44
0.0
173
     0
291
     0
 45
0.0
1001
ACAD
1000
AcDbSavedByObjectVersion
1070
     0
  0
VISUALSTYLE
  5
35
102
{ACAD_REACTORS
330
2A
102
}
102
{ACAD_XDICTIONARY
360
465
102
}
330
2A
100
AcDbVisualStyle
  2
Dim
 70
    11
 71
     2
 72
     2
 73
     0
 90
        0
 40
-0.6
 41
-30.0
 62
     5
 63
     7
 74
     1
 91
        4
 64
     7
 65
   257
 75
     1
175
     1
 42
1.0
 92
        8
 66
     7
 43
1.0
 76
     1
 77
     6
 78
     2
 67
     7
 79
     5
170
     0
171
     0
290
     0
174
     0
 93
        1
 44
-50.0
173
     0
291
     1
 45
0.0
1001
ACAD
1000
AcDbSavedByObjectVersion
1070
     0
  0
VISUALSTYLE
  5
39
102
{ACAD_REACTORS
330
2A
102
}
102
{ACAD_XDICTIONARY
360
46D
102
}
330
2A
100
AcDbVisualStyle
  2
Facepattern
 70
    15
 71
     2
 72
     2
 73
     0
 90
        0
 40
-0.6
 41
-30.0
 62
     5
 63
     7
 74
     1
 91
        4
 64
     7
 65
   257
 75
     1
175
     1
 42
1.0
 92
        8
 66
     7
 43
1.0
 76
     1
 77
     6
 78
     2
 67
     7
 79
     5
170
     0
171
     0
290
     0
174
     0
 93
        1
 44
0.0
173
     0
291
     1
 45
0.0
1001
ACAD
1000
AcDbSavedByObjectVersion
1070
     0
  0
VISUALSTYLE
  5
2B
102
{ACAD_REACTORS
330
2A
102
}
102
{ACAD_XDICTIONARY
360
451
102
}
330
2A
100
AcDbVisualStyle
  2
Flat
 70
     0
 71
     2
 72
     1
 73
     1
 90
        2
 40
-0.6
 41
30.0
 62
     5
 63
     7
 74
     0
 91
        4
 64
     7
 65
   257
 75
     1
175
     1
 42
1.0
 92
        8
 66
     7
 43
1.0
 76
     1
 77
     6
 78
     2
 67
     7
 79
     5
170
     0
171
     0
290
     0
174
     0
 93
       13
 44
0.0
173
     0
291
     1
 45
0.0
1001
ACAD
1000
AcDbSavedByObjectVersion
1070
     0
  0
VISUALSTYLE
  5
2C
102
{ACAD_REACTORS
330
2A
102
}
102
{ACAD_XDICTIONARY
360
453
102
}
330
2A
100
AcDbVisualStyle
  2
FlatWithEdges
 70
     1
 71
     2
 72
     1
 73
     1
 90
        2
 40
-0.6
 41
30.0
 62
     5
 63
     7
 74
     1
 91
        4
 64
     7
 65
   257
 75
     1
175
     1
 42
1.0
 92
        0
 66
   257
 43
1.0
 76
     1
 77
     6
 78
     2
 67
     7
 79
     5
170
     0
171
     0
290
     0
174
     0
 93
       13
 44
0.0
173
     0
291
     1
 45
0.0
1001
ACAD
1000
AcDbSavedByObjectVersion
1070
     0
  0
VISUALSTYLE
  5
2D
102
{ACAD_REACTORS
330
2A
102
}
102
{ACAD_XDICTIONARY
360
455
102
}
330
2A
100
AcDbVisualStyle
  2
Gouraud
 70
     2
 71
     2
 72
     2
 73
     1
 90
        2
 40
-0.6
 41
30.0
 62
     5
 63
     7
 74
     0
 91
        4
 64
     7
 65
   257
 75
     1
175
     1
 42
1.0
 92
        0
 66
     7
 43
1.0
 76
     1
 77
     6
 78
     2
 67
     7
 79
     5
170
     0
171
     0
290
     0
174
     0
 93
       13
 44
0.0
173
     0
291
     1
 45
0.0
1001
ACAD
1000
AcDbSavedByObjectVersion
1070
     0
  0
VISUALSTYLE
  5
2E
102
{ACAD_REACTORS
330
2A
102
}
102
{ACAD_XDICTIONARY
360
457
102
}
330
2A
100
AcDbVisualStyle
  2
GouraudWithEdges
 70
     3
 71
     2
 72
     2
 73
     1
 90
        2
 40
-0.6
 41
30.0
 62
     5
 63
     7
 74
     1
 91
        4
 64
     7
 65
   257
 75
     1
175
     1
 42
1.0
 92
        0
 66
   257
 43
1.0
 76
     1
 77
     6
 78
     2
 67
     7
 79
     5
170
     0
171
     0
290
     0
174
     0
 93
       13
 44
0.0
173
     0
291
     1
 45
0.0
1001
ACAD
1000
AcDbSavedByObjectVersion
1070
     0
  0
VISUALSTYLE
  5
38
102
{ACAD_REACTORS
330
2A
102
}
102
{ACAD_XDICTIONARY
360
46B
102
}
330
2A
100
AcDbVisualStyle
  2
Linepattern
 70
    14
 71
     2
 72
     2
 73
     0
 90
        0
 40
-0.6
 41
-30.0
 62
     5
 63
     7
 74
     1
 91
        4
 64
     7
 65
   257
 75
     7
175
     7
 42
1.0
 92
        8
 66
     7
 43
1.0
 76
     1
 77
     6
 78
     2
 67
     7
 79
     5
170
     0
171
     0
290
     0
174
     0
 93
        1
 44
0.0
173
     0
291
     1
 45
0.0
1001
ACAD
1000
AcDbSavedByObjectVersion
1070
     0
  0
VISUALSTYLE
  5
33
102
{ACAD_REACTORS
330
2A
102
}
102
{ACAD_XDICTIONARY
360
461
102
}
330
2A
100
AcDbVisualStyle
  2
Realistic
 70
     8
 71
     2
 72
     2
 73
     0
 90
        0
 40
-0.6
 41
-30.0
 62
     5
 63
     7
 74
     1
 91
        0
 64
     7
 65
   257
 75
     1
175
     1
 42
1.0
 92
        8
 66
     8
 43
1.0
 76
     1
 77
     6
 78
     2
 67
     7
 79
     5
170
     0
171
     0
290
     0
174
     0
 93
       13
 44
0.0
173
     0
291
     0
 45
0.0
1001
ACAD
1000
AcDbSavedByObjectVersion
1070
     0
  0
VISUALSTYLE
  5
37
102
{ACAD_REACTORS
330
2A
102
}
102
{ACAD_XDICTIONARY
360
469
102
}
330
2A
100
AcDbVisualStyle
  2
Thicken
 70
    13
 71
     2
 72
     2
 73
     0
 90
        0
 40
-0.6
 41
-30.0
 62
     5
 63
     7
 74
     1
 91
        4
 64
     7
 65
   257
 75
     1
175
     1
 42
1.0
 92
       12
 66
     7
 43
1.0
 76
     1
 77
     6
 78
     2
 67
     7
 79
     5
170
     0
171
     0
290
     0
174
     0
 93
        1
 44
0.0
173
     0
291
     1
 45
0.0
1001
ACAD
1000
AcDbSavedByObjectVersion
1070
     0
  0
DICTIONARYVAR
  5
44E
102
{ACAD_REACTORS
330
44B
102
}
330
44B
100
DictionaryVariables
280
     0
  1
1:1
  0
DICTIONARYVAR
  5
44F
102
{ACAD_REACTORS
330
44B
102
}
330
44B
100
DictionaryVariables
280
     0
  1
2
  0
DICTIONARYVAR
  5
450
102
{ACAD_REACTORS
330
44B
102
}
330
44B
100
DictionaryVariables
280
     0
  1
1
  0
DICTIONARY
  5
473
330
3D
100
AcDbDictionary
280
     1
281
     1
  3
ACAD_XREC_ROUNDTRIP
360
474
  0
DICTIONARY
  5
471
330
3C
100
AcDbDictionary
280
     1
281
     1
  3
ACAD_XREC_ROUNDTRIP
360
472
  0
DICTIONARY
  5
475
330
3E
100
AcDbDictionary
280
     1
281
     1
  3
ACAD_XREC_ROUNDTRIP
360
476
  0
DICTIONARY
  5
459
330
2F
100
AcDbDictionary
280
     1
281
     1
  3
ACAD_XREC_ROUNDTRIP
360
45A
  0
DICTIONARY
  5
45D
330
31
100
AcDbDictionary
280
     1
281
     1
  3
ACAD_XREC_ROUNDTRIP
360
45E
  0
DICTIONARY
  5
45B
330
30
100
AcDbDictionary
280
     1
281
     1
  3
ACAD_XREC_ROUNDTRIP
360
45C
  0
DICTIONARY
  5
45F
330
32
100
AcDbDictionary
280
     1
281
     1
  3
ACAD_XREC_ROUNDTRIP
360
460
  0
DICTIONARY
  5
467
330
36
100
AcDbDictionary
280
     1
281
     1
  3
ACAD_XREC_ROUNDTRIP
360
468
  0
DICTIONARY
  5
46F
330
3A
100
AcDbDictionary
280
     1
281
     1
  3
ACAD_XREC_ROUNDTRIP
360
470
  0
DICTIONARY
  5
463
330
34
100
AcDbDictionary
280
     1
281
     1
  3
ACAD_XREC_ROUNDTRIP
360
464
  0
DICTIONARY
  5
465
330
35
100
AcDbDictionary
280
     1
281
     1
  3
ACAD_XREC_ROUNDTRIP
360
466
  0
DICTIONARY
  5
46D
330
39
100
AcDbDictionary
280
     1
281
     1
  3
ACAD_XREC_ROUNDTRIP
360
46E
  0
DICTIONARY
  5
451
330
2B
100
AcDbDictionary
280
     1
281
     1
  3
ACAD_XREC_ROUNDTRIP
360
452
  0
DICTIONARY
  5
453
330
2C
100
AcDbDictionary
280
     1
281
     1
  3
ACAD_XREC_ROUNDTRIP
360
454
  0
DICTIONARY
  5
455
330
2D
100
AcDbDictionary
280
     1
281
     1
  3
ACAD_XREC_ROUNDTRIP
360
456
  0
DICTIONARY
  5
457
330
2E
100
AcDbDictionary
280
     1
281
     1
  3
ACAD_XREC_ROUNDTRIP
360
458
  0
DICTIONARY
  5
46B
330
38
100
AcDbDictionary
280
     1
281
     1
  3
ACAD_XREC_ROUNDTRIP
360
46C
  0
DICTIONARY
  5
461
330
33
100
AcDbDictionary
280
     1
281
     1
  3
ACAD_XREC_ROUNDTRIP
360
462
  0
DICTIONARY
  5
469
330
37
100
AcDbDictionary
280
     1
281
     1
  3
ACAD_XREC_ROUNDTRIP
360
46A
  0
XRECORD
  5
474
102
{ACAD_REACTORS
330
473
102
}
330
473
100
AcDbXrecord
280
     1
102
MATERIAL
148
0.0
149
0.0
149
0.0
 93
        0
 94
      127
282
     0
 72
     1
 77
     1
171
     1
175
     1
179
     1
273
     0
  0
XRECORD
  5
472
102
{ACAD_REACTORS
330
471
102
}
330
471
100
AcDbXrecord
280
     1
102
MATERIAL
148
0.0
149
0.0
149
0.0
 93
        0
 94
      127
282
     0
 72
     1
 77
     1
171
     1
175
     1
179
     1
273
     0
  0
XRECORD
  5
476
102
{ACAD_REACTORS
330
475
102
}
330
475
100
AcDbXrecord
280
     1
102
MATERIAL
148
0.0
149
0.0
149
0.0
 93
        0
 94
      127
282
     0
 72
     1
 77
     1
171
     1
175
     1
179
     1
273
     0
  0
XRECORD
  5
45A
102
{ACAD_REACTORS
330
459
102
}
330
459
100
AcDbXrecord
280
     1
102
RTVSPropertyOp0
 70
     1
102
RTVSPropertyOp1
 70
     1
102
RTVSPropertyOp2
 70
     1
102
RTVSPropertyOp3
 70
     1
102
RTVSPropertyOp4
 70
     1
102
RTVSPropertyOp5
 70
     1
102
RTVSPropertyOp6
 70
     1
102
RTVSPropertyOp7
 70
     1
102
RTVSPropertyOp8
 70
     1
102
RTVSPropertyOp9
 70
     1
102
RTVSPropertyOp10
 70
     1
102
RTVSPropertyOp11
 70
     1
102
RTVSPropertyOp12
 70
     1
102
RTVSPropertyOp13
 70
     1
102
RTVSPropertyOp14
 70
     1
102
RTVSPropertyOp15
 70
     1
102
RTVSPropertyOp16
 70
     1
102
RTVSPropertyOp17
 70
     1
102
RTVSPropertyOp18
 70
     1
102
RTVSPropertyOp19
 70
     1
102
RTVSPropertyOp20
 70
     1
102
RTVSPropertyOp21
 70
     1
102
RTVSPropertyOp22
 70
     1
102
RTVSPropertyOp23
 70
     1
102
RTVSPropertyOp24
 70
     1
102
RTVSPropertyOp25
 70
     1
102
RTVSPropertyOp26
 70
     1
102
RTVSPropertyOp27
 70
     1
  0
XRECORD
  5
45E
102
{ACAD_REACTORS
330
45D
102
}
330
45D
100
AcDbXrecord
280
     1
102
RTVSPropertyOp0
 70
     1
102
RTVSPropertyOp1
 70
     1
102
RTVSPropertyOp2
 70
     1
102
RTVSPropertyOp3
 70
     1
102
RTVSPropertyOp4
 70
     1
102
RTVSPropertyOp5
 70
     1
102
RTVSPropertyOp6
 70
     1
102
RTVSPropertyOp7
 70
     1
102
RTVSPropertyOp8
 70
     1
102
RTVSPropertyOp9
 70
     1
102
RTVSPropertyOp10
 70
     1
102
RTVSPropertyOp11
 70
     1
102
RTVSPropertyOp12
 70
     1
102
RTVSPropertyOp13
 70
     1
102
RTVSPropertyOp14
 70
     1
102
RTVSPropertyOp15
 70
     1
102
RTVSPropertyOp16
 70
     1
102
RTVSPropertyOp17
 70
     1
102
RTVSPropertyOp18
 70
     1
102
RTVSPropertyOp19
 70
     1
102
RTVSPropertyOp20
 70
     1
102
RTVSPropertyOp21
 70
     1
102
RTVSPropertyOp22
 70
     1
102
RTVSPropertyOp23
 70
     1
102
RTVSPropertyOp24
 70
     1
102
RTVSPropertyOp25
 70
     1
102
RTVSPropertyOp26
 70
     1
102
RTVSPropertyOp27
 70
     1
  0
XRECORD
  5
45C
102
{ACAD_REACTORS
330
45B
102
}
330
45B
100
AcDbXrecord
280
     1
102
RTVSPropertyOp0
 70
     1
102
RTVSPropertyOp1
 70
     1
102
RTVSPropertyOp2
 70
     1
102
RTVSPropertyOp3
 70
     1
102
RTVSPropertyOp4
 70
     1
102
RTVSPropertyOp5
 70
     1
102
RTVSPropertyOp6
 70
     1
102
RTVSPropertyOp7
 70
     1
102
RTVSPropertyOp8
 70
     1
102
RTVSPropertyOp9
 70
     1
102
RTVSPropertyOp10
 70
     1
102
RTVSPropertyOp11
 70
     1
102
RTVSPropertyOp12
 70
     1
102
RTVSPropertyOp13
 70
     1
102
RTVSPropertyOp14
 70
     1
102
RTVSPropertyOp15
 70
     1
102
RTVSPropertyOp16
 70
     1
102
RTVSPropertyOp17
 70
     1
102
RTVSPropertyOp18
 70
     1
102
RTVSPropertyOp19
 70
     1
102
RTVSPropertyOp20
 70
     1
102
RTVSPropertyOp21
 70
     1
102
RTVSPropertyOp22
 70
     1
102
RTVSPropertyOp23
 70
     1
102
RTVSPropertyOp24
 70
     1
102
RTVSPropertyOp25
 70
     1
102
RTVSPropertyOp26
 70
     1
102
RTVSPropertyOp27
 70
     1
  0
XRECORD
  5
460
102
{ACAD_REACTORS
330
45F
102
}
330
45F
100
AcDbXrecord
280
     1
102
RTVSPropertyOp0
 70
     1
102
RTVSPropertyOp1
 70
     1
102
RTVSPropertyOp2
 70
     1
102
RTVSPropertyOp3
 70
     1
102
RTVSPropertyOp4
 70
     1
102
RTVSPropertyOp5
 70
     1
102
RTVSPropertyOp6
 70
     1
102
RTVSPropertyOp7
 70
     1
102
RTVSPropertyOp8
 70
     1
102
RTVSPropertyOp9
 70
     1
102
RTVSPropertyOp10
 70
     1
102
RTVSPropertyOp11
 70
     1
102
RTVSPropertyOp12
 70
     1
102
RTVSPropertyOp13
 70
     1
102
RTVSPropertyOp14
 70
     1
102
RTVSPropertyOp15
 70
     1
102
RTVSPropertyOp16
 70
     1
102
RTVSPropertyOp17
 70
     1
102
RTVSPropertyOp18
 70
     1
102
RTVSPropertyOp19
 70
     1
102
RTVSPropertyOp20
 70
     1
102
RTVSPropertyOp21
 70
     1
102
RTVSPropertyOp22
 70
     1
102
RTVSPropertyOp23
 70
     1
102
RTVSPropertyOp24
 70
     1
102
RTVSPropertyOp25
 70
     1
102
RTVSPropertyOp26
 70
     1
102
RTVSPropertyOp27
 70
     1
  0
XRECORD
  5
468
102
{ACAD_REACTORS
330
467
102
}
330
467
100
AcDbXrecord
280
     1
102
RTVSPropertyOp0
 70
     1
102
RTVSPropertyOp1
 70
     1
102
RTVSPropertyOp2
 70
     1
102
RTVSPropertyOp3
 70
     1
102
RTVSPropertyOp4
 70
     1
102
RTVSPropertyOp5
 70
     1
102
RTVSPropertyOp6
 70
     1
102
RTVSPropertyOp7
 70
     1
102
RTVSPropertyOp8
 70
     1
102
RTVSPropertyOp9
 70
     1
102
RTVSPropertyOp10
 70
     1
102
RTVSPropertyOp11
 70
     1
102
RTVSPropertyOp12
 70
     1
102
RTVSPropertyOp13
 70
     1
102
RTVSPropertyOp14
 70
     1
102
RTVSPropertyOp15
 70
     1
102
RTVSPropertyOp16
 70
     1
102
RTVSPropertyOp17
 70
     1
102
RTVSPropertyOp18
 70
     1
102
RTVSPropertyOp19
 70
     1
102
RTVSPropertyOp20
 70
     1
102
RTVSPropertyOp21
 70
     1
102
RTVSPropertyOp22
 70
     1
102
RTVSPropertyOp23
 70
     1
102
RTVSPropertyOp24
 70
     1
102
RTVSPropertyOp25
 70
     1
102
RTVSPropertyOp26
 70
     1
102
RTVSPropertyOp27
 70
     1
  0
XRECORD
  5
470
102
{ACAD_REACTORS
330
46F
102
}
330
46F
100
AcDbXrecord
280
     1
102
RTVSPropertyOp0
 70
     1
102
RTVSPropertyOp1
 70
     1
102
RTVSPropertyOp2
 70
     1
102
RTVSPropertyOp3
 70
     1
102
RTVSPropertyOp4
 70
     1
102
RTVSPropertyOp5
 70
     1
102
RTVSPropertyOp6
 70
     1
102
RTVSPropertyOp7
 70
     1
102
RTVSPropertyOp8
 70
     1
102
RTVSPropertyOp9
 70
     1
102
RTVSPropertyOp10
 70
     1
102
RTVSPropertyOp11
 70
     1
102
RTVSPropertyOp12
 70
     1
102
RTVSPropertyOp13
 70
     1
102
RTVSPropertyOp14
 70
     1
102
RTVSPropertyOp15
 70
     1
102
RTVSPropertyOp16
 70
     1
102
RTVSPropertyOp17
 70
     1
102
RTVSPropertyOp18
 70
     1
102
RTVSPropertyOp19
 70
     1
102
RTVSPropertyOp20
 70
     1
102
RTVSPropertyOp21
 70
     1
102
RTVSPropertyOp22
 70
     1
102
RTVSPropertyOp23
 70
     1
102
RTVSPropertyOp24
 70
     1
102
RTVSPropertyOp25
 70
     1
102
RTVSPropertyOp26
 70
     1
102
RTVSPropertyOp27
 70
     1
  0
XRECORD
  5
464
102
{ACAD_REACTORS
330
463
102
}
330
463
100
AcDbXrecord
280
     1
102
RTVSPropertyOp0
 70
     1
102
RTVSPropertyOp1
 70
     1
102
RTVSPropertyOp2
 70
     1
102
RTVSPropertyOp3
 70
     1
102
RTVSPropertyOp4
 70
     1
102
RTVSPropertyOp5
 70
     1
102
RTVSPropertyOp6
 70
     1
102
RTVSPropertyOp7
 70
     1
102
RTVSPropertyOp8
 70
     1
102
RTVSPropertyOp9
 70
     1
102
RTVSPropertyOp10
 70
     1
102
RTVSPropertyOp11
 70
     1
102
RTVSPropertyOp12
 70
     1
102
RTVSPropertyOp13
 70
     1
102
RTVSPropertyOp14
 70
     1
102
RTVSPropertyOp15
 70
     1
102
RTVSPropertyOp16
 70
     1
102
RTVSPropertyOp17
 70
     1
102
RTVSPropertyOp18
 70
     1
102
RTVSPropertyOp19
 70
     1
102
RTVSPropertyOp20
 70
     1
102
RTVSPropertyOp21
 70
     1
102
RTVSPropertyOp22
 70
     1
102
RTVSPropertyOp23
 70
     1
102
RTVSPropertyOp24
 70
     1
102
RTVSPropertyOp25
 70
     1
102
RTVSPropertyOp26
 70
     1
102
RTVSPropertyOp27
 70
     1
  0
XRECORD
  5
466
102
{ACAD_REACTORS
330
465
102
}
330
465
100
AcDbXrecord
280
     1
102
RTVSPropertyOp0
 70
     1
102
RTVSPropertyOp1
 70
     1
102
RTVSPropertyOp2
 70
     1
102
RTVSPropertyOp3
 70
     1
102
RTVSPropertyOp4
 70
     1
102
RTVSPropertyOp5
 70
     1
102
RTVSPropertyOp6
 70
     1
102
RTVSPropertyOp7
 70
     1
102
RTVSPropertyOp8
 70
     1
102
RTVSPropertyOp9
 70
     1
102
RTVSPropertyOp10
 70
     1
102
RTVSPropertyOp11
 70
     1
102
RTVSPropertyOp12
 70
     1
102
RTVSPropertyOp13
 70
     1
102
RTVSPropertyOp14
 70
     1
102
RTVSPropertyOp15
 70
     1
102
RTVSPropertyOp16
 70
     1
102
RTVSPropertyOp17
 70
     1
102
RTVSPropertyOp18
 70
     1
102
RTVSPropertyOp19
 70
     1
102
RTVSPropertyOp20
 70
     1
102
RTVSPropertyOp21
 70
     1
102
RTVSPropertyOp22
 70
     1
102
RTVSPropertyOp23
 70
     1
102
RTVSPropertyOp24
 70
     1
102
RTVSPropertyOp25
 70
     1
102
RTVSPropertyOp26
 70
     1
102
RTVSPropertyOp27
 70
     1
  0
XRECORD
  5
46E
102
{ACAD_REACTORS
330
46D
102
}
330
46D
100
AcDbXrecord
280
     1
102
RTVSPropertyOp0
 70
     1
102
RTVSPropertyOp1
 70
     1
102
RTVSPropertyOp2
 70
     1
102
RTVSPropertyOp3
 70
     1
102
RTVSPropertyOp4
 70
     1
102
RTVSPropertyOp5
 70
     1
102
RTVSPropertyOp6
 70
     1
102
RTVSPropertyOp7
 70
     1
102
RTVSPropertyOp8
 70
     1
102
RTVSPropertyOp9
 70
     1
102
RTVSPropertyOp10
 70
     1
102
RTVSPropertyOp11
 70
     1
102
RTVSPropertyOp12
 70
     1
102
RTVSPropertyOp13
 70
     1
102
RTVSPropertyOp14
 70
     1
102
RTVSPropertyOp15
 70
     1
102
RTVSPropertyOp16
 70
     1
102
RTVSPropertyOp17
 70
     1
102
RTVSPropertyOp18
 70
     1
102
RTVSPropertyOp19
 70
     1
102
RTVSPropertyOp20
 70
     1
102
RTVSPropertyOp21
 70
     1
102
RTVSPropertyOp22
 70
     1
102
RTVSPropertyOp23
 70
     1
102
RTVSPropertyOp24
 70
     1
102
RTVSPropertyOp25
 70
     1
102
RTVSPropertyOp26
 70
     1
102
RTVSPropertyOp27
 70
     1
  0
XRECORD
  5
452
102
{ACAD_REACTORS
330
451
102
}
330
451
100
AcDbXrecord
280
     1
102
RTVSPropertyOp0
 70
     1
102
RTVSPropertyOp1
 70
     1
102
RTVSPropertyOp2
 70
     1
102
RTVSPropertyOp3
 70
     1
102
RTVSPropertyOp4
 70
     1
102
RTVSPropertyOp5
 70
     1
102
RTVSPropertyOp6
 70
     1
102
RTVSPropertyOp7
 70
     1
102
RTVSPropertyOp8
 70
     1
102
RTVSPropertyOp9
 70
     1
102
RTVSPropertyOp10
 70
     1
102
RTVSPropertyOp11
 70
     1
102
RTVSPropertyOp12
 70
     1
102
RTVSPropertyOp13
 70
     1
102
RTVSPropertyOp14
 70
     1
102
RTVSPropertyOp15
 70
     1
102
RTVSPropertyOp16
 70
     1
102
RTVSPropertyOp17
 70
     1
102
RTVSPropertyOp18
 70
     1
102
RTVSPropertyOp19
 70
     1
102
RTVSPropertyOp20
 70
     1
102
RTVSPropertyOp21
 70
     1
102
RTVSPropertyOp22
 70
     1
102
RTVSPropertyOp23
 70
     1
102
RTVSPropertyOp24
 70
     1
102
RTVSPropertyOp25
 70
     1
102
RTVSPropertyOp26
 70
     1
102
RTVSPropertyOp27
 70
     1
  0
XRECORD
  5
454
102
{ACAD_REACTORS
330
453
102
}
330
453
100
AcDbXrecord
280
     1
102
RTVSPropertyOp0
 70
     1
102
RTVSPropertyOp1
 70
     1
102
RTVSPropertyOp2
 70
     1
102
RTVSPropertyOp3
 70
     1
102
RTVSPropertyOp4
 70
     1
102
RTVSPropertyOp5
 70
     1
102
RTVSPropertyOp6
 70
     1
102
RTVSPropertyOp7
 70
     1
102
RTVSPropertyOp8
 70
     1
102
RTVSPropertyOp9
 70
     1
102
RTVSPropertyOp10
 70
     1
102
RTVSPropertyOp11
 70
     1
102
RTVSPropertyOp12
 70
     1
102
RTVSPropertyOp13
 70
     1
102
RTVSPropertyOp14
 70
     1
102
RTVSPropertyOp15
 70
     1
102
RTVSPropertyOp16
 70
     1
102
RTVSPropertyOp17
 70
     1
102
RTVSPropertyOp18
 70
     1
102
RTVSPropertyOp19
 70
     1
102
RTVSPropertyOp20
 70
     1
102
RTVSPropertyOp21
 70
     1
102
RTVSPropertyOp22
 70
     1
102
RTVSPropertyOp23
 70
     1
102
RTVSPropertyOp24
 70
     1
102
RTVSPropertyOp25
 70
     1
102
RTVSPropertyOp26
 70
     1
102
RTVSPropertyOp27
 70
     1
  0
XRECORD
  5
456
102
{ACAD_REACTORS
330
455
102
}
330
455
100
AcDbXrecord
280
     1
102
RTVSPropertyOp0
 70
     1
102
RTVSPropertyOp1
 70
     1
102
RTVSPropertyOp2
 70
     1
102
RTVSPropertyOp3
 70
     1
102
RTVSPropertyOp4
 70
     1
102
RTVSPropertyOp5
 70
     1
102
RTVSPropertyOp6
 70
     1
102
RTVSPropertyOp7
 70
     1
102
RTVSPropertyOp8
 70
     1
102
RTVSPropertyOp9
 70
     1
102
RTVSPropertyOp10
 70
     1
102
RTVSPropertyOp11
 70
     1
102
RTVSPropertyOp12
 70
     1
102
RTVSPropertyOp13
 70
     1
102
RTVSPropertyOp14
 70
     1
102
RTVSPropertyOp15
 70
     1
102
RTVSPropertyOp16
 70
     1
102
RTVSPropertyOp17
 70
     1
102
RTVSPropertyOp18
 70
     1
102
RTVSPropertyOp19
 70
     1
102
RTVSPropertyOp20
 70
     1
102
RTVSPropertyOp21
 70
     1
102
RTVSPropertyOp22
 70
     1
102
RTVSPropertyOp23
 70
     1
102
RTVSPropertyOp24
 70
     1
102
RTVSPropertyOp25
 70
     1
102
RTVSPropertyOp26
 70
     1
102
RTVSPropertyOp27
 70
     1
  0
XRECORD
  5
458
102
{ACAD_REACTORS
330
457
102
}
330
457
100
AcDbXrecord
280
     1
102
RTVSPropertyOp0
 70
     1
102
RTVSPropertyOp1
 70
     1
102
RTVSPropertyOp2
 70
     1
102
RTVSPropertyOp3
 70
     1
102
RTVSPropertyOp4
 70
     1
102
RTVSPropertyOp5
 70
     1
102
RTVSPropertyOp6
 70
     1
102
RTVSPropertyOp7
 70
     1
102
RTVSPropertyOp8
 70
     1
102
RTVSPropertyOp9
 70
     1
102
RTVSPropertyOp10
 70
     1
102
RTVSPropertyOp11
 70
     1
102
RTVSPropertyOp12
 70
     1
102
RTVSPropertyOp13
 70
     1
102
RTVSPropertyOp14
 70
     1
102
RTVSPropertyOp15
 70
     1
102
RTVSPropertyOp16
 70
     1
102
RTVSPropertyOp17
 70
     1
102
RTVSPropertyOp18
 70
     1
102
RTVSPropertyOp19
 70
     1
102
RTVSPropertyOp20
 70
     1
102
RTVSPropertyOp21
 70
     1
102
RTVSPropertyOp22
 70
     1
102
RTVSPropertyOp23
 70
     1
102
RTVSPropertyOp24
 70
     1
102
RTVSPropertyOp25
 70
     1
102
RTVSPropertyOp26
 70
     1
102
RTVSPropertyOp27
 70
     1
  0
XRECORD
  5
46C
102
{ACAD_REACTORS
330
46B
102
}
330
46B
100
AcDbXrecord
280
     1
102
RTVSPropertyOp0
 70
     1
102
RTVSPropertyOp1
 70
     1
102
RTVSPropertyOp2
 70
     1
102
RTVSPropertyOp3
 70
     1
102
RTVSPropertyOp4
 70
     1
102
RTVSPropertyOp5
 70
     1
102
RTVSPropertyOp6
 70
     1
102
RTVSPropertyOp7
 70
     1
102
RTVSPropertyOp8
 70
     1
102
RTVSPropertyOp9
 70
     1
102
RTVSPropertyOp10
 70
     1
102
RTVSPropertyOp11
 70
     1
102
RTVSPropertyOp12
 70
     1
102
RTVSPropertyOp13
 70
     1
102
RTVSPropertyOp14
 70
     1
102
RTVSPropertyOp15
 70
     1
102
RTVSPropertyOp16
 70
     1
102
RTVSPropertyOp17
 70
     1
102
RTVSPropertyOp18
 70
     1
102
RTVSPropertyOp19
 70
     1
102
RTVSPropertyOp20
 70
     1
102
RTVSPropertyOp21
 70
     1
102
RTVSPropertyOp22
 70
     1
102
RTVSPropertyOp23
 70
     1
102
RTVSPropertyOp24
 70
     1
102
RTVSPropertyOp25
 70
     1
102
RTVSPropertyOp26
 70
     1
102
RTVSPropertyOp27
 70
     1
  0
XRECORD
  5
462
102
{ACAD_REACTORS
330
461
102
}
330
461
100
AcDbXrecord
280
     1
102
RTVSPropertyOp0
 70
     1
102
RTVSPropertyOp1
 70
     1
102
RTVSPropertyOp2
 70
     1
102
RTVSPropertyOp3
 70
     1
102
RTVSPropertyOp4
 70
     1
102
RTVSPropertyOp5
 70
     1
102
RTVSPropertyOp6
 70
     1
102
RTVSPropertyOp7
 70
     1
102
RTVSPropertyOp8
 70
     1
102
RTVSPropertyOp9
 70
     1
102
RTVSPropertyOp10
 70
     1
102
RTVSPropertyOp11
 70
     1
102
RTVSPropertyOp12
 70
     1
102
RTVSPropertyOp13
 70
     1
102
RTVSPropertyOp14
 70
     1
102
RTVSPropertyOp15
 70
     1
102
RTVSPropertyOp16
 70
     1
102
RTVSPropertyOp17
 70
     1
102
RTVSPropertyOp18
 70
     1
102
RTVSPropertyOp19
 70
     1
102
RTVSPropertyOp20
 70
     1
102
RTVSPropertyOp21
 70
     1
102
RTVSPropertyOp22
 70
     1
102
RTVSPropertyOp23
 70
     1
102
RTVSPropertyOp24
 70
     1
102
RTVSPropertyOp25
 70
     1
102
RTVSPropertyOp26
 70
     1
102
RTVSPropertyOp27
 70
     1
  0
XRECORD
  5
46A
102
{ACAD_REACTORS
330
469
102
}
330
469
100
AcDbXrecord
280
     1
102
RTVSPropertyOp0
 70
     1
102
RTVSPropertyOp1
 70
     1
102
RTVSPropertyOp2
 70
     1
102
RTVSPropertyOp3
 70
     1
102
RTVSPropertyOp4
 70
     1
102
RTVSPropertyOp5
 70
     1
102
RTVSPropertyOp6
 70
     1
102
RTVSPropertyOp7
 70
     1
102
RTVSPropertyOp8
 70
     1
102
RTVSPropertyOp9
 70
     1
102
RTVSPropertyOp10
 70
     1
102
RTVSPropertyOp11
 70
     1
102
RTVSPropertyOp12
 70
     1
102
RTVSPropertyOp13
 70
     1
102
RTVSPropertyOp14
 70
     1
102
RTVSPropertyOp15
 70
     1
102
RTVSPropertyOp16
 70
     1
102
RTVSPropertyOp17
 70
     1
102
RTVSPropertyOp18
 70
     1
102
RTVSPropertyOp19
 70
     1
102
RTVSPropertyOp20
 70
     1
102
RTVSPropertyOp21
 70
     1
102
RTVSPropertyOp22
 70
     1
102
RTVSPropertyOp23
 70
     1
102
RTVSPropertyOp24
 70
     1
102
RTVSPropertyOp25
 70
     1
102
RTVSPropertyOp26
 70
     1
102
RTVSPropertyOp27
 70
     1
  0
ENDSEC
  0
EOF
