  0
SECTION
  2
HEADER
  9
$ACADVER
  1
AC1015
  9
$ACADMAINTVER
 70
     6
  9
$DWGCODEPAGE
  3
ANSI_932
  9
$INSBASE
 10
0.0
 20
0.0
 30
0.0
  9
$EXTMIN
 10
-64.513327289759
 20
-3.71453159792522
 30
0.0
  9
$EXTMAX
 10
222.5
 20
255.799118041992
 30
0.0
  9
$LIMMIN
 10
0.0
 20
0.0
  9
$LIMMAX
 10
12.0
 20
9.0
  9
$ORTHOMODE
 70
     0
  9
$REGENMODE
 70
     1
  9
$FILLMODE
 70
     1
  9
$QTEXTMODE
 70
     0
  9
$MIRRTEXT
 70
     1
  9
$LTSCALE
 40
1.0
  9
$ATTMODE
 70
     1
  9
$TEXTSIZE
 40
0.2
  9
$TRACEWID
 40
0.05
  9
$TEXTSTYLE
  7
Standard
  9
$CLAYER
  8
0
  9
$CELTYPE
  6
ByLayer
  9
$CECOLOR
 62
   256
  9
$CELTSCALE
 40
1.0
  9
$DISPSILH
 70
     0
  9
$DIMSCALE
 40
1.0
  9
$DIMASZ
 40
0.18
  9
$DIMEXO
 40
0.0625
  9
$DIMDLI
 40
0.38
  9
$DIMRND
 40
0.0
  9
$DIMDLE
 40
0.0
  9
$DIMEXE
 40
0.18
  9
$DIMTP
 40
0.0
  9
$DIMTM
 40
0.0
  9
$DIMTXT
 40
0.18
  9
$DIMCEN
 40
0.09
  9
$DIMTSZ
 40
0.0
  9
$DIMTOL
 70
     0
  9
$DIMLIM
 70
     0
  9
$DIMTIH
 70
     1
  9
$DIMTOH
 70
     1
  9
$DIMSE1
 70
     0
  9
$DIMSE2
 70
     0
  9
$DIMTAD
 70
     0
  9
$DIMZIN
 70
     0
  9
$DIMBLK
  1

  9
$DIMASO
 70
     1
  9
$DIMSHO
 70
     1
  9
$DIMPOST
  1

  9
$DIMAPOST
  1

  9
$DIMALT
 70
     0
  9
$DIMALTD
 70
     2
  9
$DIMALTF
 40
25.4
  9
$DIMLFAC
 40
1.0
  9
$DIMTOFL
 70
     0
  9
$DIMTVP
 40
0.0
  9
$DIMTIX
 70
     0
  9
$DIMSOXD
 70
     0
  9
$DIMSAH
 70
     0
  9
$DIMBLK1
  1

  9
$DIMBLK2
  1

  9
$DIMSTYLE
  2
Standard
  9
$DIMCLRD
 70
     0
  9
$DIMCLRE
 70
     0
  9
$DIMCLRT
 70
     0
  9
$DIMTFAC
 40
1.0
  9
$DIMGAP
 40
0.09
  9
$DIMJUST
 70
     0
  9
$DIMSD1
 70
     0
  9
$DIMSD2
 70
     0
  9
$DIMTOLJ
 70
     1
  9
$DIMTZIN
 70
     0
  9
$DIMALTZ
 70
     0
  9
$DIMALTTZ
 70
     0
  9
$DIMUPT
 70
     0
  9
$DIMDEC
 70
     4
  9
$DIMTDEC
 70
     4
  9
$DIMALTU
 70
     2
  9
$DIMALTTD
 70
     2
  9
$DIMTXSTY
  7
Standard
  9
$DIMAUNIT
 70
     0
  9
$DIMADEC
 70
     0
  9
$DIMALTRND
 40
0.0
  9
$DIMAZIN
 70
     0
  9
$DIMDSEP
 70
    46
  9
$DIMATFIT
 70
     3
  9
$DIMFRAC
 70
     0
  9
$DIMLDRBLK
  1

  9
$DIMLUNIT
 70
     2
  9
$DIMLWD
 70
    -2
  9
$DIMLWE
 70
    -2
  9
$DIMTMOVE
 70
     0
  9
$LUNITS
 70
     2
  9
$LUPREC
 70
     4
  9
$SKETCHINC
 40
0.1
  9
$FILLETRAD
 40
0.5
  9
$AUNITS
 70
     0
  9
$AUPREC
 70
     0
  9
$MENU
  1
.
  9
$ELEVATION
 40
0.0
  9
$PELEVATION
 40
0.0
  9
$THICKNESS
 40
0.0
  9
$LIMCHECK
 70
     0
  9
$CHAMFERA
 40
0.5
  9
$CHAMFERB
 40
0.5
  9
$CHAMFERC
 40
1.0
  9
$CHAMFERD
 40
0.0
  9
$SKPOLY
 70
     0
  9
$TDCREATE
 40
2457624.549393773
  9
$TDUCREATE
 40
2457624.174393773
  9
$TDUPDATE
 40
2457624.549393785
  9
$TDUUPDATE
 40
2457624.174393785
  9
$TDINDWG
 40
0.0000000116
  9
$TDUSRTIMER
 40
0.0000000116
  9
$USRTIMER
 70
     1
  9
$ANGBASE
 50
0.0
  9
$ANGDIR
 70
     0
  9
$PDMODE
 70
     0
  9
$PDSIZE
 40
0.0
  9
$PLINEWID
 40
0.0
  9
$SPLFRAME
 70
     0
  9
$SPLINETYPE
 70
     6
  9
$SPLINESEGS
 70
     8
  9
$HANDSEED
  5
321
  9
$SURFTAB1
 70
     6
  9
$SURFTAB2
 70
     6
  9
$SURFTYPE
 70
     6
  9
$SURFU
 70
     6
  9
$SURFV
 70
     6
  9
$UCSBASE
  2

  9
$UCSNAME
  2

  9
$UCSORG
 10
0.0
 20
0.0
 30
0.0
  9
$UCSXDIR
 10
1.0
 20
0.0
 30
0.0
  9
$UCSYDIR
 10
0.0
 20
1.0
 30
0.0
  9
$UCSORTHOREF
  2

  9
$UCSORTHOVIEW
 70
     0
  9
$UCSORGTOP
 10
0.0
 20
0.0
 30
0.0
  9
$UCSORGBOTTOM
 10
0.0
 20
0.0
 30
0.0
  9
$UCSORGLEFT
 10
0.0
 20
0.0
 30
0.0
  9
$UCSORGRIGHT
 10
0.0
 20
0.0
 30
0.0
  9
$UCSORGFRONT
 10
0.0
 20
0.0
 30
0.0
  9
$UCSORGBACK
 10
0.0
 20
0.0
 30
0.0
  9
$PUCSBASE
  2

  9
$PUCSNAME
  2

  9
$PUCSORG
 10
0.0
 20
0.0
 30
0.0
  9
$PUCSXDIR
 10
1.0
 20
0.0
 30
0.0
  9
$PUCSYDIR
 10
0.0
 20
1.0
 30
0.0
  9
$PUCSORTHOREF
  2

  9
$PUCSORTHOVIEW
 70
     0
  9
$PUCSORGTOP
 10
0.0
 20
0.0
 30
0.0
  9
$PUCSORGBOTTOM
 10
0.0
 20
0.0
 30
0.0
  9
$PUCSORGLEFT
 10
0.0
 20
0.0
 30
0.0
  9
$PUCSORGRIGHT
 10
0.0
 20
0.0
 30
0.0
  9
$PUCSORGFRONT
 10
0.0
 20
0.0
 30
0.0
  9
$PUCSORGBACK
 10
0.0
 20
0.0
 30
0.0
  9
$USERI1
 70
     0
  9
$USERI2
 70
     0
  9
$USERI3
 70
     0
  9
$USERI4
 70
     0
  9
$USERI5
 70
     0
  9
$USERR1
 40
18.0
  9
$USERR2
 40
0.0
  9
$USERR3
 40
0.0
  9
$USERR4
 40
0.0
  9
$USERR5
 40
0.0
  9
$WORLDVIEW
 70
     1
  9
$SHADEDGE
 70
     3
  9
$SHADEDIF
 70
    70
  9
$TILEMODE
 70
     1
  9
$MAXACTVP
 70
    64
  9
$PINSBASE
 10
0.0
 20
0.0
 30
0.0
  9
$PLIMCHECK
 70
     0
  9
$PEXTMIN
 10
1.00000000000000E+20
 20
1.00000000000000E+20
 30
1.00000000000000E+20
  9
$PEXTMAX
 10
-1.00000000000000E+20
 20
-1.00000000000000E+20
 30
-1.00000000000000E+20
  9
$PLIMMIN
 10
0.0
 20
0.0
  9
$PLIMMAX
 10
12.0
 20
9.0
  9
$UNITMODE
 70
     0
  9
$VISRETAIN
 70
     1
  9
$PLINEGEN
 70
     0
  9
$PSLTSCALE
 70
     1
  9
$TREEDEPTH
 70
  3020
  9
$CMLSTYLE
  2
Standard
  9
$CMLJUST
 70
     0
  9
$CMLSCALE
 40
1.0
  9
$PROXYGRAPHICS
 70
     1
  9
$MEASUREMENT
 70
     1
  9
$CELWEIGHT
370
    -1
  9
$ENDCAPS
280
     0
  9
$JOINSTYLE
280
     0
  9
$LWDISPLAY
290
     0
  9
$INSUNITS
 70
     1
  9
$HYPERLINKBASE
  1

  9
$STYLESHEET
  1

  9
$XEDIT
290
     1
  9
$CEPSNTYPE
380
     0
  9
$PSTYLEMODE
290
     1
  9
$FINGERPRINTGUID
  2
{A6A4979F-999F-4B62-849A-A9E9B19A7DFB}
  9
$VERSIONGUID
  2
{FAEB1C32-E019-11D5-929B-00C0DF256EC4}
  9
$EXTNAMES
290
     1
  9
$PSVPSCALE
 40
0.0
  9
$OLESTARTUP
290
     0
  0
ENDSEC
  0
SECTION
  2
CLASSES
  0
CLASS
  1
ACDBDICTIONARYWDFLT
  2
AcDbDictionaryWithDefault
  3
ObjectDBX Classes
 90
        0
280
     0
281
     0
  0
CLASS
  1
VISUALSTYLE
  2
AcDbVisualStyle
  3
ObjectDBX Classes
 90
     4095
280
     0
281
     0
  0
CLASS
  1
MATERIAL
  2
AcDbMaterial
  3
ObjectDBX Classes
 90
     1153
280
     0
281
     0
  0
CLASS
  1

  2
exOdDbCircle
  3

 90
        0
280
     0
281
     1
  0
CLASS
  1

  2
exOdDbSpline
  3

 90
        0
280
     0
281
     1
  0
CLASS
  1

  2
exOdDbPolyline
  3

 90
        0
280
     0
281
     1
  0
CLASS
  1
SCALE
  2
AcDbScale
  3
ObjectDBX Classes
 90
     1153
280
     0
281
     0
  0
CLASS
  1
DICTIONARYVAR
  2
AcDbDictionaryVar
  3
ObjectDBX Classes
 90
        0
280
     0
281
     0
  0
CLASS
  1
ACDBPLACEHOLDER
  2
AcDbPlaceHolder
  3
ObjectDBX Classes
 90
        0
280
     0
281
     0
  0
CLASS
  1
LAYOUT
  2
AcDbLayout
  3
ObjectDBX Classes
 90
        0
280
     0
281
     0
  0
ENDSEC
  0
SECTION
  2
TABLES
  0
TABLE
  2
VPORT
  5
8
330
0
100
AcDbSymbolTable
 70
     1
  0
VPORT
  5
29
330
8
100
AcDbSymbolTableRecord
100
AcDbViewportTableRecord
  2
*Active
 70
     0
 10
0.0
 20
0.0
 11
1.0
 21
1.0
 12
78.9933363551205
 22
126.0422932220334
 13
0.0
 23
0.0
 14
0.5
 24
0.5
 15
0.5
 25
0.5
 16
0.0
 26
0.0
 36
1.0
 17
0.0
 27
0.0
 37
0.0
 40
285.465014603909
 41
1.60267857142857
 42
50.0
 43
0.0
 44
0.0
 50
0.0
 51
0.0
 71
     0
 72
   100
 73
     1
 74
     3
 75
     0
 76
     0
 77
     0
 78
     0
281
     0
 65
     1
110
0.0
120
0.0
130
0.0
111
1.0
121
0.0
131
0.0
112
0.0
122
1.0
132
0.0
 79
     0
146
0.0
  0
ENDTAB
  0
TABLE
  2
LTYPE
  5
5
330
0
100
AcDbSymbolTable
 70
     8
  0
LTYPE
  5
14
330
5
100
AcDbSymbolTableRecord
100
AcDbLinetypeTableRecord
  2
ByBlock
 70
     0
  3

 72
    65
 73
     0
 40
0.0
  0
LTYPE
  5
15
330
5
100
AcDbSymbolTableRecord
100
AcDbLinetypeTableRecord
  2
ByLayer
 70
     0
  3

 72
    65
 73
     0
 40
0.0
  0
LTYPE
  5
16
330
5
100
AcDbSymbolTableRecord
100
AcDbLinetypeTableRecord
  2
Continuous
 70
     0
  3
Solid line
 72
    65
 73
     0
 40
0.0
  0
LTYPE
  5
3F
330
5
100
AcDbSymbolTableRecord
100
AcDbLinetypeTableRecord
  2
DASHED
 70
     0
  3
Dashed
 72
    65
 73
     2
 40
15.0
 49
7.0
 74
     0
 49
-8.0
 74
     0
  0
LTYPE
  5
40
330
5
100
AcDbSymbolTableRecord
100
AcDbLinetypeTableRecord
  2
DOTTED
 70
     0
  3
Dotted
 72
    65
 73
     2
 40
1.0
 49
0.0
 74
     0
 49
-1.0
 74
     0
  0
LTYPE
  5
41
330
5
100
AcDbSymbolTableRecord
100
AcDbLinetypeTableRecord
  2
DOT_CENTER
 70
     0
  3
Dot_Center
 72
    65
 73
     4
 40
14.0
 49
12.0
 74
     0
 49
-1.0
 74
     0
 49
0.0
 74
     0
 49
-1.0
 74
     0
  0
LTYPE
  5
42
330
5
100
AcDbSymbolTableRecord
100
AcDbLinetypeTableRecord
  2
LONG_DASHED
 70
     0
  3
Long_Dashed
 72
    65
 73
     2
 40
15.0
 49
10.0
 74
     0
 49
-5.0
 74
     0
  0
LTYPE
  5
43
330
5
100
AcDbSymbolTableRecord
100
AcDbLinetypeTableRecord
  2
DASH_CENTER
 70
     0
  3
Dash_Center
 72
    65
 73
     4
 40
14.0
 49
11.0
 74
     0
 49
-1.0
 74
     0
 49
1.0
 74
     0
 49
-1.0
 74
     0
  0
LTYPE
  5
44
330
5
100
AcDbSymbolTableRecord
100
AcDbLinetypeTableRecord
  2
PHANTOM
 70
     0
  3
Phantom
 72
    65
 73
     6
 40
13.0
 49
10.0
 74
     0
 49
-1.0
 74
     0
 49
0.0
 74
     0
 49
-1.0
 74
     0
 49
0.0
 74
     0
 49
-1.0
 74
     0
  0
LTYPE
  5
45
330
5
100
AcDbSymbolTableRecord
100
AcDbLinetypeTableRecord
  2
CENTER_DASH_DASH
 70
     0
  3
Center_Dash_Dash
 72
    65
 73
     6
 40
14.0
 49
9.0
 74
     0
 49
-1.0
 74
     0
 49
1.0
 74
     0
 49
-1.0
 74
     0
 49
1.0
 74
     0
 49
-1.0
 74
     0
  0
ENDTAB
  0
TABLE
  2
LAYER
  5
2
330
0
100
AcDbSymbolTable
 70
     3
  0
LAYER
  5
10
330
2
100
AcDbSymbolTableRecord
100
AcDbLayerTableRecord
  2
0
 70
     0
 62
     7
  6
Continuous
370
    -3
390
F
  0
LAYER
  5
46
330
2
100
AcDbSymbolTableRecord
100
AcDbLayerTableRecord
  2
1
 70
     0
 62
     7
  6
Continuous
370
    -3
390
F
  0
LAYER
  5
47
330
2
100
AcDbSymbolTableRecord
100
AcDbLayerTableRecord
  2
2
 70
     0
 62
     7
  6
Continuous
370
    -3
390
F
  0
ENDTAB
  0
TABLE
  2
STYLE
  5
3
330
0
100
AcDbSymbolTable
 70
     2
  0
STYLE
  5
11
330
3
100
AcDbSymbolTableRecord
100
AcDbTextStyleTableRecord
  2
Standard
 70
     0
 40
0.0
 41
1.0
 50
0.0
 71
     0
 42
0.2
  3
txt
  4

  0
STYLE
  5
2BA
330
3
100
AcDbSymbolTableRecord
100
AcDbTextStyleTableRecord
  2
CONVERTER_11
 70
     0
 40
0.0
 41
0.9
 50
0.0
 71
     0
 42
0.2
  3
txt.shx
  4

  0
ENDTAB
  0
TABLE
  2
VIEW
  5
6
330
0
100
AcDbSymbolTable
 70
     0
  0
ENDTAB
  0
TABLE
  2
UCS
  5
7
330
0
100
AcDbSymbolTable
 70
     0
  0
ENDTAB
  0
TABLE
  2
APPID
  5
9
330
0
100
AcDbSymbolTable
 70
     1
  0
APPID
  5
12
330
9
100
AcDbSymbolTableRecord
100
AcDbRegAppTableRecord
  2
ACAD
 70
     0
  0
ENDTAB
  0
TABLE
  2
DIMSTYLE
  5
A
330
0
100
AcDbSymbolTable
 70
     3
100
AcDbDimStyleTable
  0
DIMSTYLE
105
27
330
A
100
AcDbSymbolTableRecord
100
AcDbDimStyleTableRecord
  2
Standard
 70
     0
340
11
  0
DIMSTYLE
105
2E6
102
{ACAD_REACTORS
330
2E7
102
}
330
A
100
AcDbSymbolTableRecord
100
AcDbDimStyleTableRecord
  2
ME10_DIM_10
 70
     0
 41
8.0
 42
1.0
 44
1.0
 73
     0
 74
     0
 77
     1
 78
    12
140
10.0
147
1.0
172
     1
173
     1
174
     1
175
     1
176
     2
177
     2
178
     2
271
     3
340
2BA
343
2E0
344
2E0
  0
DIMSTYLE
105
2F3
102
{ACAD_REACTORS
330
2F4
102
}
330
A
100
AcDbSymbolTableRecord
100
AcDbDimStyleTableRecord
  2
ME10_DIM_11
 70
     0
 41
8.0
 42
1.0
 44
1.0
 73
     0
 74
     0
 77
     1
 78
    12
140
10.0
147
1.0
172
     1
173
     1
174
     1
175
     1
176
     2
177
     2
178
     2
271
     3
340
2BA
343
2E0
344
2E0
  0
ENDTAB
  0
TABLE
  2
BLOCK_RECORD
  5
1
330
0
100
AcDbSymbolTable
 70
     4
  0
BLOCK_RECORD
  5
1F
330
1
100
AcDbSymbolTableRecord
100
AcDbBlockTableRecord
  2
*Model_Space
340
22
  0
BLOCK_RECORD
  5
1B
330
1
100
AcDbSymbolTableRecord
100
AcDbBlockTableRecord
  2
*Paper_Space
340
1E
  0
BLOCK_RECORD
  5
23
330
1
100
AcDbSymbolTableRecord
100
AcDbBlockTableRecord
  2
*Paper_Space0
340
26
  0
BLOCK_RECORD
  5
2B2
330
1
100
AcDbSymbolTableRecord
100
AcDbBlockTableRecord
  2
*D1
340
0
  0
BLOCK_RECORD
  5
2E0
330
1
100
AcDbSymbolTableRecord
100
AcDbBlockTableRecord
  2
_OPEN30
340
0
  0
BLOCK_RECORD
  5
2E8
330
1
100
AcDbSymbolTableRecord
100
AcDbBlockTableRecord
  2
*D3
340
0
  0
ENDTAB
  0
ENDSEC
  0
SECTION
  2
BLOCKS
  0
BLOCK
  5
20
330
1F
100
AcDbEntity
  8
0
100
AcDbBlockBegin
  2
*Model_Space
 70
     0
 10
0.0
 20
0.0
 30
0.0
  3
*Model_Space
  1

  0
ENDBLK
  5
21
330
1F
100
AcDbEntity
  8
0
100
AcDbBlockEnd
  0
BLOCK
  5
1C
330
1B
100
AcDbEntity
 67
     1
  8
0
100
AcDbBlockBegin
  2
*Paper_Space
 70
     0
 10
0.0
 20
0.0
 30
0.0
  3
*Paper_Space
  1

  0
ENDBLK
  5
1D
330
1B
100
AcDbEntity
 67
     1
  8
0
100
AcDbBlockEnd
  0
BLOCK
  5
24
330
23
100
AcDbEntity
  8
0
100
AcDbBlockBegin
  2
*Paper_Space0
 70
     0
 10
0.0
 20
0.0
 30
0.0
  3
*Paper_Space0
  1

  0
ENDBLK
  5
25
330
23
100
AcDbEntity
  8
0
100
AcDbBlockEnd
  0
BLOCK
  5
2DE
330
2B2
100
AcDbEntity
  8
0
100
AcDbBlockBegin
  2
*D1
 70
     1
 10
0.0
 20
0.0
 30
0.0
  3
*D1
  1

  0
LINE
  5
2B3
330
2B2
100
AcDbEntity
  8
1
  6
Continuous
 62
     2
100
AcDbLine
 10
37.0
 20
-1.57093805847624
 30
0.0
 11
107.0
 21
-1.57093805847624
 31
0.0
  0
LINE
  5
2B4
330
2B2
100
AcDbEntity
  8
1
  6
Continuous
 62
     2
100
AcDbLine
 10
37.0
 20
38.49999999999996
 30
0.0
 11
37.0
 21
-2.57093805847624
 31
0.0
  0
LINE
  5
2B5
330
2B2
100
AcDbEntity
  8
1
  6
Continuous
 62
     2
100
AcDbLine
 10
107.0
 20
38.49999999999996
 30
0.0
 11
107.0
 21
-2.57093805847624
 31
0.0
  0
LINE
  5
2B6
330
2B2
100
AcDbEntity
  8
1
 62
     2
100
AcDbLine
 10
107.0
 20
-1.57093805847624
 30
0.0
 11
99.0
 21
-3.71453159792522
 31
0.0
  0
LINE
  5
2B7
330
2B2
100
AcDbEntity
  8
1
 62
     2
100
AcDbLine
 10
107.0
 20
-1.57093805847624
 30
0.0
 11
99.0
 21
0.57265548097274
 31
0.0
  0
LINE
  5
2B8
330
2B2
100
AcDbEntity
  8
1
 62
     2
100
AcDbLine
 10
37.0
 20
-1.57093805847624
 30
0.0
 11
45.0
 21
0.57265548097274
 31
0.0
  0
LINE
  5
2B9
330
2B2
100
AcDbEntity
  8
1
 62
     2
100
AcDbLine
 10
37.0
 20
-1.57093805847624
 30
0.0
 11
45.0
 21
-3.71453159792522
 31
0.0
  0
MTEXT
  5
2DD
330
2B2
100
AcDbEntity
  8
1
 62
     2
100
AcDbMText
 10
64.62001212036371
 20
-0.57095594808638
 30
0.0
 40
10.0
 41
0.0
 71
     7
 72
     1
  1
70
  7
CONVERTER_11
 11
0.9999999999882478
 21
4.848136811095759E-6
 31
0.0
 73
     1
 44
0.60024009603842
  0
ENDBLK
  5
2DF
330
2B2
100
AcDbEntity
  8
0
100
AcDbBlockEnd
  0
BLOCK
  5
2E1
330
2E0
100
AcDbEntity
  8
0
100
AcDbBlockBegin
  2
_OPEN30
 70
     0
 10
0.0
 20
0.0
 30
0.0
  3
_OPEN30
  1

  0
LINE
  5
2E3
330
2E0
100
AcDbEntity
  8
0
  6
ByBlock
 62
     0
370
    -2
100
AcDbLine
 10
-1.0
 20
0.267949
 30
0.0
 11
0.0
 21
0.0
 31
0.0
  0
LINE
  5
2E4
330
2E0
100
AcDbEntity
  8
0
  6
ByBlock
 62
     0
370
    -2
100
AcDbLine
 10
0.0
 20
0.0
 30
0.0
 11
-1.0
 21
-0.267949
 31
0.0
  0
LINE
  5
2E5
330
2E0
100
AcDbEntity
  8
0
  6
ByBlock
 62
     0
370
    -2
100
AcDbLine
 10
0.0
 20
0.0
 30
0.0
 11
-1.0
 21
0.0
 31
0.0
  0
ENDBLK
  5
2E2
330
2E0
100
AcDbEntity
  8
0
100
AcDbBlockEnd
  0
BLOCK
  5
2F1
330
2E8
100
AcDbEntity
  8
0
100
AcDbBlockBegin
  2
*D3
 70
     1
 10
0.0
 20
0.0
 30
0.0
  3
*D3
  1

  0
LINE
  5
2E9
330
2E8
100
AcDbEntity
  8
1
  6
Continuous
 62
     2
100
AcDbLine
 10
128.0
 20
54.0
 30
0.0
 11
128.0
 21
163.0
 31
0.0
  0
LINE
  5
2EA
330
2E8
100
AcDbEntity
  8
1
  6
Continuous
 62
     2
100
AcDbLine
 10
111.0
 20
54.0
 30
0.0
 11
129.0
 21
54.0
 31
0.0
  0
LINE
  5
2EB
330
2E8
100
AcDbEntity
  8
1
  6
Continuous
 62
     2
100
AcDbLine
 10
79.5
 20
163.0
 30
0.0
 11
129.0
 21
163.0
 31
0.0
  0
LINE
  5
2EC
330
2E8
100
AcDbEntity
  8
1
 62
     2
100
AcDbLine
 10
128.0
 20
163.0
 30
0.0
 11
130.143593539449
 21
155.0
 31
0.0
  0
LINE
  5
2ED
330
2E8
100
AcDbEntity
  8
1
 62
     2
100
AcDbLine
 10
128.0
 20
163.0
 30
0.0
 11
125.856406460551
 21
155.0
 31
0.0
  0
LINE
  5
2EE
330
2E8
100
AcDbEntity
  8
1
 62
     2
100
AcDbLine
 10
128.0
 20
54.0
 30
0.0
 11
125.856406460551
 21
62.0
 31
0.0
  0
LINE
  5
2EF
330
2E8
100
AcDbEntity
  8
1
 62
     2
100
AcDbLine
 10
128.0
 20
54.0
 30
0.0
 11
130.143593539449
 21
62.0
 31
0.0
  0
MTEXT
  5
2F0
330
2E8
100
AcDbEntity
  8
1
 62
     2
100
AcDbMText
 10
127.0
 20
102.93
 30
0.0
 40
10.0
 41
0.0
 71
     7
 72
     1
  1
109
  7
CONVERTER_11
 11
0.0
 21
1.0
 31
0.0
 73
     1
 44
0.60024009603842
  0
ENDBLK
  5
2F2
330
2E8
100
AcDbEntity
  8
0
100
AcDbBlockEnd
  0
ENDSEC
  0
SECTION
  2
ENTITIES
  0
POINT
  5
48
330
1F
100
AcDbEntity
  8
1
 62
     7
100
AcDbPoint
 10
37.0
 20
39.5
 30
0.0
  0
POINT
  5
49
330
1F
100
AcDbEntity
  8
1
 62
     7
100
AcDbPoint
 10
107.0
 20
39.5
 30
0.0
  0
POINT
  5
4A
330
1F
100
AcDbEntity
  8
1
 62
     7
100
AcDbPoint
 10
110.0
 20
54.0
 30
0.0
  0
POINT
  5
4B
330
1F
100
AcDbEntity
  8
1
 62
     7
100
AcDbPoint
 10
78.5
 20
163.0
 30
0.0
  0
LINE
  5
4C
330
1F
100
AcDbEntity
  8
1
  6
Continuous
 62
     4
100
AcDbLine
 10
92.0785015101877
 20
26.1212062696969
 30
0.0
 11
91.28640151018772
 21
24.8712062696969
 31
0.0
  0
LINE
  5
4D
330
1F
100
AcDbEntity
  8
1
  6
Continuous
 62
     4
100
AcDbLine
 10
91.28640151018772
 20
27.3712062696969
 30
0.0
 11
92.0785015101877
 21
26.1212062696969
 31
0.0
  0
LINE
  5
4E
330
1F
100
AcDbEntity
  8
1
  6
Continuous
 62
     4
100
AcDbLine
 10
86.13775151018771
 20
26.1212062696969
 30
0.0
 11
92.0785015101877
 21
26.1212062696969
 31
0.0
  0
LINE
  5
4F
330
1F
100
AcDbEntity
  8
1
  6
Continuous
 62
     4
100
AcDbLine
 10
79.6029265101877
 20
28.9962062696969
 30
0.0
 11
84.1575015101877
 21
28.9962062696969
 31
0.0
  0
LINE
  5
50
330
1F
100
AcDbEntity
  8
1
  6
Continuous
 62
     4
100
AcDbLine
 10
79.6029265101877
 20
28.9962062696969
 30
0.0
 11
80.6920640101877
 21
30.8712062696969
 31
0.0
  0
LINE
  5
51
330
1F
100
AcDbEntity
  8
1
  6
Continuous
 62
     4
100
AcDbLine
 10
82.1772515101877
 20
24.2462062696969
 30
0.0
 11
80.4940390101877
 21
24.2462062696969
 31
0.0
  0
LINE
  5
52
330
1F
100
AcDbEntity
  8
1
  6
Continuous
 62
     4
100
AcDbLine
 10
82.1772515101877
 20
26.7462062696969
 30
0.0
 11
82.1772515101877
 21
24.2462062696969
 31
0.0
  0
LINE
  5
53
330
1F
100
AcDbEntity
  8
1
  6
Continuous
 62
     4
100
AcDbLine
 10
80.4940390101877
 20
26.7462062696969
 30
0.0
 11
82.1772515101877
 21
26.7462062696969
 31
0.0
  0
LINE
  5
54
330
1F
100
AcDbEntity
  8
1
  6
Continuous
 62
     4
100
AcDbLine
 10
80.4940390101877
 20
24.2462062696969
 30
0.0
 11
80.4940390101877
 21
26.7462062696969
 31
0.0
  0
LINE
  5
55
330
1F
100
AcDbEntity
  8
1
  6
Continuous
 62
     4
100
AcDbLine
 10
84.1575015101877
 20
21.4962062696969
 30
0.0
 11
83.06836401018771
 21
21.4962062696969
 31
0.0
  0
LINE
  5
56
330
1F
100
AcDbEntity
  8
1
  6
Continuous
 62
     4
100
AcDbLine
 10
84.1575015101877
 20
28.9962062696969
 30
0.0
 11
84.1575015101877
 21
21.4962062696969
 31
0.0
  0
LINE
  5
57
330
1F
100
AcDbEntity
  8
1
  6
Continuous
 62
     4
100
AcDbLine
 10
78.51378901018771
 20
28.9962062696969
 30
0.0
 11
79.6029265101877
 21
28.9962062696969
 31
0.0
  0
LINE
  5
58
330
1F
100
AcDbEntity
  8
1
  6
Continuous
 62
     4
100
AcDbLine
 10
78.51378901018771
 20
21.4962062696969
 30
0.0
 11
78.51378901018771
 21
28.9962062696969
 31
0.0
  0
LINE
  5
59
330
1F
100
AcDbEntity
  8
1
  6
Continuous
 62
     4
100
AcDbLine
 10
74.2562515101877
 20
21.1212062696969
 30
0.0
 11
73.46415151018769
 21
21.7462062696969
 31
0.0
  0
LINE
  5
5A
330
1F
100
AcDbEntity
  8
1
  6
Continuous
 62
     4
100
AcDbLine
 10
74.7513140101877
 20
22.1212062696969
 30
0.0
 11
74.2562515101877
 21
21.1212062696969
 31
0.0
  0
LINE
  5
5B
330
1F
100
AcDbEntity
  8
1
  6
Continuous
 62
     4
100
AcDbLine
 10
75.1473640101877
 20
23.6212062696969
 30
0.0
 11
74.7513140101877
 21
22.1212062696969
 31
0.0
  0
LINE
  5
5C
330
1F
100
AcDbEntity
  8
1
  6
Continuous
 62
     4
100
AcDbLine
 10
75.6424265101877
 20
25.8712062696969
 30
0.0
 11
75.1473640101877
 21
23.6212062696969
 31
0.0
  0
LINE
  5
5D
330
1F
100
AcDbEntity
  8
1
  6
Continuous
 62
     4
100
AcDbLine
 10
75.6424265101877
 20
26.7462062696969
 30
0.0
 11
75.6424265101877
 21
25.8712062696969
 31
0.0
  0
LINE
  5
5E
330
1F
100
AcDbEntity
  8
1
  6
Continuous
 62
     4
100
AcDbLine
 10
72.7710640101877
 20
26.7462062696969
 30
0.0
 11
75.6424265101877
 21
26.7462062696969
 31
0.0
  0
LINE
  5
5F
330
1F
100
AcDbEntity
  8
1
  6
Continuous
 62
     4
100
AcDbLine
 10
70.0977265101877
 20
29.2462062696969
 30
0.0
 11
76.7315640101877
 21
29.2462062696969
 31
0.0
  0
LINE
  5
60
330
1F
100
AcDbEntity
  8
1
  6
Continuous
 62
     4
100
AcDbLine
 10
72.9690890101877
 20
28.3712062696969
 30
0.0
 11
73.1671140101877
 21
30.8712062696969
 31
0.0
  0
LINE
  5
61
330
1F
100
AcDbEntity
  8
1
  6
Continuous
 62
     4
100
AcDbLine
 10
72.5730390101877
 20
25.8712062696969
 30
0.0
 11
72.9690890101877
 21
28.3712062696969
 31
0.0
  0
LINE
  5
62
330
1F
100
AcDbEntity
  8
1
  6
Continuous
 62
     4
100
AcDbLine
 10
72.0779765101877
 20
24.2462062696969
 30
0.0
 11
72.5730390101877
 21
25.8712062696969
 31
0.0
  0
LINE
  5
63
330
1F
100
AcDbEntity
  8
1
  6
Continuous
 62
     4
100
AcDbLine
 10
71.48390151018769
 20
22.7462062696969
 30
0.0
 11
72.0779765101877
 21
24.2462062696969
 31
0.0
  0
LINE
  5
64
330
1F
100
AcDbEntity
  8
1
  6
Continuous
 62
     4
100
AcDbLine
 10
70.5927890101877
 20
21.4962062696969
 30
0.0
 11
71.48390151018769
 21
22.7462062696969
 31
0.0
  0
LINE
  5
65
330
1F
100
AcDbEntity
  8
1
  6
Continuous
 62
     4
100
AcDbLine
 10
67.9194515101877
 20
24.2462062696969
 30
0.0
 11
69.00858901018769
 21
22.7462062696969
 31
0.0
  0
LINE
  5
66
330
1F
100
AcDbEntity
  8
1
  6
Continuous
 62
     4
100
AcDbLine
 10
67.0283390101877
 20
26.1212062696969
 30
0.0
 11
67.9194515101877
 21
24.2462062696969
 31
0.0
  0
LINE
  5
67
330
1F
100
AcDbEntity
  8
1
  6
Continuous
 62
     4
100
AcDbLine
 10
66.3352515101877
 20
28.3712062696969
 30
0.0
 11
67.0283390101877
 21
26.1212062696969
 31
0.0
  0
LINE
  5
68
330
1F
100
AcDbEntity
  8
1
  6
Continuous
 62
     4
100
AcDbLine
 10
68.3155015101877
 20
28.6212062696969
 30
0.0
 11
66.83031401018769
 21
27.1212062696969
 31
0.0
  0
LINE
  5
69
330
1F
100
AcDbEntity
  8
1
  6
Continuous
 62
     4
100
AcDbLine
 10
65.7411765101877
 20
21.1212062696969
 30
0.0
 11
65.0480890101877
 21
21.4962062696969
 31
0.0
  0
LINE
  5
6A
330
1F
100
AcDbEntity
  8
1
  6
Continuous
 62
     4
100
AcDbLine
 10
65.7411765101877
 20
30.8712062696969
 30
0.0
 11
65.7411765101877
 21
21.1212062696969
 31
0.0
  0
LINE
  5
6B
330
1F
100
AcDbEntity
  8
1
  6
Continuous
 62
     4
100
AcDbLine
 10
64.65203901018769
 20
27.7462062696969
 30
0.0
 11
62.3747515101877
 21
27.7462062696969
 31
0.0
  0
LINE
  5
6C
330
1F
100
AcDbEntity
  8
1
  6
Continuous
 62
     4
100
AcDbLine
 10
64.1569765101877
 20
25.8712062696969
 30
0.0
 11
64.65203901018769
 21
27.7462062696969
 31
0.0
  0
LINE
  5
6D
330
1F
100
AcDbEntity
  8
1
  6
Continuous
 62
     4
100
AcDbLine
 10
63.2658640101877
 20
23.9962062696969
 30
0.0
 11
64.1569765101877
 21
25.8712062696969
 31
0.0
  0
LINE
  5
6E
330
1F
100
AcDbEntity
  8
1
  6
Continuous
 62
     4
100
AcDbLine
 10
62.3747515101877
 20
22.7462062696969
 30
0.0
 11
63.2658640101877
 21
23.9962062696969
 31
0.0
  0
LINE
  5
6F
330
1F
100
AcDbEntity
  8
1
  6
Continuous
 62
     4
100
AcDbLine
 10
58.0182015101877
 20
29.6212062696969
 30
0.0
 11
60.6915390101877
 21
29.6212062696969
 31
0.0
  0
LINE
  5
70
330
1F
100
AcDbEntity
  8
1
  6
Continuous
 62
     4
100
AcDbLine
 10
61.0875890101877
 20
22.1212062696969
 30
0.0
 11
61.0875890101877
 21
22.7462062696969
 31
0.0
  0
LINE
  5
71
330
1F
100
AcDbEntity
  8
1
  6
Continuous
 62
     4
100
AcDbLine
 10
60.6915390101877
 20
21.4962062696969
 30
0.0
 11
61.0875890101877
 21
22.1212062696969
 31
0.0
  0
LINE
  5
72
330
1F
100
AcDbEntity
  8
1
  6
Continuous
 62
     4
100
AcDbLine
 10
59.8004265101877
 20
21.4962062696969
 30
0.0
 11
60.6915390101877
 21
21.4962062696969
 31
0.0
  0
LINE
  5
73
330
1F
100
AcDbEntity
  8
1
  6
Continuous
 62
     4
100
AcDbLine
 10
59.3053640101877
 20
22.3712062696969
 30
0.0
 11
59.8004265101877
 21
21.4962062696969
 31
0.0
  0
LINE
  5
74
330
1F
100
AcDbEntity
  8
1
  6
Continuous
 62
     4
100
AcDbLine
 10
59.3053640101877
 20
25.4962062696969
 30
0.0
 11
59.3053640101877
 21
22.3712062696969
 31
0.0
  0
LINE
  5
75
330
1F
100
AcDbEntity
  8
1
  6
Continuous
 62
     4
100
AcDbLine
 10
58.0182015101877
 20
21.4962062696969
 30
0.0
 11
58.0182015101877
 21
25.4962062696969
 31
0.0
  0
LINE
  5
76
330
1F
100
AcDbEntity
  8
1
  6
Continuous
 62
     4
100
AcDbLine
 10
56.0379515101877
 20
21.7462062696969
 30
0.0
 11
55.3448640101877
 21
21.1212062696969
 31
0.0
  0
LINE
  5
77
330
1F
100
AcDbEntity
  8
1
  6
Continuous
 62
     4
100
AcDbLine
 10
56.4340015101877
 20
22.3712062696969
 30
0.0
 11
56.0379515101877
 21
21.7462062696969
 31
0.0
  0
LINE
  5
78
330
1F
100
AcDbEntity
  8
1
  6
Continuous
 62
     4
100
AcDbLine
 10
56.7310390101877
 20
23.3712062696969
 30
0.0
 11
56.4340015101877
 21
22.3712062696969
 31
0.0
  0
LINE
  5
79
330
1F
100
AcDbEntity
  8
1
  6
Continuous
 62
     4
100
AcDbLine
 10
56.9290640101877
 20
25.4962062696969
 30
0.0
 11
56.7310390101877
 21
23.3712062696969
 31
0.0
  0
LINE
  5
7A
330
1F
100
AcDbEntity
  8
1
  6
Continuous
 62
     4
100
AcDbLine
 10
59.1073390101877
 20
28.6212062696969
 30
0.0
 11
59.9984515101877
 21
26.4962062696969
 31
0.0
  0
LINE
  5
7B
330
1F
100
AcDbEntity
  8
1
  6
Continuous
 62
     4
100
AcDbLine
 10
56.2359765101877
 20
27.1212062696969
 30
0.0
 11
59.6024015101877
 21
27.3712062696969
 31
0.0
  0
LINE
  5
7C
330
1F
100
AcDbEntity
  8
1
  6
Continuous
 62
     4
100
AcDbLine
 10
58.0182015101877
 20
29.6212062696969
 30
0.0
 11
57.1270890101877
 21
27.1212062696969
 31
0.0
  0
LINE
  5
7D
330
1F
100
AcDbEntity
  8
1
  6
Continuous
 62
     4
100
AcDbLine
 10
58.2162265101877
 20
31.1212062696969
 30
0.0
 11
58.2162265101877
 21
29.6212062696969
 31
0.0
  0
LINE
  5
7E
330
1F
100
AcDbEntity
  8
1
  6
Continuous
 62
     4
100
AcDbLine
 10
55.8399265101877
 20
29.6212062696969
 30
0.0
 11
58.0182015101877
 21
29.6212062696969
 31
0.0
  0
LINE
  5
7F
330
1F
100
AcDbEntity
  8
1
  6
Continuous
 62
     4
100
AcDbLine
 10
54.2557265101877
 20
21.4962062696969
 30
0.0
 11
55.1468390101877
 21
25.4962062696969
 31
0.0
  0
LINE
  5
80
330
1F
100
AcDbEntity
  8
1
  6
Continuous
 62
     4
100
AcDbLine
 10
54.0577015101877
 20
27.9962062696969
 30
0.0
 11
54.7507890101877
 21
27.1212062696969
 31
0.0
  0
LINE
  5
81
330
1F
100
AcDbEntity
  8
1
  6
Continuous
 62
     4
100
AcDbLine
 10
54.7507890101877
 20
30.8712062696969
 30
0.0
 11
55.1468390101877
 21
29.8712062696969
 31
0.0
  0
LINE
  5
82
330
1F
100
AcDbEntity
  8
1
  6
Continuous
 62
     4
100
AcDbLine
 10
220.25
 20
210.0
 30
0.0
 11
216.5
 21
210.0
 31
0.0
  0
LINE
  5
83
330
1F
100
AcDbEntity
  8
1
  6
Continuous
 62
     4
100
AcDbLine
 10
221.0
 20
210.25
 30
0.0
 11
220.25
 21
210.0
 31
0.0
  0
LINE
  5
84
330
1F
100
AcDbEntity
  8
1
  6
Continuous
 62
     4
100
AcDbLine
 10
221.75
 20
210.75
 30
0.0
 11
221.0
 21
210.25
 31
0.0
  0
LINE
  5
85
330
1F
100
AcDbEntity
  8
1
  6
Continuous
 62
     4
100
AcDbLine
 10
222.25
 20
211.5
 30
0.0
 11
221.75
 21
210.75
 31
0.0
  0
LINE
  5
86
330
1F
100
AcDbEntity
  8
1
  6
Continuous
 62
     4
100
AcDbLine
 10
222.5
 20
212.5
 30
0.0
 11
222.25
 21
211.5
 31
0.0
  0
LINE
  5
87
330
1F
100
AcDbEntity
  8
1
  6
Continuous
 62
     4
100
AcDbLine
 10
222.5
 20
213.75
 30
0.0
 11
222.5
 21
212.5
 31
0.0
  0
LINE
  5
88
330
1F
100
AcDbEntity
  8
1
  6
Continuous
 62
     4
100
AcDbLine
 10
222.25
 20
214.75
 30
0.0
 11
222.5
 21
213.75
 31
0.0
  0
LINE
  5
89
330
1F
100
AcDbEntity
  8
1
  6
Continuous
 62
     4
100
AcDbLine
 10
222.0
 20
215.25
 30
0.0
 11
222.25
 21
214.75
 31
0.0
  0
LINE
  5
8A
330
1F
100
AcDbEntity
  8
1
  6
Continuous
 62
     4
100
AcDbLine
 10
221.5
 20
215.75
 30
0.0
 11
222.0
 21
215.25
 31
0.0
  0
LINE
  5
8B
330
1F
100
AcDbEntity
  8
1
  6
Continuous
 62
     4
100
AcDbLine
 10
220.5
 20
216.0
 30
0.0
 11
221.5
 21
215.75
 31
0.0
  0
LINE
  5
8C
330
1F
100
AcDbEntity
  8
1
  6
Continuous
 62
     4
100
AcDbLine
 10
221.25
 20
216.25
 30
0.0
 11
220.5
 21
216.0
 31
0.0
  0
LINE
  5
8D
330
1F
100
AcDbEntity
  8
1
  6
Continuous
 62
     4
100
AcDbLine
 10
221.75
 20
216.5
 30
0.0
 11
221.25
 21
216.25
 31
0.0
  0
LINE
  5
8E
330
1F
100
AcDbEntity
  8
1
  6
Continuous
 62
     4
100
AcDbLine
 10
222.25
 20
217.0
 30
0.0
 11
221.75
 21
216.5
 31
0.0
  0
LINE
  5
8F
330
1F
100
AcDbEntity
  8
1
  6
Continuous
 62
     4
100
AcDbLine
 10
222.5
 20
217.75
 30
0.0
 11
222.25
 21
217.0
 31
0.0
  0
LINE
  5
90
330
1F
100
AcDbEntity
  8
1
  6
Continuous
 62
     4
100
AcDbLine
 10
222.5
 20
218.5
 30
0.0
 11
222.5
 21
217.75
 31
0.0
  0
LINE
  5
91
330
1F
100
AcDbEntity
  8
1
  6
Continuous
 62
     4
100
AcDbLine
 10
222.25
 20
219.25
 30
0.0
 11
222.5
 21
218.5
 31
0.0
  0
LINE
  5
92
330
1F
100
AcDbEntity
  8
1
  6
Continuous
 62
     4
100
AcDbLine
 10
221.5
 20
219.75
 30
0.0
 11
222.25
 21
219.25
 31
0.0
  0
LINE
  5
93
330
1F
100
AcDbEntity
  8
1
  6
Continuous
 62
     4
100
AcDbLine
 10
220.25
 20
220.0
 30
0.0
 11
221.5
 21
219.75
 31
0.0
  0
LINE
  5
94
330
1F
100
AcDbEntity
  8
1
  6
Continuous
 62
     4
100
AcDbLine
 10
216.5
 20
220.0
 30
0.0
 11
220.25
 21
220.0
 31
0.0
  0
LINE
  5
95
330
1F
100
AcDbEntity
  8
1
  6
Continuous
 62
     4
100
AcDbLine
 10
218.0
 20
216.0
 30
0.0
 11
220.5
 21
216.0
 31
0.0
  0
LINE
  5
96
330
1F
100
AcDbEntity
  8
1
  6
Continuous
 62
     4
100
AcDbLine
 10
213.5
 20
220.0
 30
0.0
 11
213.5
 21
210.0
 31
0.0
  0
LINE
  5
97
330
1F
100
AcDbEntity
  8
1
  6
Continuous
 62
     4
100
AcDbLine
 10
210.5
 20
217.0
 30
0.0
 11
213.5
 21
220.0
 31
0.0
  0
LINE
  5
98
330
1F
100
AcDbEntity
  8
1
  6
Continuous
 62
     4
100
AcDbLine
 10
202.5
 20
213.5
 30
0.0
 11
207.5
 21
213.5
 31
0.0
  0
LINE
  5
99
330
1F
100
AcDbEntity
  8
1
  6
Continuous
 62
     4
100
AcDbLine
 10
199.25
 20
218.0
 30
0.0
 11
199.5
 21
217.0
 31
0.0
  0
LINE
  5
9A
330
1F
100
AcDbEntity
  8
1
  6
Continuous
 62
     4
100
AcDbLine
 10
198.75
 20
218.75
 30
0.0
 11
199.25
 21
218.0
 31
0.0
  0
LINE
  5
9B
330
1F
100
AcDbEntity
  8
1
  6
Continuous
 62
     4
100
AcDbLine
 10
198.25
 20
219.25
 30
0.0
 11
198.75
 21
218.75
 31
0.0
  0
LINE
  5
9C
330
1F
100
AcDbEntity
  8
1
  6
Continuous
 62
     4
100
AcDbLine
 10
197.5
 20
219.75
 30
0.0
 11
198.25
 21
219.25
 31
0.0
  0
LINE
  5
9D
330
1F
100
AcDbEntity
  8
1
  6
Continuous
 62
     4
100
AcDbLine
 10
196.5
 20
220.0
 30
0.0
 11
197.5
 21
219.75
 31
0.0
  0
LINE
  5
9E
330
1F
100
AcDbEntity
  8
1
  6
Continuous
 62
     4
100
AcDbLine
 10
192.5
 20
220.0
 30
0.0
 11
196.5
 21
220.0
 31
0.0
  0
LINE
  5
9F
330
1F
100
AcDbEntity
  8
1
  6
Continuous
 62
     4
100
AcDbLine
 10
192.5
 20
210.0
 30
0.0
 11
192.5
 21
220.0
 31
0.0
  0
LINE
  5
A0
330
1F
100
AcDbEntity
  8
1
  6
Continuous
 62
     4
100
AcDbLine
 10
196.5
 20
210.0
 30
0.0
 11
192.5
 21
210.0
 31
0.0
  0
LINE
  5
A1
330
1F
100
AcDbEntity
  8
1
  6
Continuous
 62
     4
100
AcDbLine
 10
197.5
 20
210.25
 30
0.0
 11
196.5
 21
210.0
 31
0.0
  0
LINE
  5
A2
330
1F
100
AcDbEntity
  8
1
  6
Continuous
 62
     4
100
AcDbLine
 10
198.25
 20
210.75
 30
0.0
 11
197.5
 21
210.25
 31
0.0
  0
LINE
  5
A3
330
1F
100
AcDbEntity
  8
1
  6
Continuous
 62
     4
100
AcDbLine
 10
198.75
 20
211.25
 30
0.0
 11
198.25
 21
210.75
 31
0.0
  0
LINE
  5
A4
330
1F
100
AcDbEntity
  8
1
  6
Continuous
 62
     4
100
AcDbLine
 10
199.25
 20
212.0
 30
0.0
 11
198.75
 21
211.25
 31
0.0
  0
LINE
  5
A5
330
1F
100
AcDbEntity
  8
1
  6
Continuous
 62
     4
100
AcDbLine
 10
199.5
 20
213.0
 30
0.0
 11
199.25
 21
212.0
 31
0.0
  0
LINE
  5
A6
330
1F
100
AcDbEntity
  8
1
  6
Continuous
 62
     4
100
AcDbLine
 10
199.5
 20
217.0
 30
0.0
 11
199.5
 21
213.0
 31
0.0
  0
LINE
  5
A7
330
1F
100
AcDbEntity
  8
1
  6
Continuous
 62
     4
100
AcDbLine
 10
183.0
 20
215.5
 30
0.0
 11
183.0
 21
220.0
 31
0.0
  0
LINE
  5
A8
330
1F
100
AcDbEntity
  8
1
  6
Continuous
 62
     4
100
AcDbLine
 10
187.75
 20
215.75
 30
0.0
 11
187.0
 21
215.5
 31
0.0
  0
LINE
  5
A9
330
1F
100
AcDbEntity
  8
1
  6
Continuous
 62
     4
100
AcDbLine
 10
188.5
 20
216.25
 30
0.0
 11
187.75
 21
215.75
 31
0.0
  0
LINE
  5
AA
330
1F
100
AcDbEntity
  8
1
  6
Continuous
 62
     4
100
AcDbLine
 10
189.0
 20
217.25
 30
0.0
 11
188.5
 21
216.25
 31
0.0
  0
LINE
  5
AB
330
1F
100
AcDbEntity
  8
1
  6
Continuous
 62
     4
100
AcDbLine
 10
189.0
 20
218.0
 30
0.0
 11
189.0
 21
217.25
 31
0.0
  0
LINE
  5
AC
330
1F
100
AcDbEntity
  8
1
  6
Continuous
 62
     4
100
AcDbLine
 10
188.75
 20
219.0
 30
0.0
 11
189.0
 21
218.0
 31
0.0
  0
LINE
  5
AD
330
1F
100
AcDbEntity
  8
1
  6
Continuous
 62
     4
100
AcDbLine
 10
188.0
 20
219.75
 30
0.0
 11
188.75
 21
219.0
 31
0.0
  0
LINE
  5
AE
330
1F
100
AcDbEntity
  8
1
  6
Continuous
 62
     4
100
AcDbLine
 10
186.75
 20
220.0
 30
0.0
 11
188.0
 21
219.75
 31
0.0
  0
LINE
  5
AF
330
1F
100
AcDbEntity
  8
1
  6
Continuous
 62
     4
100
AcDbLine
 10
183.0
 20
220.0
 30
0.0
 11
186.75
 21
220.0
 31
0.0
  0
LINE
  5
B0
330
1F
100
AcDbEntity
  8
1
  6
Continuous
 62
     4
100
AcDbLine
 10
183.0
 20
210.0
 30
0.0
 11
183.0
 21
215.5
 31
0.0
  0
LINE
  5
B1
330
1F
100
AcDbEntity
  8
1
  6
Continuous
 62
     4
100
AcDbLine
 10
187.5
 20
210.0
 30
0.0
 11
183.0
 21
210.0
 31
0.0
  0
LINE
  5
B2
330
1F
100
AcDbEntity
  8
1
  6
Continuous
 62
     4
100
AcDbLine
 10
188.5
 20
210.5
 30
0.0
 11
187.5
 21
210.0
 31
0.0
  0
LINE
  5
B3
330
1F
100
AcDbEntity
  8
1
  6
Continuous
 62
     4
100
AcDbLine
 10
189.0
 20
211.0
 30
0.0
 11
188.5
 21
210.5
 31
0.0
  0
LINE
  5
B4
330
1F
100
AcDbEntity
  8
1
  6
Continuous
 62
     4
100
AcDbLine
 10
189.5
 20
212.0
 30
0.0
 11
189.0
 21
211.0
 31
0.0
  0
LINE
  5
B5
330
1F
100
AcDbEntity
  8
1
  6
Continuous
 62
     4
100
AcDbLine
 10
189.5
 20
213.25
 30
0.0
 11
189.5
 21
212.0
 31
0.0
  0
LINE
  5
B6
330
1F
100
AcDbEntity
  8
1
  6
Continuous
 62
     4
100
AcDbLine
 10
189.0
 20
214.5
 30
0.0
 11
189.5
 21
213.25
 31
0.0
  0
LINE
  5
B7
330
1F
100
AcDbEntity
  8
1
  6
Continuous
 62
     4
100
AcDbLine
 10
188.5
 20
215.0
 30
0.0
 11
189.0
 21
214.5
 31
0.0
  0
LINE
  5
B8
330
1F
100
AcDbEntity
  8
1
  6
Continuous
 62
     4
100
AcDbLine
 10
187.5
 20
215.5
 30
0.0
 11
188.5
 21
215.0
 31
0.0
  0
LINE
  5
B9
330
1F
100
AcDbEntity
  8
1
  6
Continuous
 62
     4
100
AcDbLine
 10
187.0
 20
215.5
 30
0.0
 11
187.5
 21
215.5
 31
0.0
  0
LINE
  5
BA
330
1F
100
AcDbEntity
  8
1
  6
Continuous
 62
     4
100
AcDbLine
 10
183.0
 20
215.5
 30
0.0
 11
187.0
 21
215.5
 31
0.0
  0
LINE
  5
BB
330
1F
100
AcDbEntity
  8
1
  6
Continuous
 62
     4
100
AcDbLine
 10
175.0
 20
213.5
 30
0.0
 11
180.0
 21
213.5
 31
0.0
  0
LINE
  5
BC
330
1F
100
AcDbEntity
  8
1
  6
Continuous
 62
     4
100
AcDbLine
 10
165.0
 20
210.0
 30
0.0
 11
165.0
 21
215.0
 31
0.0
  0
LINE
  5
BD
330
1F
100
AcDbEntity
  8
1
  6
Continuous
 62
     4
100
AcDbLine
 10
169.0
 20
215.0
 30
0.0
 11
172.0
 21
210.0
 31
0.0
  0
LINE
  5
BE
330
1F
100
AcDbEntity
  8
1
  6
Continuous
 62
     4
100
AcDbLine
 10
169.75
 20
215.0
 30
0.0
 11
169.0
 21
215.0
 31
0.0
  0
LINE
  5
BF
330
1F
100
AcDbEntity
  8
1
  6
Continuous
 62
     4
100
AcDbLine
 10
170.75
 20
215.25
 30
0.0
 11
169.75
 21
215.0
 31
0.0
  0
LINE
  5
C0
330
1F
100
AcDbEntity
  8
1
  6
Continuous
 62
     4
100
AcDbLine
 10
171.5
 20
215.75
 30
0.0
 11
170.75
 21
215.25
 31
0.0
  0
LINE
  5
C1
330
1F
100
AcDbEntity
  8
1
  6
Continuous
 62
     4
100
AcDbLine
 10
171.75
 20
216.25
 30
0.0
 11
171.5
 21
215.75
 31
0.0
  0
LINE
  5
C2
330
1F
100
AcDbEntity
  8
1
  6
Continuous
 62
     4
100
AcDbLine
 10
172.0
 20
217.0
 30
0.0
 11
171.75
 21
216.25
 31
0.0
  0
LINE
  5
C3
330
1F
100
AcDbEntity
  8
1
  6
Continuous
 62
     4
100
AcDbLine
 10
172.0
 20
218.0
 30
0.0
 11
172.0
 21
217.0
 31
0.0
  0
LINE
  5
C4
330
1F
100
AcDbEntity
  8
1
  6
Continuous
 62
     4
100
AcDbLine
 10
171.75
 20
218.75
 30
0.0
 11
172.0
 21
218.0
 31
0.0
  0
LINE
  5
C5
330
1F
100
AcDbEntity
  8
1
  6
Continuous
 62
     4
100
AcDbLine
 10
171.5
 20
219.25
 30
0.0
 11
171.75
 21
218.75
 31
0.0
  0
LINE
  5
C6
330
1F
100
AcDbEntity
  8
1
  6
Continuous
 62
     4
100
AcDbLine
 10
170.75
 20
219.75
 30
0.0
 11
171.5
 21
219.25
 31
0.0
  0
LINE
  5
C7
330
1F
100
AcDbEntity
  8
1
  6
Continuous
 62
     4
100
AcDbLine
 10
169.75
 20
220.0
 30
0.0
 11
170.75
 21
219.75
 31
0.0
  0
LINE
  5
C8
330
1F
100
AcDbEntity
  8
1
  6
Continuous
 62
     4
100
AcDbLine
 10
165.0
 20
220.0
 30
0.0
 11
169.75
 21
220.0
 31
0.0
  0
LINE
  5
C9
330
1F
100
AcDbEntity
  8
1
  6
Continuous
 62
     4
100
AcDbLine
 10
165.0
 20
215.0
 30
0.0
 11
165.0
 21
220.0
 31
0.0
  0
LINE
  5
CA
330
1F
100
AcDbEntity
  8
1
  6
Continuous
 62
     4
100
AcDbLine
 10
169.0
 20
215.0
 30
0.0
 11
165.0
 21
215.0
 31
0.0
  0
LINE
  5
CB
330
1F
100
AcDbEntity
  8
1
  6
Continuous
 62
     4
100
AcDbLine
 10
157.0
 20
213.5
 30
0.0
 11
162.0
 21
213.5
 31
0.0
  0
LINE
  5
CC
330
1F
100
AcDbEntity
  8
1
  6
Continuous
 62
     4
100
AcDbLine
 10
147.0
 20
213.0
 30
0.0
 11
147.0
 21
220.0
 31
0.0
  0
LINE
  5
CD
330
1F
100
AcDbEntity
  8
1
  6
Continuous
 62
     4
100
AcDbLine
 10
147.0
 20
210.0
 30
0.0
 11
147.0
 21
213.0
 31
0.0
  0
LINE
  5
CE
330
1F
100
AcDbEntity
  8
1
  6
Continuous
 62
     4
100
AcDbLine
 10
149.0
 20
215.0
 30
0.0
 11
154.0
 21
210.0
 31
0.0
  0
LINE
  5
CF
330
1F
100
AcDbEntity
  8
1
  6
Continuous
 62
     4
100
AcDbLine
 10
154.0
 20
220.0
 30
0.0
 11
149.0
 21
215.0
 31
0.0
  0
LINE
  5
D0
330
1F
100
AcDbEntity
  8
1
  6
Continuous
 62
     4
100
AcDbLine
 10
149.0
 20
215.0
 30
0.0
 11
147.0
 21
213.0
 31
0.0
  0
LINE
  5
D1
330
1F
100
AcDbEntity
  8
1
  6
Continuous
 62
     4
100
AcDbLine
 10
156.114127122785
 20
27.9970190229328
 30
0.0
 11
162.114127122785
 21
27.9970190229328
 31
0.0
  0
LINE
  5
D2
330
1F
100
AcDbEntity
  8
1
  6
Continuous
 62
     4
100
AcDbLine
 10
161.614127122785
 20
34.4970190229328
 30
0.0
 11
156.114127122785
 21
27.9970190229328
 31
0.0
  0
LINE
  5
D3
330
1F
100
AcDbEntity
  8
1
  6
Continuous
 62
     4
100
AcDbLine
 10
162.114127122785
 20
35.4970190229328
 30
0.0
 11
161.614127122785
 21
34.4970190229328
 31
0.0
  0
LINE
  5
D4
330
1F
100
AcDbEntity
  8
1
  6
Continuous
 62
     4
100
AcDbLine
 10
162.114127122785
 20
36.4970190229328
 30
0.0
 11
162.114127122785
 21
35.4970190229328
 31
0.0
  0
LINE
  5
D5
330
1F
100
AcDbEntity
  8
1
  6
Continuous
 62
     4
100
AcDbLine
 10
161.614127122785
 20
37.2470190229328
 30
0.0
 11
162.114127122785
 21
36.4970190229328
 31
0.0
  0
LINE
  5
D6
330
1F
100
AcDbEntity
  8
1
  6
Continuous
 62
     4
100
AcDbLine
 10
160.864127122785
 20
37.7470190229328
 30
0.0
 11
161.614127122785
 21
37.2470190229328
 31
0.0
  0
LINE
  5
D7
330
1F
100
AcDbEntity
  8
1
  6
Continuous
 62
     4
100
AcDbLine
 10
159.864127122785
 20
37.9970190229328
 30
0.0
 11
160.864127122785
 21
37.7470190229328
 31
0.0
  0
LINE
  5
D8
330
1F
100
AcDbEntity
  8
1
  6
Continuous
 62
     4
100
AcDbLine
 10
158.364127122785
 20
37.9970190229328
 30
0.0
 11
159.864127122785
 21
37.9970190229328
 31
0.0
  0
LINE
  5
D9
330
1F
100
AcDbEntity
  8
1
  6
Continuous
 62
     4
100
AcDbLine
 10
157.364127122785
 20
37.7470190229328
 30
0.0
 11
158.364127122785
 21
37.9970190229328
 31
0.0
  0
LINE
  5
DA
330
1F
100
AcDbEntity
  8
1
  6
Continuous
 62
     4
100
AcDbLine
 10
156.614127122785
 20
37.2470190229328
 30
0.0
 11
157.364127122785
 21
37.7470190229328
 31
0.0
  0
LINE
  5
DB
330
1F
100
AcDbEntity
  8
1
  6
Continuous
 62
     4
100
AcDbLine
 10
156.114127122785
 20
36.4970190229328
 30
0.0
 11
156.614127122785
 21
37.2470190229328
 31
0.0
  0
LINE
  5
DC
330
1F
100
AcDbEntity
  8
1
  6
Continuous
 62
     4
100
AcDbLine
 10
149.114127122785
 20
27.9970190229328
 30
0.0
 11
153.114127122785
 21
37.9970190229328
 31
0.0
  0
LINE
  5
DD
330
1F
100
AcDbEntity
  8
1
  6
Continuous
 62
     4
100
AcDbLine
 10
146.114127122785
 20
37.9970190229328
 30
0.0
 11
146.114127122785
 21
27.9970190229328
 31
0.0
  0
LINE
  5
DE
330
1F
100
AcDbEntity
  8
1
  6
Continuous
 62
     4
100
AcDbLine
 10
143.114127122785
 20
34.9970190229328
 30
0.0
 11
146.114127122785
 21
37.9970190229328
 31
0.0
  0
LINE
  5
DF
330
1F
100
AcDbEntity
  8
1
  6
Continuous
 62
     4
100
AcDbLine
 10
136.364127122785
 20
27.9970190229328
 30
0.0
 11
140.114127122785
 21
27.9970190229328
 31
0.0
  0
LINE
  5
E0
330
1F
100
AcDbEntity
  8
1
  6
Continuous
 62
     4
100
AcDbLine
 10
135.364127122785
 20
28.2470190229328
 30
0.0
 11
136.364127122785
 21
27.9970190229328
 31
0.0
  0
LINE
  5
E1
330
1F
100
AcDbEntity
  8
1
  6
Continuous
 62
     4
100
AcDbLine
 10
134.864127122785
 20
28.4970190229328
 30
0.0
 11
135.364127122785
 21
28.2470190229328
 31
0.0
  0
LINE
  5
E2
330
1F
100
AcDbEntity
  8
1
  6
Continuous
 62
     4
100
AcDbLine
 10
134.364127122785
 20
28.9970190229328
 30
0.0
 11
134.864127122785
 21
28.4970190229328
 31
0.0
  0
LINE
  5
E3
330
1F
100
AcDbEntity
  8
1
  6
Continuous
 62
     4
100
AcDbLine
 10
134.114127122785
 20
29.9970190229328
 30
0.0
 11
134.364127122785
 21
28.9970190229328
 31
0.0
  0
LINE
  5
E4
330
1F
100
AcDbEntity
  8
1
  6
Continuous
 62
     4
100
AcDbLine
 10
134.114127122785
 20
32.9970190229328
 30
0.0
 11
134.114127122785
 21
29.9970190229328
 31
0.0
  0
LINE
  5
E5
330
1F
100
AcDbEntity
  8
1
  6
Continuous
 62
     4
100
AcDbLine
 10
134.364127122785
 20
33.9970190229328
 30
0.0
 11
134.114127122785
 21
32.9970190229328
 31
0.0
  0
LINE
  5
E6
330
1F
100
AcDbEntity
  8
1
  6
Continuous
 62
     4
100
AcDbLine
 10
134.864127122785
 20
34.4970190229328
 30
0.0
 11
134.364127122785
 21
33.9970190229328
 31
0.0
  0
LINE
  5
E7
330
1F
100
AcDbEntity
  8
1
  6
Continuous
 62
     4
100
AcDbLine
 10
135.364127122785
 20
34.7470190229328
 30
0.0
 11
134.864127122785
 21
34.4970190229328
 31
0.0
  0
LINE
  5
E8
330
1F
100
AcDbEntity
  8
1
  6
Continuous
 62
     4
100
AcDbLine
 10
136.364127122785
 20
34.9970190229328
 30
0.0
 11
135.364127122785
 21
34.7470190229328
 31
0.0
  0
LINE
  5
E9
330
1F
100
AcDbEntity
  8
1
  6
Continuous
 62
     4
100
AcDbLine
 10
140.114127122785
 20
34.9970190229328
 30
0.0
 11
136.364127122785
 21
34.9970190229328
 31
0.0
  0
LINE
  5
EA
330
1F
100
AcDbEntity
  8
1
  6
Continuous
 62
     4
100
AcDbLine
 10
124.114127122785
 20
27.9970190229328
 30
0.0
 11
124.114127122785
 21
32.9970190229328
 31
0.0
  0
LINE
  5
EB
330
1F
100
AcDbEntity
  8
1
  6
Continuous
 62
     4
100
AcDbLine
 10
128.114127122785
 20
32.9970190229328
 30
0.0
 11
131.114127122785
 21
27.9970190229328
 31
0.0
  0
LINE
  5
EC
330
1F
100
AcDbEntity
  8
1
  6
Continuous
 62
     4
100
AcDbLine
 10
128.864127122785
 20
32.9970190229328
 30
0.0
 11
128.114127122785
 21
32.9970190229328
 31
0.0
  0
LINE
  5
ED
330
1F
100
AcDbEntity
  8
1
  6
Continuous
 62
     4
100
AcDbLine
 10
129.864127122785
 20
33.2470190229328
 30
0.0
 11
128.864127122785
 21
32.9970190229328
 31
0.0
  0
LINE
  5
EE
330
1F
100
AcDbEntity
  8
1
  6
Continuous
 62
     4
100
AcDbLine
 10
130.614127122785
 20
33.7470190229328
 30
0.0
 11
129.864127122785
 21
33.2470190229328
 31
0.0
  0
LINE
  5
EF
330
1F
100
AcDbEntity
  8
1
  6
Continuous
 62
     4
100
AcDbLine
 10
130.864127122785
 20
34.2470190229328
 30
0.0
 11
130.614127122785
 21
33.7470190229328
 31
0.0
  0
LINE
  5
F0
330
1F
100
AcDbEntity
  8
1
  6
Continuous
 62
     4
100
AcDbLine
 10
131.114127122785
 20
34.9970190229328
 30
0.0
 11
130.864127122785
 21
34.2470190229328
 31
0.0
  0
LINE
  5
F1
330
1F
100
AcDbEntity
  8
1
  6
Continuous
 62
     4
100
AcDbLine
 10
131.114127122785
 20
35.9970190229328
 30
0.0
 11
131.114127122785
 21
34.9970190229328
 31
0.0
  0
LINE
  5
F2
330
1F
100
AcDbEntity
  8
1
  6
Continuous
 62
     4
100
AcDbLine
 10
130.864127122785
 20
36.7470190229328
 30
0.0
 11
131.114127122785
 21
35.9970190229328
 31
0.0
  0
LINE
  5
F3
330
1F
100
AcDbEntity
  8
1
  6
Continuous
 62
     4
100
AcDbLine
 10
130.614127122785
 20
37.2470190229328
 30
0.0
 11
130.864127122785
 21
36.7470190229328
 31
0.0
  0
LINE
  5
F4
330
1F
100
AcDbEntity
  8
1
  6
Continuous
 62
     4
100
AcDbLine
 10
129.864127122785
 20
37.7470190229328
 30
0.0
 11
130.614127122785
 21
37.2470190229328
 31
0.0
  0
LINE
  5
F5
330
1F
100
AcDbEntity
  8
1
  6
Continuous
 62
     4
100
AcDbLine
 10
128.864127122785
 20
37.9970190229328
 30
0.0
 11
129.864127122785
 21
37.7470190229328
 31
0.0
  0
LINE
  5
F6
330
1F
100
AcDbEntity
  8
1
  6
Continuous
 62
     4
100
AcDbLine
 10
124.114127122785
 20
37.9970190229328
 30
0.0
 11
128.864127122785
 21
37.9970190229328
 31
0.0
  0
LINE
  5
F7
330
1F
100
AcDbEntity
  8
1
  6
Continuous
 62
     4
100
AcDbLine
 10
124.114127122785
 20
32.9970190229328
 30
0.0
 11
124.114127122785
 21
37.9970190229328
 31
0.0
  0
LINE
  5
F8
330
1F
100
AcDbEntity
  8
1
  6
Continuous
 62
     4
100
AcDbLine
 10
128.114127122785
 20
32.9970190229328
 30
0.0
 11
124.114127122785
 21
32.9970190229328
 31
0.0
  0
LINE
  5
F9
330
1F
100
AcDbEntity
  8
1
  6
Continuous
 62
     4
100
AcDbLine
 10
16.05291369844
 20
28.2338144974714
 30
0.0
 11
22.05291369844
 21
28.2338144974714
 31
0.0
  0
LINE
  5
FA
330
1F
100
AcDbEntity
  8
1
  6
Continuous
 62
     4
100
AcDbLine
 10
21.55291369844
 20
34.7338144974714
 30
0.0
 11
16.05291369844
 21
28.2338144974714
 31
0.0
  0
LINE
  5
FB
330
1F
100
AcDbEntity
  8
1
  6
Continuous
 62
     4
100
AcDbLine
 10
22.05291369844
 20
35.7338144974714
 30
0.0
 11
21.55291369844
 21
34.7338144974714
 31
0.0
  0
LINE
  5
FC
330
1F
100
AcDbEntity
  8
1
  6
Continuous
 62
     4
100
AcDbLine
 10
22.05291369844
 20
36.7338144974714
 30
0.0
 11
22.05291369844
 21
35.7338144974714
 31
0.0
  0
LINE
  5
FD
330
1F
100
AcDbEntity
  8
1
  6
Continuous
 62
     4
100
AcDbLine
 10
21.55291369844
 20
37.4838144974714
 30
0.0
 11
22.05291369844
 21
36.7338144974714
 31
0.0
  0
LINE
  5
FE
330
1F
100
AcDbEntity
  8
1
  6
Continuous
 62
     4
100
AcDbLine
 10
20.80291369844
 20
37.9838144974714
 30
0.0
 11
21.55291369844
 21
37.4838144974714
 31
0.0
  0
LINE
  5
FF
330
1F
100
AcDbEntity
  8
1
  6
Continuous
 62
     4
100
AcDbLine
 10
19.80291369844
 20
38.2338144974714
 30
0.0
 11
20.80291369844
 21
37.9838144974714
 31
0.0
  0
LINE
  5
100
330
1F
100
AcDbEntity
  8
1
  6
Continuous
 62
     4
100
AcDbLine
 10
18.30291369844
 20
38.2338144974714
 30
0.0
 11
19.80291369844
 21
38.2338144974714
 31
0.0
  0
LINE
  5
101
330
1F
100
AcDbEntity
  8
1
  6
Continuous
 62
     4
100
AcDbLine
 10
17.30291369844
 20
37.9838144974714
 30
0.0
 11
18.30291369844
 21
38.2338144974714
 31
0.0
  0
LINE
  5
102
330
1F
100
AcDbEntity
  8
1
  6
Continuous
 62
     4
100
AcDbLine
 10
16.55291369844
 20
37.4838144974714
 30
0.0
 11
17.30291369844
 21
37.9838144974714
 31
0.0
  0
LINE
  5
103
330
1F
100
AcDbEntity
  8
1
  6
Continuous
 62
     4
100
AcDbLine
 10
16.05291369844
 20
36.7338144974714
 30
0.0
 11
16.55291369844
 21
37.4838144974714
 31
0.0
  0
LINE
  5
104
330
1F
100
AcDbEntity
  8
1
  6
Continuous
 62
     4
100
AcDbLine
 10
9.05291369844
 20
28.2338144974714
 30
0.0
 11
13.05291369844
 21
38.2338144974714
 31
0.0
  0
LINE
  5
105
330
1F
100
AcDbEntity
  8
1
  6
Continuous
 62
     4
100
AcDbLine
 10
6.05291369844
 20
38.2338144974714
 30
0.0
 11
6.05291369844
 21
28.2338144974714
 31
0.0
  0
LINE
  5
106
330
1F
100
AcDbEntity
  8
1
  6
Continuous
 62
     4
100
AcDbLine
 10
3.05291369844
 20
35.2338144974714
 30
0.0
 11
6.05291369844
 21
38.2338144974714
 31
0.0
  0
LINE
  5
107
330
1F
100
AcDbEntity
  8
1
  6
Continuous
 62
     4
100
AcDbLine
 10
-3.69708630156
 20
28.2338144974714
 30
0.0
 11
0.05291369844
 21
28.2338144974714
 31
0.0
  0
LINE
  5
108
330
1F
100
AcDbEntity
  8
1
  6
Continuous
 62
     4
100
AcDbLine
 10
-4.69708630156
 20
28.4838144974714
 30
0.0
 11
-3.69708630156
 21
28.2338144974714
 31
0.0
  0
LINE
  5
109
330
1F
100
AcDbEntity
  8
1
  6
Continuous
 62
     4
100
AcDbLine
 10
-5.19708630156
 20
28.7338144974714
 30
0.0
 11
-4.69708630156
 21
28.4838144974714
 31
0.0
  0
LINE
  5
10A
330
1F
100
AcDbEntity
  8
1
  6
Continuous
 62
     4
100
AcDbLine
 10
-5.69708630156
 20
29.2338144974714
 30
0.0
 11
-5.19708630156
 21
28.7338144974714
 31
0.0
  0
LINE
  5
10B
330
1F
100
AcDbEntity
  8
1
  6
Continuous
 62
     4
100
AcDbLine
 10
-5.94708630156
 20
30.2338144974714
 30
0.0
 11
-5.69708630156
 21
29.2338144974714
 31
0.0
  0
LINE
  5
10C
330
1F
100
AcDbEntity
  8
1
  6
Continuous
 62
     4
100
AcDbLine
 10
-5.94708630156
 20
33.2338144974714
 30
0.0
 11
-5.94708630156
 21
30.2338144974714
 31
0.0
  0
LINE
  5
10D
330
1F
100
AcDbEntity
  8
1
  6
Continuous
 62
     4
100
AcDbLine
 10
-5.69708630156
 20
34.2338144974714
 30
0.0
 11
-5.94708630156
 21
33.2338144974714
 31
0.0
  0
LINE
  5
10E
330
1F
100
AcDbEntity
  8
1
  6
Continuous
 62
     4
100
AcDbLine
 10
-5.19708630156
 20
34.7338144974714
 30
0.0
 11
-5.69708630156
 21
34.2338144974714
 31
0.0
  0
LINE
  5
10F
330
1F
100
AcDbEntity
  8
1
  6
Continuous
 62
     4
100
AcDbLine
 10
-4.69708630156
 20
34.9838144974714
 30
0.0
 11
-5.19708630156
 21
34.7338144974714
 31
0.0
  0
LINE
  5
110
330
1F
100
AcDbEntity
  8
1
  6
Continuous
 62
     4
100
AcDbLine
 10
-3.69708630156
 20
35.2338144974714
 30
0.0
 11
-4.69708630156
 21
34.9838144974714
 31
0.0
  0
LINE
  5
111
330
1F
100
AcDbEntity
  8
1
  6
Continuous
 62
     4
100
AcDbLine
 10
0.05291369844
 20
35.2338144974714
 30
0.0
 11
-3.69708630156
 21
35.2338144974714
 31
0.0
  0
LINE
  5
112
330
1F
100
AcDbEntity
  8
1
  6
Continuous
 62
     4
100
AcDbLine
 10
-15.94708630156
 20
28.2338144974714
 30
0.0
 11
-15.94708630156
 21
33.2338144974714
 31
0.0
  0
LINE
  5
113
330
1F
100
AcDbEntity
  8
1
  6
Continuous
 62
     4
100
AcDbLine
 10
-11.94708630156
 20
33.2338144974714
 30
0.0
 11
-8.94708630156
 21
28.2338144974714
 31
0.0
  0
LINE
  5
114
330
1F
100
AcDbEntity
  8
1
  6
Continuous
 62
     4
100
AcDbLine
 10
-11.19708630156
 20
33.2338144974714
 30
0.0
 11
-11.94708630156
 21
33.2338144974714
 31
0.0
  0
LINE
  5
115
330
1F
100
AcDbEntity
  8
1
  6
Continuous
 62
     4
100
AcDbLine
 10
-10.19708630156
 20
33.4838144974714
 30
0.0
 11
-11.19708630156
 21
33.2338144974714
 31
0.0
  0
LINE
  5
116
330
1F
100
AcDbEntity
  8
1
  6
Continuous
 62
     4
100
AcDbLine
 10
-9.44708630156
 20
33.9838144974714
 30
0.0
 11
-10.19708630156
 21
33.4838144974714
 31
0.0
  0
LINE
  5
117
330
1F
100
AcDbEntity
  8
1
  6
Continuous
 62
     4
100
AcDbLine
 10
-9.19708630156
 20
34.4838144974714
 30
0.0
 11
-9.44708630156
 21
33.9838144974714
 31
0.0
  0
LINE
  5
118
330
1F
100
AcDbEntity
  8
1
  6
Continuous
 62
     4
100
AcDbLine
 10
-8.94708630156
 20
35.2338144974714
 30
0.0
 11
-9.19708630156
 21
34.4838144974714
 31
0.0
  0
LINE
  5
119
330
1F
100
AcDbEntity
  8
1
  6
Continuous
 62
     4
100
AcDbLine
 10
-8.94708630156
 20
36.2338144974714
 30
0.0
 11
-8.94708630156
 21
35.2338144974714
 31
0.0
  0
LINE
  5
11A
330
1F
100
AcDbEntity
  8
1
  6
Continuous
 62
     4
100
AcDbLine
 10
-9.19708630156
 20
36.9838144974714
 30
0.0
 11
-8.94708630156
 21
36.2338144974714
 31
0.0
  0
LINE
  5
11B
330
1F
100
AcDbEntity
  8
1
  6
Continuous
 62
     4
100
AcDbLine
 10
-9.44708630156
 20
37.4838144974714
 30
0.0
 11
-9.19708630156
 21
36.9838144974714
 31
0.0
  0
LINE
  5
11C
330
1F
100
AcDbEntity
  8
1
  6
Continuous
 62
     4
100
AcDbLine
 10
-10.19708630156
 20
37.9838144974714
 30
0.0
 11
-9.44708630156
 21
37.4838144974714
 31
0.0
  0
LINE
  5
11D
330
1F
100
AcDbEntity
  8
1
  6
Continuous
 62
     4
100
AcDbLine
 10
-11.19708630156
 20
38.2338144974714
 30
0.0
 11
-10.19708630156
 21
37.9838144974714
 31
0.0
  0
LINE
  5
11E
330
1F
100
AcDbEntity
  8
1
  6
Continuous
 62
     4
100
AcDbLine
 10
-15.94708630156
 20
38.2338144974714
 30
0.0
 11
-11.19708630156
 21
38.2338144974714
 31
0.0
  0
LINE
  5
11F
330
1F
100
AcDbEntity
  8
1
  6
Continuous
 62
     4
100
AcDbLine
 10
-15.94708630156
 20
33.2338144974714
 30
0.0
 11
-15.94708630156
 21
38.2338144974714
 31
0.0
  0
LINE
  5
120
330
1F
100
AcDbEntity
  8
1
  6
Continuous
 62
     4
100
AcDbLine
 10
-11.94708630156
 20
33.2338144974714
 30
0.0
 11
-15.94708630156
 21
33.2338144974714
 31
0.0
  0
LINE
  5
147
330
1F
100
AcDbEntity
  8
2
  6
Continuous
 62
     3
100
AcDbLine
 10
51.0
 20
119.5
 30
0.0
 11
81.0
 21
119.5
 31
0.0
  0
LINE
  5
148
330
1F
100
AcDbEntity
  8
2
  6
Continuous
 62
     3
100
AcDbLine
 10
51.0
 20
119.5
 30
0.0
 11
51.0
 21
143.0
 31
0.0
  0
LINE
  5
149
330
1F
100
AcDbEntity
  8
2
  6
Continuous
 62
     3
100
AcDbLine
 10
81.0
 20
119.5
 30
0.0
 11
81.0
 21
143.0
 31
0.0
  0
LINE
  5
14A
330
1F
100
AcDbEntity
  8
2
  6
Continuous
 62
     3
100
AcDbLine
 10
52.7733261217634
 20
162.892058752349
 30
0.0
 11
39.2559826922317
 21
158.785679524099
 31
0.0
  0
LINE
  5
14B
330
1F
100
AcDbEntity
  8
2
  6
Continuous
 62
     3
100
AcDbLine
 10
35.000000000001
 20
153.044738518463
 30
0.0
 11
35.0
 21
143.0
 31
0.0
  0
LINE
  5
14C
330
1F
100
AcDbEntity
  8
2
  6
Continuous
 62
     3
100
AcDbLine
 10
35.0
 20
143.0
 30
0.0
 11
97.0
 21
143.0
 31
0.0
  0
LINE
  5
14D
330
1F
100
AcDbEntity
  8
2
  6
Continuous
 62
     3
100
AcDbLine
 10
97.0
 20
153.044738518463
 30
0.0
 11
97.0
 21
143.0
 31
0.0
  0
LINE
  5
14E
330
1F
100
AcDbEntity
  8
2
  6
Continuous
 62
     3
100
AcDbLine
 10
79.2266738782369
 20
162.892058752349
 30
0.0
 11
92.7440173077683
 21
158.7856795241
 31
0.0
  0
LINE
  5
14F
330
1F
100
AcDbEntity
  8
2
  6
Continuous
 62
     3
100
AcDbLine
 10
53.5
 20
163.0
 30
0.0
 11
78.5
 21
163.0
 31
0.0
  0
LINE
  5
150
330
1F
100
AcDbEntity
  8
2
  6
Continuous
 62
     3
100
AcDbLine
 10
87.920310216783
 20
153.044738518463
 30
0.0
 11
89.0509559747801
 21
153.044738518463
 31
0.0
  0
LINE
  5
151
330
1F
100
AcDbEntity
  8
2
  6
Continuous
 62
     3
100
AcDbLine
 10
78.4535755638835
 20
156.159616862114
 30
0.0
 11
85.4289668056915
 21
153.503086738674
 31
0.0
  0
LINE
  5
152
330
1F
100
AcDbEntity
  8
2
  6
Continuous
 62
     3
100
AcDbLine
 10
72.4815958487495
 20
155.691281385547
 30
0.0
 11
69.4806363040423
 21
153.97142221524
 31
0.0
  0
LINE
  5
153
330
1F
100
AcDbEntity
  8
2
  6
Continuous
 62
     3
100
AcDbLine
 10
90.0509559747801
 20
153.044738518463
 30
0.0
 11
90.0509559747801
 21
143.0
 31
0.0
  0
LINE
  5
154
330
1F
100
AcDbEntity
  8
2
  6
Continuous
 62
     3
100
AcDbLine
 10
38.5
 20
38.0
 30
0.0
 11
48.0
 21
38.0
 31
0.0
  0
LINE
  5
155
330
1F
100
AcDbEntity
  8
2
  6
Continuous
 62
     3
100
AcDbLine
 10
37.0
 20
39.5
 30
0.0
 11
38.5
 21
38.0
 31
0.0
  0
LINE
  5
156
330
1F
100
AcDbEntity
  8
2
  6
Continuous
 62
     3
100
AcDbLine
 10
79.9303607231218
 20
93.8808224589212
 30
0.0
 11
80.3192694527744
 21
93.4919137292687
 31
0.0
  0
LINE
  5
157
330
1F
100
AcDbEntity
  8
2
  6
DOT_CENTER
 62
     1
100
AcDbLine
 10
66.0
 20
81.0135382141264
 30
0.0
 11
66.0
 21
165.410640570083
 31
0.0
  0
LINE
  5
158
330
1F
100
AcDbEntity
  8
2
  6
Continuous
 62
     3
100
AcDbLine
 10
75.0
 20
97.9320508075689
 30
0.0
 11
75.0
 21
102.0
 31
0.0
  0
LINE
  5
159
330
1F
100
AcDbEntity
  8
2
  6
Continuous
 62
     3
100
AcDbLine
 10
57.0000000000001
 20
97.9320508075689
 30
0.0
 11
57.0
 21
102.0
 31
0.0
  0
LINE
  5
15A
330
1F
100
AcDbEntity
  8
2
  6
Continuous
 62
     3
100
AcDbLine
 10
55.9999999999999
 20
90.8508674841473
 30
0.0
 11
56.0
 21
96.2
 31
0.0
  0
LINE
  5
15B
330
1F
100
AcDbEntity
  8
2
  6
Continuous
 62
     3
100
AcDbLine
 10
37.0
 20
39.5
 30
0.0
 11
37.0
 21
68.5
 31
0.0
  0
LINE
  5
15C
330
1F
100
AcDbEntity
  8
2
  6
Continuous
 62
     3
100
AcDbLine
 10
38.5
 20
70.0
 30
0.0
 11
46.7321511320023
 21
70.0
 31
0.0
  0
LINE
  5
15D
330
1F
100
AcDbEntity
  8
2
  6
Continuous
 62
     3
100
AcDbLine
 10
38.5
 20
70.0
 30
0.0
 11
37.0
 21
68.5
 31
0.0
  0
LINE
  5
15E
330
1F
100
AcDbEntity
  8
2
  6
Continuous
 62
     3
100
AcDbLine
 10
105.5
 20
70.0
 30
0.0
 11
103.51219330882
 21
70.0
 31
0.0
  0
LINE
  5
15F
330
1F
100
AcDbEntity
  8
2
  6
Continuous
 62
     3
100
AcDbLine
 10
105.5
 20
70.0
 30
0.0
 11
107.0
 21
68.5
 31
0.0
  0
LINE
  5
160
330
1F
100
AcDbEntity
  8
2
  6
Continuous
 62
     3
100
AcDbLine
 10
107.0
 20
39.5
 30
0.0
 11
107.0
 21
68.5
 31
0.0
  0
LINE
  5
161
330
1F
100
AcDbEntity
  8
2
  6
Continuous
 62
     3
100
AcDbLine
 10
105.5
 20
38.0
 30
0.0
 11
96.0
 21
38.0
 31
0.0
  0
LINE
  5
162
330
1F
100
AcDbEntity
  8
2
  6
Continuous
 62
     3
100
AcDbLine
 10
107.0
 20
39.5
 30
0.0
 11
105.5
 21
38.0
 31
0.0
  0
LINE
  5
163
330
1F
100
AcDbEntity
  8
2
  6
Continuous
 62
     3
100
AcDbLine
 10
100.01219330882
 20
73.5
 30
0.0
 11
100.01219330882
 21
73.7989898732234
 31
0.0
  0
LINE
  5
164
330
1F
100
AcDbEntity
  8
2
  6
Continuous
 62
     3
100
AcDbLine
 10
76.9911626369405
 20
95.0121933088198
 30
0.0
 11
78.3847763108502
 21
95.0121933088198
 31
0.0
  0
LINE
  5
165
330
1F
100
AcDbEntity
  8
2
  6
Continuous
 62
     3
100
AcDbLine
 10
91.7800504872886
 20
41.0
 30
0.0
 11
87.3622914957373
 21
41.0
 31
0.0
  0
LINE
  5
166
330
1F
100
AcDbEntity
  8
2
  6
Continuous
 62
     3
100
AcDbLine
 10
52.2199495127113
 20
41.0
 30
0.0
 11
56.6377085042628
 21
41.0
 31
0.0
  0
LINE
  5
167
330
1F
100
AcDbEntity
  8
2
  6
DOT_CENTER
 62
     1
100
AcDbLine
 10
110.0
 20
54.0
 30
0.0
 11
34.0
 21
54.0
 31
0.0
  0
LINE
  5
168
330
1F
100
AcDbEntity
  8
2
  6
Continuous
 62
     3
100
AcDbLine
 10
80.2132034355965
 20
97.1335136523794
 30
0.0
 11
78.44543648263
 21
95.365746699413
 31
0.0
  0
LINE
  5
169
330
1F
100
AcDbEntity
  8
2
  6
Continuous
 62
     3
100
AcDbLine
 10
87.4991239298131
 20
97.1960623865122
 30
0.0
 11
83.8248893156384
 21
93.5218277723374
 31
0.0
  0
LINE
  5
16A
330
1F
100
AcDbEntity
  8
2
  6
Continuous
 62
     3
100
AcDbLine
 10
89.0520382004282
 20
96.7799602617861
 30
0.0
 11
87.4991239298131
 21
97.1960623865122
 31
0.0
  0
LINE
  5
16B
330
1F
100
AcDbEntity
  8
2
  6
Continuous
 62
     3
100
AcDbLine
 10
89.0520382004282
 20
96.7799602617861
 30
0.0
 11
95.4159992311072
 21
90.4159992311072
 31
0.0
  0
LINE
  5
16C
330
1F
100
AcDbEntity
  8
2
  6
Continuous
 62
     3
100
AcDbLine
 10
78.44543648263
 20
95.365746699413
 30
0.0
 11
100.365746699413
 21
73.4454364826299
 31
0.0
  0
LINE
  5
16D
330
1F
100
AcDbEntity
  8
2
  6
Continuous
 62
     3
100
AcDbLine
 10
102.13351365238
 20
75.2132034355965
 30
0.0
 11
100.365746699413
 21
73.4454364826299
 31
0.0
  0
LINE
  5
16E
330
1F
100
AcDbEntity
  8
2
  6
Continuous
 62
     3
100
AcDbLine
 10
102.196062386512
 20
82.4991239298132
 30
0.0
 11
98.5218277723374
 21
78.8248893156384
 31
0.0
  0
LINE
  5
16F
330
1F
100
AcDbEntity
  8
2
  6
Continuous
 62
     3
100
AcDbLine
 10
101.779960261786
 20
84.0520382004283
 30
0.0
 11
102.196062386512
 21
82.4991239298132
 31
0.0
  0
LINE
  5
170
330
1F
100
AcDbEntity
  8
2
  6
Continuous
 62
     3
100
AcDbLine
 10
101.779960261786
 20
84.0520382004283
 30
0.0
 11
95.4159992311072
 21
90.4159992311072
 31
0.0
  0
LINE
  5
171
330
1F
100
AcDbEntity
  8
2
  6
Continuous
 62
     3
100
AcDbLine
 10
102.13351365238
 20
75.2132034355965
 30
0.0
 11
80.2132034355965
 21
97.1335136523794
 31
0.0
  0
LINE
  5
172
330
1F
100
AcDbEntity
  8
2
  6
Continuous
 62
     3
100
AcDbLine
 10
52.7209438086386
 20
102.0
 30
0.0
 11
79.2790561913614
 21
102.0
 31
0.0
  0
LINE
  5
173
330
1F
100
AcDbEntity
  8
2
  6
Continuous
 62
     3
100
AcDbLine
 10
79.2790561913614
 20
111.7
 30
0.0
 11
79.2790561913614
 21
102.0
 31
0.0
  0
LINE
  5
174
330
1F
100
AcDbEntity
  8
2
  6
Continuous
 62
     3
100
AcDbLine
 10
52.7209438086386
 20
111.7
 30
0.0
 11
52.7209438086386
 21
102.0
 31
0.0
  0
LINE
  5
175
330
1F
100
AcDbEntity
  8
2
  6
Continuous
 62
     3
100
AcDbLine
 10
98.5218277723374
 20
86.1733585439879
 30
0.0
 11
94.8475931581626
 21
82.4991239298131
 31
0.0
  0
LINE
  5
176
330
1F
100
AcDbEntity
  8
2
  6
Continuous
 62
     3
100
AcDbLine
 10
91.1733585439878
 20
93.5218277723374
 30
0.0
 11
87.499123929813
 21
89.8475931581627
 31
0.0
  0
LINE
  5
177
330
1F
100
AcDbEntity
  8
2
  6
Continuous
 62
     3
100
AcDbLine
 10
57.0
 20
97.0660254037844
 30
0.0
 11
75.0
 21
97.0660254037844
 31
0.0
  0
LINE
  5
178
330
1F
100
AcDbEntity
  8
2
  6
Continuous
 62
     3
100
AcDbLine
 10
96.0
 20
63.1754310402572
 30
0.0
 11
105.5
 21
63.1754310402572
 31
0.0
  0
LINE
  5
179
330
1F
100
AcDbEntity
  8
2
  6
Continuous
 62
     3
100
AcDbLine
 10
96.0
 20
60.7638746292343
 30
0.0
 11
105.5
 21
60.7638746292343
 31
0.0
  0
LINE
  5
17A
330
1F
100
AcDbEntity
  8
2
  6
Continuous
 62
     3
100
AcDbLine
 10
96.0
 20
47.2361253707657
 30
0.0
 11
105.5
 21
47.2361253707657
 31
0.0
  0
LINE
  5
17B
330
1F
100
AcDbEntity
  8
2
  6
Continuous
 62
     3
100
AcDbLine
 10
96.0
 20
44.8245689597428
 30
0.0
 11
105.5
 21
44.8245689597428
 31
0.0
  0
LINE
  5
17C
330
1F
100
AcDbEntity
  8
2
  6
Continuous
 62
     3
100
AcDbLine
 10
105.5
 20
44.8245689597428
 30
0.0
 11
105.5
 21
47.2361253707657
 31
0.0
  0
LINE
  5
17D
330
1F
100
AcDbEntity
  8
2
  6
Continuous
 62
     3
100
AcDbLine
 10
105.5
 20
60.7638746292343
 30
0.0
 11
105.5
 21
63.1754310402572
 31
0.0
  0
LINE
  5
17E
330
1F
100
AcDbEntity
  8
2
  6
Continuous
 62
     3
100
AcDbLine
 10
96.0
 20
44.8245689597428
 30
0.0
 11
96.0
 21
47.2361253707657
 31
0.0
  0
LINE
  5
17F
330
1F
100
AcDbEntity
  8
2
  6
Continuous
 62
     3
100
AcDbLine
 10
96.0
 20
60.7638746292343
 30
0.0
 11
96.0
 21
63.1754310402572
 31
0.0
  0
LINE
  5
180
330
1F
100
AcDbEntity
  8
2
  6
Continuous
 62
     3
100
AcDbLine
 10
48.0
 20
60.7638746292343
 30
0.0
 11
38.5
 21
60.7638746292343
 31
0.0
  0
LINE
  5
181
330
1F
100
AcDbEntity
  8
2
  6
Continuous
 62
     3
100
AcDbLine
 10
48.0
 20
63.1754310402572
 30
0.0
 11
38.5
 21
63.1754310402572
 31
0.0
  0
LINE
  5
182
330
1F
100
AcDbEntity
  8
2
  6
Continuous
 62
     3
100
AcDbLine
 10
38.5
 20
44.8245689597428
 30
0.0
 11
38.5
 21
47.2361253707657
 31
0.0
  0
LINE
  5
183
330
1F
100
AcDbEntity
  8
2
  6
Continuous
 62
     3
100
AcDbLine
 10
38.5
 20
60.7638746292343
 30
0.0
 11
38.5
 21
63.1754310402572
 31
0.0
  0
LINE
  5
184
330
1F
100
AcDbEntity
  8
2
  6
Continuous
 62
     3
100
AcDbLine
 10
48.0
 20
44.8245689597428
 30
0.0
 11
48.0
 21
47.2361253707657
 31
0.0
  0
LINE
  5
185
330
1F
100
AcDbEntity
  8
2
  6
Continuous
 62
     3
100
AcDbLine
 10
48.0
 20
60.7638746292343
 30
0.0
 11
48.0
 21
63.1754310402572
 31
0.0
  0
LINE
  5
186
330
1F
100
AcDbEntity
  8
2
  6
Continuous
 62
     3
100
AcDbLine
 10
48.0
 20
47.2361253707657
 30
0.0
 11
38.5
 21
47.2361253707657
 31
0.0
  0
LINE
  5
187
330
1F
100
AcDbEntity
  8
2
  6
Continuous
 62
     3
100
AcDbLine
 10
48.0
 20
44.8245689597428
 30
0.0
 11
38.5
 21
44.8245689597428
 31
0.0
  0
LINE
  5
188
330
1F
100
AcDbEntity
  8
2
  6
Continuous
 62
     3
100
AcDbLine
 10
72.0078449437518
 20
103.779056191
 30
0.0
 11
72.0078449437518
 21
109.920943809
 31
0.0
  0
LINE
  5
189
330
1F
100
AcDbEntity
  8
2
  6
Continuous
 62
     3
100
AcDbLine
 10
59.3604719043193
 20
103.779056191
 30
0.0
 11
59.3604719043193
 21
109.920943809
 31
0.0
  0
LINE
  5
18A
330
1F
100
AcDbEntity
  8
2
  6
Continuous
 62
     3
100
AcDbLine
 10
41.9490440252202
 20
153.044738518463
 30
0.0
 11
41.9490440252199
 21
143.0
 31
0.0
  0
LINE
  5
18B
330
1F
100
AcDbEntity
  8
2
  6
Continuous
 62
     3
100
AcDbLine
 10
53.5464244361168
 20
156.159616862114
 30
0.0
 11
46.5710331943083
 21
153.503086738674
 31
0.0
  0
LINE
  5
18C
330
1F
100
AcDbEntity
  8
2
  6
Continuous
 62
     3
100
AcDbLine
 10
59.5184041512501
 20
155.691281385547
 30
0.0
 11
62.5193636959577
 21
153.97142221524
 31
0.0
  0
LINE
  5
18D
330
1F
100
AcDbEntity
  8
2
  6
PHANTOM
 62
     6
100
AcDbLine
 10
79.2266738782369
 20
148.892058752349
 30
0.0
 11
92.7440173077683
 21
144.7856795241
 31
0.0
  0
LINE
  5
18E
330
1F
100
AcDbEntity
  8
2
  6
PHANTOM
 62
     6
100
AcDbLine
 10
53.5
 20
149.0
 30
0.0
 11
78.5
 21
149.0
 31
0.0
  0
LINE
  5
18F
330
1F
100
AcDbEntity
  8
2
  6
PHANTOM
 62
     6
100
AcDbLine
 10
52.7733261217633
 20
148.892058752349
 30
0.0
 11
39.2559826922317
 21
144.785679524099
 31
0.0
  0
LINE
  5
190
330
1F
100
AcDbEntity
  8
2
  6
PHANTOM
 62
     6
100
AcDbLine
 10
35.000000000001
 20
139.044738518463
 30
0.0
 11
35.0
 21
129.0
 31
0.0
  0
LINE
  5
191
330
1F
100
AcDbEntity
  8
2
  6
PHANTOM
 62
     6
100
AcDbLine
 10
35.0
 20
129.0
 30
0.0
 11
97.0
 21
129.0
 31
0.0
  0
LINE
  5
192
330
1F
100
AcDbEntity
  8
2
  6
PHANTOM
 62
     6
100
AcDbLine
 10
97.0
 20
139.044738518463
 30
0.0
 11
97.0
 21
129.0
 31
0.0
  0
LINE
  5
193
330
1F
100
AcDbEntity
  8
2
  6
Continuous
 62
     3
100
AcDbLine
 10
56.5
 20
119.2
 30
0.0
 11
75.5
 21
119.2
 31
0.0
  0
LINE
  5
194
330
1F
100
AcDbEntity
  8
2
  6
Continuous
 62
     3
100
AcDbLine
 10
75.5
 20
119.2
 30
0.0
 11
75.5
 21
111.7
 31
0.0
  0
LINE
  5
195
330
1F
100
AcDbEntity
  8
2
  6
Continuous
 62
     3
100
AcDbLine
 10
56.5
 20
119.2
 30
0.0
 11
56.5
 21
111.7
 31
0.0
  0
LINE
  5
196
330
1F
100
AcDbEntity
  8
2
  6
Continuous
 62
     3
100
AcDbLine
 10
52.7209438086386
 20
111.7
 30
0.0
 11
79.2790561913614
 21
111.7
 31
0.0
  0
LINE
  5
197
330
1F
100
AcDbEntity
  8
2
  6
Continuous
 62
     3
100
AcDbLine
 10
71.0
 20
119.2
 30
0.0
 11
71.0
 21
119.5
 31
0.0
  0
LINE
  5
198
330
1F
100
AcDbEntity
  8
2
  6
Continuous
 62
     3
100
AcDbLine
 10
61.0
 20
119.2
 30
0.0
 11
61.0
 21
119.5
 31
0.0
  0
LINE
  5
199
330
1F
100
AcDbEntity
  8
2
  6
Continuous
 62
     3
100
AcDbLine
 10
-38.513327289759
 20
119.2
 30
0.0
 11
-38.513327289759
 21
119.5
 31
0.0
  0
LINE
  5
19A
330
1F
100
AcDbEntity
  8
2
  6
Continuous
 62
     3
100
AcDbLine
 10
-28.513327289759
 20
119.2
 30
0.0
 11
-28.513327289759
 21
119.5
 31
0.0
  0
LINE
  5
19B
330
1F
100
AcDbEntity
  8
2
  6
Continuous
 62
     3
100
AcDbLine
 10
-45.013327289759
 20
111.7
 30
0.0
 11
-22.013327289759
 21
111.7
 31
0.0
  0
LINE
  5
19C
330
1F
100
AcDbEntity
  8
2
  6
Continuous
 62
     3
100
AcDbLine
 10
-43.013327289759
 20
119.2
 30
0.0
 11
-43.013327289759
 21
111.7
 31
0.0
  0
LINE
  5
19D
330
1F
100
AcDbEntity
  8
2
  6
Continuous
 62
     3
100
AcDbLine
 10
-24.013327289759
 20
119.2
 30
0.0
 11
-24.013327289759
 21
111.7
 31
0.0
  0
LINE
  5
19E
330
1F
100
AcDbEntity
  8
2
  6
Continuous
 62
     3
100
AcDbLine
 10
-43.013327289759
 20
119.2
 30
0.0
 11
-24.013327289759
 21
119.2
 31
0.0
  0
LINE
  5
19F
330
1F
100
AcDbEntity
  8
2
  6
Continuous
 62
     3
100
AcDbLine
 10
-39.9949231385089
 20
155.691281385547
 30
0.0
 11
-36.9939635938013
 21
153.97142221524
 31
0.0
  0
LINE
  5
1A0
330
1F
100
AcDbEntity
  8
2
  6
Continuous
 62
     3
100
AcDbLine
 10
-45.9669028536422
 20
156.159616862114
 30
0.0
 11
-52.9422940954507
 21
153.503086738674
 31
0.0
  0
LINE
  5
1A1
330
1F
100
AcDbEntity
  8
2
  6
Continuous
 62
     3
100
AcDbLine
 10
-57.5642832645388
 20
153.044738518463
 30
0.0
 11
-57.5642832645391
 21
143.0
 31
0.0
  0
LINE
  5
1A2
330
1F
100
AcDbEntity
  8
2
  6
Continuous
 62
     3
100
AcDbLine
 10
-33.513327289759
 20
103.779056191
 30
0.0
 11
-33.513327289759
 21
109.920943809
 31
0.0
  0
LINE
  5
1A3
330
1F
100
AcDbEntity
  8
2
  6
Continuous
 62
     3
100
AcDbLine
 10
-45.013327289759
 20
111.7
 30
0.0
 11
-45.013327289759
 21
102.0
 31
0.0
  0
LINE
  5
1A4
330
1F
100
AcDbEntity
  8
2
  6
Continuous
 62
     3
100
AcDbLine
 10
-22.013327289759
 20
111.7
 30
0.0
 11
-22.013327289759
 21
102.0
 31
0.0
  0
LINE
  5
1A5
330
1F
100
AcDbEntity
  8
2
  6
Continuous
 62
     3
100
AcDbLine
 10
-45.013327289759
 20
102.0
 30
0.0
 11
-22.013327289759
 21
102.0
 31
0.0
  0
LINE
  5
1A6
330
1F
100
AcDbEntity
  8
2
  6
Continuous
 62
     3
100
AcDbLine
 10
-9.46237131497889
 20
153.044738518463
 30
0.0
 11
-9.4623713149789
 21
143.0
 31
0.0
  0
LINE
  5
1A7
330
1F
100
AcDbEntity
  8
2
  6
Continuous
 62
     3
100
AcDbLine
 10
-27.0317314410095
 20
155.691281385547
 30
0.0
 11
-30.0326909857167
 21
153.97142221524
 31
0.0
  0
LINE
  5
1A8
330
1F
100
AcDbEntity
  8
2
  6
Continuous
 62
     3
100
AcDbLine
 10
-21.0597517258755
 20
156.159616862114
 30
0.0
 11
-14.0843604840675
 21
153.503086738674
 31
0.0
  0
LINE
  5
1A9
330
1F
100
AcDbEntity
  8
2
  6
Continuous
 62
     3
100
AcDbLine
 10
-11.593017072976
 20
153.044738518463
 30
0.0
 11
-10.4623713149789
 21
153.044738518463
 31
0.0
  0
LINE
  5
1AA
330
1F
100
AcDbEntity
  8
2
  6
Continuous
 62
     3
100
AcDbLine
 10
-46.013327289759
 20
163.0
 30
0.0
 11
-21.013327289759
 21
163.0
 31
0.0
  0
LINE
  5
1AB
330
1F
100
AcDbEntity
  8
2
  6
Continuous
 62
     3
100
AcDbLine
 10
-20.2866534115221
 20
162.892058752349
 30
0.0
 11
-6.76930998199069
 21
158.7856795241
 31
0.0
  0
LINE
  5
1AC
330
1F
100
AcDbEntity
  8
2
  6
Continuous
 62
     3
100
AcDbLine
 10
-2.51332728975899
 20
153.044738518463
 30
0.0
 11
-2.51332728975899
 21
143.0
 31
0.0
  0
LINE
  5
1AD
330
1F
100
AcDbEntity
  8
2
  6
Continuous
 62
     3
100
AcDbLine
 10
-64.513327289759
 20
143.0
 30
0.0
 11
-2.51332728975899
 21
143.0
 31
0.0
  0
LINE
  5
1AE
330
1F
100
AcDbEntity
  8
2
  6
Continuous
 62
     3
100
AcDbLine
 10
-64.513327289758
 20
153.044738518463
 30
0.0
 11
-64.513327289759
 21
143.0
 31
0.0
  0
LINE
  5
1AF
330
1F
100
AcDbEntity
  8
2
  6
Continuous
 62
     3
100
AcDbLine
 10
-46.7400011679956
 20
162.892058752349
 30
0.0
 11
-60.2573445975273
 21
158.785679524099
 31
0.0
  0
LINE
  5
1B0
330
1F
100
AcDbEntity
  8
2
  6
Continuous
 62
     3
100
AcDbLine
 10
-18.513327289759
 20
119.5
 30
0.0
 11
-18.513327289759
 21
143.0
 31
0.0
  0
LINE
  5
1B1
330
1F
100
AcDbEntity
  8
2
  6
Continuous
 62
     3
100
AcDbLine
 10
-48.513327289759
 20
119.5
 30
0.0
 11
-48.513327289759
 21
143.0
 31
0.0
  0
LINE
  5
1B2
330
1F
100
AcDbEntity
  8
2
  6
Continuous
 62
     3
100
AcDbLine
 10
-48.513327289759
 20
119.5
 30
0.0
 11
-18.513327289759
 21
119.5
 31
0.0
  0
LINE
  5
1B3
330
1F
100
AcDbEntity
  8
1
  6
Continuous
 62
     3
100
AcDbLine
 10
-14.513327289759
 20
79.0000000000001
 30
0.0
 11
-14.870592879667
 21
79.618802153517
 31
0.0
  0
LINE
  5
1B4
330
1F
100
AcDbEntity
  8
1
  6
Continuous
 62
     3
100
AcDbLine
 10
-14.513327289759
 20
71.0
 30
0.0
 11
-14.870592879667
 21
70.381197846483
 31
0.0
  0
LINE
  5
1B5
330
1F
100
AcDbEntity
  8
1
  6
Continuous
 62
     3
100
AcDbLine
 10
-14.87773574689
 20
77.3094010767586
 30
0.0
 11
-18.513327289759
 21
77.3094010767586
 31
0.0
  0
LINE
  5
1B6
330
1F
100
AcDbEntity
  8
1
  6
Continuous
 62
     3
100
AcDbLine
 10
-14.87773574689
 20
72.6905989232415
 30
0.0
 11
-18.513327289759
 21
72.6905989232415
 31
0.0
  0
LINE
  5
1B7
330
1F
100
AcDbEntity
  8
1
  6
Continuous
 62
     3
100
AcDbLine
 10
-18.513327289759
 20
70.381197846483
 30
0.0
 11
-14.870592879667
 21
70.381197846483
 31
0.0
  0
LINE
  5
1B8
330
1F
100
AcDbEntity
  8
1
  6
Continuous
 62
     3
100
AcDbLine
 10
-18.513327289759
 20
79.618802153517
 30
0.0
 11
-14.870592879667
 21
79.618802153517
 31
0.0
  0
LINE
  5
1B9
330
1F
100
AcDbEntity
  8
1
  6
Continuous
 62
     3
100
AcDbLine
 10
-14.513327289759
 20
71.0
 30
0.0
 11
-14.513327289759
 21
79.0000000000001
 31
0.0
  0
LINE
  5
1BA
330
1F
100
AcDbEntity
  8
1
  6
Continuous
 62
     3
100
AcDbLine
 10
-18.513327289759
 20
69.0000000000001
 30
0.0
 11
-26.013327289759
 21
68.4999999999999
 31
0.0
  0
LINE
  5
1BB
330
1F
100
AcDbEntity
  8
1
  6
Continuous
 62
     3
100
AcDbLine
 10
38.5
 20
204.5
 30
0.0
 11
37.0
 21
206.0
 31
0.0
  0
LINE
  5
1BC
330
1F
100
AcDbEntity
  8
1
  6
Continuous
 62
     3
100
AcDbLine
 10
38.5
 20
233.5
 30
0.0
 11
37.0
 21
232.0
 31
0.0
  0
LINE
  5
1BD
330
1F
100
AcDbEntity
  8
1
  6
Continuous
 62
     3
100
AcDbLine
 10
38.5
 20
232.10768725693
 30
0.0
 11
38.5
 21
233.5
 31
0.0
  0
LINE
  5
1BE
330
1F
100
AcDbEntity
  8
1
  6
Continuous
 62
     3
100
AcDbLine
 10
38.5
 20
204.5
 30
0.0
 11
38.5
 21
205.89231274307
 31
0.0
  0
LINE
  5
1BF
330
1F
100
AcDbEntity
  8
1
  6
Continuous
 62
     3
100
AcDbLine
 10
38.5
 20
205.89231274307
 30
0.0
 11
42.5575629077825
 21
205.89231274307
 31
0.0
  0
LINE
  5
1C0
330
1F
100
AcDbEntity
  8
1
  6
Continuous
 62
     3
100
AcDbLine
 10
38.5
 20
232.10768725693
 30
0.0
 11
42.5575632281875
 21
232.10768725693
 31
0.0
  0
LINE
  5
1C1
330
1F
100
AcDbEntity
  8
1
  6
Continuous
 62
     3
100
AcDbLine
 10
37.0
 20
206.0
 30
0.0
 11
37.0
 21
214.101031879867
 31
0.0
  0
LINE
  5
1C2
330
1F
100
AcDbEntity
  8
1
  6
Continuous
 62
     3
100
AcDbLine
 10
38.5
 20
204.5
 30
0.0
 11
42.4798994762145
 21
204.5
 31
0.0
  0
LINE
  5
1C3
330
1F
100
AcDbEntity
  8
1
  6
Continuous
 62
     3
100
AcDbLine
 10
38.5
 20
233.5
 30
0.0
 11
42.4799109878212
 21
233.5
 31
0.0
  0
LINE
  5
1C4
330
1F
100
AcDbEntity
  8
1
  6
Continuous
 62
     3
100
AcDbLine
 10
-46.513327289759
 20
80.0000000000006
 30
0.0
 11
-41.013327289759
 21
80.4999999999994
 31
0.0
  0
LINE
  5
1C5
330
1F
100
AcDbEntity
  8
1
  6
Continuous
 62
     3
100
AcDbLine
 10
-46.513327289759
 20
69.9999999999994
 30
0.0
 11
-41.013327289759
 21
69.5000000000006
 31
0.0
  0
LINE
  5
1C6
330
1F
100
AcDbEntity
  8
1
  6
Continuous
 62
     3
100
AcDbLine
 10
-18.513327289759
 20
80.9999999999999
 30
0.0
 11
-26.013327289759
 21
81.5000000000001
 31
0.0
  0
LINE
  5
1C7
330
1F
100
AcDbEntity
  8
1
  6
Continuous
 62
     3
100
AcDbLine
 10
-18.5133272897591
 20
54.0
 30
0.0
 11
-18.513327289759
 21
80.01219330882
 31
0.0
  0
LINE
  5
1C8
330
1F
100
AcDbEntity
  8
1
  6
Continuous
 62
     3
100
AcDbLine
 10
-48.513327289759
 20
54.0
 30
0.0
 11
-48.513327289759
 21
80.01219330882
 31
0.0
  0
LINE
  5
1C9
330
1F
100
AcDbEntity
  8
1
  6
Continuous
 62
     3
100
AcDbLine
 10
-41.710551652027
 20
97.066025403784
 30
0.0
 11
-25.316102927491
 21
97.066025403784
 31
0.0
  0
LINE
  5
1CA
330
1F
100
AcDbEntity
  8
1
  6
Continuous
 62
     3
100
AcDbLine
 10
-46.513327289759
 20
69.9999999999994
 30
0.0
 11
-46.513327289759
 21
80.0000000000006
 31
0.0
  0
LINE
  5
1CB
330
1F
100
AcDbEntity
  8
1
  6
Continuous
 62
     3
100
AcDbLine
 10
-23.513327289759
 20
81.333333333333
 30
0.0
 11
-23.513327289759
 21
96.2
 31
0.0
  0
LINE
  5
1CC
330
1F
100
AcDbEntity
  8
1
  6
Continuous
 62
     3
100
AcDbLine
 10
-24.513327289759
 20
97.932050807569
 30
0.0
 11
-24.513327289759
 21
102.0
 31
0.0
  0
LINE
  5
1CD
330
1F
100
AcDbEntity
  8
1
  6
Continuous
 62
     3
100
AcDbLine
 10
-43.513327289759
 20
80.272727272727
 30
0.0
 11
-43.5133272897586
 21
96.2
 31
0.0
  0
LINE
  5
1CE
330
1F
100
AcDbEntity
  8
1
  6
Continuous
 62
     3
100
AcDbLine
 10
-42.5133272897585
 20
97.932050807569
 30
0.0
 11
-42.513327289759
 21
102.0
 31
0.0
  0
LINE
  5
1CF
330
1F
100
AcDbEntity
  8
1
  6
Continuous
 62
     3
100
AcDbLine
 10
-40.013327289759
 20
89.361406616345
 30
0.0
 11
-27.013327289759
 21
89.361406616345
 31
0.0
  0
LINE
  5
1D0
330
1F
100
AcDbEntity
  8
1
  6
Continuous
 62
     3
100
AcDbLine
 10
-26.013327289759
 20
66.413030787577
 30
0.0
 11
-26.013327289759
 21
89.361406616345
 31
0.0
  0
LINE
  5
1D1
330
1F
100
AcDbEntity
  8
1
  6
Continuous
 62
     3
100
AcDbLine
 10
-41.013327289759
 20
66.413030787577
 30
0.0
 11
-41.013327289759
 21
89.361406616345
 31
0.0
  0
LINE
  5
1D2
330
1F
100
AcDbEntity
  8
1
  6
DOT_CENTER
 62
     1
100
AcDbLine
 10
-33.513327289759
 20
36.0
 30
0.0
 11
-33.513327289759
 21
166.828674316406
 31
0.0
  0
LINE
  5
1D3
330
1F
100
AcDbEntity
  8
1
  6
DOT_CENTER
 62
     1
100
AcDbLine
 10
-51.513327289759
 20
54.0
 30
0.0
 11
-15.513327289759
 21
54.0
 31
0.0
  0
LINE
  5
1D4
330
1F
100
AcDbEntity
  8
1
  6
DOT_CENTER
 62
     1
100
AcDbLine
 10
171.486672710241
 20
54.0
 30
0.0
 11
207.486672710241
 21
54.0
 31
0.0
  0
LINE
  5
1D5
330
1F
100
AcDbEntity
  8
1
  6
DOT_CENTER
 62
     1
100
AcDbLine
 10
189.486672710241
 20
36.0
 30
0.0
 11
189.486672710241
 21
166.828674316406
 31
0.0
  0
LINE
  5
1D6
330
1F
100
AcDbEntity
  8
1
  6
Continuous
 62
     3
100
AcDbLine
 10
180.486672710241
 20
97.932050807569
 30
0.0
 11
180.486672710241
 21
102.0
 31
0.0
  0
LINE
  5
1D7
330
1F
100
AcDbEntity
  8
1
  6
Continuous
 62
     3
100
AcDbLine
 10
179.486672710241
 20
94.5473723335131
 30
0.0
 11
179.486672710241
 21
96.2
 31
0.0
  0
LINE
  5
1D8
330
1F
100
AcDbEntity
  8
1
  6
Continuous
 62
     3
100
AcDbLine
 10
198.486672710241
 20
97.932050807569
 30
0.0
 11
198.486672710241
 21
102.0
 31
0.0
  0
LINE
  5
1D9
330
1F
100
AcDbEntity
  8
1
  6
Continuous
 62
     3
100
AcDbLine
 10
199.486672710241
 20
94.5473723335131
 30
0.0
 11
199.486672710241
 21
96.2
 31
0.0
  0
LINE
  5
1DA
330
1F
100
AcDbEntity
  8
1
  6
Continuous
 62
     3
100
AcDbLine
 10
174.486672710241
 20
54.0
 30
0.0
 11
174.486672710241
 21
80.01219330882
 31
0.0
  0
LINE
  5
1DB
330
1F
100
AcDbEntity
  8
1
  6
Continuous
 62
     3
100
AcDbLine
 10
204.486672710241
 20
54.0
 30
0.0
 11
204.486672710241
 21
80.01219330882
 31
0.0
  0
LINE
  5
1DC
330
1F
100
AcDbEntity
  8
1
  6
Continuous
 62
     3
100
AcDbLine
 10
170.486672710241
 20
79.0000000000001
 30
0.0
 11
170.486672710241
 21
71.0
 31
0.0
  0
LINE
  5
1DD
330
1F
100
AcDbEntity
  8
1
  6
Continuous
 62
     3
100
AcDbLine
 10
170.843938300149
 20
79.618802153517
 30
0.0
 11
174.486672710241
 21
79.618802153517
 31
0.0
  0
LINE
  5
1DE
330
1F
100
AcDbEntity
  8
1
  6
Continuous
 62
     3
100
AcDbLine
 10
170.843938300149
 20
70.381197846483
 30
0.0
 11
174.486672710241
 21
70.381197846483
 31
0.0
  0
LINE
  5
1DF
330
1F
100
AcDbEntity
  8
1
  6
Continuous
 62
     3
100
AcDbLine
 10
174.486672710241
 20
72.6905989232415
 30
0.0
 11
170.851081167372
 21
72.6905989232415
 31
0.0
  0
LINE
  5
1E0
330
1F
100
AcDbEntity
  8
1
  6
Continuous
 62
     3
100
AcDbLine
 10
174.486672710241
 20
77.3094010767586
 30
0.0
 11
170.851081167372
 21
77.3094010767586
 31
0.0
  0
LINE
  5
1E1
330
1F
100
AcDbEntity
  8
1
  6
Continuous
 62
     3
100
AcDbLine
 10
170.843938300149
 20
70.381197846483
 30
0.0
 11
170.486672710241
 21
71.0
 31
0.0
  0
LINE
  5
1E2
330
1F
100
AcDbEntity
  8
1
  6
Continuous
 62
     3
100
AcDbLine
 10
170.843938300149
 20
79.618802153517
 30
0.0
 11
170.486672710241
 21
79.0000000000001
 31
0.0
  0
LINE
  5
1E3
330
1F
100
AcDbEntity
  8
2
  6
Continuous
 62
     3
100
AcDbLine
 10
174.486672710241
 20
119.5
 30
0.0
 11
204.486672710241
 21
119.5
 31
0.0
  0
LINE
  5
1E4
330
1F
100
AcDbEntity
  8
2
  6
Continuous
 62
     3
100
AcDbLine
 10
174.486672710241
 20
119.5
 30
0.0
 11
174.486672710241
 21
143.0
 31
0.0
  0
LINE
  5
1E5
330
1F
100
AcDbEntity
  8
2
  6
Continuous
 62
     3
100
AcDbLine
 10
204.486672710241
 20
119.5
 30
0.0
 11
204.486672710241
 21
143.0
 31
0.0
  0
LINE
  5
1E6
330
1F
100
AcDbEntity
  8
2
  6
Continuous
 62
     3
100
AcDbLine
 10
176.259998832004
 20
162.892058752349
 30
0.0
 11
162.742655402473
 21
158.785679524099
 31
0.0
  0
LINE
  5
1E7
330
1F
100
AcDbEntity
  8
2
  6
Continuous
 62
     3
100
AcDbLine
 10
158.486672710242
 20
153.044738518463
 30
0.0
 11
158.486672710241
 21
143.0
 31
0.0
  0
LINE
  5
1E8
330
1F
100
AcDbEntity
  8
2
  6
Continuous
 62
     3
100
AcDbLine
 10
158.486672710241
 20
143.0
 30
0.0
 11
220.486672710241
 21
143.0
 31
0.0
  0
LINE
  5
1E9
330
1F
100
AcDbEntity
  8
2
  6
Continuous
 62
     3
100
AcDbLine
 10
220.486672710241
 20
153.044738518463
 30
0.0
 11
220.486672710241
 21
143.0
 31
0.0
  0
LINE
  5
1EA
330
1F
100
AcDbEntity
  8
2
  6
Continuous
 62
     3
100
AcDbLine
 10
202.713346588478
 20
162.892058752349
 30
0.0
 11
216.230690018009
 21
158.7856795241
 31
0.0
  0
LINE
  5
1EB
330
1F
100
AcDbEntity
  8
2
  6
Continuous
 62
     3
100
AcDbLine
 10
176.986672710241
 20
163.0
 30
0.0
 11
201.986672710241
 21
163.0
 31
0.0
  0
LINE
  5
1EC
330
1F
100
AcDbEntity
  8
2
  6
Continuous
 62
     3
100
AcDbLine
 10
211.406982927024
 20
153.044738518463
 30
0.0
 11
212.537628685021
 21
153.044738518463
 31
0.0
  0
LINE
  5
1ED
330
1F
100
AcDbEntity
  8
2
  6
Continuous
 62
     3
100
AcDbLine
 10
201.940248274125
 20
156.159616862114
 30
0.0
 11
208.915639515933
 21
153.503086738674
 31
0.0
  0
LINE
  5
1EE
330
1F
100
AcDbEntity
  8
2
  6
Continuous
 62
     3
100
AcDbLine
 10
213.537628685021
 20
153.044738518463
 30
0.0
 11
213.537628685021
 21
143.0
 31
0.0
  0
LINE
  5
1EF
330
1F
100
AcDbEntity
  8
2
  6
Continuous
 62
     3
100
AcDbLine
 10
165.435716735461
 20
153.044738518463
 30
0.0
 11
165.435716735461
 21
143.0
 31
0.0
  0
LINE
  5
1F0
330
1F
100
AcDbEntity
  8
2
  6
Continuous
 62
     3
100
AcDbLine
 10
177.033097146358
 20
156.159616862114
 30
0.0
 11
170.057705904549
 21
153.503086738674
 31
0.0
  0
LINE
  5
1F1
330
1F
100
AcDbEntity
  8
2
  6
Continuous
 62
     3
100
AcDbLine
 10
183.005076861491
 20
155.691281385547
 30
0.0
 11
186.006036406199
 21
153.97142221524
 31
0.0
  0
LINE
  5
1F2
330
1F
100
AcDbEntity
  8
2
  6
Continuous
 62
     3
100
AcDbLine
 10
179.986672710241
 20
119.2
 30
0.0
 11
198.986672710241
 21
119.2
 31
0.0
  0
LINE
  5
1F3
330
1F
100
AcDbEntity
  8
2
  6
Continuous
 62
     3
100
AcDbLine
 10
198.986672710241
 20
119.2
 30
0.0
 11
198.986672710241
 21
111.7
 31
0.0
  0
LINE
  5
1F4
330
1F
100
AcDbEntity
  8
2
  6
Continuous
 62
     3
100
AcDbLine
 10
179.986672710241
 20
119.2
 30
0.0
 11
179.986672710241
 21
111.7
 31
0.0
  0
LINE
  5
1F5
330
1F
100
AcDbEntity
  8
2
  6
Continuous
 62
     3
100
AcDbLine
 10
194.486672710241
 20
119.2
 30
0.0
 11
194.486672710241
 21
119.5
 31
0.0
  0
LINE
  5
1F6
330
1F
100
AcDbEntity
  8
2
  6
Continuous
 62
     3
100
AcDbLine
 10
184.486672710241
 20
119.2
 30
0.0
 11
184.486672710241
 21
119.5
 31
0.0
  0
LINE
  5
1F7
330
1F
100
AcDbEntity
  8
2
  6
Continuous
 62
     3
100
AcDbLine
 10
177.986672710241
 20
102.0
 30
0.0
 11
200.986672710241
 21
102.0
 31
0.0
  0
LINE
  5
1F8
330
1F
100
AcDbEntity
  8
2
  6
Continuous
 62
     3
100
AcDbLine
 10
200.986672710241
 20
111.7
 30
0.0
 11
200.986672710241
 21
102.0
 31
0.0
  0
LINE
  5
1F9
330
1F
100
AcDbEntity
  8
2
  6
Continuous
 62
     3
100
AcDbLine
 10
177.986672710241
 20
111.7
 30
0.0
 11
177.986672710241
 21
102.0
 31
0.0
  0
LINE
  5
1FA
330
1F
100
AcDbEntity
  8
2
  6
Continuous
 62
     3
100
AcDbLine
 10
189.486672710241
 20
103.779056191
 30
0.0
 11
189.486672710241
 21
109.920943809
 31
0.0
  0
LINE
  5
1FB
330
1F
100
AcDbEntity
  8
2
  6
Continuous
 62
     3
100
AcDbLine
 10
177.986672710241
 20
111.7
 30
0.0
 11
200.986672710241
 21
111.7
 31
0.0
  0
LINE
  5
1FC
330
1F
100
AcDbEntity
  8
1
  6
DOT_CENTER
 62
     1
100
AcDbLine
 10
66.0
 20
185.000015258789
 30
0.0
 11
66.0
 21
255.799118041992
 31
0.0
  0
LINE
  5
1FD
330
1F
100
AcDbEntity
  8
1
  6
DOT_CENTER
 62
     1
100
AcDbLine
 10
32.4999961853027
 20
219.000015258789
 30
0.0
 11
111.486672710241
 21
219.000015258789
 31
0.0
  0
LINE
  5
1FE
330
1F
100
AcDbEntity
  8
1
  6
Continuous
 62
     3
100
AcDbLine
 10
37.0
 20
223.898998637711
 30
0.0
 11
37.0
 21
232.0
 31
0.0
  0
LINE
  5
1FF
330
1F
100
AcDbEntity
  8
2
  6
Continuous
 62
     3
100
AcDbLine
 10
105.5
 20
209.824584218531
 30
0.0
 11
105.5
 21
212.236140629555
 31
0.0
  0
LINE
  5
200
330
1F
100
AcDbEntity
  8
2
  6
Continuous
 62
     3
100
AcDbLine
 10
107.0
 20
204.500015258789
 30
0.0
 11
105.5
 21
203.000015258789
 31
0.0
  0
LINE
  5
201
330
1F
100
AcDbEntity
  8
2
  6
Continuous
 62
     3
100
AcDbLine
 10
107.0
 20
204.500015258789
 30
0.0
 11
107.0
 21
233.500015258789
 31
0.0
  0
LINE
  5
202
330
1F
100
AcDbEntity
  8
2
  6
Continuous
 62
     3
100
AcDbLine
 10
105.500000000001
 20
235.00001525879
 30
0.0
 11
107.0
 21
233.500015258789
 31
0.0
  0
LINE
  5
203
330
1F
100
AcDbEntity
  8
2
  6
Continuous
 62
     3
100
AcDbLine
 10
105.500000000001
 20
235.00001525879
 30
0.0
 11
103.51219330882
 21
235.000015258789
 31
0.0
  0
LINE
  5
204
330
1F
100
AcDbEntity
  8
2
  6
Continuous
 62
     3
100
AcDbLine
 10
105.5
 20
225.763889888023
 30
0.0
 11
105.5
 21
228.175446299046
 31
0.0
  0
LINE
  5
205
330
1F
100
AcDbEntity
  8
2
  6
Continuous
 62
     3
100
AcDbLine
 10
100.007394666442
 20
209.824584218532
 30
0.0
 11
105.5
 21
209.824584218531
 31
0.0
  0
LINE
  5
206
330
1F
100
AcDbEntity
  8
2
  6
Continuous
 62
     3
100
AcDbLine
 10
101.035227301345
 20
212.236140629555
 30
0.0
 11
105.5
 21
212.236140629555
 31
0.0
  0
LINE
  5
207
330
1F
100
AcDbEntity
  8
2
  6
Continuous
 62
     3
100
AcDbLine
 10
101.035227301345
 20
225.763889888023
 30
0.0
 11
105.5
 21
225.763889888023
 31
0.0
  0
LINE
  5
208
330
1F
100
AcDbEntity
  8
2
  6
Continuous
 62
     3
100
AcDbLine
 10
100.007394666442
 20
228.175446299046
 30
0.0
 11
105.5
 21
228.175446299046
 31
0.0
  0
LINE
  5
209
330
1F
100
AcDbEntity
  8
2
  6
Continuous
 62
     3
100
AcDbLine
 10
105.5
 20
203.000015258789
 30
0.0
 11
96.0
 21
203.000015258789
 31
0.0
  0
LINE
  5
20A
330
1F
100
AcDbEntity
  8
2
  6
Continuous
 62
     3
100
AcDbLine
 10
105.500000000001
 20
235.00001525879
 30
0.0
 11
95.9999999999996
 21
235.000015258789
 31
0.0
  0
LINE
  5
20B
330
1F
100
AcDbEntity
  8
1
  6
Continuous
 62
     3
100
AcDbLine
 10
198.486672710241
 20
86.7417646169323
 30
0.0
 11
189.486672710241
 21
83.0675300027577
 31
0.0
  0
LINE
  5
20C
330
1F
100
AcDbEntity
  8
1
  6
Continuous
 62
     3
100
AcDbLine
 10
189.486672710241
 20
83.0675300027577
 30
0.0
 11
180.486672710241
 21
86.7417646169323
 31
0.0
  0
LINE
  5
20D
330
1F
100
AcDbEntity
  8
1
  6
Continuous
 62
     3
100
AcDbLine
 10
180.486672710241
 20
94.0902338452819
 30
0.0
 11
189.486672710241
 21
97.7644684594567
 31
0.0
  0
LINE
  5
20E
330
1F
100
AcDbEntity
  8
1
  6
Continuous
 62
     3
100
AcDbLine
 10
189.486672710241
 20
97.7644684594567
 30
0.0
 11
198.486672710241
 21
94.0902338452819
 31
0.0
  0
LINE
  5
20F
330
1F
100
AcDbEntity
  8
1
  6
Continuous
 62
     3
100
AcDbLine
 10
198.486672710241
 20
82.4991239298131
 30
0.0
 11
189.486672710241
 21
78.8248893156384
 31
0.0
  0
LINE
  5
210
330
1F
100
AcDbEntity
  8
1
  6
Continuous
 62
     3
100
AcDbLine
 10
198.486672710241
 20
94.0902338452819
 30
0.0
 11
198.486672710241
 21
82.4991239298131
 31
0.0
  0
LINE
  5
211
330
1F
100
AcDbEntity
  8
1
  6
Continuous
 62
     3
100
AcDbLine
 10
180.486672710241
 20
82.4991239298131
 30
0.0
 11
180.486672710241
 21
94.0902338452819
 31
0.0
  0
LINE
  5
212
330
1F
100
AcDbEntity
  8
1
  6
Continuous
 62
     3
100
AcDbLine
 10
189.486672710241
 20
78.8248893156384
 30
0.0
 11
180.486672710241
 21
82.4991239298131
 31
0.0
  0
LINE
  5
213
330
1F
100
AcDbEntity
  8
2
  6
Continuous
 62
     3
100
AcDbLine
 10
195.968268558991
 20
155.691281385548
 30
0.0
 11
192.967309014283
 21
153.97142221524
 31
0.0
  0
LINE
  5
214
330
1F
100
AcDbEntity
  8
1
  6
Continuous
 62
     3
100
AcDbLine
 10
90.5275223211382
 20
228.000015258789
 30
0.0
 11
99.0902338452819
 21
228.000015258789
 31
0.0
  0
LINE
  5
215
330
1F
100
AcDbEntity
  8
1
  6
Continuous
 62
     3
100
AcDbLine
 10
99.0902338452819
 20
210.000015258789
 30
0.0
 11
90.5275223211383
 21
210.000015258789
 31
0.0
  0
LINE
  5
216
330
1F
100
AcDbEntity
  8
1
  6
Continuous
 62
     3
100
AcDbLine
 10
102.764468459457
 20
219.000015258789
 30
0.0
 11
99.0902338452819
 21
210.000015258789
 31
0.0
  0
LINE
  5
217
330
1F
100
AcDbEntity
  8
1
  6
Continuous
 62
     3
100
AcDbLine
 10
99.0902338452819
 20
228.000015258789
 30
0.0
 11
102.764468459457
 21
219.000015258789
 31
0.0
  0
LINE
  5
218
330
1F
100
AcDbEntity
  8
1
  6
Continuous
 62
     3
100
AcDbLine
 10
91.2944608334084
 20
226.904349229139
 30
0.0
 11
91.7417646169323
 21
228.000015258789
 31
0.0
  0
LINE
  5
219
330
1F
100
AcDbEntity
  8
1
  6
Continuous
 62
     3
100
AcDbLine
 10
91.7417646169323
 20
210.000015258789
 30
0.0
 11
91.2944608334084
 21
211.095681288439
 31
0.0
  0
LINE
  5
21A
330
1F
100
AcDbEntity
  8
1
  6
Continuous
 62
     3
100
AcDbLine
 10
189.486672710241
 20
83.0675300027577
 30
0.0
 11
189.486672710241
 21
78.8248893156384
 31
0.0
  0
LINE
  5
21B
330
1F
100
AcDbEntity
  8
1
  6
Continuous
 62
     4
100
AcDbLine
 10
107.0
 20
54.0
 30
0.0
 11
108.636019667734
 21
45.8809832547805
 31
0.0
  0
LINE
  5
21C
330
1F
100
AcDbEntity
  8
1
  6
Continuous
 62
     4
100
AcDbLine
 10
107.0
 20
54.0
 30
0.0
 11
112.476342965958
 21
47.7867350787557
 31
0.0
  0
LINE
  5
21D
330
1F
100
AcDbEntity
  8
1
  6
Continuous
 62
     4
100
AcDbLine
 10
37.0
 20
54.0
 30
0.0
 11
35.563017725127
 21
45.8434029642217
 31
0.0
  0
LINE
  5
21E
330
1F
100
AcDbEntity
  8
1
  6
Continuous
 62
     4
100
AcDbLine
 10
37.0
 20
54.0
 30
0.0
 11
31.6772383272828
 21
47.6546708960196
 31
0.0
  0
ARC
  5
22B
330
1F
100
AcDbEntity
  8
2
  6
Continuous
 62
     3
100
AcDbCircle
 10
90.3266665853088
 20
148.632639116096
 30
0.0
 40
7.999999999999758
100
AcDbArc
 50
46.91999664801923
 51
91.88084571099265
  0
ARC
  5
22C
330
1F
100
AcDbEntity
  8
2
  6
Continuous
 62
     3
100
AcDbCircle
 10
53.5
 20
160.5
 30
0.0
 40
2.5
100
AcDbArc
 50
90.0
 51
106.8980453281909
  0
ARC
  5
22D
330
1F
100
AcDbEntity
  8
2
  6
Continuous
 62
     3
100
AcDbCircle
 10
41.0
 20
153.044738518463
 30
0.0
 40
5.99999999999904
100
AcDbArc
 50
106.8980453281994
 51
180.0
  0
ARC
  5
22E
330
1F
100
AcDbEntity
  8
2
  6
Continuous
 62
     3
100
AcDbCircle
 10
91.0
 20
153.044738518463
 30
0.0
 40
6.0
100
AcDbArc
 50
0.0
 51
73.10195467180337
  0
ARC
  5
22F
330
1F
100
AcDbEntity
  8
2
  6
Continuous
 62
     3
100
AcDbCircle
 10
78.5
 20
160.5
 30
0.0
 40
2.500000000000249
100
AcDbArc
 50
73.10195467180267
 51
90.0
  0
ARC
  5
230
330
1F
100
AcDbEntity
  8
2
  6
Continuous
 62
     3
100
AcDbCircle
 10
87.920310216783
 20
160.044738518463
 30
0.0
 40
7.000000000000392
100
AcDbArc
 50
249.1510063995226
 51
270.0
  0
ARC
  5
231
330
1F
100
AcDbEntity
  8
2
  6
Continuous
 62
     3
100
AcDbCircle
 10
75.9622321527921
 20
149.617965082325
 30
0.0
 40
7.000000000000388
100
AcDbArc
 50
69.15100639952337
 51
119.8171550163985
  0
ARC
  5
232
330
1F
100
AcDbEntity
  8
2
  6
Continuous
 62
     3
100
AcDbCircle
 10
84.0509559747801
 20
153.044738518463
 30
0.0
 40
6.0
100
AcDbArc
 50
0.0
 51
58.79055696353195
  0
ARC
  5
233
330
1F
100
AcDbEntity
  8
2
  6
Continuous
 62
     3
100
AcDbCircle
 10
66.0
 20
75.0
 30
0.0
 40
17.50000000000003
100
AcDbArc
 50
129.3566989272613
 51
188.849883098429
  0
ARC
  5
234
330
1F
100
AcDbEntity
  8
2
  6
Continuous
 62
     3
100
AcDbCircle
 10
75.0
 20
96.2
 30
0.0
 40
1.000000000000048
100
AcDbArc
 50
354.6117960227444
 51
60.00000000000149
  0
ARC
  5
235
330
1F
100
AcDbEntity
  8
2
  6
Continuous
 62
     3
100
AcDbCircle
 10
76.0
 20
97.9320508075689
 30
0.0
 40
1.0
100
AcDbArc
 50
180.0
 51
239.999999999999
  0
ARC
  5
236
330
1F
100
AcDbEntity
  8
2
  6
Continuous
 62
     3
100
AcDbCircle
 10
57.0
 20
96.2
 30
0.0
 40
0.9999999999999589
100
AcDbArc
 50
120.0000000000014
 51
180.0
  0
ARC
  5
237
330
1F
100
AcDbEntity
  8
2
  6
Continuous
 62
     3
100
AcDbCircle
 10
56.0
 20
97.9320508075689
 30
0.0
 40
1.000000000000058
100
AcDbArc
 50
299.9999999999981
 51
0.0
  0
ARC
  5
238
330
1F
100
AcDbEntity
  8
2
  6
Continuous
 62
     3
100
AcDbCircle
 10
53.0
 20
90.8508674841473
 30
0.0
 40
2.999999999999927
100
AcDbArc
 50
309.3566989272612
 51
0.0
  0
ARC
  5
239
330
1F
100
AcDbEntity
  8
2
  6
Continuous
 62
     3
100
AcDbCircle
 10
46.7321511320023
 20
72.0
 30
0.0
 40
2.0
100
AcDbArc
 50
270.0
 51
8.84988309842921
  0
ARC
  5
23A
330
1F
100
AcDbEntity
  8
2
  6
Continuous
 62
     3
100
AcDbCircle
 10
103.51219330882
 20
73.5
 30
0.0
 40
3.5
100
AcDbArc
 50
180.0
 51
270.0
  0
ARC
  5
23B
330
1F
100
AcDbEntity
  8
2
  6
Continuous
 62
     3
100
AcDbCircle
 10
76.9911626369405
 20
96.0121933088197
 30
0.0
 40
0.999999999999938
100
AcDbArc
 50
174.6117960227503
 51
270.0
  0
ARC
  5
23C
330
1F
100
AcDbEntity
  8
2
  6
Continuous
 62
     3
100
AcDbCircle
 10
78.3847763108502
 20
94.0121933088197
 30
0.0
 40
1.000000000000068
100
AcDbArc
 50
45.0
 51
90.0
  0
ARC
  5
23D
330
1F
100
AcDbEntity
  8
2
  6
Continuous
 62
     3
100
AcDbCircle
 10
91.4115125476115
 20
36.0136005187091
 30
0.0
 40
4.999999999999953
100
AcDbArc
 50
23.40824141911781
 51
85.77303300150673
  0
ARC
  5
23E
330
1F
100
AcDbEntity
  8
2
  6
Continuous
 62
     3
100
AcDbCircle
 10
72.0
 20
99.0
 30
0.0
 40
59.99999999999999
100
AcDbArc
 50
255.1648884180243
 51
284.8351115819758
  0
ARC
  5
23F
330
1F
100
AcDbEntity
  8
2
  6
Continuous
 62
     3
100
AcDbCircle
 10
52.5884874523885
 20
36.0136005187091
 30
0.0
 40
4.99999999999997
100
AcDbArc
 50
94.22696699849425
 51
156.5917585808822
  0
ARC
  5
240
330
1F
100
AcDbEntity
  8
2
  6
Continuous
 62
     3
100
AcDbCircle
 10
91.0000000000001
 20
54.0
 30
0.0
 40
15.99999999999989
100
AcDbArc
 50
334.9921667653148
 51
25.00783323468515
  0
ARC
  5
241
330
1F
100
AcDbEntity
  8
2
  6
Continuous
 62
     3
100
AcDbCircle
 10
102.369078526289
 20
41.4122844798714
 30
0.0
 40
4.631020907544674
100
AcDbArc
 50
312.5377532561477
 51
47.46224674385223
  0
ARC
  5
242
330
1F
100
AcDbEntity
  8
2
  6
Continuous
 62
     3
100
AcDbCircle
 10
102.369078526289
 20
66.5877155201286
 30
0.0
 40
4.631020907544669
100
AcDbArc
 50
312.5377532561478
 51
47.46224674385229
  0
ARC
  5
243
330
1F
100
AcDbEntity
  8
2
  6
Continuous
 62
     3
100
AcDbCircle
 10
108.678466665989
 20
54.0
 30
0.0
 40
14.36988228903055
100
AcDbArc
 50
151.9203862470067
 51
208.0796137529933
  0
ARC
  5
244
330
1F
100
AcDbEntity
  8
2
  6
Continuous
 62
     3
100
AcDbCircle
 10
98.5960140995599
 20
41.4122844798714
 30
0.0
 40
4.287537122484769
100
AcDbArc
 50
127.2633251217537
 51
201.1082688260304
  0
ARC
  5
245
330
1F
100
AcDbEntity
  8
2
  6
Continuous
 62
     3
100
AcDbCircle
 10
98.5960140995598
 20
66.5877155201286
 30
0.0
 40
4.287537122484714
100
AcDbArc
 50
127.2633251217526
 51
232.7366748782474
  0
ARC
  5
246
330
1F
100
AcDbEntity
  8
2
  6
Continuous
 62
     3
100
AcDbCircle
 10
52.9999999999999
 20
54.0
 30
0.0
 40
15.99999999999989
100
AcDbArc
 50
154.9921667653149
 51
205.0078332346851
  0
ARC
  5
247
330
1F
100
AcDbEntity
  8
2
  6
Continuous
 62
     3
100
AcDbCircle
 10
41.6309214737108
 20
66.5877155201286
 30
0.0
 40
4.631020907544539
100
AcDbArc
 50
132.5377532561459
 51
227.4622467438541
  0
ARC
  5
248
330
1F
100
AcDbEntity
  8
2
  6
Continuous
 62
     3
100
AcDbCircle
 10
45.4039859004402
 20
66.5877155201286
 30
0.0
 40
4.287537122484713
100
AcDbArc
 50
307.2633251217527
 51
52.73667487824737
  0
ARC
  5
249
330
1F
100
AcDbEntity
  8
2
  6
Continuous
 62
     3
100
AcDbCircle
 10
35.321533334011
 20
54.0
 30
0.0
 40
14.36988228903054
100
AcDbArc
 50
331.9203862470067
 51
28.07961375299328
  0
ARC
  5
24A
330
1F
100
AcDbEntity
  8
2
  6
Continuous
 62
     3
100
AcDbCircle
 10
41.6309214737108
 20
41.4122844798714
 30
0.0
 40
4.631020907544534
100
AcDbArc
 50
132.537753256146
 51
227.4622467438541
  0
ARC
  5
24B
330
1F
100
AcDbEntity
  8
2
  6
Continuous
 62
     3
100
AcDbCircle
 10
45.4039859004401
 20
41.4122844798714
 30
0.0
 40
4.287537122484819
100
AcDbArc
 50
338.8917311739696
 51
52.73667487824626
  0
ARC
  5
24C
330
1F
100
AcDbEntity
  8
2
  6
Continuous
 62
     3
100
AcDbCircle
 10
47.9490440252199
 20
153.044738518463
 30
0.0
 40
5.999999999999681
100
AcDbArc
 50
121.2094430364639
 51
180.0
  0
ARC
  5
24D
330
1F
100
AcDbEntity
  8
2
  6
Continuous
 62
     3
100
AcDbCircle
 10
41.6733334146912
 20
148.632639116096
 30
0.0
 40
7.999999999999465
100
AcDbArc
 50
88.11915428900734
 51
133.0800033519787
  0
ARC
  5
24E
330
1F
100
AcDbEntity
  8
2
  6
Continuous
 62
     3
100
AcDbCircle
 10
44.079689783217
 20
160.044738518463
 30
0.0
 40
7.0
100
AcDbArc
 50
270.0
 51
290.8489936004759
  0
ARC
  5
24F
330
1F
100
AcDbEntity
  8
2
  6
Continuous
 62
     3
100
AcDbCircle
 10
56.0377678472079
 20
149.617965082325
 30
0.0
 40
6.999999999999919
100
AcDbArc
 50
60.18284498360428
 51
110.8489936004743
  0
ARC
  5
250
330
1F
100
AcDbEntity
  8
2
  6
Continuous
 62
     3
100
AcDbCircle
 10
66.0
 20
160.044738518463
 30
0.0
 40
7.000000000000807
100
AcDbArc
 50
240.1828449836075
 51
299.8171550163925
  0
ARC
  5
251
330
1F
100
AcDbEntity
  8
2
  6
PHANTOM
 62
     6
100
AcDbCircle
 10
91.0
 20
139.044738518463
 30
0.0
 40
6.0
100
AcDbArc
 50
0.0
 51
73.10195467180337
  0
ARC
  5
252
330
1F
100
AcDbEntity
  8
2
  6
PHANTOM
 62
     6
100
AcDbCircle
 10
78.5
 20
146.5
 30
0.0
 40
2.500000000000249
100
AcDbArc
 50
73.10195467180267
 51
90.0
  0
ARC
  5
253
330
1F
100
AcDbEntity
  8
2
  6
PHANTOM
 62
     6
100
AcDbCircle
 10
53.5
 20
146.5
 30
0.0
 40
2.5
100
AcDbArc
 50
90.0
 51
106.8980453281931
  0
ARC
  5
254
330
1F
100
AcDbEntity
  8
2
  6
PHANTOM
 62
     6
100
AcDbCircle
 10
41.0
 20
139.044738518463
 30
0.0
 40
5.99999999999904
100
AcDbArc
 50
106.8980453281994
 51
180.0
  0
ARC
  5
255
330
1F
100
AcDbEntity
  8
2
  6
Continuous
 62
     3
100
AcDbCircle
 10
-33.513327289759
 20
160.044738518463
 30
0.0
 40
7.000000000000807
100
AcDbArc
 50
240.1828449836075
 51
299.8171550163925
  0
ARC
  5
256
330
1F
100
AcDbEntity
  8
2
  6
Continuous
 62
     3
100
AcDbCircle
 10
-43.4755594425511
 20
149.617965082325
 30
0.0
 40
6.999999999999919
100
AcDbArc
 50
60.18284498360428
 51
110.8489936004743
  0
ARC
  5
257
330
1F
100
AcDbEntity
  8
2
  6
Continuous
 62
     3
100
AcDbCircle
 10
-55.433637506542
 20
160.044738518463
 30
0.0
 40
7.0
100
AcDbArc
 50
270.0
 51
290.8489936004759
  0
ARC
  5
258
330
1F
100
AcDbEntity
  8
2
  6
Continuous
 62
     3
100
AcDbCircle
 10
-57.8399938750678
 20
148.632639116096
 30
0.0
 40
7.999999999999465
100
AcDbArc
 50
88.11915428900734
 51
133.0800033519787
  0
ARC
  5
259
330
1F
100
AcDbEntity
  8
2
  6
Continuous
 62
     3
100
AcDbCircle
 10
-51.5642832645391
 20
153.044738518463
 30
0.0
 40
5.999999999999681
100
AcDbArc
 50
121.2094430364639
 51
180.0
  0
ARC
  5
25A
330
1F
100
AcDbEntity
  8
2
  6
Continuous
 62
     3
100
AcDbCircle
 10
-15.4623713149789
 20
153.044738518463
 30
0.0
 40
6.000000000000011
100
AcDbArc
 50
0.0
 51
58.79055696353199
  0
ARC
  5
25B
330
1F
100
AcDbEntity
  8
2
  6
Continuous
 62
     3
100
AcDbCircle
 10
-23.5510951369669
 20
149.617965082325
 30
0.0
 40
7.000000000000385
100
AcDbArc
 50
69.15100639952342
 51
119.8171550163986
  0
ARC
  5
25C
330
1F
100
AcDbEntity
  8
2
  6
Continuous
 62
     3
100
AcDbCircle
 10
-11.593017072976
 20
160.044738518463
 30
0.0
 40
7.000000000000394
100
AcDbArc
 50
249.1510063995226
 51
270.0
  0
ARC
  5
25D
330
1F
100
AcDbEntity
  8
2
  6
Continuous
 62
     3
100
AcDbCircle
 10
-21.013327289759
 20
160.5
 30
0.0
 40
2.50000000000025
100
AcDbArc
 50
73.10195467180252
 51
90.0
  0
ARC
  5
25E
330
1F
100
AcDbEntity
  8
2
  6
Continuous
 62
     3
100
AcDbCircle
 10
-8.51332728975899
 20
153.044738518463
 30
0.0
 40
6.0
100
AcDbArc
 50
0.0
 51
73.10195467180338
  0
ARC
  5
25F
330
1F
100
AcDbEntity
  8
2
  6
Continuous
 62
     3
100
AcDbCircle
 10
-58.513327289759
 20
153.044738518463
 30
0.0
 40
5.99999999999904
100
AcDbArc
 50
106.8980453281994
 51
180.0
  0
ARC
  5
260
330
1F
100
AcDbEntity
  8
2
  6
Continuous
 62
     3
100
AcDbCircle
 10
-46.013327289759
 20
160.5
 30
0.0
 40
2.5
100
AcDbArc
 50
90.0
 51
106.8980453281909
  0
ARC
  5
261
330
1F
100
AcDbEntity
  8
2
  6
Continuous
 62
     3
100
AcDbCircle
 10
-9.18666070445019
 20
148.632639116096
 30
0.0
 40
7.999999999999756
100
AcDbArc
 50
46.91999664801924
 51
91.88084571099303
  0
ARC
  5
262
330
1F
100
AcDbEntity
  8
1
  6
Continuous
 62
     3
100
AcDbCircle
 10
49.1875
 20
211.75
 30
0.0
 40
12.18750000000003
100
AcDbArc
 50
169.7850499162718
 51
208.7266053481409
  0
ARC
  5
263
330
1F
100
AcDbEntity
  8
1
  6
Continuous
 62
     3
100
AcDbCircle
 10
49.1875
 20
226.25
 30
0.0
 40
12.18750000000001
100
AcDbArc
 50
151.2733946518591
 51
190.2148255087345
  0
ARC
  5
264
330
1F
100
AcDbEntity
  8
1
  6
Continuous
 62
     3
100
AcDbCircle
 10
-33.513327289759
 20
54.0
 30
0.0
 40
14.99999999999992
100
AcDbArc
 50
345.1648884180254
 51
0.0
  0
ARC
  5
265
330
1F
100
AcDbEntity
  8
1
  6
Continuous
 62
     3
100
AcDbCircle
 10
-33.513327289759
 20
54.0
 30
0.0
 40
14.99999999999997
100
AcDbArc
 50
285.164888418024
 51
314.8351115819757
  0
ARC
  5
266
330
1F
100
AcDbEntity
  8
1
  6
Continuous
 62
     3
100
AcDbCircle
 10
-33.513327289759
 20
54.0
 30
0.0
 40
14.99999999999999
100
AcDbArc
 50
225.1648884180243
 51
254.8351115819757
  0
ARC
  5
267
330
1F
100
AcDbEntity
  8
1
  6
Continuous
 62
     3
100
AcDbCircle
 10
-33.513327289759
 20
54.0
 30
0.0
 40
15.0
100
AcDbArc
 50
180.0
 51
194.8351115819745
  0
ARC
  5
268
330
1F
100
AcDbEntity
  8
1
  6
Continuous
 62
     3
100
AcDbCircle
 10
-33.513327289759
 20
80.01219330882
 30
0.0
 40
15.00000000000004
100
AcDbArc
 50
131.8103148957784
 51
180.0
  0
ARC
  5
269
330
1F
100
AcDbEntity
  8
1
  6
Continuous
 62
     3
100
AcDbCircle
 10
-33.513327289759
 20
80.01219330882
 30
0.0
 40
15.0
100
AcDbArc
 50
0.0
 51
48.18968510422155
  0
ARC
  5
26A
330
1F
100
AcDbEntity
  8
1
  6
Continuous
 62
     3
100
AcDbCircle
 10
-24.513327289759
 20
96.2
 30
0.0
 40
1.0
100
AcDbArc
 50
0.0
 51
59.99999999998366
  0
ARC
  5
26B
330
1F
100
AcDbEntity
  8
1
  6
Continuous
 62
     3
100
AcDbCircle
 10
-23.513327289759
 20
97.932050807569
 30
0.0
 40
1.0
100
AcDbArc
 50
180.0
 51
240.0000000000197
  0
ARC
  5
26C
330
1F
100
AcDbEntity
  8
1
  6
Continuous
 62
     3
100
AcDbCircle
 10
-43.513327289759
 20
97.932050807569
 30
0.0
 40
1.000000000000488
100
AcDbArc
 50
299.9999999999838
 51
0.0
  0
ARC
  5
26D
330
1F
100
AcDbEntity
  8
1
  6
Continuous
 62
     3
100
AcDbCircle
 10
-42.513327289759
 20
96.2
 30
0.0
 40
0.9999999999996144
100
AcDbArc
 50
120.0000000000128
 51
180.0
  0
ARC
  5
26E
330
1F
100
AcDbEntity
  8
1
  6
Continuous
 62
     3
100
AcDbCircle
 10
180.486672710241
 20
96.2
 30
0.0
 40
0.9999999999996144
100
AcDbArc
 50
120.0000000000128
 51
180.0
  0
ARC
  5
26F
330
1F
100
AcDbEntity
  8
1
  6
Continuous
 62
     3
100
AcDbCircle
 10
179.486672710241
 20
97.932050807569
 30
0.0
 40
1.000000000000488
100
AcDbArc
 50
299.9999999999838
 51
0.0
  0
ARC
  5
270
330
1F
100
AcDbEntity
  8
1
  6
Continuous
 62
     3
100
AcDbCircle
 10
199.486672710241
 20
97.932050807569
 30
0.0
 40
1.0
100
AcDbArc
 50
180.0
 51
240.0000000000019
  0
ARC
  5
271
330
1F
100
AcDbEntity
  8
1
  6
Continuous
 62
     3
100
AcDbCircle
 10
198.486672710241
 20
96.2
 30
0.0
 40
1.0
100
AcDbArc
 50
0.0
 51
60.00000000000149
  0
ARC
  5
272
330
1F
100
AcDbEntity
  8
1
  6
Continuous
 62
     3
100
AcDbCircle
 10
189.486672710241
 20
80.01219330882
 30
0.0
 40
15.00000000000006
100
AcDbArc
 50
173.3813303816624
 51
180.0
  0
ARC
  5
273
330
1F
100
AcDbEntity
  8
1
  6
Continuous
 62
     3
100
AcDbCircle
 10
189.486672710241
 20
54.0
 30
0.0
 40
15.0
100
AcDbArc
 50
180.0
 51
194.8351115819746
  0
ARC
  5
274
330
1F
100
AcDbEntity
  8
1
  6
Continuous
 62
     3
100
AcDbCircle
 10
189.486672710241
 20
54.0
 30
0.0
 40
15.00000000000034
100
AcDbArc
 50
225.1648884180229
 51
254.835111581978
  0
ARC
  5
275
330
1F
100
AcDbEntity
  8
1
  6
Continuous
 62
     3
100
AcDbCircle
 10
189.486672710241
 20
54.0
 30
0.0
 40
14.99999999999986
100
AcDbArc
 50
285.1648884180225
 51
314.8351115819787
  0
ARC
  5
276
330
1F
100
AcDbEntity
  8
1
  6
Continuous
 62
     3
100
AcDbCircle
 10
189.486672710241
 20
54.0
 30
0.0
 40
14.99999999999992
100
AcDbArc
 50
345.1648884180254
 51
0.0
  0
ARC
  5
277
330
1F
100
AcDbEntity
  8
2
  6
Continuous
 62
     3
100
AcDbCircle
 10
213.81333929555
 20
148.632639116096
 30
0.0
 40
7.999999999999893
100
AcDbArc
 50
46.91999664801818
 51
91.88084571099195
  0
ARC
  5
278
330
1F
100
AcDbEntity
  8
2
  6
Continuous
 62
     3
100
AcDbCircle
 10
176.986672710241
 20
160.5
 30
0.0
 40
2.5
100
AcDbArc
 50
90.0
 51
106.8980453282001
  0
ARC
  5
279
330
1F
100
AcDbEntity
  8
2
  6
Continuous
 62
     3
100
AcDbCircle
 10
164.486672710241
 20
153.044738518463
 30
0.0
 40
5.999999999998957
100
AcDbArc
 50
106.8980453281968
 51
180.0
  0
ARC
  5
27A
330
1F
100
AcDbEntity
  8
2
  6
Continuous
 62
     3
100
AcDbCircle
 10
214.486672710241
 20
153.044738518463
 30
0.0
 40
6.0
100
AcDbArc
 50
0.0
 51
73.10195467180623
  0
ARC
  5
27B
330
1F
100
AcDbEntity
  8
2
  6
Continuous
 62
     3
100
AcDbCircle
 10
201.986672710241
 20
160.5
 30
0.0
 40
2.500000000000278
100
AcDbArc
 50
73.1019546718005
 51
90.0
  0
ARC
  5
27C
330
1F
100
AcDbEntity
  8
2
  6
Continuous
 62
     3
100
AcDbCircle
 10
211.406982927024
 20
160.044738518463
 30
0.0
 40
7.00000000000021
100
AcDbArc
 50
249.1510063995266
 51
270.0
  0
ARC
  5
27D
330
1F
100
AcDbEntity
  8
2
  6
Continuous
 62
     3
100
AcDbCircle
 10
207.537628685021
 20
153.044738518463
 30
0.0
 40
6.0
100
AcDbArc
 50
0.0
 51
58.79055696353276
  0
ARC
  5
27E
330
1F
100
AcDbEntity
  8
2
  6
Continuous
 62
     3
100
AcDbCircle
 10
171.435716735461
 20
153.044738518463
 30
0.0
 40
5.999999999999891
100
AcDbArc
 50
121.2094430364672
 51
180.0
  0
ARC
  5
27F
330
1F
100
AcDbEntity
  8
2
  6
Continuous
 62
     3
100
AcDbCircle
 10
165.160006124932
 20
148.632639116096
 30
0.0
 40
7.999999999999463
100
AcDbArc
 50
88.11915428900807
 51
133.0800033519766
  0
ARC
  5
280
330
1F
100
AcDbEntity
  8
2
  6
Continuous
 62
     3
100
AcDbCircle
 10
167.566362493458
 20
160.044738518463
 30
0.0
 40
7.0
100
AcDbArc
 50
270.0
 51
290.8489936004737
  0
ARC
  5
281
330
1F
100
AcDbEntity
  8
2
  6
Continuous
 62
     3
100
AcDbCircle
 10
179.524440557449
 20
149.617965082325
 30
0.0
 40
6.999999999999823
100
AcDbArc
 50
60.18284498360565
 51
110.8489936004736
  0
ARC
  5
282
330
1F
100
AcDbEntity
  8
2
  6
Continuous
 62
     3
100
AcDbCircle
 10
189.486672710241
 20
160.044738518463
 30
0.0
 40
7.000000000000662
100
AcDbArc
 50
240.1828449836096
 51
299.8171550163902
  0
ARC
  5
283
330
1F
100
AcDbEntity
  8
1
  6
Continuous
 62
     3
100
AcDbCircle
 10
79.0236957970156
 20
187.558023023919
 30
0.0
 40
7.999999999999614
100
AcDbArc
 50
74.74447725793812
 51
150.2555227420626
  0
ARC
  5
284
330
1F
100
AcDbEntity
  8
1
  6
Continuous
 62
     3
100
AcDbCircle
 10
65.9999961853027
 20
195.000015258789
 30
0.0
 40
6.999999999999933
100
AcDbArc
 50
209.7444772579371
 51
330.2555227420631
  0
ARC
  5
285
330
1F
100
AcDbEntity
  8
1
  6
Continuous
 62
     3
100
AcDbCircle
 10
52.9762965735899
 20
187.558023023919
 30
0.0
 40
7.999999999999864
100
AcDbArc
 50
29.74447725793742
 51
105.2555227420647
  0
ARC
  5
286
330
1F
100
AcDbEntity
  8
1
  6
Continuous
 62
     3
100
AcDbCircle
 10
49.0294334368256
 20
202.029452510312
 30
0.0
 40
6.999999999999869
100
AcDbArc
 50
164.7444772579412
 51
285.2555227420585
  0
ARC
  5
287
330
1F
100
AcDbEntity
  8
1
  6
Continuous
 62
     3
100
AcDbCircle
 10
34.5580039504324
 20
205.976315647076
 30
0.0
 40
8.00000000000003
100
AcDbArc
 50
344.744477257938
 51
60.2555227420621
  0
ARC
  5
288
330
1F
100
AcDbEntity
  8
1
  6
Continuous
 62
     3
100
AcDbCircle
 10
41.9999961853027
 20
219.000015258789
 30
0.0
 40
6.999999999999973
100
AcDbArc
 50
119.7444772579379
 51
240.2555227420621
  0
ARC
  5
289
330
1F
100
AcDbEntity
  8
1
  6
Continuous
 62
     3
100
AcDbCircle
 10
34.5580039504324
 20
232.023714870502
 30
0.0
 40
8.000000000000131
100
AcDbArc
 50
299.7444772579379
 51
15.2555227420622
  0
ARC
  5
28A
330
1F
100
AcDbEntity
  8
1
  6
Continuous
 62
     3
100
AcDbCircle
 10
49.0294334368256
 20
235.970578007266
 30
0.0
 40
7.00000000000014
100
AcDbArc
 50
74.74447725793901
 51
195.2555227420586
  0
ARC
  5
28B
330
1F
100
AcDbEntity
  8
1
  6
Continuous
 62
     3
100
AcDbCircle
 10
52.9762965735899
 20
250.442007493659
 30
0.0
 40
7.999999999999642
100
AcDbArc
 50
254.7444772579374
 51
330.2555227420628
  0
ARC
  5
28C
330
1F
100
AcDbEntity
  8
1
  6
Continuous
 62
     3
100
AcDbCircle
 10
65.9999961853027
 20
243.000015258789
 30
0.0
 40
6.999999999999915
100
AcDbArc
 50
29.74447725793726
 51
150.2555227420628
  0
ARC
  5
28D
330
1F
100
AcDbEntity
  8
1
  6
Continuous
 62
     3
100
AcDbCircle
 10
79.0236957970156
 20
250.442007493659
 30
0.0
 40
7.999999999999948
100
AcDbArc
 50
209.7444772579368
 51
285.2555227420653
  0
ARC
  5
28E
330
1F
100
AcDbEntity
  8
1
  6
Continuous
 62
     3
100
AcDbCircle
 10
82.9705589337799
 20
235.970578007266
 30
0.0
 40
6.999999999999884
100
AcDbArc
 50
344.744477257941
 51
105.2555227420578
  0
ARC
  5
28F
330
1F
100
AcDbEntity
  8
1
  6
Continuous
 62
     3
100
AcDbCircle
 10
97.4419884201731
 20
232.023714870502
 30
0.0
 40
8.000000000000023
100
AcDbArc
 50
164.7444772579382
 51
240.2555227420627
  0
ARC
  5
290
330
1F
100
AcDbEntity
  8
1
  6
Continuous
 62
     3
100
AcDbCircle
 10
89.9999961853027
 20
219.000015258789
 30
0.0
 40
7.000000000000019
100
AcDbArc
 50
299.7444772579385
 51
60.25552274206078
  0
ARC
  5
291
330
1F
100
AcDbEntity
  8
1
  6
Continuous
 62
     3
100
AcDbCircle
 10
97.4419884201731
 20
205.976315647076
 30
0.0
 40
8.000000000000135
100
AcDbArc
 50
119.7444772579379
 51
195.2555227420626
  0
ARC
  5
292
330
1F
100
AcDbEntity
  8
1
  6
Continuous
 62
     3
100
AcDbCircle
 10
82.9705589337799
 20
202.029452510312
 30
0.0
 40
7.000000000000194
100
AcDbArc
 50
254.7444772579383
 51
15.25552274205816
  0
ARC
  5
293
330
1F
100
AcDbEntity
  8
2
  6
Continuous
 62
     3
100
AcDbCircle
 10
102.369078526289
 20
231.587730778918
 30
0.0
 40
4.631020907545114
100
AcDbArc
 50
312.5377532561428
 51
47.46224674384821
  0
ARC
  5
294
330
1F
100
AcDbEntity
  8
2
  6
Continuous
 62
     3
100
AcDbCircle
 10
102.369078526289
 20
206.41229973866
 30
0.0
 40
4.631020907544381
100
AcDbArc
 50
312.537753256151
 51
47.46224674384872
  0
ARC
  5
295
330
1F
100
AcDbEntity
  8
2
  6
Continuous
 62
     3
100
AcDbCircle
 10
91.0000000000001
 20
219.000015258789
 30
0.0
 40
15.99999999999977
100
AcDbArc
 50
334.9921667653158
 51
25.00783323468411
  0
ARC
  5
296
330
1F
100
AcDbEntity
  8
1
  6
Continuous
 62
     3
100
AcDbCircle
 10
189.486672710241
 20
80.01219330882
 30
0.0
 40
15.0
100
AcDbArc
 50
0.0
 51
6.61866961833724
  0
ARC
  5
297
330
1F
100
AcDbEntity
  8
2
  6
Continuous
 62
     3
100
AcDbCircle
 10
199.448904863033
 20
149.617965082325
 30
0.0
 40
7.0000000000006
100
AcDbArc
 50
69.1510063995188
 51
119.8171550163901
  0
ARC
  5
298
330
1F
100
AcDbEntity
  8
2
  6
Continuous
 62
     3
100
AcDbCircle
 10
91.4115125476115
 20
236.98641474008
 30
0.0
 40
4.999999999999583
100
AcDbArc
 50
316.0772131744872
 51
336.5917585808795
  0
ARC
  5
299
330
1F
100
AcDbEntity
  8
2
  6
Continuous
 62
     3
100
AcDbCircle
 10
91.4115125476115
 20
201.013615777498
 30
0.0
 40
4.999999999999998
100
AcDbArc
 50
23.40824141911901
 51
43.92278682550911
  0
CIRCLE
  5
29A
330
1F
100
AcDbEntity
  8
2
  6
Continuous
 62
     3
100
AcDbCircle
 10
57.0
 20
75.0
 30
0.0
 40
6.0
  0
CIRCLE
  5
29B
330
1F
100
AcDbEntity
  8
1
  6
Continuous
 62
     3
100
AcDbCircle
 10
-33.5135345952718
 20
54.0
 30
0.0
 40
10.7325127435056
  0
CIRCLE
  5
29C
330
1F
100
AcDbEntity
  8
1
  6
Continuous
 62
     3
100
AcDbCircle
 10
-33.513327289759
 20
54.0
 30
0.0
 40
9.5705127435056
  0
CIRCLE
  5
29D
330
1F
100
AcDbEntity
  8
1
  6
Continuous
 62
     3
100
AcDbCircle
 10
-33.513327289759
 20
54.0
 30
0.0
 40
14.5
  0
CIRCLE
  5
29E
330
1F
100
AcDbEntity
  8
1
  6
Continuous
 62
     3
100
AcDbCircle
 10
189.486672710241
 20
54.0
 30
0.0
 40
14.5
  0
CIRCLE
  5
29F
330
1F
100
AcDbEntity
  8
1
  6
Continuous
 62
     3
100
AcDbCircle
 10
189.486672710241
 20
54.0
 30
0.0
 40
9.570512743505986
  0
CIRCLE
  5
2A0
330
1F
100
AcDbEntity
  8
1
  6
Continuous
 62
     3
100
AcDbCircle
 10
189.486465404728
 20
54.0
 30
0.0
 40
10.73251274350599
  0
CIRCLE
  5
2A1
330
1F
100
AcDbEntity
  8
1
  6
Continuous
 62
     3
100
AcDbCircle
 10
66.0000038817904
 20
219.000015258789
 30
0.0
 40
10.0
  0
CIRCLE
  5
2A2
330
1F
100
AcDbEntity
  8
1
  6
Continuous
 62
     3
100
AcDbCircle
 10
66.0
 20
219.0
 30
0.0
 40
5.0
  0
CIRCLE
  5
2A3
330
1F
100
AcDbEntity
  8
1
  6
Continuous
 62
     3
100
AcDbCircle
 10
66.0
 20
219.0
 30
0.0
 40
6.0
  0
CIRCLE
  5
2A4
330
1F
100
AcDbEntity
  8
1
  6
Continuous
 62
     3
100
AcDbCircle
 10
66.0
 20
219.0
 30
0.0
 40
9.0
  0
SPLINE
  5
2A5
330
1F
100
AcDbEntity
  8
1
  6
Continuous
 62
     3
100
AcDbSpline
210
0.0
220
0.0
230
1.0
 70
     8
 71
     3
 72
   419
 73
   415
 74
   413
 42
0.0000000001
 43
0.0000000001
 44
0.00000001
 40
0.0
 40
0.0
 40
0.0
 40
0.0
 40
0.8473214795719989
 40
1.694642958732301
 40
1.863937943990826
 40
2.033231641453995
 40
2.202528376626996
 40
2.371825639890592
 40
2.537080632616938
 40
2.702335363972754
 40
2.867587016908005
 40
3.032838487860179
 40
3.185276070923347
 40
3.337713697088099
 40
3.490152080316647
 40
3.6425904286773
 40
3.799460804060325
 40
3.956331256717925
 40
4.113202481608999
 40
4.270073771944976
 40
4.430611156904823
 40
4.591148503700048
 40
4.751685365227238
 40
4.912222234266829
 40
5.072684985191386
 40
5.233147737813579
 40
5.393610605045364
 40
5.554073459494736
 40
5.712962046029747
 40
5.871850619994047
 40
6.030739279717655
 40
6.189627950328854
 40
6.348394321703964
 40
6.507160688853959
 40
6.665926960068803
 40
6.824693202019475
 40
6.979653714353135
 40
7.134614196653063
 40
7.289574624538726
 40
7.444535044718249
 40
7.599253201954282
 40
7.753971378505786
 40
7.90868946938069
 40
8.063407510745256
 40
8.213761255865355
 40
8.364114963190437
 40
8.514468770695158
 40
8.66482260046179
 40
8.815223518732338
 40
8.965624431994222
 40
9.116025150243733
 40
9.26642582546007
 40
9.412705233059224
 40
9.558984601436197
 40
9.705264006069225
 40
9.851543418140224
 40
9.997813538223497
 40
10.14408366856125
 40
10.29035372264002
 40
10.43662372688357
 40
10.57873746336245
 40
10.72085115343135
 40
10.86296480578898
 40
11.00507846494301
 40
11.14719601092189
 40
11.28931357077747
 40
11.43143107034085
 40
11.57354851376229
 40
11.71151100063524
 40
11.84947343345801
 40
11.98743583292609
 40
12.1253982468972
 40
12.26332386811622
 40
12.40124949637147
 40
12.53917512320518
 40
12.6771006923538
 40
12.81102324726227
 40
12.94494574693489
 40
13.07886798475983
 40
13.21279020845761
 40
13.3467152701516
 40
13.48064036985542
 40
13.61456562504603
 40
13.74849081565599
 40
13.87870769347243
 40
14.0089245046821
 40
14.13914115203955
 40
14.26935782188038
 40
14.39953759845321
 40
14.52971737523345
 40
14.65989735142603
 40
14.79007727582983
 40
14.91697078128129
 40
15.04386423121628
 40
15.17075698880457
 40
15.29764968969451
 40
15.42454374133486
 40
15.55143787226879
 40
15.67833259654314
 40
15.80522726104924
 40
15.92941672381079
 40
16.05360611664734
 40
16.177795121076
 40
16.30198415579791
 40
16.42614500591675
 40
16.55030584385045
 40
16.67446716619161
 40
16.79862846345469
 40
16.92074267615077
 40
17.04285685040515
 40
17.16496981912201
 40
17.28708267595162
 40
17.40919584587903
 40
17.53130914188093
 40
17.6534235816148
 40
17.77553798615279
 40
17.89640932349931
 40
18.01728060691763
 40
18.13815126898935
 40
18.25902196373584
 40
18.37988199988987
 40
18.50074201038806
 40
18.62160269869884
 40
18.7424634039796
 40
18.86287940571749
 40
18.98329540395055
 40
19.10370996862811
 40
19.22412438946354
 40
19.34453881029868
 40
19.46495337497596
 40
19.58536937320894
 40
19.70578537494676
 40
19.82664608022803
 40
19.94750676853926
 40
20.06836677903803
 40
20.1892268151926
 40
20.31009750994057
 40
20.43096817201369
 40
20.5518394554336
 40
20.67271079278162
 40
20.79482519731657
 40
20.91693963704742
 40
21.0390529330463
 40
21.16116610297075
 40
21.28327895979191
 40
21.40539192850029
 40
21.52750610274614
 40
21.6496203154337
 40
21.77378161271296
 40
21.89794293507027
 40
22.02210377302022
 40
22.14626462315532
 40
22.2704536579218
 40
22.394642662395
 40
22.51883205527617
 40
22.64302151808235
 40
22.76991618250475
 40
22.89681090669539
 40
23.02370503754564
 40
23.15059908910213
 40
23.27749178976114
 40
23.40438454711868
 40
23.53127799682013
 40
23.65817150203782
 40
23.78835142686499
 40
23.91853140348091
 40
24.0487111806933
 40
24.17889095769911
 40
24.30910762872298
 40
24.43932427726255
 40
24.56954108964113
 40
24.69975796862699
 40
24.83368315713426
 40
24.9676084102224
 40
25.10153350787224
 40
25.23545856750923
 40
25.36938078558629
 40
25.50330301779523
 40
25.63722551161304
 40
25.7711480606578
 40
25.90907363917517
 40
26.04699927537825
 40
26.18492491371558
 40
26.32285054505611
 40
26.46081298653279
 40
26.59877541347187
 40
26.73673787229372
 40
26.87470038514106
 40
27.01681778537539
 40
27.15893524176864
 40
27.30105276207284
 40
27.44317026859072
 40
27.58528382094695
 40
27.72739736651758
 40
27.86951094122756
 40
28.01162456181171
 40
28.15790555247847
 40
28.30418659352433
 40
28.45046772296117
 40
28.5967488436462
 40
28.74306123684086
 40
28.88937362130191
 40
29.03568598149977
 40
29.18199838154851
 40
29.33237699136452
 40
29.48275564421618
 40
29.63313443239891
 40
29.78351321833756
 40
29.93388779336459
 40
30.0842623549581
 40
30.23463685314399
 40
30.38501138558876
 40
30.53922539048223
 40
30.69343943391362
 40
30.84765358237003
 40
31.00186772298376
 40
31.15610564538195
 40
31.31034356281087
 40
31.46458143780159
 40
31.61881934008808
 40
31.77658685330181
 40
31.93435439668482
 40
32.09212208062523
 40
32.24988976735099
 40
32.40765376238992
 40
32.56541774374269
 40
32.72318163505236
 40
32.88094554980754
 40
33.04182887543193
 40
33.20271222786292
 40
33.36359567472447
 40
33.52447911555143
 40
33.68537886030526
 40
33.84627860256407
 40
34.00717829763736
 40
34.16807800959889
 40
34.33163180664732
 40
34.49518562286224
 40
34.6587395645994
 40
34.82229351144645
 40
34.98584478224973
 40
35.14939604117389
 40
35.31294720615698
 40
35.47649838524842
 40
35.64216580885265
 40
35.80783324906296
 40
35.97350076745364
 40
36.13916828169133
 40
36.30484522887542
 40
36.47052217537991
 40
36.63619907203137
 40
36.80187597678584
 40
36.96910187864966
 40
37.13632779046344
 40
37.30355381175443
 40
37.47077983963228
 40
37.63800447295963
 40
37.80522909647559
 40
37.97245362561846
 40
38.13967816066321
 40
38.3078389371093
 40
38.47599972139194
 40
38.64416057001851
 40
38.81232141620134
 40
38.98048534324462
 40
39.14864927117041
 40
39.31681314410575
 40
39.48497701717885
 40
39.65345960710271
 40
39.82194219888426
 40
39.99042488944823
 40
40.15890758805545
 40
40.32739028666256
 40
40.4958729772265
 40
40.66435556900802
 40
40.83283815893188
 40
41.001002032005
 40
41.16916590494031
 40
41.33732983286613
 40
41.50549375990945
 40
41.67365460609225
 40
41.84181545471873
 40
42.00997623900146
 40
42.1781370154476
 40
42.34536155049231
 40
42.51258607963509
 40
42.67981070315111
 40
42.84703533647849
 40
43.01426136435634
 40
43.18148738564738
 40
43.3487132974611
 40
43.51593919932481
 40
43.68161610407932
 40
43.84729300073093
 40
44.01296994723536
 40
44.17864689441943
 40
44.34431440865703
 40
44.5099819270478
 40
44.67564936725846
 40
44.84131679086295
 40
45.00486796995463
 40
45.16841913493784
 40
45.33197039386197
 40
45.49552166466525
 40
45.65907561151236
 40
45.82262955324953
 40
45.98618336946457
 40
46.14973716651316
 40
46.31063687847442
 40
46.47153657354755
 40
46.63243631580647
 40
46.79333606056021
 40
46.95421950138637
 40
47.11510294824716
 40
47.27598630067742
 40
47.43686962630142
 40
47.5946335410576
 40
47.7523974323683
 40
47.91016141372201
 40
48.06792540876178
 40
48.22569309548994
 40
48.38346077943269
 40
48.54122832281816
 40
48.69899583603424
 40
48.85323373831583
 40
49.00747161330148
 40
49.16170953072552
 40
49.31594745311899
 40
49.4701615937198
 40
49.62437574216318
 40
49.77858978558099
 40
49.93280379046095
 40
50.08317832293008
 40
50.23355282114044
 40
50.38392738275811
 40
50.53430195780918
 40
50.68468074381418
 40
50.83505953206336
 40
50.98543818498249
 40
51.13581679486593
 40
51.28212919480014
 40
51.42844155488343
 40
51.57475393922682
 40
51.72106633230364
 40
51.8673474526618
 40
52.01362858177212
 40
52.15990962249787
 40
52.3061906128444
 40
52.44830423398182
 40
52.59041780924495
 40
52.73253135534642
 40
52.87464490823428
 40
53.01676241619756
 40
53.15887993794617
 40
53.30099739587901
 40
53.44311479765483
 40
53.58107730835371
 40
53.71903976502735
 40
53.85700218952457
 40
53.99496462855046
 40
54.13289025305329
 40
54.27081588456027
 40
54.4087415147502
 40
54.54666708726123
 40
54.68058964648978
 40
54.81451215048845
 40
54.94843439039192
 40
55.0823566161459
 40
55.21628169553475
 40
55.3502068129185
 40
55.48413209384444
 40
55.61805731036597
 40
55.74827332559035
 40
55.87848927414687
 40
56.00870503600299
 40
56.13892081972268
 40
56.26909793510413
 40
56.3992750510365
 40
56.52945242851804
 40
56.65962975526956
 40
56.78652498914222
 40
56.9134201672581
 40
57.0403144778049
 40
57.16720872863033
 40
57.29410053165667
 40
57.42099241329367
 40
57.54788539490421
 40
57.67477833427407
 40
57.79900684084814
 40
57.92323527859593
 40
58.04746217049478
 40
58.17168901387326
 40
58.29590227114189
 40
58.42011557340798
 40
58.5443310177447
 40
58.66854654363646
 40
58.7889664518631
 40
58.90938616293257
 40
59.02980399362013
 40
59.1502216379806
 40
59.26708038094846
 40
59.38393919251075
 40
59.50079515645631
 40
59.61765102212519
 40
59.74760578129215
 40
59.87756119899771
 40
60.00752813168264
 40
60.13749613439237
 40
60.27142008247223
 40
60.40534169938044
 40
60.53925283296214
 40
60.67317021755066
 40
61.36381725826699
 40
62.0544643121763
 40
62.0544643121763
 40
62.0544643121763
 40
62.0544643121763
 10
187.777822445355
 20
97.0668332601589
 30
0.0
 10
187.4964739394143
 20
97.04163319433947
 30
0.0
 10
186.9337769276698
 20
96.99123306271287
 30
0.0
 10
186.3182755484715
 20
96.9043219946357
 30
0.0
 10
185.9281635872083
 20
96.84049970406882
 30
0.0
 10
185.7613145885007
 20
96.81180793273477
 30
0.0
 10
185.5946859081495
 20
96.78186805488029
 30
0.0
 10
185.4296013197281
 20
96.75097052169862
 30
0.0
 10
185.2660534797894
 20
96.71920783015116
 30
0.0
 10
185.104061394389
 20
96.6865291282955
 30
0.0
 10
184.9423282670077
 20
96.65259684947273
 30
0.0
 10
184.7850545734631
 20
96.61824187039186
 30
0.0
 10
184.6322414718745
 20
96.58350903233385
 30
0.0
 10
184.4838727221206
 20
96.54851573265256
 30
0.0
 10
184.3357944241287
 20
96.51231190923598
 30
0.0
 10
184.1865857808415
 20
96.47453151084687
 30
0.0
 10
184.0362692326285
 20
96.43512957588692
 30
0.0
 10
183.8848597039101
 20
96.39409152975044
 30
0.0
 10
183.7337898177564
 20
96.3518193889494
 30
0.0
 10
183.5818884599709
 20
96.30800174920184
 30
0.0
 10
183.4291676722975
 20
96.2626334080765
 30
0.0
 10
183.2756502615921
 20
96.21567424304504
 30
0.0
 10
183.122521006919
 20
96.16746486698756
 30
0.0
 10
182.9698169767608
 20
96.11800560521061
 30
0.0
 10
182.8175516351719
 20
96.06728988564431
 30
0.0
 10
182.6657385779775
 20
96.01531194342496
 30
0.0
 10
182.5143684739678
 20
95.96205762278387
 30
0.0
 10
182.3639492027124
 20
95.90769900198575
 30
0.0
 10
182.2144900553346
 20
95.85224463508737
 30
0.0
 10
182.0659998492691
 20
95.79570380514757
 30
0.0
 10
181.9180010670882
 20
95.73788871087442
 30
0.0
 10
181.7705462587192
 20
95.67880935748119
 30
0.0
 10
181.6236499339012
 20
95.61846184961715
 30
0.0
 10
181.4773288928162
 20
95.55683747654462
 30
0.0
 10
181.3315630720359
 20
95.49391104373711
 30
0.0
 10
181.1875305947873
 20
95.43018627832669
 30
0.0
 10
181.0452334755087
 20
95.3656905122397
 30
0.0
 10
180.9046735707093
 20
95.30045003841886
 30
0.0
 10
180.7647140195777
 20
95.2339313543408
 30
0.0
 10
180.6254464047746
 20
95.16616018077238
 30
0.0
 10
180.4868889601285
 20
95.0971294712339
 30
0.0
 10
180.3490580685066
 20
95.02683680428883
 30
0.0
 10
180.2118992919594
 20
94.95524153551662
 30
0.0
 10
180.0767139309847
 20
94.88302464199458
 30
0.0
 10
179.9434973645287
 20
94.81022463321145
 30
0.0
 10
179.8122429921698
 20
94.73688149298343
 30
0.0
 10
179.681690819625
 20
94.6622954764582
 30
0.0
 10
179.551844120997
 20
94.58645669887156
 30
0.0
 10
179.4227202748898
 20
94.50936290020412
 30
0.0
 10
179.2943404884206
 20
94.43100620860329
 30
0.0
 10
179.16673957446
 20
94.35138750096338
 30
0.0
 10
179.0410974555622
 20
94.27123867570396
 30
0.0
 10
178.9174102536558
 20
94.19059356802966
 30
0.0
 10
178.7956727340779
 20
94.10948654889617
 30
0.0
 10
178.674755164223
 20
94.02716201679293
 30
0.0
 10
178.5546815017034
 20
93.9436167154337
 30
0.0
 10
178.4354735299372
 20
93.85884600663799
 30
0.0
 10
178.3171535480569
 20
93.7728454234872
 30
0.0
 10
178.1997418143598
 20
93.68560891880284
 30
0.0
 10
178.0843647734497
 20
93.59797054465359
 30
0.0
 10
177.9710147150782
 20
93.50996760416939
 30
0.0
 10
177.8596832517281
 20
93.42163661518047
 30
0.0
 10
177.7492991746203
 20
93.3321244790578
 30
0.0
 10
177.6398850113108
 20
93.24142722775959
 30
0.0
 10
177.5314647604735
 20
93.14954204128954
 30
0.0
 10
177.4240623693281
 20
93.05646709015083
 30
0.0
 10
177.3177031667366
 20
92.96220178918556
 30
0.0
 10
177.213437995855
 20
92.86767531388517
 30
0.0
 10
177.1112551488578
 20
92.77292736711092
 30
0.0
 10
177.0111422579591
 20
92.67799662408319
 30
0.0
 10
176.912108369631
 20
92.58194072393684
 30
0.0
 10
176.8141872247249
 20
92.48476804526021
 30
0.0
 10
176.7174039490512
 20
92.3864791083663
 30
0.0
 10
176.6217853174422
 20
92.28707370590963
 30
0.0
 10
176.527350354354
 20
92.18654306468991
 30
0.0
 10
176.4350290169364
 20
92.0858710743932
 30
0.0
 10
176.3448083368387
 20
91.9850965520966
 30
0.0
 10
176.2566757681115
 20
91.88425641361701
 30
0.0
 10
176.1697704036948
 20
91.78235679179915
 30
0.0
 10
176.0841212472884
 20
91.67939780945775
 30
0.0
 10
175.9997584435163
 20
91.57538087519984
 30
0.0
 10
175.9167057371679
 20
91.47031357078811
 30
0.0
 10
175.8349877984213
 20
91.36420468780567
 30
0.0
 10
175.7553707201458
 20
91.25805155968055
 30
0.0
 10
175.6778349931388
 20
91.15189603395234
 30
0.0
 10
175.6023618913927
 20
91.04577755626998
 30
0.0
 10
175.528247827277
 20
90.93870550310447
 30
0.0
 10
175.4555254932262
 20
90.83069816552523
 30
0.0
 10
175.3842205976791
 20
90.7217644504272
 30
0.0
 10
175.3143617199183
 20
90.6119121909395
 30
0.0
 10
175.2459716559946
 20
90.50113937875994
 30
0.0
 10
175.1796432314967
 20
90.3903947850069
 30
0.0
 10
175.1153622122984
 20
90.27971462193351
 30
0.0
 10
175.0531175913519
 20
90.1691321013646
 30
0.0
 10
174.9923928720741
 20
90.05770789340643
 30
0.0
 10
174.9332220080423
 20
89.94545042220852
 30
0.0
 10
174.8756396443665
 20
89.83236931439917
 30
0.0
 10
174.8196616956916
 20
89.71848468346244
 30
0.0
 10
174.765304446954
 20
89.60381739236558
 30
0.0
 10
174.7129587614197
 20
89.48920835574876
 30
0.0
 10
174.6626002167566
 20
89.37469705163583
 30
0.0
 10
174.6142080987433
 20
89.26031958048847
 30
0.0
 10
174.5674393557992
 20
89.14526887785729
 30
0.0
 10
174.5223174973036
 20
89.02957251755618
 30
0.0
 10
174.478862329898
 20
88.91324985165842
 30
0.0
 10
174.437097878312
 20
88.79631922394573
 30
0.0
 10
174.3970456338978
 20
88.6787908636383
 30
0.0
 10
174.3589411502701
 20
88.56133356889812
 30
0.0
 10
174.3227759872319
 20
88.44397870171426
 30
0.0
 10
174.2885485261158
 20
88.32675511166948
 30
0.0
 10
174.2560899171558
 20
88.20902981295163
 30
0.0
 10
174.2254325744169
 20
88.09082282659142
 30
0.0
 10
174.1966092202636
 20
87.97215515315075
 30
0.0
 10
174.1696190340949
 20
87.85305668182012
 30
0.0
 10
174.1444612340827
 20
87.73355733495818
 30
0.0
 10
174.1212141735276
 20
87.61409339812725
 30
0.0
 10
174.0998553657779
 20
87.49469854270498
 30
0.0
 10
174.0803695317739
 20
87.37540379390904
 30
0.0
 10
174.062689987751
 20
87.25582821766855
 30
0.0
 10
174.0468234475661
 20
87.1360023703634
 30
0.0
 10
174.0327759682727
 20
87.01595322584721
 30
0.0
 10
174.0205587202139
 20
86.89570734249516
 30
0.0
 10
174.0101827213716
 20
86.77528833679224
 30
0.0
 10
174.0016698449785
 20
86.65487162729418
 30
0.0
 10
173.9950235552252
 20
86.53448591501362
 30
0.0
 10
173.9902560503851
 20
86.4141598978623
 30
0.0
 10
173.9873793253453
 20
86.29377427238941
 30
0.0
 10
173.986413643563
 20
86.17335854398814
 30
0.0
 10
173.9873793253453
 20
86.05294281558702
 30
0.0
 10
173.9902560503853
 20
85.93255719011428
 30
0.0
 10
173.9950235552257
 20
85.81223117296314
 30
0.0
 10
174.0016698449793
 20
85.6918454606825
 30
0.0
 10
174.0101827213725
 20
85.57142875118414
 30
0.0
 10
174.0205587202148
 20
85.45100974548072
 30
0.0
 10
174.0327759682737
 20
85.33076386212815
 30
0.0
 10
174.046823447567
 20
85.21071471761105
 30
0.0
 10
174.0626899877514
 20
85.09088887030472
 30
0.0
 10
174.0803695317738
 20
84.97131329406264
 30
0.0
 10
174.0998553657772
 20
84.85201854526505
 30
0.0
 10
174.1212141735259
 20
84.73262368984265
 30
0.0
 10
174.1444612340805
 20
84.61315975301312
 30
0.0
 10
174.1696190340923
 20
84.49366040615423
 30
0.0
 10
174.196609220261
 20
84.37456193482664
 30
0.0
 10
174.2254325744146
 20
84.25589426139102
 30
0.0
 10
174.2560899171543
 20
84.13768727503782
 30
0.0
 10
174.2885485261149
 20
84.019961976329
 30
0.0
 10
174.3227759872316
 20
83.90273838629314
 30
0.0
 10
174.3589411502725
 20
83.78538351911048
 30
0.0
 10
174.3970456339052
 20
83.6679262243636
 30
0.0
 10
174.4370978783251
 20
83.55039786404107
 30
0.0
 10
174.4788623299133
 20
83.43346723631187
 30
0.0
 10
174.522317497319
 20
83.31714457038683
 30
0.0
 10
174.5674393558117
 20
83.20144821004683
 30
0.0
 10
174.6142080987531
 20
83.0863975073665
 30
0.0
 10
174.6626002167632
 20
82.97202003616934
 30
0.0
 10
174.7129587614083
 20
82.8575087320465
 30
0.0
 10
174.7653044469107
 20
82.74289969546
 30
0.0
 10
174.8196616956108
 20
82.62823240443792
 30
0.0
 10
174.8756396442703
 20
82.51434777358682
 30
0.0
 10
174.9332220079407
 20
82.40126666592347
 30
0.0
 10
174.9923928719841
 20
82.28900919493708
 30
0.0
 10
175.0531175912712
 20
82.17758498724776
 30
0.0
 10
175.1153622122299
 20
82.06700246695277
 30
0.0
 10
175.1796432315382
 20
81.95632230396026
 30
0.0
 10
175.2459716562365
 20
81.84557771008937
 30
0.0
 10
175.3143617203918
 20
81.73480489755264
 30
0.0
 10
175.3842205982361
 20
81.62495263761014
 30
0.0
 10
175.4555254937894
 20
81.51601892170189
 30
0.0
 10
175.528247827713
 20
81.40801158291399
 30
0.0
 10
175.6023618917124
 20
81.30093952823567
 30
0.0
 10
175.6778349933472
 20
81.19482104903383
 30
0.0
 10
175.755370719729
 20
81.0886655227505
 30
0.0
 10
175.8349877969639
 20
80.9825123951075
 30
0.0
 10
175.9167057345195
 20
80.87640351383688
 30
0.0
 10
175.999758440462
 20
80.7713362117382
 30
0.0
 10
176.0841212441327
 20
80.66731928156591
 30
0.0
 10
176.1697704009504
 20
80.5643603053227
 30
0.0
 10
176.2566757657837
 20
80.46246069134301
 30
0.0
 10
176.3448083352855
 20
80.36162056121293
 30
0.0
 10
176.4350290195693
 20
80.26084604371358
 30
0.0
 10
176.5273503644128
 20
80.16017405441444
 30
0.0
 10
176.621785335218
 20
80.05964340730156
 30
0.0
 10
176.717403968231
 20
79.96023799257637
 30
0.0
 10
176.8141872399945
 20
79.86194902960828
 30
0.0
 10
176.9121083727305
 20
79.7647763079365
 30
0.0
 10
177.0111422487934
 20
79.66872035637526
 30
0.0
 10
177.1112551312393
 20
79.57378956588948
 30
0.0
 10
177.2134379643309
 20
79.47904159967722
 30
0.0
 10
177.3177031237773
 20
79.38451514157097
 30
0.0
 10
177.4240623145293
 20
79.29024989040693
 30
0.0
 10
177.5314647068698
 20
79.1971750027335
 30
0.0
 10
177.6398849511747
 20
79.10528990432098
 30
0.0
 10
177.7492990953459
 20
79.01459276195548
 30
0.0
 10
177.8596831690191
 20
78.92508079520027
 30
0.0
 10
177.9710146914193
 20
78.8367500612201
 30
0.0
 10
178.0843678257442
 20
78.74874523539867
 30
0.0
 10
178.1997510768851
 20
78.66110299021204
 30
0.0
 10
178.3171720702916
 20
78.57386051973964
 30
0.0
 10
178.4355012413571
 20
78.48785387920773
 30
0.0
 10
178.5547241397823
 20
78.4030725407339
 30
0.0
 10
178.6748184597691
 20
78.31951201367217
 30
0.0
 10
178.7957627591236
 20
78.23716813161984
 30
0.0
 10
178.9175272441808
 20
78.15604208784838
 30
0.0
 10
179.0412264410498
 20
78.07538856926706
 30
0.0
 10
179.1668654081656
 20
77.99524170369082
 30
0.0
 10
179.2944481468203
 20
77.91563557814497
 30
0.0
 10
179.4228106621842
 20
77.83729301027519
 30
0.0
 10
179.5519308513682
 20
77.76020835221473
 30
0.0
 10
179.6817881814295
 20
77.68437495613469
 30
0.0
 10
179.8123641751733
 20
77.60978877722692
 30
0.0
 10
179.9436419324581
 20
77.53644490674944
 30
0.0
 10
180.0767267399857
 20
77.46372528352408
 30
0.0
 10
180.2116211664289
 20
77.39166232028339
 30
0.0
 10
180.3483266344729
 20
77.32028797773415
 30
0.0
 10
180.4856958864532
 20
77.25019965828469
 30
0.0
 10
180.6237179285242
 20
77.1813880182117
 30
0.0
 10
180.7623751013568
 20
77.11384731761069
 30
0.0
 10
180.9016501780033
 20
77.04757183947068
 30
0.0
 10
181.0415190326903
 20
76.98255894547941
 30
0.0
 10
181.183036286521
 20
76.9183160440794
 30
0.0
 10
181.3262006839678
 20
76.85487029337698
 30
0.0
 10
181.4710100277193
 20
76.79224819139404
 30
0.0
 10
181.6163716213448
 20
76.73091885591629
 30
0.0
 10
181.7622675936895
 20
76.67087504789426
 30
0.0
 10
181.9086815042818
 20
76.61210889343516
 30
0.0
 10
182.0555990120715
 20
76.55461686410395
 30
0.0
 10
182.2030071674791
 20
76.49839491376953
 30
0.0
 10
182.3518667591707
 20
76.44307716793358
 30
0.0
 10
182.5021749054566
 20
76.38868914436821
 30
0.0
 10
182.6539277722908
 20
76.3352553940206
 30
0.0
 10
182.8061331828612
 20
76.28312463824932
 30
0.0
 10
182.9587821030368
 20
76.23229001155133
 30
0.0
 10
183.1118606020248
 20
76.18274644570606
 30
0.0
 10
183.2653549670853
 20
76.13448873487016
 30
0.0
 10
183.4192465094691
 20
76.08751311595898
 30
0.0
 10
183.5743701869957
 20
76.04156281338719
 30
0.0
 10
183.7307201300356
 20
75.99665681652476
 30
0.0
 10
183.888289809097
 20
75.95281314007148
 30
0.0
 10
184.0462154040193
 20
75.91026920674541
 30
0.0
 10
184.2044827777764
 20
75.86901837760993
 30
0.0
 10
184.3630788636237
 20
75.82905370491832
 30
0.0
 10
184.521992065014
 20
75.79037320637852
 30
0.0
 10
184.6812117946325
 20
75.75297467093301
 30
0.0
 10
184.8414147078408
 20
75.71670029187847
 30
0.0
 10
185.0025939223381
 20
75.68156737070129
 30
0.0
 10
185.1647419325275
 20
75.64759203325448
 30
0.0
 10
185.3271578158327
 20
75.61492114220218
 30
0.0
 10
185.4898330968244
 20
75.5835507070154
 30
0.0
 10
185.6527563417678
 20
75.55347739531524
 30
0.0
 10
185.8159162222763
 20
75.52469767127823
 30
0.0
 10
185.9792984520461
 20
75.49720845640415
 30
0.0
 10
186.1434017968178
 20
75.47092441988788
 30
0.0
 10
186.3082175393602
 20
75.44585589721628
 30
0.0
 10
186.4737366154626
 20
75.4220120983862
 30
0.0
 10
186.6394374397947
 20
75.39946576589612
 30
0.0
 10
186.8053085664875
 20
75.37821203915561
 30
0.0
 10
186.9713391317011
 20
75.35824596776271
 30
0.0
 10
187.1375189960848
 20
75.33956769563608
 30
0.0
 10
187.3038385322903
 20
75.32217731670133
 30
0.0
 10
187.4705983075427
 20
75.30604492341776
 30
0.0
 10
187.6377890983982
 20
75.29117908144217
 30
0.0
 10
187.805401396022
 20
75.27758713190175
 30
0.0
 10
187.9731140913821
 20
75.2652956054178
 30
0.0
 10
188.1409179956352
 20
75.25430332435586
 30
0.0
 10
188.3088029211362
 20
75.24460920356086
 30
0.0
 10
188.4767587121271
 20
75.236211934654
 30
0.0
 10
188.6447742476332
 20
75.22911023701575
 30
0.0
 10
188.812945649246
 20
75.2232991004991
 30
0.0
 10
188.9812630108396
 20
75.21878004226316
 30
0.0
 10
189.1497163915769
 20
75.21555338031526
 30
0.0
 10
189.3181896024296
 20
75.21361942159933
 30
0.0
 10
189.4866727102411
 20
75.21297561851391
 30
0.0
 10
189.6551558180524
 20
75.21361942159939
 30
0.0
 10
189.8236290289051
 20
75.21555338031533
 30
0.0
 10
189.9920824096423
 20
75.21878004226323
 30
0.0
 10
190.160399771236
 20
75.22329910049912
 30
0.0
 10
190.3285711728488
 20
75.22911023701575
 30
0.0
 10
190.4965867083548
 20
75.23621193465402
 30
0.0
 10
190.6645424993459
 20
75.24460920356086
 30
0.0
 10
190.8324274248467
 20
75.25430332435597
 30
0.0
 10
191.0002313290999
 20
75.26529560541792
 30
0.0
 10
191.16794402446
 20
75.27758713190183
 30
0.0
 10
191.3355563220838
 20
75.29117908144224
 30
0.0
 10
191.5027471129393
 20
75.30604492341774
 30
0.0
 10
191.6695068881917
 20
75.32217731670129
 30
0.0
 10
191.8358264243972
 20
75.33956769563599
 30
0.0
 10
192.0020062887809
 20
75.35824596776263
 30
0.0
 10
192.1680368539945
 20
75.37821203915564
 30
0.0
 10
192.3339079806873
 20
75.39946576589614
 30
0.0
 10
192.4996088050195
 20
75.42201209838618
 30
0.0
 10
192.6651278811219
 20
75.44585589721632
 30
0.0
 10
192.8299436236641
 20
75.47092441988784
 30
0.0
 10
192.9940469684358
 20
75.49720845640417
 30
0.0
 10
193.1574291982058
 20
75.52469767127825
 30
0.0
 10
193.3205890787142
 20
75.55347739531523
 30
0.0
 10
193.4835123236577
 20
75.5835507070154
 30
0.0
 10
193.6461876046493
 20
75.61492114220228
 30
0.0
 10
193.8086034879546
 20
75.64759203325454
 30
0.0
 10
193.9707514981442
 20
75.68156737070123
 30
0.0
 10
194.1319307126418
 20
75.71670029187837
 30
0.0
 10
194.2921336258503
 20
75.75297467093301
 30
0.0
 10
194.4513533554689
 20
75.79037320637852
 30
0.0
 10
194.6102665568593
 20
75.8290537049184
 30
0.0
 10
194.7688626427066
 20
75.86901837760993
 30
0.0
 10
194.9271300164637
 20
75.91026920674548
 30
0.0
 10
195.0850556113861
 20
75.95281314007158
 30
0.0
 10
195.2426252904475
 20
75.99665681652488
 30
0.0
 10
195.3989752334875
 20
76.0415628133872
 30
0.0
 10
195.554098911014
 20
76.08751311595904
 30
0.0
 10
195.7079904533977
 20
76.13448873487013
 30
0.0
 10
195.8614848184581
 20
76.18274644570596
 30
0.0
 10
196.0145633174459
 20
76.23229001155116
 30
0.0
 10
196.167212237621
 20
76.28312463824918
 30
0.0
 10
196.3194176481906
 20
76.33525539402052
 30
0.0
 10
196.4711705150241
 20
76.3886891443681
 30
0.0
 10
196.6214786613099
 20
76.44307716793358
 30
0.0
 10
196.7703382530018
 20
76.49839491376983
 30
0.0
 10
196.9177464084106
 20
76.55461686410455
 30
0.0
 10
197.064663916201
 20
76.61210889343589
 30
0.0
 10
197.2110778267948
 20
76.67087504789507
 30
0.0
 10
197.3569737991416
 20
76.73091885591707
 30
0.0
 10
197.5023353927698
 20
76.79224819139472
 30
0.0
 10
197.647144736524
 20
76.85487029337756
 30
0.0
 10
197.7903091339711
 20
76.91831604407906
 30
0.0
 10
197.9318263877998
 20
76.98255894547724
 30
0.0
 10
198.0716952424824
 20
77.0475718394664
 30
0.0
 10
198.2109703191238
 20
77.11384731760552
 30
0.0
 10
198.3496274919484
 20
77.18138801820622
 30
0.0
 10
198.4876495340078
 20
77.25019965827931
 30
0.0
 10
198.6250187859734
 20
77.32028797772885
 30
0.0
 10
198.7617242540019
 20
77.39166232027846
 30
0.0
 10
198.8966186804413
 20
77.46372528352458
 30
0.0
 10
199.0297034879769
 20
77.53644490675964
 30
0.0
 10
199.1609812452831
 20
77.60978877724885
 30
0.0
 10
199.2915572390518
 20
77.68437495616178
 30
0.0
 10
199.4214145691555
 20
77.7602083522447
 30
0.0
 10
199.5505347584014
 20
77.83729301030348
 30
0.0
 10
199.6788972738441
 20
77.91563557817244
 30
0.0
 10
199.8064800125792
 20
77.99524170371622
 30
0.0
 10
199.9321189797227
 20
78.07538856926145
 30
0.0
 10
200.0558181765648
 20
78.15604208778558
 30
0.0
 10
200.1775826615287
 20
78.23716813148886
 30
0.0
 10
200.2985269607615
 20
78.31951201351283
 30
0.0
 10
200.4186212805282
 20
78.40307254056319
 30
0.0
 10
200.5378441786235
 20
78.48785387905801
 30
0.0
 10
200.6561733492765
 20
78.57386051960543
 30
0.0
 10
200.7735943422706
 20
78.66110299009235
 30
0.0
 10
200.8889775932591
 20
78.74874523543139
 30
0.0
 10
201.002330727709
 20
78.83675006151847
 30
0.0
 10
201.1136622505558
 20
78.92508079581283
 30
0.0
 10
201.224046324826
 20
79.01459276268503
 30
0.0
 10
201.3334604700414
 20
79.10528990509859
 30
0.0
 10
201.4418807158994
 20
79.19717500344024
 30
0.0
 10
201.5492831102439
 20
79.29024989105446
 30
0.0
 10
201.6556423031397
 20
79.38451514207351
 30
0.0
 10
201.7599074638699
 20
79.47904159922601
 30
0.0
 10
201.8620902973166
 20
79.57378956370691
 30
0.0
 10
201.9622031784608
 20
79.66872035230944
 30
0.0
 10
202.0612370517621
 20
79.76477630336004
 30
0.0
 10
202.1591581784931
 20
79.8619490255534
 30
0.0
 10
202.2559414403398
 20
79.96023799076252
 30
0.0
 10
202.351560061552
 20
80.05964340773596
 30
0.0
 10
202.4459950215557
 20
80.1601740563618
 30
0.0
 10
202.5383163622217
 20
80.26084604863216
 30
0.0
 10
202.6285370504638
 20
80.36162056898087
 30
0.0
 10
202.7166696306807
 20
80.46246070214445
 30
0.0
 10
202.8035750088792
 20
80.56436031589801
 30
0.0
 10
202.8892241836664
 20
80.66731929241321
 30
0.0
 10
202.9735870096156
 20
80.7713362247269
 30
0.0
 10
203.0566397514939
 20
80.87640352692979
 30
0.0
 10
203.1383577441137
 20
80.98251239746187
 30
0.0
 10
203.2179747250968
 20
81.08866526041616
 30
0.0
 10
203.2955102207329
 20
81.1948202535262
 30
0.0
 10
203.370982907953
 20
81.30093795837494
 30
0.0
 10
203.4450964947503
 20
81.40800927454328
 30
0.0
 10
203.5178179007868
 20
81.51601545669544
 30
0.0
 10
203.5891213846893
 20
81.62494762316912
 30
0.0
 10
203.6589785364952
 20
81.7347978509528
 30
0.0
 10
203.7273670230011
 20
81.84556855787338
 30
0.0
 10
203.7936949035855
 20
81.95631212764674
 30
0.0
 10
203.8579764812624
 20
82.06699229590427
 30
0.0
 10
203.9202224612487
 20
82.17757596774234
 30
0.0
 10
203.9809484118529
 20
82.28900133960141
 30
0.0
 10
204.0401195691996
 20
82.40125898133026
 30
0.0
 10
204.0977011412686
 20
82.51433939030119
 30
0.0
 10
204.1536782945649
 20
82.6282220881661
 30
0.0
 10
204.2080362865161
 20
82.74288690786013
 30
0.0
 10
204.2603908803312
 20
82.85750489233928
 30
0.0
 10
204.3107667789243
 20
82.9720363677732
 30
0.0
 10
204.359178669387
 20
83.08644748079185
 30
0.0
 10
204.4059589003742
 20
83.20153485396276
 30
0.0
 10
204.4510803246673
 20
83.31727731860519
 30
0.0
 10
204.494517495061
 20
83.43365753778644
 30
0.0
 10
204.5362657676761
 20
83.55065015443353
 30
0.0
 10
204.5763216757728
 20
83.66823374023731
 30
0.0
 10
204.6142895470702
 20
83.78517927135616
 30
0.0
 10
204.6502244449672
 20
83.90144152176393
 30
0.0
 10
204.6841272420834
 20
84.0169941384444
 30
0.0
 10
204.7163125280182
 20
84.13303632334771
 30
0.0
 10
204.7464212526752
 20
84.24840852190852
 30
0.0
 10
204.7744560776056
 20
84.36308099752412
 30
0.0
 10
204.8004592929934
 20
84.47701375316733
 30
0.0
 10
204.8246930014922
 20
84.59133506428519
 30
0.0
 10
204.8479755662624
 20
84.71030540870936
 30
0.0
 10
204.8700425182897
 20
84.83394660073573
 30
0.0
 10
204.8907547414222
 20
84.96225011569894
 30
0.0
 10
204.9094621230008
 20
85.09086521346379
 30
0.0
 10
204.9264525681643
 20
85.22105163194482
 30
0.0
 10
204.9417831228031
 20
85.35277203087884
 30
0.0
 10
204.9552487742548
 20
85.48601627106035
 30
0.0
 10
204.9665904230342
 20
85.61946305231132
 30
0.0
 10
204.9880199151602
 20
85.93820944577745
 30
0.0
 10
204.9973130773617
 20
86.44449885686211
 30
0.0
 10
204.9502292596172
 20
86.90284045080234
 30
0.0
 10
204.92668735052
 20
87.1320112499613
 30
0.0
 11
187.777822445355
 21
97.0668332601589
 31
0.0
 11
186.9345517967869
 21
96.98407878591397
 31
0.0
 11
186.0952703559107
 21
96.86762986128484
 31
0.0
 11
185.9282003016059
 21
96.84027316213691
 31
0.0
 11
185.7613524300837
 21
96.81160011260832
 31
0.0
 11
185.5947228853
 21
96.78166719852685
 31
0.0
 11
185.4283132890561
 21
96.7505318548404
 31
0.0
 11
185.2660920515499
 21
96.71901229388281
 31
0.0
 11
185.1041033573294
 21
96.6863199525746
 31
0.0
 11
184.9423757777114
 21
96.65237442578939
 31
0.0
 11
184.780934207796
 21
96.61709457098391
 31
0.0
 11
184.6322880692284
 21
96.58330785437684
 31
0.0
 11
184.4839214174706
 21
96.54831404754019
 31
0.0
 11
184.335844754639
 21
96.51210959193037
 31
0.0
 11
184.1880702008542
 21
96.47469126347194
 31
0.0
 11
184.0363253195372
 21
96.43491934288843
 31
0.0
 11
183.8849166081819
 21
96.39388592915353
 31
0.0
 11
183.7338469997798
 21
96.35161827466395
 31
0.0
 11
183.5831201741535
 21
96.30814384806274
 31
0.0
 11
183.4292301031164
 21
96.26242625838518
 31
0.0
 11
183.2757147723994
 21
96.21546581810934
 31
0.0
 11
183.1225879373708
 21
96.16725527669857
 31
0.0
 11
182.9698627077176
 21
96.11778720064525
 31
0.0
 11
182.8176231158379
 21
96.06707821624802
 31
0.0
 11
182.665812445034
 21
96.01509922809761
 31
0.0
 11
182.5144446932942
 21
95.96184384814887
 31
0.0
 11
182.3635343410185
 21
95.90730585007347
 31
0.0
 11
182.2145695472934
 21
95.85203313382456
 31
0.0
 11
182.0660817842772
 21
95.79549143973193
 31
0.0
 11
181.9180854306799
 21
95.73767547731094
 31
0.0
 11
181.7705952680349
 21
95.6785801173278
 31
0.0
 11
181.6237395232843
 21
95.61824645414245
 31
0.0
 11
181.4774213935063
 21
95.55662045121936
 31
0.0
 11
181.3316585939502
 21
95.4936924356696
 31
0.0
 11
181.1864690834198
 21
95.4294528402858
 31
0.0
 11
181.0453304230058
 21
95.3654791041181
 31
0.0
 11
180.9047736086002
 21
95.30023699349334
 31
0.0
 11
180.7648172345039
 21
95.23371671417682
 31
0.0
 11
180.6254802445748
 21
95.16590863899616
 31
0.0
 11
180.4869980078353
 21
95.09691314431613
 31
0.0
 11
180.3491700565937
 21
95.02661968792118
 31
0.0
 11
180.2120143115026
 21
94.95502367383871
 31
0.0
 11
180.0755488824957
 21
94.88212059427659
 31
0.0
 11
179.9436116220683
 21
94.81001783439488
 31
0.0
 11
179.8123600586319
 21
94.7366743656884
 31
0.0
 11
179.681810669926
 21
94.66208800943154
 31
0.0
 11
179.5519803653135
 21
94.58625684084156
 31
0.0
 11
179.4228465200896
 21
94.50915375248367
 31
0.0
 11
179.2944702337016
 21
94.43079583135743
 31
0.0
 11
179.1668729851863
 21
94.35117599575538
 31
0.0
 11
179.0400763985025
 21
94.2702872529609
 31
0.0
 11
178.917543393292
 21
94.19039152265168
 31
0.0
 11
178.7958094025877
 21
94.10928363696867
 31
0.0
 11
178.6748953957431
 21
94.02695826318535
 31
0.0
 11
178.5548228287099
 21
93.94341040239951
 31
0.0
 11
178.4356211073584
 21
93.8586407282464
 31
0.0
 11
178.3173048970952
 21
93.77263941768675
 31
0.0
 11
178.1998970335984
 21
93.68540225640031
 31
0.0
 11
178.0834206925367
 21
93.59692527569743
 31
0.0
 11
177.9711687407225
 21
93.50977131187543
 31
0.0
 11
177.8598411362685
 21
93.42143974678379
 31
0.0
 11
177.7494609935846
 21
93.3319270980268
 31
0.0
 11
177.6400518227129
 21
93.24123021027796
 31
0.0
 11
177.531634570058
 21
93.14934388810855
 31
0.0
 11
177.4242362147019
 21
93.05626868149518
 31
0.0
 11
177.3178811364044
 21
92.962003199995
 31
0.0
 11
177.2125940898926
 21
92.86654637435389
 31
0.0
 11
177.1114308576121
 21
92.7727399341766
 31
0.0
 11
177.0113220807583
 21
92.67780908741324
 31
0.0
 11
176.9122923786418
 21
92.58175315700964
 31
0.0
 11
176.8143667725562
 21
92.48457186590113
 31
0.0
 11
176.7175966240596
 21
92.38629157617537
 31
0.0
 11
176.6219825932249
 21
92.286886163661
 31
0.0
 11
176.5275522979206
 21
92.18635558191487
 31
0.0
 11
176.4343338798789
 21
92.08470033530767
 31
0.0
 11
176.3450079905348
 21
91.98491989531011
 31
0.0
 11
176.2568802330883
 21
91.88407975307491
 31
0.0
 11
176.1699798595512
 21
91.7821803376539
 31
0.0
 11
176.0843363407569
 21
91.67922233801957
 31
0.0
 11
175.9999769070016
 21
91.5752059542802
 31
0.0
 11
175.9169282347521
 21
91.4701400208466
 31
0.0
 11
175.8352143158701
 21
91.36403248370239
 31
0.0
 11
175.7548596879278
 21
91.25689196639836
 31
0.0
 11
175.678057227067
 21
91.15173580978359
 31
0.0
 11
175.6025883596311
 21
91.04561857287293
 31
0.0
 11
175.5284786372704
 21
90.93854792189597
 31
0.0
 11
175.4557537980442
 21
90.83053181724503
 31
0.0
 11
175.3844604840726
 21
90.72160965415826
 31
0.0
 11
175.3146065618972
 21
90.61175882876645
 31
0.0
 11
175.246221442094
 21
90.50098743538801
 31
0.0
 11
175.1793352043067
 21
90.38930465286336
 31
0.0
 11
175.1156098842534
 21
90.27957295593917
 31
0.0
 11
175.0533707748162
 21
90.16899157914875
 31
0.0
 11
174.9926518541171
 21
90.05756902937762
 31
0.0
 11
174.9334870002895
 21
89.94531361698829
 31
0.0
 11
174.8759071092589
 21
89.83223551791245
 31
0.0
 11
174.8199319131849
 21
89.71835444885372
 31
0.0
 11
174.7655772719591
 21
89.60369040032117
 31
0.0
 11
174.7128596815668
 21
89.48826461661864
 31
0.0
 11
174.6628674328045
 21
89.37458173433332
 31
0.0
 11
174.6144786025043
 21
89.26020723369929
 31
0.0
 11
174.5677132638205
 21
89.14515980035647
 31
0.0
 11
174.5225913702724
 21
89.02945789428836
 31
0.0
 11
174.4791435753158
 21
88.91314707873087
 31
0.0
 11
174.4373833075641
 21
88.79621977775415
 31
0.0
 11
174.3973351712015
 21
88.67869454327496
 31
0.0
 11
174.3590243273
 21
88.56059159251755
 31
0.0
 11
174.3230654204461
 21
88.44389181548155
 31
0.0
 11
174.2888432045466
 21
88.32667103450498
 31
0.0
 11
174.2563901035125
 21
88.20894944191416
 31
0.0
 11
174.2257382689282
 21
88.09074616429587
 31
0.0
 11
174.1969147776155
 21
87.9720834801097
 31
0.0
 11
174.1699245279042
 21
87.8529903086809
 31
0.0
 11
174.1447665093752
 21
87.73349549500594
 31
0.0
 11
174.121440153042
 21
87.6136296996518
 31
0.0
 11
174.1001553573982
 21
87.49464718973401
 31
0.0
 11
174.0806705427377
 21
87.3753567494094
 31
0.0
 11
174.0629920740393
 21
87.2557858972165
 31
0.0
 11
174.047126111513
 21
87.13596104135758
 31
0.0
 11
174.0330809407118
 21
87.0159198754339
 31
0.0
 11
174.0208656196578
 21
86.89567875073368
 31
0.0
 11
174.0104915032312
 21
86.77526411836983
 31
0.0
 11
174.0019700790184
 21
86.65470419380802
 31
0.0
 11
173.9953353208836
 21
86.53447111408771
 31
0.0
 11
173.9905711624578
 21
86.41414939773958
 31
0.0
 11
173.9876978297597
 21
86.29376911968004
 31
0.0
 11
173.9867355373623
 21
86.17335854398806
 31
0.0
 11
173.9876978297598
 21
86.05294796829637
 31
0.0
 11
173.9905711624579
 21
85.93256769023711
 31
0.0
 11
173.9953353208841
 21
85.81224597388908
 31
0.0
 11
174.0019700790192
 21
85.69201289416885
 31
0.0
 11
174.0104915032321
 21
85.57145296960654
 31
0.0
 11
174.0208656196588
 21
85.45103833724224
 31
0.0
 11
174.0330809407127
 21
85.33079721254144
 31
0.0
 11
174.0471261115137
 21
85.21075604661719
 31
0.0
 11
174.0629920740397
 21
85.09093119075673
 31
0.0
 11
174.0806705427376
 21
84.97136033856233
 31
0.0
 11
174.1001553573974
 21
84.85206989823601
 31
0.0
 11
174.1214401530408
 21
84.73308738831662
 31
0.0
 11
174.1447665093731
 21
84.61322159296539
 31
0.0
 11
174.1699245279017
 21
84.49372677929343
 31
0.0
 11
174.196914777613
 21
84.37463360786774
 31
0.0
 11
174.2257382689266
 21
84.25597092368483
 31
0.0
 11
174.2563901035111
 21
84.13776764607532
 31
0.0
 11
174.2888432045456
 21
84.02004605349343
 31
0.0
 11
174.3230654204456
 21
83.90282527252589
 31
0.0
 11
174.3590243272998
 21
83.78612549549888
 31
0.0
 11
174.3973351712086
 21
83.66802254472684
 31
0.0
 11
174.4373833075766
 21
83.55049731023243
 31
0.0
 11
174.4791435753302
 21
83.4335700092391
 31
0.0
 11
174.5225913702834
 21
83.31725919366299
 31
0.0
 11
174.5677132638324
 21
83.20155728754743
 31
0.0
 11
174.614478602514
 21
83.08650985415561
 31
0.0
 11
174.6628674328116
 21
82.972135353472
 31
0.0
 11
174.7128596815736
 21
82.85845247113784
 31
0.0
 11
174.7655772719178
 21
82.74302668750535
 31
0.0
 11
174.8199319131078
 21
82.62836263904846
 31
0.0
 11
174.8759071091681
 21
82.51448157007626
 31
0.0
 11
174.933487000217
 21
82.40140347110385
 31
0.0
 11
174.9926518540306
 21
82.28914805896814
 31
0.0
 11
175.0533707747365
 21
82.17772550946349
 31
0.0
 11
175.1156098841828
 21
82.0671441329462
 31
0.0
 11
175.1793352042324
 21
81.95741243629018
 31
0.0
 11
175.2462214423219
 21
81.84572965345308
 31
0.0
 11
175.3146065623442
 21
81.73495825971234
 31
0.0
 11
175.3844604845935
 21
81.62510743385539
 31
0.0
 11
175.4557537984239
 21
81.51618527015872
 31
0.0
 11
175.5284786376855
 21
81.40816916410544
 31
0.0
 11
175.6025883599546
 21
81.30109851162742
 31
0.0
 11
175.6780572272984
 21
81.19498127321685
 31
0.0
 11
175.7548596882047
 21
81.08982511518721
 31
0.0
 11
175.8352143144956
 21
80.98268459927303
 31
0.0
 11
175.9169282322231
 21
80.87657706389334
 31
0.0
 11
175.9999769041219
 21
80.7715111328007
 31
0.0
 11
176.0843363385663
 21
80.6674947522687
 31
0.0
 11
176.1699798569417
 21
80.56453675959706
 31
0.0
 11
176.256880230881
 21
80.46263735189989
 31
0.0
 11
176.345007988989
 21
80.36179721801838
 31
0.0
 11
176.4343338790219
 21
80.26201678650759
 31
0.0
 11
176.5275523074213
 21
80.160361536687
 31
0.0
 11
176.6219826097561
 21
80.05983094869013
 31
0.0
 11
176.7175966416381
 21
79.96042552319426
 31
0.0
 11
176.8143667816801
 21
79.86214521093926
 31
0.0
 11
176.9122923811086
 21
79.7649638740748
 31
0.0
 11
177.0113220726436
 21
79.66890789330621
 31
0.0
 11
177.1114308419954
 21
79.57397700084734
 31
0.0
 11
177.2125940786779
 21
79.48017052721637
 31
0.0
 11
177.3178810960633
 21
79.384713733747
 31
0.0
 11
177.4242361610127
 21
79.29044830227137
 31
0.0
 11
177.5316345178417
 21
79.1973731577491
 31
0.0
 11
177.6400517805413
 21
79.10548690846448
 31
0.0
 11
177.7494609201743
 21
79.0147901503743
 31
0.0
 11
177.8598410665968
 21
78.92527767576654
 31
0.0
 11
177.9711687328169
 21
78.83694637411847
 31
0.0
 11
178.0834208393794
 21
78.74979279858758
 31
0.0
 11
178.1999063118303
 21
78.66130967625155
 31
0.0
 11
178.3173234036822
 21
78.57406651313546
 31
0.0
 11
178.4356487788144
 21
78.4880591039829
 31
0.0
 11
178.5548594303829
 21
78.40328300580964
 31
0.0
 11
178.6749587007678
 21
78.3197157774521
 31
0.0
 11
178.7958994631254
 21
78.23737110035006
 31
0.0
 11
178.9176604506761
 21
78.15624423268365
 31
0.0
 11
179.0402208541956
 21
78.07633011692704
 31
0.0
 11
179.1669988966136
 21
77.99545333255195
 31
0.0
 11
179.2945780628959
 21
77.91584619993071
 31
0.0
 11
179.4229371363538
 21
77.83750254545663
 31
0.0
 11
179.5520551190435
 21
77.760416062812
 31
0.0
 11
179.6819081683113
 21
77.68458270332948
 31
0.0
 11
179.8124811562194
 21
77.60999581706128
 31
0.0
 11
179.9437559132103
 21
77.53665123388272
 31
0.0
 11
180.075714706628
 21
77.4645445292864
 31
0.0
 11
180.2117348451004
 21
77.39187760947253
 31
0.0
 11
180.3484372273253
 21
77.32050233444329
 31
0.0
 11
180.4858034999017
 21
77.25041302896383
 31
0.0
 11
180.6238154884797
 21
77.18160392946406
 31
0.0
 11
180.7624769013902
 21
77.11405876475641
 31
0.0
 11
180.9017491548187
 21
77.04778226365865
 31
0.0
 11
181.0416152032225
 21
76.98276833756931
 31
0.0
 11
181.1820584101068
 21
76.91901070162037
 31
0.0
 11
181.3262955475857
 21
76.8550870252749
 31
0.0
 11
181.4711020174167
 21
76.79246367467617
 31
0.0
 11
181.6164608659324
 21
76.73113303588848
 31
0.0
 11
181.7623552472912
 21
76.6710874493501
 31
0.0
 11
181.9087656370916
 21
76.61232116744351
 31
0.0
 11
182.0556808188293
 21
76.55482853150404
 31
0.0
 11
182.2030866209626
 21
76.49860598354849
 31
0.0
 11
182.3509692508363
 21
76.44364981391755
 31
0.0
 11
182.5022527150038
 21
76.38890716205051
 31
0.0
 11
182.6540031604687
 21
76.33547257221733
 31
0.0
 11
182.8062062390046
 21
76.28334094689973
 31
0.0
 11
182.9588476759027
 21
76.23250716606442
 31
0.0
 11
183.1119290546884
 21
76.18296103270458
 31
0.0
 11
183.2654211800688
 21
76.13470241165949
 31
0.0
 11
183.4193104829097
 21
76.08772588192589
 31
0.0
 11
183.5735837172629
 21
76.04202592053082
 31
0.0
 11
183.7307816842306
 21
75.9968745782455
 31
0.0
 11
183.8883490800259
 21
75.95302977717691
 31
0.0
 11
184.0462725023685
 21
75.91048468893668
 31
0.0
 11
184.2045385715896
 21
75.86923247854088
 31
0.0
 11
184.3631318699333
 21
75.82926769527069
 31
0.0
 11
184.5220431884611
 21
75.79058685842044
 31
0.0
 11
184.681260990639
 21
75.75318799430703
 31
0.0
 11
184.8407740323023
 21
75.71706905576346
 31
0.0
 11
185.0026405045986
 21
75.6817853429482
 31
0.0
 11
185.1647865475879
 21
75.64780944724609
 31
0.0
 11
185.3272005315294
 21
75.61513798462238
 31
0.0
 11
185.4898708196595
 21
75.58376757446658
 31
0.0
 11
185.6527952686641
 21
75.55369308785771
 31
0.0
 11
185.8159532991855
 21
75.5249127529146
 31
0.0
 11
185.9793336642581
 21
75.49742292947408
 31
0.0
 11
186.142925350864
 21
75.47121993646812
 31
0.0
 11
186.3082496739717
 21
75.44607295964892
 31
0.0
 11
186.4737668637614
 21
75.42222834880964
 31
0.0
 11
186.6394658918029
 21
75.39968119149641
 31
0.0
 11
186.8053356779445
 21
75.37842658152209
 31
0.0
 11
186.9713641008179
 21
75.35846059069704
 31
0.0
 11
187.137542311424
 21
75.33978234051663
 31
0.0
 11
187.3038601361617
 21
75.32239198912339
 31
0.0
 11
187.4703076066744
 21
75.30628967000928
 31
0.0
 11
187.6378075333897
 21
75.29139600406262
 31
0.0
 11
187.805418103731
 21
75.27780387102885
 31
0.0
 11
187.9731291194526
 21
75.26551215770516
 31
0.0
 11
188.1409303034162
 21
75.2545197580869
 31
0.0
 11
188.3088145638837
 21
75.24482535527495
 31
0.0
 11
188.4767686908522
 21
75.23642786221605
 31
0.0
 11
188.6447825322117
 21
75.2293259418952
 31
0.0
 11
188.8128460884289
 21
75.22351825056506
 31
0.0
 11
188.9812679741994
 21
75.21899591699132
 31
0.0
 11
189.1497196576351
 21
75.21576883144935
 31
0.0
 11
189.3181912433073
 21
75.21383444762466
 31
0.0
 11
189.4866727102411
 21
75.2131902195458
 31
0.0
 11
189.6551541771747
 21
75.21383444762472
 31
0.0
 11
189.8236257628469
 21
75.21576883144942
 31
0.0
 11
189.9920774462826
 21
75.21899591699136
 31
0.0
 11
190.1604993320531
 21
75.22351825056508
 31
0.0
 11
190.3285628882703
 21
75.2293259418952
 31
0.0
 11
190.4965767296297
 21
75.23642786221606
 31
0.0
 11
190.6645308565983
 21
75.24482535527498
 31
0.0
 11
190.8324151170659
 21
75.254519758087
 31
0.0
 11
191.0002163010294
 21
75.26551215770525
 31
0.0
 11
191.1679273167509
 21
75.27780387102892
 31
0.0
 11
191.3355378870923
 21
75.29139600406268
 31
0.0
 11
191.5030378138076
 21
75.30628967000928
 31
0.0
 11
191.6694852843203
 21
75.32239198912335
 31
0.0
 11
191.8358031090579
 21
75.33978234051654
 31
0.0
 11
192.0019813196641
 21
75.35846059069696
 31
0.0
 11
192.1680097425375
 21
75.37842658152209
 31
0.0
 11
192.3338795286791
 21
75.39968119149643
 31
0.0
 11
192.4995785567207
 21
75.42222834880964
 31
0.0
 11
192.6650957465103
 21
75.44607295964892
 31
0.0
 11
192.8304200696179
 21
75.47121993646809
 31
0.0
 11
192.9940117562238
 21
75.49742292947408
 31
0.0
 11
193.1573921212966
 21
75.52491275291462
 31
0.0
 11
193.3205501518179
 21
75.55369308785771
 31
0.0
 11
193.4834746008225
 21
75.5837675744666
 31
0.0
 11
193.6461448889526
 21
75.61513798462244
 31
0.0
 11
193.8085588728942
 21
75.64780944724612
 31
0.0
 11
193.9707049158838
 21
75.68178534294819
 31
0.0
 11
194.1325713881803
 21
75.7170690557634
 31
0.0
 11
194.2920844298439
 21
75.75318799430703
 31
0.0
 11
194.4513022320219
 21
75.79058685842048
 31
0.0
 11
194.6102135505496
 21
75.82926769527073
 31
0.0
 11
194.7688068488933
 21
75.8692324785409
 31
0.0
 11
194.9270729181145
 21
75.91048468893672
 31
0.0
 11
195.0849963404571
 21
75.953029777177
 31
0.0
 11
195.2425637362525
 21
75.99687457824561
 31
0.0
 11
195.3997617032205
 21
76.04202592053092
 31
0.0
 11
195.5540349375734
 21
76.08772588192592
 31
0.0
 11
195.7079242404142
 21
76.13470241165945
 31
0.0
 11
195.8614163657946
 21
76.18296103270453
 31
0.0
 11
196.0144977445803
 21
76.23250716606435
 31
0.0
 11
196.1671391814775
 21
76.2833409468996
 31
0.0
 11
196.3193422600126
 21
76.3354725722172
 31
0.0
 11
196.4710927054767
 21
76.38890716205036
 31
0.0
 11
196.6223761696438
 21
76.44364981391739
 31
0.0
 11
196.7702587995185
 21
76.49860598354876
 31
0.0
 11
196.9176646016527
 21
76.55482853150464
 31
0.0
 11
197.0645797833914
 21
76.61232116744424
 31
0.0
 11
197.2109901731928
 21
76.67108744935067
 31
0.0
 11
197.3568845545541
 21
76.73113303588921
 31
0.0
 11
197.5022434030724
 21
76.79246367467685
 31
0.0
 11
197.647049872906
 21
76.85508702527554
 31
0.0
 11
197.7912870103875
 21
76.91901070162102
 31
0.0
 11
197.9317302172676
 21
76.98276833756726
 31
0.0
 11
198.0715962656668
 21
77.04778226365454
 31
0.0
 11
198.2108685190903
 21
77.11405876475152
 31
0.0
 11
198.3495299319951
 21
77.18160392946005
 31
0.0
 11
198.4875419205592
 21
77.25041302895869
 31
0.0
 11
198.6249081931211
 21
77.32050233443812
 31
0.0
 11
198.7616105753306
 21
77.39187760946747
 31
0.0
 11
198.897630713788
 21
77.46454452928066
 31
0.0
 11
199.0295895072251
 21
77.53665123389224
 31
0.0
 11
199.1608642642377
 21
77.60999581708215
 31
0.0
 11
199.2914372521709
 21
77.68458270335503
 31
0.0
 11
199.4212903014694
 21
77.76041606283285
 31
0.0
 11
199.5504082842326
 21
77.83750254548382
 31
0.0
 11
199.6787673577683
 21
77.91584619995777
 31
0.0
 11
199.8063465241309
 21
77.99545333257787
 31
0.0
 11
199.9331245666276
 21
78.07633011695509
 31
0.0
 11
200.0556849700671
 21
78.1562442326246
 31
0.0
 11
200.1774459575231
 21
78.2373711002264
 31
0.0
 11
200.2983867197561
 21
78.31971577730238
 31
0.0
 11
200.4184859899758
 21
78.40328300569111
 31
0.0
 11
200.5376966411614
 21
78.48805910383871
 31
0.0
 11
200.6560220158839
 21
78.57406651299962
 31
0.0
 11
200.7734391073297
 21
78.66130967612555
 31
0.0
 11
200.8899245793996
 21
78.7497927984338
 31
0.0
 11
201.0021766863276
 21
78.83694637439613
 31
0.0
 11
201.1135043530098
 21
78.92527767635164
 31
0.0
 11
201.2238845000338
 21
79.01479015106054
 31
0.0
 11
201.3332936404872
 21
79.10548690899401
 31
0.0
 11
201.4417109049602
 21
79.19737315842175
 31
0.0
 11
201.5491092637559
 21
79.29044830288018
 31
0.0
 11
201.6554643308594
 21
79.38471373424653
 31
0.0
 11
201.7607513504377
 21
79.48017052759222
 31
0.0
 11
201.8619145864481
 21
79.57397699878815
 31
0.0
 11
201.9620233544501
 21
79.66890788954854
 31
0.0
 11
202.0610530430306
 21
79.76496386985586
 31
0.0
 11
202.1589786373591
 21
79.8621452083802
 31
0.0
 11
202.2557487667561
 21
79.96042552152062
 31
0.0
 11
202.351362786961
 21
80.05983094877108
 31
0.0
 11
202.4457930790043
 21
80.16036153818503
 31
0.0
 11
202.5390114998807
 21
80.26201678675487
 31
0.0
 11
202.6283373973794
 21
80.36179722525054
 31
0.0
 11
202.7164651666577
 21
80.46263736289077
 31
0.0
 11
202.8033655533203
 21
80.56453676985004
 31
0.0
 11
202.8890090869715
 21
80.66749475980052
 31
0.0
 11
202.9733685475345
 21
80.7715111445811
 31
0.0
 11
203.0564172550344
 21
80.87657707268747
 31
0.0
 11
203.1381312308751
 21
80.98268459844972
 31
0.0
 11
203.2184859414273
 21
81.08982508618625
 31
0.0
 11
203.2952879863046
 21
81.19498047845684
 31
0.0
 11
203.3707564343744
 21
81.30109695504937
 31
0.0
 11
203.4448656655765
 21
81.4081668690607
 31
0.0
 11
203.5175898971628
 21
81.51618231457624
 31
0.0
 11
203.5888814979917
 21
81.62510241841521
 31
0.0
 11
203.6587337064005
 21
81.73495118032392
 31
0.0
 11
203.7271172837014
 21
81.84572047193267
 31
0.0
 11
203.7940022622119
 21
81.95740098075053
 31
0.0
 11
203.85772882744
 21
82.06713395329673
 31
0.0
 11
203.9199692896046
 21
82.17771655183103
 31
0.0
 11
203.9806893770933
 21
82.28914023434292
 31
0.0
 11
204.0398550758111
 21
82.40139695346382
 31
0.0
 11
204.097433759212
 21
82.51447314411904
 31
0.0
 11
204.1534082474438
 21
82.62835205477664
 31
0.0
 11
204.2077638710952
 21
82.7430137090447
 31
0.0
 11
204.2604849293168
 21
82.85843601227035
 31
0.0
 11
204.3104990874539
 21
82.97215191191265
 31
0.0
 11
204.3589069589734
 21
83.08656075213142
 31
0.0
 11
204.4056827460725
 21
83.20164483622699
 31
0.0
 11
204.4508014991314
 21
83.31738854766819
 31
0.0
 11
204.4942362300375
 21
83.43376018266746
 31
0.0
 11
204.5359834303172
 21
83.5507478560722
 31
0.0
 11
204.5760387385908
 21
83.66832782414022
 31
0.0
 11
204.6143965146162
 21
83.78647255695107
 31
0.0
 11
204.6499480845038
 21
83.90152489363244
 31
0.0
 11
204.6838411967348
 21
84.01707645682977
 31
0.0
 11
204.7160164093381
 21
84.13311614677004
 31
0.0
 11
204.7464146328545
 21
84.2496337723911
 31
0.0
 11
204.7741644613381
 21
84.36314990704676
 31
0.0
 11
204.8001646134995
 21
84.47707959557145
 31
0.0
 11
204.824394749004
 21
84.59139589730957
 31
0.0
 11
204.846835289895
 21
84.70607682626353
 31
0.0
 11
204.869688719608
 21
84.83400633881045
 31
0.0
 11
204.8904199076378
 21
84.96229752492198
 31
0.0
 11
204.9091473757753
 21
85.09090812140876
 31
0.0
 11
204.9259873817147
 21
85.21978052314132
 31
0.0
 11
204.9414470537497
 21
85.35280917573115
 31
0.0
 11
204.9548951350227
 21
85.48605387012978
 31
0.0
 11
204.96619704495
 21
85.61948721876921
 31
0.0
 11
204.9752197361684
 21
85.75310030547185
 31
0.0
 11
204.9834241695692
 21
86.44369861282772
 31
0.0
 11
204.92668735052
 21
87.1320112499613
 31
0.0
  0
SPLINE
  5
2A6
330
1F
100
AcDbEntity
  8
1
  6
Continuous
 62
     3
100
AcDbSpline
210
0.0
220
0.0
230
1.0
 70
     8
 71
     3
 72
   291
 73
   287
 74
   285
 42
0.0000000001
 43
0.0000000001
 44
0.00000001
 40
0.0
 40
0.0
 40
0.0
 40
0.0
 40
0.6104422740728103
 40
1.220884542156325
 40
1.344627690983137
 40
1.468366498164057
 40
1.59211343856868
 40
1.71586207634732
 40
1.836737686782497
 40
1.95761246185905
 40
2.078479577353347
 40
2.199346355359022
 40
2.313546566980458
 40
2.427746966062459
 40
2.541948462915827
 40
2.656149724049595
 40
2.77356475866071
 40
2.890980123826275
 40
3.008398709319796
 40
3.125817509170937
 40
3.249762314231025
 40
3.373707080675657
 40
3.497649906692142
 40
3.621592750313517
 40
3.745514866558692
 40
3.869436953780462
 40
3.993360025316331
 40
4.117283188980417
 40
4.244986884613363
 40
4.372690658574742
 40
4.500393732568397
 40
4.628096720002062
 40
4.755705978194486
 40
4.883315292382821
 40
5.010925415899272
 40
5.138535597252726
 40
5.269234946760487
 40
5.399934343500082
 40
5.530633349252034
 40
5.661332333344451
 40
5.791911812021486
 40
5.922491288077864
 40
6.053071008492938
 40
6.183650782318388
 40
6.31755966238137
 40
6.451468602567703
 40
6.585377434301062
 40
6.719286242227144
 40
6.853224431409322
 40
6.987162622137478
 40
7.121100973623635
 40
7.255039380916411
 40
7.392940285728014
 40
7.530841249397046
 40
7.668742244715669
 40
7.806643231091894
 40
7.944597440597406
 40
8.082551637667574
 40
8.220505877116322
 40
8.35846017094316
 40
8.500577796517922
 40
8.64269547760428
 40
8.784813213831104
 40
8.9269309364086
 40
9.069044568514794
 40
9.211158193823268
 40
9.353271851251833
 40
9.495385554569296
 40
9.641666491925603
 40
9.787947479650045
 40
9.934228554481114
 40
10.08050962051223
 40
10.22682199395205
 40
10.37313435871023
 40
10.51944669995374
 40
10.66575908104705
 40
10.81613770297974
 40
10.96651636793769
 40
11.11689516795347
 40
11.26727396573205
 40
11.4176485450817
 40
11.56802311099268
 40
11.71839761354052
 40
11.8687721503474
 40
12.02298615272617
 40
12.17720019364361
 40
12.33141433957497
 40
12.48562847766243
 40
12.63986639915097
 40
12.79410431567111
 40
12.94834218976338
 40
13.10258009115162
 40
13.26034760487662
 40
13.41811514877092
 40
13.57588283321863
 40
13.73365052045198
 40
13.89141451567476
 40
14.04917849721123
 40
14.20694238870463
 40
14.36470630364358
 40
14.52558962916774
 40
14.68647298149859
 40
14.84735642826
 40
15.00823986898668
 40
15.16913961370444
 40
15.33003935592732
 40
15.49093905096469
 40
15.65183876289013
 40
15.81539255995768
 40
15.97894637619175
 40
16.14250031794841
 40
16.30605426481513
 40
16.46960553562575
 40
16.63315679455707
 40
16.79670795954718
 40
16.96025913864563
 40
17.12592656224605
 40
17.29159400245259
 40
17.45726152083968
 40
17.6229290350737
 40
17.78860598225653
 40
17.95428292875956
 40
18.11995982540968
 40
18.28563673016285
 40
18.45286263202741
 40
18.62008854384207
 40
18.7873145651338
 40
18.95454059301219
 40
19.12176522633948
 40
19.28898984985541
 40
19.45621437899834
 40
19.62343891404338
 40
19.79159969048969
 40
19.95976047477246
 40
20.12792132339877
 40
20.29608216958123
 40
20.46424609662444
 40
20.63241002455022
 40
20.80057389748559
 40
20.96873777055866
 40
21.13722036048253
 40
21.30570295226405
 40
21.47418564282802
 40
21.64266834143524
 40
21.81115104004235
 40
21.9796337306063
 40
22.14811632238782
 40
22.31659891231171
 40
22.48476278538481
 40
22.65292665832024
 40
22.82109058624597
 40
22.98925451328914
 40
23.15741535947158
 40
23.3255762080978
 40
23.49373699238068
 40
23.66189776882714
 40
23.82912230387245
 40
23.99634683301572
 40
24.16357145653188
 40
24.33079608985932
 40
24.49802211773765
 40
24.66524813902925
 40
24.83247405084357
 40
24.9996999527081
 40
25.16537685746119
 40
25.33105375411132
 40
25.49673070061425
 40
25.66240764779678
 40
25.82807516203078
 40
25.993742680418
 40
26.15941012062497
 40
26.32507754422574
 40
26.48862872332424
 40
26.6521798883142
 40
26.8157311472451
 40
26.97928241805516
 40
27.14283636492147
 40
27.30639030667797
 40
27.46994412291227
 40
27.63349791998011
 40
27.79439763190578
 40
27.95529732694315
 40
28.11619706916598
 40
28.27709681388363
 40
28.43798025460994
 40
28.59886370137106
 40
28.75974705370169
 40
28.92063037922597
 40
29.07839429416526
 40
29.23615818565891
 40
29.39392216719565
 40
29.55168616241865
 40
29.70945384965189
 40
29.86722153409941
 40
30.02498907799328
 40
30.18275659171798
 40
30.33699449310641
 40
30.49123236719905
 40
30.64547028371939
 40
30.79970820520799
 40
30.95392234329545
 40
31.10813648922681
 40
31.26235053014432
 40
31.41656453252311
 40
31.56693906932993
 40
31.71731357187763
 40
31.86768813778863
 40
32.01806271713827
 40
32.16844151491687
 40
32.31882031493256
 40
32.46919897989061
 40
32.61957760182335
 40
32.76588998291663
 40
32.91220232416022
 40
33.05851468891838
 40
33.20482706235813
 40
33.3511081283892
 40
33.49738920322029
 40
33.64367019094477
 40
33.78995112830109
 40
33.93206483161856
 40
34.07417848904711
 40
34.21629211435561
 40
34.35840574646178
 40
34.50052346903926
 40
34.64264120526607
 40
34.78475888635244
 40
34.92687651192724
 40
35.06483080575406
 40
35.2027850452028
 40
35.34073924227298
 40
35.47869345177845
 40
35.61659443815474
 40
35.75449543347337
 40
35.89239639714243
 40
36.03029730195404
 40
36.1642357092468
 40
36.29817406073295
 40
36.43211225146106
 40
36.56605044064323
 40
36.69995924856935
 40
36.8338680803027
 40
36.967777020489
 40
37.10168590055197
 40
37.23226567437747
 40
37.36284539479259
 40
37.49342487084892
 40
37.62400434952598
 40
37.75470333361844
 40
37.88540233937051
 40
38.01610173611003
 40
38.14680108561779
 40
38.27441126697121
 40
38.40202139048767
 40
38.52963070467607
 40
38.65723996286857
 40
38.78494295030217
 40
38.91264602429572
 40
39.04034979825698
 40
39.16805349388986
 40
39.29197665755405
 40
39.41589972909005
 40
39.53982181631186
 40
39.66374393255703
 40
39.78768677617836
 40
39.91162960219479
 40
40.03557436863934
 40
40.15951917369934
 40
40.2769379735504
 40
40.39435655904384
 40
40.51177192420936
 40
40.62918695882038
 40
40.74338821995406
 40
40.85758971680727
 40
40.97179011588921
 40
41.08599032751051
 40
41.20685710551608
 40
41.32772422101022
 40
41.44859899608657
 40
41.56947460652154
 40
41.69322324430001
 40
41.81697018470445
 40
41.94070899188517
 40
42.06445214071184
 40
42.6748944087948
 40
43.28533668286708
 40
43.28533668286708
 40
43.28533668286708
 40
43.28533668286708
 10
204.954037030179
 20
85.4662517628047
 30
0.0
 10
204.9683431418162
 20
85.26316816366592
 30
0.0
 10
204.9969553649501
 20
84.85700096738087
 30
0.0
 10
204.9816927691467
 20
84.40818501812896
 30
0.0
 10
204.9597580241671
 20
84.12306999585866
 30
0.0
 10
204.9482834092389
 20
83.99985182832536
 30
0.0
 10
204.9350163237081
 20
83.87681707546064
 30
0.0
 10
204.9201570168204
 20
83.75492516149265
 30
0.0
 10
204.9038611479382
 20
83.63418355525481
 30
0.0
 10
204.8860653986589
 20
83.51462416466225
 30
0.0
 10
204.8665384324929
 20
83.39533785255807
 30
0.0
 10
204.8455700054562
 20
83.27855559621347
 30
0.0
 10
204.823180333124
 20
83.16430162517474
 30
0.0
 10
204.7994868725752
 20
83.05258114624193
 30
0.0
 10
204.7740601605319
 20
82.94124195060037
 30
0.0
 10
204.7466428903742
 20
82.82927251020887
 30
0.0
 10
204.717175193383
 20
82.71671717711779
 30
0.0
 10
204.6856751509669
 20
82.6036004154322
 30
0.0
 10
204.6524895426184
 20
82.49096563810517
 30
0.0
 10
204.6170484657902
 20
82.3767395817926
 30
0.0
 10
204.5793247962248
 20
82.26095633855343
 30
0.0
 10
204.5392351652822
 20
82.14367026809794
 30
0.0
 10
204.4974733273216
 20
82.02696990697488
 30
0.0
 10
204.454061502711
 20
81.9108813501039
 30
0.0
 10
204.409019394725
 20
81.79542304082776
 30
0.0
 10
204.3623662230709
 20
81.68061342547452
 30
0.0
 10
204.3141182995806
 20
81.56646448428495
 30
0.0
 10
204.2637876596615
 20
81.45184041442863
 30
0.0
 10
204.2113369882071
 20
81.33678402650493
 30
0.0
 10
204.1567238844901
 20
81.22134277370667
 30
0.0
 10
204.1004851121411
 20
81.10668497399902
 30
0.0
 10
204.042648759095
 20
80.99286001896621
 30
0.0
 10
203.9832299693732
 20
80.87988845556765
 30
0.0
 10
203.9222628248058
 20
80.76778029175347
 30
0.0
 10
203.8597650962704
 20
80.65651789523365
 30
0.0
 10
203.7952522694351
 20
80.54521962515071
 30
0.0
 10
203.7287141043037
 20
80.43391855075868
 30
0.0
 10
203.6601352033985
 20
80.322651927995
 30
0.0
 10
203.5900702384304
 20
80.21231526996927
 30
0.0
 10
203.5185669715716
 20
80.10295305275662
 30
0.0
 10
203.4456524774513
 20
79.99457475354079
 30
0.0
 10
203.3713564349372
 20
79.88718727394162
 30
0.0
 10
203.2956843678251
 20
79.78076491974099
 30
0.0
 10
203.2180091227023
 20
79.67441835445541
 30
0.0
 10
203.1383180531335
 20
79.56818307356075
 30
0.0
 10
203.0565986957217
 20
79.46209584090131
 30
0.0
 10
202.97354401832
 20
79.3570508495046
 30
0.0
 10
202.8891745118839
 20
79.25304648187209
 30
0.0
 10
202.8035160758973
 20
79.1500884539258
 30
0.0
 10
202.7165975146527
 20
79.04817917588686
 30
0.0
 10
202.6284537369423
 20
78.94732774744848
 30
0.0
 10
202.5382319116133
 20
78.84655110514305
 30
0.0
 10
202.4459189956463
 20
78.74588653578652
 30
0.0
 10
202.3515021313152
 20
78.64537272026573
 30
0.0
 10
202.2559018264664
 20
78.54598388321469
 30
0.0
 10
202.1591329578676
 20
78.44770764306946
 30
0.0
 10
202.0612218559086
 20
78.35054426139706
 30
0.0
 10
201.9621937095901
 20
78.25449421653984
 30
0.0
 10
201.862086360536
 20
78.15956953988268
 30
0.0
 10
201.7599070106992
 20
78.06482576639591
 30
0.0
 10
201.6556434243402
 20
77.97030142977387
 30
0.0
 10
201.5492838095051
 20
77.87603632304392
 30
0.0
 10
201.4418810675463
 20
77.78296150512166
 30
0.0
 10
201.3334605661925
 20
77.6910764465811
 30
0.0
 10
201.2240462406266
 20
77.60037932721832
 30
0.0
 10
201.1136620557136
 20
77.5108673697564
 30
0.0
 10
201.0023304515221
 20
77.4225366076189
 30
0.0
 10
200.8889772951655
 20
77.33453174943396
 30
0.0
 10
200.7735940788774
 20
77.24688947170512
 30
0.0
 10
200.6561731691189
 20
77.15964697884009
 30
0.0
 10
200.5378440843967
 20
77.07364031167546
 30
0.0
 10
200.4186212562007
 20
76.9888589485212
 30
0.0
 10
200.2985269808327
 20
76.90529841209948
 30
0.0
 10
200.1775827043148
 20
76.82295453100133
 30
0.0
 10
200.0558182339158
 20
76.7418284997968
 30
0.0
 10
199.932119038701
 20
76.66117499439805
 30
0.0
 10
199.8064800639429
 20
76.58102813753534
 30
0.0
 10
199.678897308868
 20
76.50142201560314
 30
0.0
 10
199.5505347777321
 20
76.42307945069192
 30
0.0
 10
199.4214145761897
 20
76.34599479514648
 30
0.0
 10
199.291557237731
 20
76.27016139993005
 30
0.0
 10
199.1609812391437
 20
76.19557522077872
 30
0.0
 10
199.0297034779899
 20
76.1222313483239
 30
0.0
 10
198.8966186691841
 20
76.04951172312666
 30
0.0
 10
198.7617242437312
 20
75.9774487585064
 30
0.0
 10
198.625018778835
 20
75.90607441536949
 30
0.0
 10
198.4876495299808
 20
75.83598609534043
 30
0.0
 10
198.3496274903895
 20
75.76717445474334
 30
0.0
 10
198.2109703192446
 20
75.69963375397973
 30
0.0
 10
198.0716952435644
 20
75.63335827591355
 30
0.0
 10
197.9318263896828
 20
75.56834538232698
 30
0.0
 10
197.7903091361406
 20
75.50410248132734
 30
0.0
 10
197.6471447385301
 20
75.44065673089158
 30
0.0
 10
197.502335394176
 20
75.37803462901735
 30
0.0
 10
197.3569737999574
 20
75.31670529363704
 30
0.0
 10
197.2110778271456
 20
75.2566614857007
 30
0.0
 10
197.0646639162279
 20
75.19789533126959
 30
0.0
 10
196.9177464082453
 20
75.14040330192823
 30
0.0
 10
196.7703382526661
 20
75.0841813515282
 30
0.0
 10
196.6214786609038
 20
75.0288636056269
 30
0.0
 10
196.4711705146401
 20
74.97447558201682
 30
0.0
 10
196.3194176479189
 20
74.92104183164989
 30
0.0
 10
196.1672122374607
 20
74.86891107586027
 30
0.0
 10
196.0145633173734
 20
74.81807644914608
 30
0.0
 10
195.8614848184475
 20
74.7685328832953
 30
0.0
 10
195.7079904534242
 20
74.72027517246104
 30
0.0
 10
195.5540989110746
 20
74.67329955356104
 30
0.0
 10
195.398975233563
 20
74.6273492510006
 30
0.0
 10
195.24262529052
 20
74.58244325414609
 30
0.0
 10
195.0850556114376
 20
74.53859957769659
 30
0.0
 10
194.9271300164943
 20
74.49605564437407
 30
0.0
 10
194.7688626427203
 20
74.45480481524164
 30
0.0
 10
194.6102665568609
 20
74.4148401425513
 30
0.0
 10
194.4513533554632
 20
74.37615964401147
 30
0.0
 10
194.292133625838
 20
74.33876110856426
 30
0.0
 10
194.1319307126265
 20
74.30248672950788
 30
0.0
 10
193.9707514981297
 20
74.2673538083294
 30
0.0
 10
193.8086034879443
 20
74.23337847088196
 30
0.0
 10
193.646187604643
 20
74.20070757982896
 30
0.0
 10
193.4835123236544
 20
74.1693371446416
 30
0.0
 10
193.3205890787131
 20
74.13926383294117
 30
0.0
 10
193.157429198206
 20
74.11048410890422
 30
0.0
 10
192.9940469684374
 20
74.08299489403029
 30
0.0
 10
192.8299436236664
 20
74.05671085751432
 30
0.0
 10
192.6651278811239
 20
74.0316423348429
 30
0.0
 10
192.4996088050207
 20
74.00779853601301
 30
0.0
 10
192.3339079806878
 20
73.98525220352312
 30
0.0
 10
192.1680368539945
 20
73.96399847678278
 30
0.0
 10
192.0020062887809
 20
73.94403240538988
 30
0.0
 10
191.8358264243971
 20
73.92535413326326
 30
0.0
 10
191.6695068881915
 20
73.90796375432848
 30
0.0
 10
191.5027471129389
 20
73.89183136104492
 30
0.0
 10
191.3355563220832
 20
73.87696551906924
 30
0.0
 10
191.1679440244594
 20
73.86337356952879
 30
0.0
 10
191.0002313290996
 20
73.85108204304483
 30
0.0
 10
190.8324274248465
 20
73.84008976198285
 30
0.0
 10
190.6645424993458
 20
73.8303956411878
 30
0.0
 10
190.4965867083549
 20
73.82199837228094
 30
0.0
 10
190.3285711728487
 20
73.81489667464265
 30
0.0
 10
190.1603997712361
 20
73.80908553812604
 30
0.0
 10
189.9920824096423
 20
73.80456647989004
 30
0.0
 10
189.8236290289052
 20
73.80133981794216
 30
0.0
 10
189.6551558180524
 20
73.79940585922625
 30
0.0
 10
189.486672710241
 20
73.79876205614076
 30
0.0
 10
189.3181896024296
 20
73.79940585922624
 30
0.0
 10
189.1497163915769
 20
73.80133981794216
 30
0.0
 10
188.9812630108397
 20
73.80456647989007
 30
0.0
 10
188.812945649246
 20
73.80908553812597
 30
0.0
 10
188.6447742476333
 20
73.81489667464268
 30
0.0
 10
188.4767587121272
 20
73.82199837228094
 30
0.0
 10
188.3088029211361
 20
73.83039564118778
 30
0.0
 10
188.1409179956355
 20
73.84008976198282
 30
0.0
 10
187.9731140913826
 20
73.85108204304481
 30
0.0
 10
187.8054013960226
 20
73.86337356952876
 30
0.0
 10
187.6377890983988
 20
73.87696551906919
 30
0.0
 10
187.4705983075429
 20
73.8918313610448
 30
0.0
 10
187.30383853229
 20
73.90796375432842
 30
0.0
 10
187.1375189960842
 20
73.92535413326314
 30
0.0
 10
186.9713391317003
 20
73.94403240538983
 30
0.0
 10
186.8053085664864
 20
73.96399847678276
 30
0.0
 10
186.6394374397932
 20
73.98525220352312
 30
0.0
 10
186.4737366154604
 20
74.00779853601304
 30
0.0
 10
186.3082175393574
 20
74.03164233484301
 30
0.0
 10
186.1434017968151
 20
74.05671085751435
 30
0.0
 10
185.979298452044
 20
74.08299489403038
 30
0.0
 10
185.8159162222755
 20
74.11048410890416
 30
0.0
 10
185.6527563417686
 20
74.13926383294123
 30
0.0
 10
185.4898330968275
 20
74.1693371446417
 30
0.0
 10
185.3271578158389
 20
74.20070757982911
 30
0.0
 10
185.1647419325373
 20
74.23337847088209
 30
0.0
 10
185.0025939223517
 20
74.26735380832953
 30
0.0
 10
184.8414147078546
 20
74.30248672950799
 30
0.0
 10
184.6812117946431
 20
74.33876110856433
 30
0.0
 10
184.5219920650179
 20
74.37615964401145
 30
0.0
 10
184.3630788636206
 20
74.41484014255127
 30
0.0
 10
184.2044827777618
 20
74.45480481524167
 30
0.0
 10
184.0462154039882
 20
74.49605564437407
 30
0.0
 10
183.888289809045
 20
74.53859957769666
 30
0.0
 10
183.7307201299624
 20
74.58244325414609
 30
0.0
 10
183.5743701869191
 20
74.62734925100057
 30
0.0
 10
183.4192465094075
 20
74.67329955356101
 30
0.0
 10
183.2653549670578
 20
74.7202751724611
 30
0.0
 10
183.1118606020344
 20
74.76853288329531
 30
0.0
 10
182.9587821031087
 20
74.81807644914605
 30
0.0
 10
182.8061331830218
 20
74.86891107586034
 30
0.0
 10
182.6539277725639
 20
74.92104183164994
 30
0.0
 10
182.5021749058428
 20
74.97447558201696
 30
0.0
 10
182.351866759579
 20
75.02886360562691
 30
0.0
 10
182.2030071678166
 20
75.08418135152823
 30
0.0
 10
182.055599012237
 20
75.14040330192833
 30
0.0
 10
181.908681504254
 20
75.1978953312697
 30
0.0
 10
181.7622675933364
 20
75.25666148570077
 30
0.0
 10
181.6163716205245
 20
75.31670529363716
 30
0.0
 10
181.4710100263061
 20
75.37803462901736
 30
0.0
 10
181.3262006819523
 20
75.44065673089173
 30
0.0
 10
181.1830362843421
 20
75.50410248132735
 30
0.0
 10
181.0415190307998
 20
75.56834538232701
 30
0.0
 10
180.9016501769179
 20
75.63335827591351
 30
0.0
 10
180.7623751012374
 20
75.69963375397961
 30
0.0
 10
180.6237179300925
 20
75.76717445474331
 30
0.0
 10
180.4856958905011
 20
75.8359860953404
 30
0.0
 10
180.348326641647
 20
75.90607441536956
 30
0.0
 10
180.2116211767507
 20
75.97744875850637
 30
0.0
 10
180.0767267512978
 20
76.04951172312671
 30
0.0
 10
179.9436419424921
 20
76.12223134832392
 30
0.0
 10
179.8123641813384
 20
76.19557522077868
 30
0.0
 10
179.681788182751
 20
76.27016139992995
 30
0.0
 10
179.5519308442923
 20
76.34599479514634
 30
0.0
 10
179.4228106427498
 20
76.42307945069177
 30
0.0
 10
179.2944481116141
 20
76.50142201560311
 30
0.0
 10
179.166865356539
 20
76.5810281375353
 30
0.0
 10
179.041226381781
 20
76.6611749943979
 30
0.0
 10
178.9175271865662
 20
76.74182849979685
 30
0.0
 10
178.7957627161672
 20
76.82295453100137
 30
0.0
 10
178.6748184396492
 20
76.90529841209946
 30
0.0
 10
178.5547241642814
 20
76.9888589485212
 30
0.0
 10
178.4355013360852
 20
77.0736403116754
 30
0.0
 10
178.3171722513632
 20
77.15964697884006
 30
0.0
 10
178.1997513416045
 20
77.24688947170507
 30
0.0
 10
178.0843681253165
 20
77.33453174943389
 30
0.0
 10
177.9710149689599
 20
77.4225366076188
 30
0.0
 10
177.8596833647685
 20
77.51086736975645
 30
0.0
 10
177.7492991798553
 20
77.60037932721828
 30
0.0
 10
177.6398848542895
 20
77.69107644658109
 30
0.0
 10
177.5314643529357
 20
77.78296150512162
 30
0.0
 10
177.4240616109769
 20
77.87603632304382
 30
0.0
 10
177.3177019961417
 20
77.9703014297738
 30
0.0
 10
177.2134384097828
 20
78.06482576639591
 30
0.0
 10
177.111259059946
 20
78.15956953988268
 30
0.0
 10
177.0111517108921
 20
78.25449421653985
 30
0.0
 10
176.9121235645734
 20
78.350544261397
 30
0.0
 10
176.8142124626144
 20
78.44770764306952
 30
0.0
 10
176.7174435940155
 20
78.5459838832146
 30
0.0
 10
176.6218432891669
 20
78.64537272026575
 30
0.0
 10
176.5274264248357
 20
78.74588653578654
 30
0.0
 10
176.4351135088686
 20
78.84655110514308
 30
0.0
 10
176.3448916835396
 20
78.94732774744853
 30
0.0
 10
176.2567479058293
 20
79.04817917588684
 30
0.0
 10
176.1698293445848
 20
79.15008845392586
 30
0.0
 10
176.084170908598
 20
79.25304648187206
 30
0.0
 10
175.999801402162
 20
79.3570508495046
 30
0.0
 10
175.9167467247602
 20
79.46209584090123
 30
0.0
 10
175.8350273673485
 20
79.56818307356076
 30
0.0
 10
175.7553362977798
 20
79.67441835445543
 30
0.0
 10
175.6776610526569
 20
79.78076491974099
 30
0.0
 10
175.6019889855446
 20
79.88718727394163
 30
0.0
 10
175.5276929430308
 20
79.99457475354083
 30
0.0
 10
175.4547784489104
 20
80.10295305275672
 30
0.0
 10
175.3832751820515
 20
80.21231526996935
 30
0.0
 10
175.3132102170835
 20
80.32265192799507
 30
0.0
 10
175.2446313161784
 20
80.43391855075888
 30
0.0
 10
175.178093151047
 20
80.54521962515088
 30
0.0
 10
175.1135803242115
 20
80.65651789523375
 30
0.0
 10
175.0510825956762
 20
80.76778029175358
 30
0.0
 10
174.9901154511088
 20
80.87988845556784
 30
0.0
 10
174.930696661387
 20
80.99286001896645
 30
0.0
 10
174.8728603083408
 20
81.10668497399922
 30
0.0
 10
174.816621535992
 20
81.2213427737068
 30
0.0
 10
174.7620084322755
 20
81.33678402650517
 30
0.0
 10
174.7095577608212
 20
81.45184041442894
 30
0.0
 10
174.6592271209018
 20
81.56646448428519
 30
0.0
 10
174.6109791974112
 20
81.68061342547473
 30
0.0
 10
174.564326025757
 20
81.79542304082794
 30
0.0
 10
174.519283917771
 20
81.91088135010412
 30
0.0
 10
174.4758720931604
 20
82.02696990697504
 30
0.0
 10
174.4341102551997
 20
82.14367026809805
 30
0.0
 10
174.3940206242572
 20
82.26095633855343
 30
0.0
 10
174.3562969546918
 20
82.37673958179253
 30
0.0
 10
174.3208558778637
 20
82.49096563810508
 30
0.0
 10
174.2876702695151
 20
82.60360041543197
 30
0.0
 10
174.2561702270991
 20
82.71671717711746
 30
0.0
 10
174.2267025301076
 20
82.82927251020848
 30
0.0
 10
174.1992852599503
 20
82.94124195059987
 30
0.0
 10
174.1738585479068
 20
83.05258114624134
 30
0.0
 10
174.1501650873579
 20
83.16430162517405
 30
0.0
 10
174.127775415026
 20
83.27855559621264
 30
0.0
 10
174.1068069879889
 20
83.39533785255708
 30
0.0
 10
174.0872800218232
 20
83.51462416466114
 30
0.0
 10
174.0694842725439
 20
83.6341835552535
 30
0.0
 10
174.0531884036616
 20
83.75492516149113
 30
0.0
 10
174.0383290967739
 20
83.87681707545894
 30
0.0
 10
174.0250620112431
 20
83.99985182832351
 30
0.0
 10
174.0135873963149
 20
84.12306999585658
 30
0.0
 10
173.9916526513354
 20
84.40818501812666
 30
0.0
 10
173.9763900555319
 20
84.85700096737813
 30
0.0
 10
174.0050022786658
 20
85.26316816366278
 30
0.0
 10
174.019308390303
 20
85.4662517628014
 30
0.0
 11
204.954037030179
 21
85.4662517628047
 31
0.0
 11
204.9863378060889
 21
84.8566646649665
 31
0.0
 11
204.9689527196828
 21
84.24647000632584
 31
0.0
 11
204.9594273534119
 21
84.12309401887698
 31
0.0
 11
204.947984968083
 21
83.99988539815367
 31
0.0
 11
204.9347317619533
 21
83.8768502089321
 31
0.0
 11
204.9197752337627
 21
83.75400873541214
 31
0.0
 11
204.9035897104699
 21
83.63422166585197
 31
0.0
 11
204.8857763927613
 21
83.51466667029753
 31
0.0
 11
204.8662326424086
 21
83.39539009493564
 31
0.0
 11
204.8448544974246
 21
83.27642895446314
 31
0.0
 11
204.8228918359686
 21
83.16436053859073
 31
0.0
 11
204.7991980883828
 21
83.05264510780417
 31
0.0
 11
204.7737708592727
 21
82.94131030685077
 31
0.0
 11
204.7466080029961
 21
82.83038642626846
 31
0.0
 11
204.7168817722086
 21
82.71679663114628
 31
0.0
 11
204.685394576567
 21
82.60368197918822
 31
0.0
 11
204.6522211474348
 21
82.49104695879534
 31
0.0
 11
204.6174369981177
 21
82.37889867519381
 31
0.0
 11
204.579042747993
 21
82.26105048361352
 31
0.0
 11
204.5389562145787
 21
82.14376717291739
 31
0.0
 11
204.4971978922256
 21
82.02707070066909
 31
0.0
 11
204.4537869120184
 21
81.91097886080767
 31
0.0
 11
204.4087504820037
 21
81.7955301238453
 31
0.0
 11
204.3621005790556
 21
81.68072389467487
 31
0.0
 11
204.3138556591832
 21
81.56657769296237
 31
0.0
 11
204.2640347488195
 21
81.45311039642698
 31
0.0
 11
204.211063702428
 21
81.33691098970516
 31
0.0
 11
204.1564528213166
 21
81.2214731036009
 31
0.0
 11
204.1002164576345
 21
81.10681907398467
 31
0.0
 11
204.0423682786486
 21
80.99296987026548
 31
0.0
 11
203.9829695179551
 21
80.88002780545123
 31
0.0
 11
203.9220078827956
 21
80.76792153396613
 31
0.0
 11
203.8595153472788
 21
80.65666045978216
 31
0.0
 11
203.7955241428639
 21
80.54625446292243
 31
0.0
 11
203.7284620444461
 21
80.43407159917956
 31
0.0
 11
203.6598874461397
 21
80.32280679443333
 31
0.0
 11
203.5898268719428
 21
80.21247209432612
 31
0.0
 11
203.5183060782105
 21
80.10307830790896
 31
0.0
 11
203.4454185203976
 21
79.99473439175469
 31
0.0
 11
203.3711271537101
 21
79.88734820827258
 31
0.0
 11
203.2954596152941
 21
79.78092693683804
 31
0.0
 11
203.2184433885617
 21
79.67547752644514
 31
0.0
 11
203.1380910019273
 21
79.56835571670561
 31
0.0
 11
203.0563761176593
 21
79.46226951613782
 31
0.0
 11
202.9733258989765
 21
79.35722554252234
 31
0.0
 11
202.888966942705
 21
79.25322969963926
 31
0.0
 11
202.8033071051916
 21
79.15026450766362
 31
0.0
 11
202.7163933548605
 21
79.04835553387372
 31
0.0
 11
202.6282542548639
 21
78.94750425202453
 31
0.0
 11
202.5389180568028
 21
78.8477117640101
 31
0.0
 11
202.4457171436146
 21
78.7460739298697
 31
0.0
 11
202.3513049016031
 21
78.64556022762368
 31
0.0
 11
202.2557091392633
 21
78.54617142175229
 31
0.0
 11
202.1589571919582
 21
78.44790778282002
 31
0.0
 11
202.0610377789335
 21
78.35073189860391
 31
0.0
 11
201.9620138560585
 21
78.25468179091152
 31
0.0
 11
201.8619106534217
 21
78.15975697327286
 31
0.0
 11
201.7607530031263
 21
78.06595656297532
 31
0.0
 11
201.6554654667759
 21
77.97050000642594
 31
0.0
 11
201.5491099728462
 21
77.87623472019426
 31
0.0
 11
201.4417112658973
 21
77.78315964997705
 31
0.0
 11
201.3332937088127
 21
77.69127341386725
 31
0.0
 11
201.2238844217853
 21
77.60057670862082
 31
0.0
 11
201.1135041639482
 21
77.51106424480628
 31
0.0
 11
201.0021764142365
 21
77.42273291530287
 31
0.0
 11
200.8899242488515
 21
77.33557928062827
 31
0.0
 11
200.7734388459398
 21
77.24709615487913
 31
0.0
 11
200.6560218357723
 21
77.15985297123154
 31
0.0
 11
200.5376965457605
 21
77.07384553784735
 31
0.0
 11
200.4184859724302
 21
76.98906942396215
 31
0.0
 11
200.2983867378459
 21
76.905502178741
 31
0.0
 11
200.1774459991937
 21
76.8231575018312
 31
0.0
 11
200.055685026742
 21
76.74203064568735
 31
0.0
 11
199.9331246342221
 21
76.66211654776608
 31
0.0
 11
199.8063465754803
 21
76.58123976645005
 31
0.0
 11
199.6787673928098
 21
76.50163263722379
 31
0.0
 11
199.5504083037622
 21
76.42328898557885
 31
0.0
 11
199.4212903066573
 21
76.34620250398221
 31
0.0
 11
199.2914372510813
 21
76.27036914672995
 31
0.0
 11
199.1608642582748
 21
76.19578226033246
 31
0.0
 11
199.0295894973356
 21
76.12243767527751
 31
0.0
 11
198.8976307005606
 21
76.0503309677284
 31
0.0
 11
198.7616105650809
 21
75.97766404764943
 31
0.0
 11
198.6249081859751
 21
75.90628877207799
 31
0.0
 11
198.4875419165039
 21
75.83619946606844
 31
0.0
 11
198.3495299308658
 21
75.76739036633391
 31
0.0
 11
198.2108685191725
 21
75.69984520120458
 31
0.0
 11
198.0715962667259
 21
75.6335687001584
 31
0.0
 11
197.9317302191365
 21
75.56855477444851
 31
0.0
 11
197.7912870129806
 21
75.50479713906813
 31
0.0
 11
197.6470498749106
 21
75.44087346279449
 31
0.0
 11
197.5022434044788
 21
75.37825011229701
 31
0.0
 11
197.3568845553741
 21
75.3169194736004
 31
0.0
 11
197.2109901734509
 21
75.25687388709952
 31
0.0
 11
197.0645797834235
 21
75.19810760526488
 31
0.0
 11
196.9176646014911
 21
75.1406149693191
 31
0.0
 11
196.7702587991847
 21
75.08439242130173
 31
0.0
 11
196.6223761691499
 21
75.02943625157658
 31
0.0
 11
196.4710927050932
 21
74.97469359969804
 31
0.0
 11
196.3193422597408
 21
74.92125900984675
 31
0.0
 11
196.1671391813166
 21
74.86912738451214
 31
0.0
 11
196.0144977445269
 21
74.81829360366874
 31
0.0
 11
195.8614163657832
 21
74.76874747029612
 31
0.0
 11
195.7079242404403
 21
74.72048884925196
 31
0.0
 11
195.5540349376337
 21
74.67351231952883
 31
0.0
 11
195.3997617033135
 21
74.62781235814961
 31
0.0
 11
195.2425637363251
 21
74.58266101586698
 31
0.0
 11
195.0849963405088
 21
74.53881621480201
 31
0.0
 11
194.9270729181452
 21
74.49627112656509
 31
0.0
 11
194.7688068489032
 21
74.4550189161711
 31
0.0
 11
194.6102135505514
 21
74.41505413290326
 31
0.0
 11
194.4513022320162
 21
74.3763732960531
 31
0.0
 11
194.2920844298315
 21
74.33897443193811
 31
0.0
 11
194.1325713881615
 21
74.30285549339206
 31
0.0
 11
193.9707049158693
 21
74.26757178057632
 31
0.0
 11
193.808558872884
 21
74.23359588487358
 31
0.0
 11
193.6461448889463
 21
74.2009244222492
 31
0.0
 11
193.4834746008199
 21
74.16955401209299
 31
0.0
 11
193.3205501518167
 21
74.13947952548371
 31
0.0
 11
193.1573921212968
 21
74.1106991905406
 31
0.0
 11
192.9940117562255
 21
74.08320936710028
 31
0.0
 11
192.8304200696209
 21
74.05700637409464
 31
0.0
 11
192.6650957465124
 21
74.03185939727557
 31
0.0
 11
192.4995785567218
 21
74.00801478643645
 31
0.0
 11
192.3338795286795
 21
73.9854676291234
 31
0.0
 11
192.1680097425374
 21
73.9642130191492
 31
0.0
 11
192.001981319664
 21
73.94424702832418
 31
0.0
 11
191.8358031090579
 21
73.9255687781438
 31
0.0
 11
191.6694852843202
 21
73.90817842675057
 31
0.0
 11
191.5030378138072
 21
73.89207610763641
 31
0.0
 11
191.3355378870917
 21
73.8771824416897
 31
0.0
 11
191.1679273167503
 21
73.86359030865587
 31
0.0
 11
191.0002163010289
 21
73.85129859533217
 31
0.0
 11
190.8324151170658
 21
73.8403061957139
 31
0.0
 11
190.6645308565983
 21
73.83061179290192
 31
0.0
 11
190.4965767296298
 21
73.82221429984298
 31
0.0
 11
190.3285628882703
 21
73.8151123795221
 31
0.0
 11
190.1604993320531
 21
73.80930468819197
 31
0.0
 11
189.9920774462826
 21
73.80478235461821
 31
0.0
 11
189.8236257628469
 21
73.80155526907626
 31
0.0
 11
189.6551541771747
 21
73.79962088525157
 31
0.0
 11
189.486672710241
 21
73.79897665717266
 31
0.0
 11
189.3181912433073
 21
73.79962088525157
 31
0.0
 11
189.1497196576352
 21
73.80155526907626
 31
0.0
 11
188.9812679741995
 21
73.80478235461821
 31
0.0
 11
188.8128460884289
 21
73.80930468819196
 31
0.0
 11
188.6447825322117
 21
73.8151123795221
 31
0.0
 11
188.4767686908522
 21
73.82221429984298
 31
0.0
 11
188.3088145638837
 21
73.83061179290189
 31
0.0
 11
188.1409303034163
 21
73.84030619571388
 31
0.0
 11
187.9731291194531
 21
73.85129859533215
 31
0.0
 11
187.8054181037319
 21
73.86359030865584
 31
0.0
 11
187.6378075333903
 21
73.87718244168963
 31
0.0
 11
187.4703076066747
 21
73.89207610763631
 31
0.0
 11
187.3038601361614
 21
73.90817842675048
 31
0.0
 11
187.1375423114233
 21
73.92556877814371
 31
0.0
 11
186.971364100817
 21
73.94424702832416
 31
0.0
 11
186.8053356779435
 21
73.96421301914918
 31
0.0
 11
186.6394658918014
 21
73.9854676291234
 31
0.0
 11
186.4737668637593
 21
74.00801478643649
 31
0.0
 11
186.308249673969
 21
74.03185939727564
 31
0.0
 11
186.1429253508606
 21
74.05700637409471
 31
0.0
 11
185.979333664256
 21
74.08320936710031
 31
0.0
 11
185.8159532991847
 21
74.1106991905406
 31
0.0
 11
185.6527952686649
 21
74.13947952548375
 31
0.0
 11
185.489870819662
 21
74.16955401209309
 31
0.0
 11
185.3272005315357
 21
74.20092442224932
 31
0.0
 11
185.1647865475978
 21
74.2335958848737
 31
0.0
 11
185.0026405046121
 21
74.26757178057645
 31
0.0
 11
184.8407740323195
 21
74.30285549339219
 31
0.0
 11
184.6812609906495
 21
74.3389744319382
 31
0.0
 11
184.5220431884649
 21
74.37637329605313
 31
0.0
 11
184.3631318699302
 21
74.41505413290325
 31
0.0
 11
184.2045385715789
 21
74.45501891617108
 31
0.0
 11
184.0462725023374
 21
74.49627112656506
 31
0.0
 11
183.8883490799739
 21
74.538816214802
 31
0.0
 11
183.7307816841574
 21
74.58266101586699
 31
0.0
 11
183.5735837171687
 21
74.62781235814961
 31
0.0
 11
183.4193104828482
 21
74.67351231952884
 31
0.0
 11
183.2654211800417
 21
74.72048884925199
 31
0.0
 11
183.1119290546987
 21
74.76874747029616
 31
0.0
 11
182.9588476759552
 21
74.81829360366878
 31
0.0
 11
182.8062062391659
 21
74.8691273845122
 31
0.0
 11
182.654003160742
 21
74.9212590098468
 31
0.0
 11
182.5022527153899
 21
74.9746935996981
 31
0.0
 11
182.350969251333
 21
75.02943625157658
 31
0.0
 11
182.2030866212978
 21
75.08439242130179
 31
0.0
 11
182.0556808189912
 21
75.14061496931919
 31
0.0
 11
181.9087656370585
 21
75.198107605265
 31
0.0
 11
181.7623552470309
 21
75.25687388709966
 31
0.0
 11
181.6164608651079
 21
75.3169194736005
 31
0.0
 11
181.4711020160033
 21
75.37825011229711
 31
0.0
 11
181.326295545572
 21
75.44087346279456
 31
0.0
 11
181.1820584075022
 21
75.5047971390681
 31
0.0
 11
181.0416152013461
 21
75.5685547744485
 31
0.0
 11
180.9017491537563
 21
75.63356870015838
 31
0.0
 11
180.7624769013094
 21
75.69984520120454
 31
0.0
 11
180.6238154896162
 21
75.76739036633388
 31
0.0
 11
180.485803503978
 21
75.83619946606841
 31
0.0
 11
180.3484372345068
 21
75.906288772078
 31
0.0
 11
180.2117348554009
 21
75.97766404764944
 31
0.0
 11
180.0757147199213
 21
76.05033096772846
 31
0.0
 11
179.9437559231463
 21
76.12243767527754
 31
0.0
 11
179.8124811622073
 21
76.1957822603324
 31
0.0
 11
179.6819081694007
 21
76.27036914672983
 31
0.0
 11
179.5520551138247
 21
76.34620250398208
 31
0.0
 11
179.4229371167198
 21
76.42328898557875
 31
0.0
 11
179.2945780276723
 21
76.50163263722371
 31
0.0
 11
179.1669988450016
 21
76.58123976645
 31
0.0
 11
179.0402207862598
 21
76.662116547766
 31
0.0
 11
178.91766039374
 21
76.74203064568736
 31
0.0
 11
178.7958994212883
 21
76.82315750183126
 31
0.0
 11
178.6749586826361
 21
76.90550217874102
 31
0.0
 11
178.5548594480518
 21
76.98906942396214
 31
0.0
 11
178.4356488747216
 21
77.07384553784729
 31
0.0
 11
178.3173235847097
 21
77.15985297123149
 31
0.0
 11
178.1999065745422
 21
77.24709615487909
 31
0.0
 11
178.0834211716304
 21
77.33557928062821
 31
0.0
 11
177.9711690062455
 21
77.42273291530283
 31
0.0
 11
177.8598412565338
 21
77.51106424480628
 31
0.0
 11
177.7494609986967
 21
77.60057670862079
 31
0.0
 11
177.6400517116693
 21
77.69127341386722
 31
0.0
 11
177.5316341545847
 21
77.783159649977
 31
0.0
 11
177.4242354476358
 21
77.87623472019419
 31
0.0
 11
177.3178799537061
 21
77.97050000642588
 31
0.0
 11
177.2125924173557
 21
78.06595656297532
 31
0.0
 11
177.1114347670604
 21
78.15975697327286
 31
0.0
 11
177.0113315644235
 21
78.25468179091152
 31
0.0
 11
176.9123076415485
 21
78.3507318986039
 31
0.0
 11
176.8143882285238
 21
78.44790778282001
 31
0.0
 11
176.7176362812187
 21
78.54617142175228
 31
0.0
 11
176.6220405188789
 21
78.64556022762366
 31
0.0
 11
176.5276282768673
 21
78.74607392986972
 31
0.0
 11
176.4344273636791
 21
78.84771176401011
 31
0.0
 11
176.345091165618
 21
78.94750425202454
 31
0.0
 11
176.2569520656215
 21
79.04835553387373
 31
0.0
 11
176.1700383152904
 21
79.15026450766364
 31
0.0
 11
176.084378477777
 21
79.25322969963925
 31
0.0
 11
176.0000195215054
 21
79.35722554252233
 31
0.0
 11
175.9169693028226
 21
79.4622695161378
 31
0.0
 11
175.8352544185548
 21
79.56835571670558
 31
0.0
 11
175.7549020319204
 21
79.67547752644512
 31
0.0
 11
175.6778858051879
 21
79.78092693683804
 31
0.0
 11
175.6022182667719
 21
79.88734820827261
 31
0.0
 11
175.5279269000844
 21
79.99473439175473
 31
0.0
 11
175.4550393422716
 21
80.10307830790903
 31
0.0
 11
175.3835185485391
 21
80.2124720943262
 31
0.0
 11
175.3134579743422
 21
80.3228067944335
 31
0.0
 11
175.2448833760359
 21
80.43407159917972
 31
0.0
 11
175.1778212776181
 21
80.54625446292259
 31
0.0
 11
175.1138300732032
 21
80.65666045978226
 31
0.0
 11
175.0513375376864
 21
80.76792153396626
 31
0.0
 11
174.9903759025269
 21
80.88002780545142
 31
0.0
 11
174.9309771418334
 21
80.99296987026574
 31
0.0
 11
174.8731289628475
 21
81.10681907398487
 31
0.0
 11
174.8168925991655
 21
81.22147310360107
 31
0.0
 11
174.7622817180545
 21
81.33691098970536
 31
0.0
 11
174.7093106716632
 21
81.4531103964272
 31
0.0
 11
174.6594897612993
 21
81.5665776929626
 31
0.0
 11
174.6112448414266
 21
81.68072389467511
 31
0.0
 11
174.5645949384783
 21
81.79553012384551
 31
0.0
 11
174.5195585084636
 21
81.9109788608079
 31
0.0
 11
174.4761475282564
 21
82.02707070066926
 31
0.0
 11
174.4343892059032
 21
82.1437671729175
 31
0.0
 11
174.394302672489
 21
82.26105048361354
 31
0.0
 11
174.3559084223643
 21
82.37889867519375
 31
0.0
 11
174.3211242730472
 21
82.4910469587952
 31
0.0
 11
174.287950843915
 21
82.603681979188
 31
0.0
 11
174.2564636482734
 21
82.716796631146
 31
0.0
 11
174.2267374174859
 21
82.83038642626806
 31
0.0
 11
174.1995745612093
 21
82.9413103068503
 31
0.0
 11
174.1741473320992
 21
83.05264510780353
 31
0.0
 11
174.1504535845133
 21
83.16436053859002
 31
0.0
 11
174.1284909230574
 21
83.2764289544623
 31
0.0
 11
174.1071127780734
 21
83.39539009493468
 31
0.0
 11
174.0875690277207
 21
83.51466667029642
 31
0.0
 11
174.0697557100121
 21
83.63422166585066
 31
0.0
 11
174.0535701867193
 21
83.75400873541062
 31
0.0
 11
174.0386136585288
 21
83.8768502089304
 31
0.0
 11
174.025360452399
 21
83.99988539815179
 31
0.0
 11
174.0139180670701
 21
84.12309401887491
 31
0.0
 11
174.0043927007992
 21
84.24647000632362
 31
0.0
 11
173.987007614393
 21
84.85666466496373
 31
0.0
 11
174.019308390303
 21
85.4662517628014
 31
0.0
  0
SPLINE
  5
2A7
330
1F
100
AcDbEntity
  8
1
  6
Continuous
 62
     3
100
AcDbSpline
210
0.0
220
0.0
230
1.0
 70
     8
 71
     3
 72
     9
 73
     5
 74
     3
 42
0.0000000001
 43
0.0000000001
 44
0.00000001
 40
0.0
 40
0.0
 40
0.0
 40
0.0
 40
0.0376541117553155
 40
0.0753082235106708
 40
0.0753082235106708
 40
0.0753082235106708
 40
0.0753082235106708
 10
204.935679460145
 20
85.2894750674934
 30
0.0
 10
204.9342257368368
 20
85.3019420130469
 30
0.0
 10
204.9313182902202
 20
85.3268759041539
 30
0.0
 10
204.9282309970868
 20
85.35178816604783
 30
0.0
 10
204.92668735052
 20
85.3642442969948
 30
0.0
 11
204.935679460145
 21
85.2894750674934
 31
0.0
 11
204.931273328591
 21
85.32687049685062
 31
0.0
 11
204.92668735052
 21
85.3642442969948
 31
0.0
  0
SPLINE
  5
2A8
330
1F
100
AcDbEntity
  8
1
  6
Continuous
 62
     3
100
AcDbSpline
210
0.0
220
0.0
230
1.0
 70
     8
 71
     3
 72
   115
 73
   111
 74
   109
 42
0.0000000001
 43
0.0000000001
 44
0.00000001
 40
0.0
 40
0.0
 40
0.0
 40
0.0
 40
0.702296469838945
 40
1.404592927010327
 40
1.541918783567998
 40
1.67923830984101
 40
1.816567456008013
 40
1.953898913307508
 40
2.087305912956387
 40
2.220711860577957
 40
2.354107209556396
 40
2.487502035495911
 40
2.608851403258906
 40
2.730200885933868
 40
2.851553463378295
 40
2.972906005351231
 40
3.097903502640697
 40
3.222901124263831
 40
3.347899917384583
 40
3.472898898386473
 40
3.603028857748825
 40
3.733158775758149
 40
3.863287129423674
 40
3.99341544033278
 40
4.123594289633738
 40
4.253773178572056
 40
4.383953195494225
 40
4.514133280602838
 40
4.648060038385929
 40
4.781986846987133
 40
4.915913057625032
 40
5.049839227659648
 40
5.183759488857149
 40
5.317679769529676
 40
5.451600483738524
 40
5.585521253268054
 40
5.723449609520248
 40
5.861378022289108
 40
5.999306376869314
 40
6.137234724572007
 40
6.275198052233558
 40
6.413161365432539
 40
6.551124728988517
 40
6.689088146565723
 40
6.831205554884088
 40
6.973323019343089
 40
7.115440539202577
 40
7.257558045168041
 40
7.399671689944089
 40
7.541785327942794
 40
7.683899005100716
 40
7.826012728667994
 40
7.972282741362475
 40
8.118552803888466
 40
8.26482294226458
 40
8.411093070391118
 40
8.557372485380672
 40
8.703651892927864
 40
8.849931264299805
 40
8.996210674894023
 40
9.146611348399443
 40
9.297012064938855
 40
9.447412976471618
 40
9.597813893012194
 40
9.74816772215154
 40
9.898521529029578
 40
10.04887523573738
 40
10.19922898024025
 40
10.35394702195362
 40
10.50866511317718
 40
10.66338329007426
 40
10.818101447656
 40
10.97306186796009
 40
11.12802229597017
 40
11.28298277839424
 40
11.43794329085206
 40
11.5967095327344
 40
11.75547580388101
 40
11.9142421709628
 40
12.07300854226957
 40
12.2318972128559
 40
12.39078587255475
 40
12.54967444649466
 40
12.70856303300527
 40
12.86902588746777
 40
13.02948875471258
 40
13.18995150734813
 40
13.35041425828595
 40
13.51095112733016
 40
13.67148798886205
 40
13.83202533566253
 40
13.99256272062768
 40
14.14943401096133
 40
14.30630523584982
 40
14.46317568850503
 40
14.62004606388564
 40
14.77248441224526
 40
14.92492279547282
 40
15.07736042163671
 40
15.22979800469896
 40
15.39504947565187
 40
15.5603011285877
 40
15.72555585994387
 40
15.89081085267058
 40
16.06010811593434
 40
16.22940485110753
 40
16.39869854857078
 40
16.56799353382914
 40
17.41531501298888
 40
18.26263649256074
 40
18.26263649256074
 40
18.26263649256074
 40
18.26263649256074
 10
204.92668735052
 20
87.1320112499613
 30
0.0
 10
204.892612183202
 20
87.36377590986345
 30
0.0
 10
204.8244618491806
 20
87.82730522548732
 30
0.0
 10
204.6901055815547
 20
88.3247020702492
 30
0.0
 10
204.5906069601114
 20
88.6347493082
 30
0.0
 10
204.5464227985896
 20
88.76478325676932
 30
0.0
 10
204.5002639549945
 20
88.89412388490769
 30
0.0
 10
204.452703473001
 20
89.02156560103515
 30
0.0
 10
204.4039487449691
 20
89.1471524848504
 30
0.0
 10
204.3539621758594
 20
89.27084100780704
 30
0.0
 10
204.3021803006629
 20
89.39378475782846
 30
0.0
 10
204.2501292404191
 20
89.51223841425025
 30
0.0
 10
204.1979233954704
 20
89.62622061489714
 30
0.0
 10
204.14579080709
 20
89.73580690126188
 30
0.0
 10
204.0920930870687
 20
89.84463586525047
 30
0.0
 10
204.0363101097593
 20
89.95377817702494
 30
0.0
 10
203.9784216986724
 20
90.06319518454347
 30
0.0
 10
203.918432886644
 20
90.17286199827922
 30
0.0
 10
203.8569695067296
 20
90.28170956131694
 30
0.0
 10
203.7932280122574
 20
90.39122269925358
 30
0.0
 10
203.7271982654362
 20
90.50137089232518
 30
0.0
 10
203.6588271726314
 20
90.6120959222182
 30
0.0
 10
203.5890078481119
 20
90.72191283629525
 30
0.0
 10
203.5177447423614
 20
90.83081788088698
 30
0.0
 10
203.4450505771366
 20
90.93879320321363
 30
0.0
 10
203.3709549228116
 20
91.04583247265505
 30
0.0
 10
203.2954970670282
 20
91.15191625823249
 30
0.0
 10
203.2179697691038
 20
91.2580481912884
 30
0.0
 10
203.1383580089839
 20
91.36419125087791
 30
0.0
 10
203.0566405513952
 20
91.47030227196889
 30
0.0
 10
202.9735897379144
 20
91.57537267053004
 30
0.0
 10
202.8892294959493
 20
91.67939179893992
 30
0.0
 10
202.8035821682079
 20
91.78235109275681
 30
0.0
 10
202.7166783162008
 20
91.8842495098431
 30
0.0
 10
202.6285466892998
 20
91.98508802687425
 30
0.0
 10
202.5383257438779
 20
92.08586196048071
 30
0.0
 10
202.4460033036891
 20
92.18653465118052
 30
0.0
 10
202.3515663241706
 20
92.28706719322771
 30
0.0
 10
202.2559457497972
 20
92.386474537044
 30
0.0
 10
202.1591609869379
 20
92.48476498779286
 30
0.0
 10
202.0612387731616
 20
92.58193874435241
 30
0.0
 10
201.9622042435379
 20
92.67799530379594
 30
0.0
 10
201.862090705883
 20
92.77292670916809
 30
0.0
 10
201.7599074384353
 20
92.86767509788818
 30
0.0
 10
201.6556420817256
 20
92.96220179524565
 30
0.0
 10
201.5492829343695
 20
93.05646710315429
 30
0.0
 10
201.4418805975005
 20
93.14954205836246
 30
0.0
 10
201.3334603904771
 20
93.24142724792937
 30
0.0
 10
201.224046256179
 20
93.33212449838592
 30
0.0
 10
201.1136621947165
 20
93.42163663180821
 30
0.0
 10
201.0023307421451
 20
93.50996761286663
 30
0.0
 10
200.8889806858521
 20
93.59797054660217
 30
0.0
 10
200.7736036402509
 20
93.68560891678034
 30
0.0
 10
200.6561918956967
 20
93.77284542079235
 30
0.0
 10
200.5378719031694
 20
93.85884600319753
 30
0.0
 10
200.4186639230149
 20
93.94361671111422
 30
0.0
 10
200.2985902549154
 20
94.02716201253818
 30
0.0
 10
200.1776726819396
 20
94.1094865452769
 30
0.0
 10
200.0559351599525
 20
94.19059356614093
 30
0.0
 10
199.9322479573313
 20
94.27123867532802
 30
0.0
 10
199.8066058391499
 20
94.35138750144557
 30
0.0
 10
199.6790049272873
 20
94.43100620920488
 30
0.0
 10
199.5506251428848
 20
94.50936290088514
 30
0.0
 10
199.4215012984165
 20
94.58645669964255
 30
0.0
 10
199.2916546009112
 20
94.6622954771818
 30
0.0
 10
199.1611024290154
 20
94.73688149358702
 30
0.0
 10
199.0298480571973
 20
94.8102246335124
 30
0.0
 10
198.8966314909378
 20
94.88302464203967
 30
0.0
 10
198.761446129856
 20
94.95524153541831
 30
0.0
 10
198.6242873529077
 20
95.02683680417373
 30
0.0
 10
198.4864564608898
 20
95.09712947110486
 30
0.0
 10
198.3478990159313
 20
95.16616018062571
 30
0.0
 10
198.2086314009119
 20
95.23393135420226
 30
0.0
 10
198.0686718496535
 20
95.30045003830286
 30
0.0
 10
197.9281119447427
 20
95.36569051217893
 30
0.0
 10
197.7858148254198
 20
95.43018627831319
 30
0.0
 10
197.6417823481875
 20
95.49391104375029
 30
0.0
 10
197.4960165274834
 20
95.55683747656204
 30
0.0
 10
197.3496954864738
 20
95.61846184963771
 30
0.0
 10
197.2027991617153
 20
95.67880935750522
 30
0.0
 10
197.0553443533884
 20
95.7378887108975
 30
0.0
 10
196.9073455712326
 20
95.79570380516711
 30
0.0
 10
196.7588553651897
 20
95.85224463509775
 30
0.0
 10
196.6093962178217
 20
95.90769900198823
 30
0.0
 10
196.4589769465641
 20
95.96205762278203
 30
0.0
 10
196.3076068425401
 20
96.01531194342235
 30
0.0
 10
196.1557937853315
 20
96.06728988564105
 30
0.0
 10
196.0035284437314
 20
96.11800560520659
 30
0.0
 10
195.8508244135654
 20
96.16746486698361
 30
0.0
 10
195.6976951588873
 20
96.21567424304172
 30
0.0
 10
195.5441777481771
 20
96.26263340807458
 30
0.0
 10
195.3914569605012
 20
96.30800174920125
 30
0.0
 10
195.2395556027158
 20
96.35181938894956
 30
0.0
 10
195.0884857165648
 20
96.3940915297509
 30
0.0
 10
194.9370761878488
 20
96.43512957588744
 30
0.0
 10
194.7867596396379
 20
96.47453151084756
 30
0.0
 10
194.6375509963522
 20
96.51231190923666
 30
0.0
 10
194.4894726983613
 20
96.54851573265324
 30
0.0
 10
194.3411039486083
 20
96.58350903233425
 30
0.0
 10
194.18829084702
 20
96.61824187039223
 30
0.0
 10
194.0310171534753
 20
96.65259684947279
 30
0.0
 10
193.8692840260933
 20
96.68652912829562
 30
0.0
 10
193.7072919406926
 20
96.71920783015122
 30
0.0
 10
193.5437441007535
 20
96.7509705216987
 30
0.0
 10
193.3786595123319
 20
96.7818680548803
 30
0.0
 10
193.2120308319806
 20
96.81180793273475
 30
0.0
 10
193.0451818332729
 20
96.84049970406882
 30
0.0
 10
192.6550698720101
 20
96.90432199463561
 30
0.0
 10
192.0395684928119
 20
96.99123306271292
 30
0.0
 10
191.4768714810676
 20
97.04163319433948
 30
0.0
 10
191.195522975127
 20
97.0668332601589
 30
0.0
 11
204.92668735052
 21
87.1320112499613
 31
0.0
 11
204.810901863197
 21
87.82469736392173
 31
0.0
 11
204.6322345825286
 21
88.50388681950392
 31
0.0
 11
204.5902353406424
 21
88.63463258257212
 31
0.0
 11
204.5460948454893
 21
88.76466438246538
 31
0.0
 11
204.4999546034961
 21
88.89401032347543
 31
0.0
 11
204.4519614123493
 21
89.02268270888716
 31
0.0
 11
204.4036641610753
 21
89.14704027027643
 31
0.0
 11
204.3536613528237
 21
89.27072077006424
 31
0.0
 11
204.3018659035377
 21
89.39364981692601
 31
0.0
 11
204.2481851236289
 21
89.5157667832158
 31
0.0
 11
204.197657024486
 21
89.62609620020638
 31
0.0
 11
204.1455304784831
 21
89.7356795937808
 31
0.0
 11
204.0918377748102
 21
89.84450763072307
 31
0.0
 11
204.0366131641316
 21
89.9525663268964
 31
0.0
 11
203.97816638641
 21
90.06305772250073
 31
0.0
 11
203.9181873551062
 21
90.17272504313591
 31
0.0
 11
203.8567332868261
 21
90.28157400166779
 31
0.0
 11
203.7938614208029
 21
90.38961044789899
 31
0.0
 11
203.7269545539941
 21
90.50122262240286
 31
0.0
 11
203.6585854751762
 21
90.61194508906028
 31
0.0
 11
203.5887686996597
 21
90.72175859589879
 31
0.0
 11
203.5175171014827
 21
90.83064655233699
 31
0.0
 11
203.4448186080449
 21
90.93863480103656
 31
0.0
 11
203.3707281446565
 21
91.04567286137076
 31
0.0
 11
203.2952749944405
 21
91.1517561255001
 31
0.0
 11
203.2184891962248
 21
91.25687889064288
 31
0.0
 11
203.1381319480744
 21
91.36401940174852
 31
0.0
 11
203.0564181826905
 21
91.47012901775429
 31
0.0
 11
202.9733712625841
 21
91.57519775219357
 31
0.0
 11
202.8890135224124
 21
91.67921693644946
 31
0.0
 11
202.8033725580678
 21
91.7821745082222
 31
0.0
 11
202.7164737999557
 21
91.88407272908
 31
0.0
 11
202.6283470108786
 21
91.98491134639082
 31
0.0
 11
202.5390219391715
 21
92.08469012206936
 31
0.0
 11
202.4458013773715
 21
92.18634718437255
 31
0.0
 11
202.3513690446557
 21
92.28687967457743
 31
0.0
 11
202.2557530778027
 21
92.3862870077072
 31
0.0
 11
202.1589810113064
 21
92.48456923522583
 31
0.0
 11
202.0610547646149
 21
92.5817511779332
 31
0.0
 11
201.9620244246012
 21
92.67780776305675
 31
0.0
 11
201.8619149961348
 21
92.77273927529487
 31
0.0
 11
201.7607511063717
 21
92.86654637522648
 31
0.0
 11
201.6554641122352
 21
92.96200320637455
 31
0.0
 11
201.5491090874043
 21
93.05626869527416
 31
0.0
 11
201.4417107870484
 21
93.14934390428098
 31
0.0
 11
201.3332935842487
 21
93.24123022338743
 31
0.0
 11
201.2238844361518
 21
93.33192711608088
 31
0.0
 11
201.113504309805
 21
93.42143976218688
 31
0.0
 11
201.002176716055
 21
93.50977131999711
 31
0.0
 11
200.8899247722595
 21
93.59692527309326
 31
0.0
 11
200.7734484209161
 21
93.68540225423173
 31
0.0
 11
200.6560405465654
 21
93.77263941507381
 31
0.0
 11
200.5377243258758
 21
93.85864072496096
 31
0.0
 11
200.4185225948466
 21
93.94341039938402
 31
0.0
 11
200.2984500235738
 21
94.0269582591868
 31
0.0
 11
200.1775360135742
 21
94.10928363351448
 31
0.0
 11
200.0558020203826
 21
94.1903915208658
 31
0.0
 11
199.9332690130857
 21
94.27028725345882
 31
0.0
 11
199.8064724284318
 21
94.35117599625403
 31
0.0
 11
199.6788751819948
 21
94.43079583195625
 31
0.0
 11
199.5504988976651
 21
94.50915375313578
 31
0.0
 11
199.4213650543832
 21
94.58625684137169
 31
0.0
 11
199.2915347505849
 21
94.66208801011177
 31
0.0
 11
199.1609853625385
 21
94.73667436625976
 31
0.0
 11
199.0297337996481
 21
94.81001783467784
 31
0.0
 11
198.8977965397075
 21
94.88212059416333
 31
0.0
 11
198.7613311103111
 21
94.95502367373656
 31
0.0
 11
198.6241753648205
 21
95.02661968780711
 31
0.0
 11
198.4863474131858
 21
95.09691314419204
 31
0.0
 11
198.3478651760699
 21
95.16590863889182
 31
0.0
 11
198.2085281859895
 21
95.2337167140461
 31
0.0
 11
198.0685718117651
 21
95.30023699338284
 31
0.0
 11
197.9280149972471
 21
95.36547910406038
 31
0.0
 11
197.7868763367291
 21
95.42945284029923
 31
0.0
 11
197.6416868262735
 21
95.49369243568334
 31
0.0
 11
197.4959240267932
 21
95.55662045123658
 31
0.0
 11
197.3496058970903
 21
95.61824645416218
 31
0.0
 11
197.2027501524124
 21
95.67858011734472
 31
0.0
 11
197.0552599897961
 21
95.73767547733266
 31
0.0
 11
196.9072636362241
 21
95.79549143975049
 31
0.0
 11
196.7587758732307
 21
95.85203313383444
 31
0.0
 11
196.6098110795273
 21
95.90730585007157
 31
0.0
 11
196.4589007272376
 21
95.96184384814693
 31
0.0
 11
196.3075329754838
 21
96.01509922809498
 31
0.0
 11
196.1557223046655
 21
96.06707821624488
 31
0.0
 11
196.003482712772
 21
96.11778720064243
 31
0.0
 11
195.8507574831137
 21
96.16725527669485
 31
0.0
 11
195.6976306480803
 21
96.2154658181061
 31
0.0
 11
195.5441153173583
 21
96.26242625838337
 31
0.0
 11
195.3902252463162
 21
96.30814384806291
 31
0.0
 11
195.2394984206923
 21
96.35161827466419
 31
0.0
 11
195.0884288122929
 21
96.39388592915394
 31
0.0
 11
194.9370201009402
 21
96.43491934288895
 31
0.0
 11
194.7852752196257
 21
96.47469126347247
 31
0.0
 11
194.637500665842
 21
96.51210959193104
 31
0.0
 11
194.4894240030114
 21
96.5483140475408
 31
0.0
 11
194.3410573512544
 21
96.58330785437728
 31
0.0
 11
194.1924112126877
 21
96.61709457098411
 31
0.0
 11
194.0309696427715
 21
96.65237442578952
 31
0.0
 11
193.8692420631529
 21
96.6863199525747
 31
0.0
 11
193.707253368932
 21
96.71901229388288
 31
0.0
 11
193.5450321314255
 21
96.75053185484047
 31
0.0
 11
193.3786225351814
 21
96.78166719852688
 31
0.0
 11
193.2119929903975
 21
96.8116001126083
 31
0.0
 11
193.0451451188752
 21
96.8402731621369
 31
0.0
 11
192.8780750645706
 21
96.86762986128481
 31
0.0
 11
192.038793623695
 21
96.98407878591398
 31
0.0
 11
191.195522975127
 21
97.0668332601589
 31
0.0
  0
SPLINE
  5
2A9
330
1F
100
AcDbEntity
  8
1
  6
Continuous
 62
     3
100
AcDbSpline
210
0.0
220
0.0
230
1.0
 70
     8
 71
     3
 72
   147
 73
   143
 74
   141
 42
0.0000000001
 43
0.0000000001
 44
0.00000001
 40
0.0
 40
0.0
 40
0.0
 40
0.0
 40
0.8473214795729922
 40
1.694642958733627
 40
1.863937943991424
 40
2.033231641454066
 40
2.202528376626669
 40
2.371825639889854
 40
2.537080632615194
 40
2.702335363970055
 40
2.867587016904666
 40
3.03283848785618
 40
3.185276070921103
 40
3.337713697087645
 40
3.49015208031798
 40
3.642590428680458
 40
3.799460804068485
 40
3.956331256731071
 40
4.113202481627048
 40
4.270073771968057
 40
4.430611156918358
 40
4.591148503703896
 40
4.751685365221034
 40
4.91222223425057
 40
5.072684985147821
 40
5.233147737742731
 40
5.393610604946826
 40
5.554073459368799
 40
5.712962045955535
 40
5.871850619971555
 40
6.030739279746817
 40
6.189627950409651
 40
6.348394321928032
 40
6.507160689221306
 40
6.665926960579757
 40
6.824693202674009
 40
6.97965371474249
 40
7.13461419677718
 40
7.289574624396491
 40
7.444535044309623
 40
7.599253200803133
 40
7.753971376612387
 40
7.908689466744555
 40
8.06340750736622
 40
8.213761253846158
 40
8.364114962531223
 40
8.514468771394572
 40
8.664822602520871
 40
8.815223524541162
 40
8.965624441551796
 40
9.11602516357957
 40
9.266425842575563
 40
9.412705243552239
 40
9.558984605306733
 40
9.705264003237469
 40
9.851543408598795
 40
9.997813510015924
 40
10.14408362169583
 40
10.29035365721786
 40
10.43662364289877
 40
10.57873741167058
 40
10.7208511340307
 40
10.86296481829469
 40
11.00507850939117
 40
11.14719614287521
 40
11.28931379018575
 40
11.43143137938579
 40
11.57354891252373
 40
11.71151125925637
 40
11.84947355194405
 40
11.9874358053162
 40
12.12539807280288
 40
12.26332328833156
 40
12.40124851124672
 40
12.53917374351509
 40
12.6770989182169
 40
12.8110220917704
 40
12.94494520998959
 40
13.07886804115416
 40
13.21279085809491
 40
13.34671752797136
 40
13.48064423497035
 40
13.61457116786871
 40
13.74849804129789
 40
13.87866170765285
 40
14.00882530438335
 40
14.13898865408341
 40
14.26915201021516
 40
14.39917220958152
 40
14.52919242375274
 40
14.65921261320528
 40
14.78923274228734
 40
14.91623008878216
 40
15.04322737564095
 40
15.17022475119127
 40
15.29722216597475
 40
15.42401651705819
 40
15.55081083868437
 40
15.67760534965286
 40
15.8043998359223
 40
15.93092730043929
 40
16.05745481007173
 40
16.18398145157204
 40
16.31050796360064
 40
16.4380148128191
 40
16.56552182969495
 40
16.69303047664231
 40
16.82053912600424
 40
16.94731780620274
 40
17.07409643118507
 40
17.20087409798424
 40
17.32765169555638
 40
17.45504299257618
 40
17.58243445336745
 40
17.70982472741541
 40
17.8372147322758
 40
17.95632421891143
 40
18.07543351871781
 40
18.19454476714048
 40
18.31365640920198
 40
18.43298181617453
 40
18.55230694210697
 40
18.67163241346513
 40
18.79095757979208
 40
18.89125226944445
 40
18.99154671865268
 40
19.09183283561571
 40
19.19211803962508
 40
19.29134609952571
 40
19.3905751524516
 40
19.48981016878683
 40
19.58904458964119
 40
19.66340198361367
 40
19.73775898966959
 40
19.81211247842763
 40
19.88646603698913
 40
19.95864450966181
 40
20.03082299768738
 40
20.10300150933659
 40
20.17517980101046
 40
20.39741016051173
 40
20.61964052001299
 40
20.61964052001299
 40
20.61964052001299
 40
20.61964052001299
 10
102.066833260159
 20
220.708865523675
 30
0.0
 10
102.0416331943397
 20
220.990214029616
 30
0.0
 10
101.9912330627134
 20
221.552911041361
 30
0.0
 10
101.9043219946358
 20
222.1684124205598
 30
0.0
 10
101.8404997040692
 20
222.5585243818222
 30
0.0
 10
101.8118079327353
 20
222.7253733805296
 30
0.0
 10
101.7818680548806
 20
222.8920020608802
 30
0.0
 10
101.7509705216989
 20
223.0570866493009
 30
0.0
 10
101.7192078301512
 20
223.2206344892388
 30
0.0
 10
101.6865291282954
 20
223.3826265746382
 30
0.0
 10
101.6525968494726
 20
223.5443597020189
 30
0.0
 10
101.6182418703918
 20
223.7016333955636
 30
0.0
 10
101.5835090323333
 20
223.8544464971531
 30
0.0
 10
101.5485157326514
 20
224.0028152469086
 30
0.0
 10
101.5123119092345
 20
224.1508935449023
 30
0.0
 10
101.4745315108451
 20
224.3001021881925
 30
0.0
 10
101.435129575885
 20
224.4504187364094
 30
0.0
 10
101.3940915297484
 20
224.601828265133
 30
0.0
 10
101.3518193889473
 20
224.7528981512918
 30
0.0
 10
101.3080017492012
 20
224.9047995090779
 30
0.0
 10
101.2626334080784
 20
225.0575202967472
 30
0.0
 10
101.2156742430503
 20
225.2110377074432
 30
0.0
 10
101.1674648669945
 20
225.3641669621065
 30
0.0
 10
101.1180056052188
 20
225.5168709922486
 30
0.0
 10
101.0672898856525
 20
225.6691363338146
 30
0.0
 10
101.0153119434334
 20
225.8209493909802
 30
0.0
 10
100.9620576227928
 20
225.9723194949609
 30
0.0
 10
100.9076990019873
 20
226.1227387662126
 30
0.0
 10
100.8522446350741
 20
226.2721979136118
 30
0.0
 10
100.7957038051152
 20
226.4206881197254
 30
0.0
 10
100.7378887108323
 20
226.568686901958
 30
0.0
 10
100.6788093574311
 20
226.7161417104122
 30
0.0
 10
100.6184618495643
 20
226.8630380353509
 30
0.0
 10
100.5568374764863
 20
227.0093590765891
 30
0.0
 10
100.4939110436746
 20
227.1551248975238
 30
0.0
 10
100.4301862783096
 20
227.2991573748006
 30
0.0
 10
100.3656905123152
 20
227.4414544939797
 30
0.0
 10
100.3004500386126
 20
227.5820143985413
 30
0.0
 10
100.2339313545976
 20
227.7219739494088
 30
0.0
 10
100.1661601810821
 20
227.8612415637651
 30
0.0
 10
100.0971294715665
 20
227.9997990077709
 30
0.0
 10
100.0268368046651
 20
228.1376298985816
 30
0.0
 10
99.95524153593115
 20
228.2747886743111
 30
0.0
 10
99.88302464215883
 20
228.4099740351043
 30
0.0
 10
99.81022463285768
 20
228.5431906020277
 30
0.0
 10
99.73688149195941
 20
228.6744449755684
 30
0.0
 10
99.66229547508046
 20
228.804997149475
 30
0.0
 10
99.58645669718844
 20
228.9348438504192
 30
0.0
 10
99.50936289837053
 20
229.0639676998734
 30
0.0
 10
99.43100620650691
 20
229.1923474905851
 30
0.0
 10
99.35138749866375
 20
229.3199484088614
 30
0.0
 10
99.27123867488064
 20
229.4455905290716
 30
0.0
 10
99.1905935702535
 20
229.569277729201
 30
0.0
 10
99.10948655500697
 20
229.6910152433863
 30
0.0
 10
99.02716202491365
 20
229.8119328065419
 30
0.0
 10
98.94361672514071
 20
229.9320064571561
 30
0.0
 10
98.85884601680682
 20
230.051214411255
 30
0.0
 10
98.77284543478477
 20
230.1695343709329
 30
0.0
 10
98.68560893123971
 20
230.2869460823101
 30
0.0
 10
98.59797054968251
 20
230.4023231155615
 30
0.0
 10
98.50996759424574
 20
230.5156731817232
 30
0.0
 10
98.42163658599148
 20
230.6270046707988
 30
0.0
 10
98.33212444026181
 20
230.7373887813087
 30
0.0
 10
98.24142718072225
 20
230.8468030032193
 30
0.0
 10
98.14954199016633
 20
230.9552233409076
 30
0.0
 10
98.05646703223651
 20
231.0626258428275
 30
0.0
 10
97.962201728031
 20
231.1689851613759
 30
0.0
 10
97.86767529853522
 20
231.273250391427
 30
0.0
 10
97.77292744420163
 20
231.3754332376246
 30
0.0
 10
97.6779968117161
 20
231.4755460378567
 30
0.0
 10
97.58194095763395
 20
231.5745797705027
 30
0.0
 10
97.48476829112946
 20
231.6725006005212
 30
0.0
 10
97.38647930462722
 20
231.7692833716882
 30
0.0
 10
97.28707386775747
 20
231.8649013879073
 30
0.0
 10
97.18654321971184
 20
231.9593357617573
 30
0.0
 10
97.0858710748488
 20
232.0516568454075
 30
0.0
 10
96.98509630639157
 20
232.141877670252
 30
0.0
 10
96.88425584141834
 20
232.230010790995
 30
0.0
 10
96.78235608304408
 20
232.3169169206081
 30
0.0
 10
96.67939691097607
 20
232.4025673035504
 30
0.0
 10
96.57537973436474
 20
232.4869318211697
 30
0.0
 10
96.47031223076365
 20
232.5699869011667
 30
0.0
 10
96.36420356884464
 20
232.6517078352376
 30
0.0
 10
96.25806581400705
 20
232.7313177063338
 30
0.0
 10
96.15194139586433
 20
232.8088368190116
 30
0.0
 10
96.04586895251686
 20
232.884282793719
 30
0.0
 10
95.93884191150818
 20
232.9583683027168
 30
0.0
 10
95.83090680278352
 20
233.0310390867404
 30
0.0
 10
95.72207234494768
 20
233.102268958505
 30
0.0
 10
95.6123489590583
 20
233.1720329900015
 30
0.0
 10
95.50170653042548
 20
233.2403301888814
 30
0.0
 10
95.39101988903792
 20
233.306615372047
 30
0.0
 10
95.28032432388318
 20
233.3709016057767
 30
0.0
 10
95.16965462598259
 20
233.4332034436907
 30
0.0
 10
95.05815103781933
 20
233.494000447532
 30
0.0
 10
94.94588562192823
 20
233.5532342566538
 30
0.0
 10
94.83287276494524
 20
233.6108806411322
 30
0.0
 10
94.71912323723438
 20
233.6669068333505
 30
0.0
 10
94.60458714253247
 20
233.7213073536035
 30
0.0
 10
94.48935688863932
 20
233.7740084690848
 30
0.0
 10
94.37344701446912
 20
233.8249770774022
 30
0.0
 10
94.25687543486146
 20
233.8741847154978
 30
0.0
 10
94.13957746764612
 20
233.9216342747324
 30
0.0
 10
94.02126604974427
 20
233.9674102531832
 30
0.0
 10
93.9019534450248
 20
234.0114623398351
 30
0.0
 10
93.78166709769717
 20
234.0537782296735
 30
0.0
 10
93.66074693498045
 20
234.0942490935508
 30
0.0
 10
93.5394576772483
 20
234.1328057136057
 30
0.0
 10
93.41783574768567
 20
234.1694649394818
 30
0.0
 10
93.29591058198011
 20
234.204224322152
 30
0.0
 10
93.17347499491996
 20
234.2371394148491
 30
0.0
 10
93.05035668481574
 20
234.2682456664623
 30
0.0
 10
92.92657915662551
 20
234.2975177698679
 30
0.0
 10
92.80217258723702
 20
234.3249533231572
 30
0.0
 10
92.67736779037646
 20
234.350513718943
 30
0.0
 10
92.55490778450334
 20
234.3736940287341
 30
0.0
 10
92.43484803827641
 20
234.3946410656658
 30
0.0
 10
92.31723993336406
 20
234.4135191754414
 30
0.0
 10
92.19939077173906
 20
234.4308327991995
 30
0.0
 10
92.08125521441086
 20
234.4466217786681
 30
0.0
 10
91.96285724589123
 20
234.4609135634173
 30
0.0
 10
91.84420546866349
 20
234.4736106117824
 30
0.0
 10
91.725383946234
 20
234.4846095797997
 30
0.0
 10
91.61273430212073
 20
234.493326387489
 30
0.0
 10
91.50630198006152
 20
234.5000011470275
 30
0.0
 10
91.40612221834834
 20
234.5048209672982
 30
0.0
 10
91.30588146386492
 20
234.5080587824802
 30
0.0
 10
91.20595464920636
 20
234.5095845611013
 30
0.0
 10
91.1063690373511
 20
234.5092956967246
 30
0.0
 10
91.00715364278172
 20
234.5073105932539
 30
0.0
 10
90.90798161331571
 20
234.5037240280842
 30
0.0
 10
90.81715578234292
 20
234.4990566964153
 30
0.0
 10
90.73467293969607
 20
234.4937869587893
 30
0.0
 10
90.66051996428995
 20
234.4882787253536
 30
0.0
 10
90.58642725479241
 20
234.482028372683
 30
0.0
 10
90.51312159206212
 20
234.4751290058547
 30
0.0
 10
90.44060390758966
 20
234.4676291741549
 30
0.0
 10
90.36887527750861
 20
234.4595753777422
 30
0.0
 10
90.29721696183692
 20
234.4509185997882
 30
0.0
 10
90.17602630689905
 20
234.4352710562892
 30
0.0
 10
90.00557356842387
 20
234.4106018243035
 30
0.0
 10
89.85935246055507
 20
234.3867426800998
 30
0.0
 10
89.7862419066207
 20
234.374813107998
 30
0.0
 11
102.066833260159
 21
220.708865523675
 31
0.0
 11
101.9840787859143
 21
221.5521361722442
 31
0.0
 11
101.867629861285
 21
222.3914176131206
 31
0.0
 11
101.8402731621373
 21
222.5584876674247
 31
0.0
 11
101.8116001126088
 21
222.7253355389464
 31
0.0
 11
101.7816671985272
 21
222.8919650837297
 31
0.0
 11
101.7505318548406
 21
223.0583746799732
 31
0.0
 11
101.7190122938828
 21
223.2205959174782
 31
0.0
 11
101.6863199525745
 21
223.3825846116978
 31
0.0
 11
101.6523744257893
 21
223.5443121913152
 31
0.0
 11
101.6170945709839
 21
223.7057537612299
 31
0.0
 11
101.5833078543763
 21
223.8543998997992
 31
0.0
 11
101.5483140475391
 21
224.0027665515587
 31
0.0
 11
101.512109591929
 21
224.150843214392
 31
0.0
 11
101.4746912634705
 21
224.2986177681787
 31
0.0
 11
101.4349193428866
 21
224.4503626495008
 31
0.0
 11
101.3938859291515
 21
224.6017713608612
 31
0.0
 11
101.3516182746619
 21
224.7528409692684
 31
0.0
 11
101.3081438480607
 21
224.9035677948999
 31
0.0
 11
101.262426258387
 21
225.0574578659282
 31
0.0
 11
101.2154658181143
 21
225.2109731966361
 31
0.0
 11
101.1672552767052
 21
225.3641000316547
 31
0.0
 11
101.1177872006511
 21
225.516825261297
 31
0.0
 11
101.0670782162559
 21
225.6690648531486
 31
0.0
 11
101.0150992281061
 21
225.8208755239239
 31
0.0
 11
100.961843848158
 21
225.9722432756346
 31
0.0
 11
100.9073058500844
 21
226.1231536278817
 31
0.0
 11
100.8520331338121
 21
226.2721184216533
 31
0.0
 11
100.7954914397011
 21
226.4206061847179
 31
0.0
 11
100.737675477271
 21
226.5686025383671
 31
0.0
 11
100.678580117292
 21
226.7160927010694
 31
0.0
 11
100.6182464540911
 21
226.8629484459685
 31
0.0
 11
100.5566204511613
 21
227.0092665758991
 31
0.0
 11
100.4936924356062
 21
227.1550293756094
 31
0.0
 11
100.429452840212
 21
227.3002188862922
 31
0.0
 11
100.3654791041885
 21
227.4413575464804
 31
0.0
 11
100.3002369936777
 21
227.5819143606465
 31
0.0
 11
100.2337167144204
 21
227.7218707344759
 31
0.0
 11
100.165908639219
 21
227.8612077240987
 31
0.0
 11
100.0969131446404
 21
227.9996899600592
 31
0.0
 11
100.0266196882965
 21
228.1375179104936
 31
0.0
 11
99.95502367425972
 21
228.2746736547707
 31
0.0
 11
99.88212059478238
 21
228.4111390829806
 31
0.0
 11
99.81001783407145
 21
228.5430763445045
 31
0.0
 11
99.73667436471692
 21
228.6743279091367
 31
0.0
 11
99.66208800812899
 21
228.8048772992182
 31
0.0
 11
99.58625683965674
 21
228.934707605474
 31
0.0
 11
99.50915375070007
 21
229.0638414547077
 31
0.0
 11
99.43079582927702
 21
229.1922177453064
 31
0.0
 11
99.35117599342858
 21
229.3198149981215
 31
0.0
 11
99.27028725022271
 21
229.4466115890261
 31
0.0
 11
99.19039152469945
 21
229.5691445894513
 31
0.0
 11
99.10928364274906
 21
229.6908785746848
 31
0.0
 11
99.02695827085196
 21
229.8117925747054
 31
0.0
 11
98.9434104092438
 21
229.9318651329923
 31
0.0
 11
98.85864073814659
 21
230.0510668336121
 31
0.0
 11
98.77263942900944
 21
230.1693830218432
 31
0.0
 11
98.68540226911023
 21
230.2867908632523
 31
0.0
 11
98.59692529143757
 21
230.4032671833049
 31
0.0
 11
98.50977130294302
 21
230.5155191568467
 31
0.0
 11
98.42143971911209
 21
230.6268467876531
 31
0.0
 11
98.3319270614238
 21
230.7372269641735
 31
0.0
 11
98.24123017781254
 21
230.8466361799657
 31
0.0
 11
98.14934383859688
 21
230.9550535328786
 31
0.0
 11
98.05626862473301
 21
231.0624519976781
 31
0.0
 11
97.96200313862806
 21
231.1688071916717
 31
0.0
 11
97.86654630696424
 21
231.2740943538232
 31
0.0
 11
97.77274000545664
 21
231.3752575235712
 31
0.0
 11
97.67780926268047
 21
231.4753662059099
 31
0.0
 11
97.58175337457577
 21
231.5743957455228
 31
0.0
 11
97.48457203003326
 21
231.6723210922057
 31
0.0
 11
97.38629176523264
 21
231.769090687789
 31
0.0
 11
97.28688633316253
 21
231.8647041135783
 31
0.0
 11
97.18635575394595
 21
231.9591338352694
 31
0.0
 11
97.08470061115023
 21
232.0523517828959
 31
0.0
 11
96.98491967700666
 21
232.1416780477685
 31
0.0
 11
96.88407920510447
 21
232.2298063679618
 31
0.0
 11
96.78217966229074
 21
232.3167075065129
 31
0.0
 11
96.67922173571607
 21
232.4023520407973
 31
0.0
 11
96.5752048672311
 21
232.4867134299204
 31
0.0
 11
96.47013877263858
 21
232.5697644902066
 31
0.0
 11
96.36403145828285
 21
232.6514814480292
 31
0.0
 11
96.25689171091851
 21
232.7318399072057
 31
0.0
 11
96.1517811966163
 21
232.8086146414748
 31
0.0
 11
96.04570977140912
 21
232.8840561066537
 31
0.0
 11
95.93868396027305
 21
232.9581369635319
 31
0.0
 11
95.83071052948179
 21
233.0308297246752
 31
0.0
 11
95.72191753914248
 21
233.1020290048423
 31
0.0
 11
95.61219577496159
 21
233.1717885243228
 31
0.0
 11
95.50155506241431
 21
233.240081147587
 31
0.0
 11
95.39000581932696
 21
233.3068793536494
 31
0.0
 11
95.28018339539736
 21
233.3706552207071
 31
0.0
 11
95.16951567346864
 21
233.4329526218776
 31
0.0
 11
95.05801410632627
 21
233.4937451701172
 31
0.0
 11
94.94569095169447
 21
233.5530060534657
 31
0.0
 11
94.83273993591942
 21
233.6106157358295
 31
0.0
 11
94.7189922063142
 21
233.6666358572708
 31
0.0
 11
94.60445795909621
 21
233.7210302892096
 31
0.0
 11
94.48914887038326
 21
233.7737622132075
 31
0.0
 11
94.37332312176568
 21
233.8246895657234
 31
0.0
 11
94.2567540538889
 21
233.8738918330302
 31
0.0
 11
94.13945926346116
 21
233.9213357277677
 31
0.0
 11
94.02145579991361
 21
233.9669881191278
 31
0.0
 11
93.90184239537523
 21
234.0111540568215
 31
0.0
 11
93.7815620703031
 21
234.053470516422
 31
0.0
 11
93.6606468563845
 21
234.0939423101723
 31
0.0
 11
93.53913105073785
 21
234.1325734458034
 31
0.0
 11
93.41774630674178
 21
234.1691600236412
 31
0.0
 11
93.29582514597698
 21
234.2039170417839
 31
0.0
 11
93.1733941872579
 21
234.2368296099937
 31
0.0
 11
93.05047865099624
 21
234.2678832763099
 31
0.0
 11
92.92650749463839
 21
234.297203831347
 31
0.0
 11
92.80210575880423
 21
234.3246408939445
 31
0.0
 11
92.6773064022856
 21
234.3502026336066
 31
0.0
 11
92.55213948639454
 21
234.3738977070323
 31
0.0
 11
92.43480348336236
 21
234.3943753094075
 31
0.0
 11
92.3172005176384
 21
234.4132583111099
 31
0.0
 11
92.1993550693108
 21
234.4305770815418
 31
0.0
 11
92.08129395255743
 21
234.4463617571969
 31
0.0
 11
91.96282664550456
 21
234.4606463611048
 31
0.0
 11
91.84417727906624
 21
234.4733275882764
 31
0.0
 11
91.72535835281266
 21
234.4843107972243
 31
0.0
 11
91.6063876310737
 21
234.4935011556431
 31
0.0
 11
91.5062883091732
 21
234.4997581938822
 31
0.0
 11
91.40610875111241
 21
234.5045574322308
 31
0.0
 11
91.30587424302715
 21
234.5077743631326
 31
0.0
 11
91.20560041213861
 21
234.5092846552031
 31
0.0
 11
91.10637272455502
 21
234.5090128308945
 31
0.0
 11
91.00716321061071
 21
234.5070437479848
 31
0.0
 11
90.90799245873016
 21
234.5034729723689
 31
0.0
 11
90.80888799943486
 21
234.4983959230206
 31
0.0
 11
90.73468163709687
 21
234.4936590646797
 31
0.0
 11
90.66052862741893
 21
234.4881549293885
 31
0.0
 11
90.58643795331726
 21
234.4819088664964
 31
0.0
 11
90.51241115491257
 21
234.4749457645505
 31
0.0
 11
90.44061522529313
 21
234.4675244164625
 31
0.0
 11
90.36888699441691
 21
234.4594748805116
 31
0.0
 11
90.29722914848502
 21
234.450820941507
 31
0.0
 11
90.22564404325492
 21
234.4415863057181
 31
0.0
 11
90.00567809894945
 21
234.4099427276987
 31
0.0
 11
89.7862419066207
 21
234.374813107998
 31
0.0
  0
SPLINE
  5
2AA
330
1F
100
AcDbEntity
  8
1
  6
Continuous
 62
     3
100
AcDbSpline
210
0.0
220
0.0
230
1.0
 70
     8
 71
     3
 72
    19
 73
    15
 74
    13
 42
0.0000000001
 43
0.0000000001
 44
0.00000001
 40
0.0
 40
0.0
 40
0.0
 40
0.0
 40
0.2118394311152819
 40
0.4236788622262846
 40
0.5056891523521558
 40
0.5877002476846751
 40
0.6697162611816179
 40
0.7517325590641487
 40
0.8416318894929253
 40
0.931530185694993
 40
1.021425919793309
 40
1.111325173394968
 40
1.733913276689341
 40
2.356501396533511
 40
2.356501396533511
 40
2.356501396533511
 40
2.356501396533511
 10
89.7862419066203
 20
203.62521740958
 30
0.0
 10
89.85593052309828
 20
203.6138277289997
 30
0.0
 10
89.9953077560528
 20
203.5910483678393
 30
0.0
 10
90.1620901640866
 20
203.5664976382791
 30
0.0
 10
90.28637133256466
 20
203.5506354507617
 30
0.0
 10
90.36782898078434
 20
203.5410999213329
 30
0.0
 10
90.44937941797444
 20
203.5323754209191
 30
0.0
 10
90.53362620113435
 20
203.5241744859846
 30
0.0
 10
90.62056538426806
 20
203.516547748296
 30
0.0
 10
90.71020081957734
 20
203.5096690063108
 30
0.0
 10
90.79991390299982
 20
203.5038348622845
 30
0.0
 10
91.06699612378584
 20
203.4899828675766
 30
0.0
 10
91.51318590051088
 20
203.4878141139613
 30
0.0
 10
91.92573613165005
 20
203.5359384501139
 30
0.0
 10
92.1320112499613
 20
203.56000061851
 30
0.0
 11
89.7862419066203
 21
203.62521740958
 31
0.0
 11
89.99539705304836
 21
203.5916009062237
 31
0.0
 11
90.2050384806638
 21
203.5611638169937
 31
0.0
 11
90.28638832515274
 21
203.5507767823757
 31
0.0
 11
90.36784248473259
 21
203.5412353126368
 31
0.0
 11
90.44939253558591
 21
203.5325051536605
 31
0.0
 11
90.53102240326987
 21
203.524552932571
 31
0.0
 11
90.62057902282397
 21
203.5167106430084
 31
0.0
 11
90.710214616989
 21
203.5098430438124
 31
0.0
 11
90.7999222908678
 21
203.5040313094472
 31
0.0
 11
90.8896999093824
 21
203.4993563750111
 31
0.0
 11
91.51228721838362
 21
203.5003508770503
 31
0.0
 11
92.1320112499613
 21
203.56000061851
 31
0.0
  0
SPLINE
  5
2AB
330
1F
100
AcDbEntity
  8
1
  6
Continuous
 62
     3
100
AcDbSpline
210
0.0
220
0.0
230
1.0
 70
     8
 71
     3
 72
   115
 73
   111
 74
   109
 42
0.0000000001
 43
0.0000000001
 44
0.00000001
 40
0.0
 40
0.0
 40
0.0
 40
0.0
 40
0.7022964698390199
 40
1.404592927010327
 40
1.541918783567994
 40
1.679238309840996
 40
1.81656745600804
 40
1.953898913307468
 40
2.087305912956401
 40
2.220711860577958
 40
2.35410720955638
 40
2.487502035495925
 40
2.608851403259014
 40
2.730200885934124
 40
2.851553463378451
 40
2.972906005351297
 40
3.097903502640854
 40
3.222901124264041
 40
3.34789991738453
 40
3.47289889838615
 40
3.603028857748546
 40
3.733158775757959
 40
3.863287129423576
 40
3.993415440332724
 40
4.123594289633702
 40
4.253773178572019
 40
4.383953195494196
 40
4.514133280602871
 40
4.648060038385939
 40
4.781986846987136
 40
4.915913057625017
 40
5.04983922765963
 40
5.183759488857145
 40
5.317679769529597
 40
5.451600483738444
 40
5.585521253267964
 40
5.723449609520176
 40
5.861378022289077
 40
5.999306376869283
 40
6.137234724571946
 40
6.275198052233517
 40
6.413161365432509
 40
6.551124728988448
 40
6.689088146565635
 40
6.831205554884007
 40
6.973323019343006
 40
7.115440539202476
 40
7.25755804516789
 40
7.39967168994399
 40
7.541785327942744
 40
7.683899005100657
 40
7.826012728667944
 40
7.972282741362371
 40
8.118552803888425
 40
8.264822942264448
 40
8.411093070391104
 40
8.557372485380657
 40
8.703651892927859
 40
8.84993126429976
 40
8.99621067489401
 40
9.146611348399407
 40
9.297012064938835
 40
9.447412976471606
 40
9.597813893012143
 40
9.748167722151436
 40
9.898521529029507
 40
10.04887523573726
 40
10.19922898024016
 40
10.35394702195339
 40
10.50866511317683
 40
10.66338329007394
 40
10.81810144765565
 40
10.97306186795974
 40
11.12802229596979
 40
11.28298277839398
 40
11.4379432908519
 40
11.5967095327342
 40
11.75547580388098
 40
11.9142421709628
 40
12.07300854226954
 40
12.23189721285585
 40
12.3907858725546
 40
12.54967444649457
 40
12.70856303300534
 40
12.86902588746785
 40
13.0294887547126
 40
13.18995150734805
 40
13.35041425828599
 40
13.51095112733051
 40
13.67148798886259
 40
13.83202533566288
 40
13.99256272062775
 40
14.14943401096125
 40
14.30630523584973
 40
14.46317568850483
 40
14.62004606388536
 40
14.77248441224496
 40
14.92492279547253
 40
15.07736042163639
 40
15.22979800469868
 40
15.39504947565164
 40
15.56030112858759
 40
15.72555585994378
 40
15.89081085267045
 40
16.06010811593424
 40
16.22940485110742
 40
16.39869854857065
 40
16.56799353382908
 40
17.41531501298883
 40
18.26263649256066
 40
18.26263649256066
 40
18.26263649256066
 40
18.26263649256066
 10
92.1320112499613
 20
203.56000061851
 30
0.0
 10
92.36377590986342
 20
203.5940757858283
 30
0.0
 10
92.82730522548721
 20
203.6622261198501
 30
0.0
 10
93.32470207024929
 20
203.7965823874754
 30
0.0
 10
93.63474930820003
 20
203.8960810089186
 30
0.0
 10
93.76478325676938
 20
203.9402651704403
 30
0.0
 10
93.89412388490771
 20
203.9864240140356
 30
0.0
 10
94.02156560103529
 20
204.0339844960289
 30
0.0
 10
94.14715248485038
 20
204.0827392240611
 30
0.0
 10
94.27084100780712
 20
204.1327257931704
 30
0.0
 10
94.39378475782846
 20
204.1845076683672
 30
0.0
 10
94.51223841425022
 20
204.2365587286112
 30
0.0
 10
94.62622061489711
 20
204.2887645735599
 30
0.0
 10
94.73580690126177
 20
204.3408971619408
 30
0.0
 10
94.8446358652505
 20
204.3945948819617
 30
0.0
 10
94.95377817702499
 20
204.450377859271
 30
0.0
 10
95.06319518454353
 20
204.508266270358
 30
0.0
 10
95.17286199827907
 20
204.5682550823865
 30
0.0
 10
95.28170956131702
 20
204.6297184623005
 30
0.0
 10
95.39122269925372
 20
204.693459956772
 30
0.0
 10
95.50137089232518
 20
204.7594897035935
 30
0.0
 10
95.61209592221829
 20
204.8278607963982
 30
0.0
 10
95.7219128362952
 20
204.897680120918
 30
0.0
 10
95.830817880887
 20
204.9689432266686
 30
0.0
 10
95.93879320321372
 20
205.0416373918932
 30
0.0
 10
96.0458324726551
 20
205.1157330462184
 30
0.0
 10
96.15191625823266
 20
205.1911909020017
 30
0.0
 10
96.25804819128848
 20
205.2687181999262
 30
0.0
 10
96.36419125087801
 20
205.3483299600461
 30
0.0
 10
96.47030227196896
 20
205.4300474176348
 30
0.0
 10
96.57537267053016
 20
205.5130982311156
 30
0.0
 10
96.67939179894
 20
205.5974584730806
 30
0.0
 10
96.78235109275685
 20
205.6831058008221
 30
0.0
 10
96.88424950984309
 20
205.7700096528292
 30
0.0
 10
96.98508802687431
 20
205.8581412797301
 30
0.0
 10
97.08586196048071
 20
205.9483622251522
 30
0.0
 10
97.18653465118051
 20
206.0406846653409
 30
0.0
 10
97.28706719322776
 20
206.1351216448593
 30
0.0
 10
97.38647453704407
 20
206.2307422192328
 30
0.0
 10
97.48476498779289
 20
206.3275269820921
 30
0.0
 10
97.58193874435246
 20
206.4254491958683
 30
0.0
 10
97.67799530379595
 20
206.5244837254922
 30
0.0
 10
97.77292670916805
 20
206.6245972631469
 30
0.0
 10
97.86767509788815
 20
206.7267805305948
 30
0.0
 10
97.96220179524562
 20
206.8310458873043
 30
0.0
 10
98.0564671031543
 20
206.9374050346605
 30
0.0
 10
98.14954205836246
 20
207.0448073715293
 30
0.0
 10
98.24142724792934
 20
207.1532275785528
 30
0.0
 10
98.33212449838588
 20
207.262641712851
 30
0.0
 10
98.42163663180821
 20
207.3730257743135
 30
0.0
 10
98.5099676128666
 20
207.4843572268849
 30
0.0
 10
98.59797054660218
 20
207.5977072831779
 30
0.0
 10
98.68560891678034
 20
207.7130843287791
 30
0.0
 10
98.77284542079235
 20
207.8304960733333
 30
0.0
 10
98.85884600319756
 20
207.9488160658605
 30
0.0
 10
98.94361671111425
 20
208.0680240460151
 30
0.0
 10
99.02716201253826
 20
208.1880977141145
 30
0.0
 10
99.10948654527694
 20
208.3090152870904
 30
0.0
 10
99.190593566141
 20
208.4307528090775
 30
0.0
 10
99.27123867532804
 20
208.5544400116987
 30
0.0
 10
99.35138750144566
 20
208.6800821298801
 30
0.0
 10
99.43100620920492
 20
208.8076830417426
 30
0.0
 10
99.50936290088522
 20
208.9360628261453
 30
0.0
 10
99.58645669964258
 20
209.0651866706134
 30
0.0
 10
99.66229547718174
 20
209.1950333681187
 30
0.0
 10
99.73688149358699
 20
209.3255855400146
 30
0.0
 10
99.81022463351226
 20
209.4568399118326
 30
0.0
 10
99.88302464203947
 20
209.5900564780924
 30
0.0
 10
99.95524153541797
 20
209.7252418391739
 30
0.0
 10
100.0268368041734
 20
209.8624006161221
 30
0.0
 10
100.0971294711044
 20
210.0002315081402
 30
0.0
 10
100.1661601806251
 20
210.1387889530987
 30
0.0
 10
100.2339313542017
 20
210.2780565681181
 30
0.0
 10
100.3004500383022
 20
210.4180161193765
 30
0.0
 10
100.3656905121785
 20
210.5585760242873
 30
0.0
 10
100.4301862783129
 20
210.7008731436102
 30
0.0
 10
100.4939110437502
 20
210.8449056208426
 30
0.0
 10
100.556837476562
 20
210.9906714415466
 30
0.0
 10
100.6184618496379
 20
211.1369924825562
 30
0.0
 10
100.6788093575056
 20
211.2838888073146
 30
0.0
 10
100.7378887108976
 20
211.4313436156416
 30
0.0
 10
100.795703805167
 20
211.5793423977975
 30
0.0
 10
100.8522446350979
 20
211.7278326038404
 30
0.0
 10
100.9076990019886
 20
211.8772917512082
 30
0.0
 10
100.9620576227824
 20
212.027711022466
 30
0.0
 10
101.0153119434225
 20
212.1790811264899
 30
0.0
 10
101.0672898856412
 20
212.3308941836985
 30
0.0
 10
101.1180056052067
 20
212.4831595252987
 30
0.0
 10
101.1674648669837
 20
212.6358635554651
 30
0.0
 10
101.2156742430417
 20
212.7889928101432
 30
0.0
 10
101.2626334080745
 20
212.9425102208533
 30
0.0
 10
101.3080017492012
 20
213.095231008529
 30
0.0
 10
101.3518193889494
 20
213.2471323663143
 30
0.0
 10
101.3940915297505
 20
213.3982022524653
 30
0.0
 10
101.4351295758872
 20
213.5496117811811
 30
0.0
 10
101.4745315108472
 20
213.699928329392
 30
0.0
 10
101.5123119092362
 20
213.8491369726777
 30
0.0
 10
101.5485157326524
 20
213.9972152706687
 30
0.0
 10
101.5835090323336
 20
214.1455840204216
 30
0.0
 10
101.6182418703915
 20
214.2983971220099
 30
0.0
 10
101.6525968494724
 20
214.4556708155547
 30
0.0
 10
101.6865291282953
 20
214.6174039429367
 30
0.0
 10
101.7192078301512
 20
214.7793960283373
 30
0.0
 10
101.7509705216988
 20
214.9429438682765
 30
0.0
 10
101.7818680548802
 20
215.1080284566982
 30
0.0
 10
101.8118079327346
 20
215.2746571370495
 30
0.0
 10
101.8404997040687
 20
215.4415061357572
 30
0.0
 10
101.9043219946362
 20
215.83161809702
 30
0.0
 10
101.9912330627138
 20
216.4471194762179
 30
0.0
 10
102.0416331943398
 20
217.0098164879623
 30
0.0
 10
102.066833260159
 20
217.291164993903
 30
0.0
 11
92.1320112499613
 21
203.56000061851
 31
0.0
 11
92.82469736392173
 21
203.6757861058335
 31
0.0
 11
93.50388681950396
 21
203.8544533865015
 31
0.0
 11
93.63463258257215
 21
203.8964526283876
 31
0.0
 11
93.76466438246541
 21
203.9405931235407
 31
0.0
 11
93.8940103234755
 21
203.9867333655339
 31
0.0
 11
94.0226827088872
 21
204.0347265566806
 31
0.0
 11
94.14704027027649
 21
204.0830238079548
 31
0.0
 11
94.27072077006429
 21
204.1330266162064
 31
0.0
 11
94.39364981692601
 21
204.1848220654924
 31
0.0
 11
94.51576678321575
 21
204.2385028454013
 31
0.0
 11
94.62609620020633
 21
204.2890309445445
 31
0.0
 11
94.7356795937808
 21
204.3411574905477
 31
0.0
 11
94.84450763072307
 21
204.3948501942203
 31
0.0
 11
94.95256632689639
 21
204.4500748048988
 31
0.0
 11
95.06305772250076
 21
204.5085215826205
 31
0.0
 11
95.17272504313596
 21
204.5685006139244
 31
0.0
 11
95.28157400166782
 21
204.6299546822039
 31
0.0
 11
95.389610447899
 21
204.6928265482266
 31
0.0
 11
95.50122262240288
 21
204.7597334150355
 31
0.0
 11
95.6119450890603
 21
204.8281024938535
 31
0.0
 11
95.7217585958988
 21
204.8979192693703
 31
0.0
 11
95.83064655233702
 21
204.9691708675473
 31
0.0
 11
95.93863480103663
 21
205.041869360985
 31
0.0
 11
96.04567286137083
 21
205.1159598243734
 31
0.0
 11
96.1517561255002
 21
205.1914129745894
 31
0.0
 11
96.256878890643
 21
205.2681987728052
 31
0.0
 11
96.3640194017486
 21
205.3485560209556
 31
0.0
 11
96.47012901775439
 21
205.4302697863395
 31
0.0
 11
96.57519775219367
 21
205.5133167064458
 31
0.0
 11
96.67921693644954
 21
205.5976744466176
 31
0.0
 11
96.78217450822224
 21
205.6833154109622
 31
0.0
 11
96.88407272908002
 21
205.7702141690742
 31
0.0
 11
96.98491134639083
 21
205.8583409581514
 31
0.0
 11
97.08469012206936
 21
205.9476660298585
 31
0.0
 11
97.18634718437255
 21
206.0408865916585
 31
0.0
 11
97.28687967457749
 21
206.1353189243743
 31
0.0
 11
97.38628700770725
 21
206.2309348912273
 31
0.0
 11
97.48456923522585
 21
206.3277069577236
 31
0.0
 11
97.58175117793324
 21
206.425633204415
 31
0.0
 11
97.67780776305678
 21
206.5246635444288
 31
0.0
 11
97.77273927529484
 21
206.6247729728952
 31
0.0
 11
97.86654637522642
 21
206.7259368626583
 31
0.0
 11
97.96200320637453
 21
206.8312238567948
 31
0.0
 11
98.05626869527417
 21
206.9375788816256
 31
0.0
 11
98.14934390428097
 21
207.0449771819816
 31
0.0
 11
98.24123022338738
 21
207.1533943847813
 31
0.0
 11
98.33192711608083
 21
207.2628035328782
 31
0.0
 11
98.42143976218688
 21
207.373183659225
 31
0.0
 11
98.5097713199971
 21
207.484511252975
 31
0.0
 11
98.59692527309326
 21
207.5967631967705
 31
0.0
 11
98.68540225423172
 21
207.7132395481138
 31
0.0
 11
98.77263941507383
 21
207.8306474224647
 31
0.0
 11
98.85864072496098
 21
207.9489636431541
 31
0.0
 11
98.94341039938408
 21
208.0681653741835
 31
0.0
 11
99.02695825918686
 21
208.1882379454563
 31
0.0
 11
99.10928363351455
 21
208.3091519554558
 31
0.0
 11
99.19039152086584
 21
208.4308859486474
 31
0.0
 11
99.27028725345887
 21
208.5534189559443
 31
0.0
 11
99.35117599625409
 21
208.6802155405981
 31
0.0
 11
99.43079583195629
 21
208.8078127870352
 31
0.0
 11
99.50915375313583
 21
208.936189071365
 31
0.0
 11
99.58625684137172
 21
209.0653229146467
 31
0.0
 11
99.66208801011175
 21
209.1951532184451
 31
0.0
 11
99.7366743662597
 21
209.3257026064915
 31
0.0
 11
99.81001783467768
 21
209.456954169382
 31
0.0
 11
99.88212059416313
 21
209.5888914293225
 31
0.0
 11
99.95502367373624
 21
209.7253568587189
 31
0.0
 11
100.0266196878067
 21
209.8625126042094
 31
0.0
 11
100.0969131441916
 21
210.0003405558441
 31
0.0
 11
100.1659086388913
 21
210.13882279296
 31
0.0
 11
100.2337167140455
 21
210.2781597830405
 31
0.0
 11
100.3002369933822
 21
210.4181161572649
 31
0.0
 11
100.36547910406
 21
210.5586729717829
 31
0.0
 11
100.429452840299
 21
210.699811632301
 31
0.0
 11
100.4936924356832
 21
210.8450011427565
 31
0.0
 11
100.5566204512366
 21
210.9907639422369
 31
0.0
 11
100.6182464541624
 21
211.1370820719397
 31
0.0
 11
100.6785801173451
 21
211.2839378166175
 31
0.0
 11
100.7376754773328
 21
211.4314279792339
 31
0.0
 11
100.7954914397504
 21
211.5794243328058
 31
0.0
 11
100.8520331338346
 21
211.7279120957992
 31
0.0
 11
100.9073058500719
 21
211.8768768895027
 31
0.0
 11
100.9618438481473
 21
212.0277872417924
 31
0.0
 11
101.0150992280952
 21
212.1791549935462
 31
0.0
 11
101.067078216245
 21
212.3309656643644
 31
0.0
 11
101.1177872006425
 21
212.4832052562581
 31
0.0
 11
101.1672552766949
 21
212.6359304859167
 31
0.0
 11
101.2154658181061
 21
212.7890573209503
 31
0.0
 11
101.2624262583833
 21
212.9425726516722
 31
0.0
 11
101.3081438480628
 21
213.096462722714
 31
0.0
 11
101.351618274664
 21
213.2471895483377
 31
0.0
 11
101.3938859291536
 21
213.3982591567372
 31
0.0
 11
101.4349193428887
 21
213.5496678680898
 31
0.0
 11
101.4746912634721
 21
213.7014127494042
 31
0.0
 11
101.5121095919305
 21
213.849187303188
 31
0.0
 11
101.5483140475401
 21
213.9972639660186
 31
0.0
 11
101.5833078543765
 21
214.1456306177755
 31
0.0
 11
101.6170945709834
 21
214.2942767563422
 31
0.0
 11
101.6523744257891
 21
214.4557183262584
 31
0.0
 11
101.6863199525745
 21
214.6174459058772
 31
0.0
 11
101.7190122938829
 21
214.779434600098
 31
0.0
 11
101.7505318548405
 21
214.9416558376045
 31
0.0
 11
101.7816671985268
 21
215.1080654338487
 31
0.0
 11
101.8116001126082
 21
215.2746949786326
 31
0.0
 11
101.8402731621368
 21
215.4415428501548
 31
0.0
 11
101.867629861285
 21
215.6086129044595
 31
0.0
 11
101.9840787859146
 21
216.447894345335
 31
0.0
 11
102.066833260159
 21
217.291164993903
 31
0.0
  0
LWPOLYLINE
  5
2AC
330
1F
100
AcDbEntity
  8
2
  6
Continuous
 62
     3
100
AcDbPolyline
 90
        8
 70
     1
 43
0.0
 10
61.0
 20
77.3094010767585
 10
61.0
 20
77.3094010767585
 10
57.0
 20
79.618802153517
 10
53.0
 20
77.3094010767585
 10
53.0
 20
72.6905989232415
 10
57.0
 20
70.381197846483
 10
61.0
 20
72.6905989232415
 10
61.0
 20
77.3094010767585
  0
LWPOLYLINE
  5
2AD
330
1F
100
AcDbEntity
  8
1
  6
Continuous
 62
     3
100
AcDbPolyline
 90
       14
 70
     1
 43
0.0
 10
-34.905640032829
 20
69.939305669492
 10
-34.905640032829
 20
69.939305669492
 42
-0.04359245493555
 10
-32.121014546689
 20
69.939305669492
 10
-20.405640032829
 20
63.175431040257
 42
-0.04359245493555
 10
-19.013327289759
 20
60.763874629234
 10
-19.013327289759
 20
47.2361253707656
 42
-0.04359245493555
 10
-20.40564003282901
 20
44.82456895974279
 10
-32.121014546689
 20
38.0606943305085
 42
-0.04359245493555
 10
-34.905640032829
 20
38.0606943305085
 10
-46.621014546689
 20
44.8245689597428
 42
-0.04359245493555
 10
-48.013327289759
 20
47.23612537076571
 10
-48.013327289759
 20
60.763874629234
 42
-0.04359245493555
 10
-46.621014546689
 20
63.175431040257
 10
-34.905640032829
 20
69.939305669492
  0
LWPOLYLINE
  5
2AE
330
1F
100
AcDbEntity
  8
1
  6
Continuous
 62
     3
100
AcDbPolyline
 90
       18
 70
     1
 43
0.0
 10
-26.513327289759
 20
56.12132034356
 10
-26.513327289759
 20
56.12132034356
 10
-27.0434231174666
 20
57.878995746802
 10
-28.5635798214532
 20
59.371320345177
 10
-30.8363890211523
 20
60.369453951396
 10
-33.513327289759
 20
60.71751442356
 10
-36.1902655583657
 20
60.369453951396
 10
-38.4630747580649
 20
59.371320345177
 10
-39.9832314620514
 20
57.878995746802
 10
-40.513327289759
 20
56.12132034356
 10
-39.9832314620514
 20
54.363644940317
 10
-38.4630747580648
 20
52.871320341942
 10
-36.1902655583657
 20
51.873186735723
 10
-33.513327289759
 20
51.52512626356
 10
-30.8363890211523
 20
51.873186735723
 10
-28.5635798214532
 20
52.871320341942
 10
-27.0434231174666
 20
54.363644940317
 10
-26.513327289759
 20
56.12132034356
  0
LWPOLYLINE
  5
2AF
330
1F
100
AcDbEntity
  8
1
  6
Continuous
 62
     3
100
AcDbPolyline
 90
       14
 70
     1
 43
0.0
 10
188.094359967171
 20
69.939305669492
 10
188.094359967171
 20
69.939305669492
 42
-0.04359245493555
 10
190.878985453311
 20
69.939305669492
 10
202.594359967171
 20
63.175431040257
 42
-0.04359245493555
 10
203.986672710241
 20
60.763874629234
 10
203.986672710241
 20
47.2361253707656
 42
-0.04359245493555
 10
202.594359967171
 20
44.8245689597428
 10
190.878985453311
 20
38.0606943305085
 42
-0.04359245493555
 10
188.094359967171
 20
38.0606943305085
 10
176.378985453311
 20
44.8245689597428
 42
-0.04359245493555
 10
174.986672710241
 20
47.23612537076571
 10
174.986672710241
 20
60.763874629234
 42
-0.04359245493555
 10
176.378985453311
 20
63.175431040257
 10
188.094359967171
 20
69.939305669492
  0
LEADER
  5
2B0
330
1F
100
AcDbEntity
  8
1
  6
Continuous
 62
     4
100
AcDbLeader
  3
Standard
 71
     0
 76
     3
 10
107.0
 20
54.0
 30
0.0
 10
121.441615302371
 20
24.8983766868426
 30
0.0
 10
163.50903940581
 20
24.8983766868426
 30
0.0
  0
LEADER
  5
2B1
330
1F
100
AcDbEntity
  8
1
  6
Continuous
 62
     4
100
AcDbLeader
  3
Standard
 71
     0
 76
     3
 10
37.0
 20
54.0
 30
0.0
 10
23.7850950622438
 20
25.6495806886898
 30
0.0
 10
-16.6547203705269
 20
25.6495806886898
 30
0.0
  0
DIMENSION
  5
2E7
330
1F
100
AcDbEntity
  8
1
100
AcDbDimension
  2
*D1
 10
107.0
 20
-1.57093805847624
 30
0.0
 11
72.0
 21
4.42906194152376
 31
0.0
 70
    32
  1
70
 71
     5
 42
-1.0
 53
0.00013888888889
  3
ME10_DIM_10
100
AcDbAlignedDimension
 13
37.0
 23
39.5
 33
0.0
 14
107.0
 24
39.5
 34
0.0
100
AcDbRotatedDimension
  0
DIMENSION
  5
2F4
330
1F
100
AcDbEntity
  8
1
100
AcDbDimension
  2
*D3
 10
128.0
 20
163.0
 30
0.0
 11
122.0
 21
114.0
 31
0.0
 70
    32
  1
109
 71
     5
 42
-1.0
 53
90.0
  3
ME10_DIM_11
100
AcDbAlignedDimension
 13
110.0
 23
54.0
 33
0.0
 14
78.5
 24
163.0
 34
0.0
 50
90.0
100
AcDbRotatedDimension
  0
ENDSEC
  0
SECTION
  2
OBJECTS
  0
DICTIONARY
  5
C
330
0
100
AcDbDictionary
281
     1
  3
ACAD_GROUP
350
D
  3
ACAD_LAYOUT
350
1A
  3
ACAD_MATERIAL
350
3B
  3
ACAD_MLEADERSTYLE
350
2F7
  3
ACAD_MLINESTYLE
350
17
  3
ACAD_PLOTSETTINGS
350
19
  3
ACAD_PLOTSTYLENAME
350
E
  3
ACAD_SCALELIST
350
2BB
  3
ACAD_VISUALSTYLE
350
2A
  3
AcDbVariableDictionary
350
2F5
  0
DICTIONARY
  5
D
102
{ACAD_REACTORS
330
C
102
}
330
C
100
AcDbDictionary
281
     1
  0
DICTIONARY
  5
1A
102
{ACAD_REACTORS
330
C
102
}
330
C
100
AcDbDictionary
281
     1
  3
Layout1
350
1E
  3
Layout2
350
26
  3
Model
350
22
  0
DICTIONARY
  5
3B
102
{ACAD_REACTORS
330
C
102
}
330
C
100
AcDbDictionary
281
     1
  3
ByBlock
350
3D
  3
ByLayer
350
3C
  3
Global
350
3E
  0
DICTIONARY
  5
2F7
102
{ACAD_REACTORS
330
C
102
}
330
C
100
AcDbDictionary
281
     1
  0
DICTIONARY
  5
17
102
{ACAD_REACTORS
330
C
102
}
330
C
100
AcDbDictionary
281
     1
  3
Standard
350
18
  0
DICTIONARY
  5
19
102
{ACAD_REACTORS
330
C
102
}
330
C
100
AcDbDictionary
281
     1
  0
ACDBDICTIONARYWDFLT
  5
E
102
{ACAD_REACTORS
330
C
102
}
330
C
100
AcDbDictionary
281
     1
  3
Normal
350
F
100
AcDbDictionaryWithDefault
340
F
  0
DICTIONARY
  5
2BB
102
{ACAD_REACTORS
330
C
102
}
330
C
100
AcDbDictionary
281
     1
  3
A0
350
2BC
  3
A1
350
2BD
  3
A2
350
2BE
  3
A3
350
2BF
  3
A4
350
2C0
  3
A5
350
2C1
  3
A6
350
2C2
  3
A7
350
2C3
  3
A8
350
2C4
  3
A9
350
2C5
  3
B0
350
2C6
  3
B1
350
2C7
  3
B2
350
2C8
  3
B3
350
2C9
  3
B4
350
2CA
  3
B5
350
2CB
  3
B6
350
2CC
  3
B7
350
2CD
  3
B8
350
2CE
  3
B9
350
2CF
  3
C0
350
2D0
  3
C1
350
2D1
  3
C2
350
2D2
  3
C3
350
2D3
  3
C4
350
2D4
  3
C5
350
2D5
  3
C6
350
2D6
  3
C7
350
2D7
  3
C8
350
2D8
  3
C9
350
2D9
  3
D0
350
2DA
  3
D1
350
2DB
  3
D2
350
2DC
  0
DICTIONARY
  5
2A
102
{ACAD_REACTORS
330
C
102
}
330
C
100
AcDbDictionary
281
     1
  3
2dWireframe
350
2F
  3
3D Hidden
350
31
  3
3dWireframe
350
30
  3
Basic
350
32
  3
Brighten
350
36
  3
ColorChange
350
3A
  3
Conceptual
350
34
  3
Dim
350
35
  3
Facepattern
350
39
  3
Flat
350
2B
  3
FlatWithEdges
350
2C
  3
Gouraud
350
2D
  3
GouraudWithEdges
350
2E
  3
Linepattern
350
38
  3
Realistic
350
33
  3
Thicken
350
37
  0
DICTIONARY
  5
2F5
102
{ACAD_REACTORS
330
C
102
}
330
C
100
AcDbDictionary
281
     1
  3
CANNOSCALE
350
2F8
  3
DIMASSOC
350
2F9
  3
HIDETEXT
350
2FA
  0
LAYOUT
  5
1E
102
{ACAD_REACTORS
330
1A
102
}
330
1A
100
AcDbPlotSettings
  1

  2
none_device
  4

  6

 40
0.0
 41
0.0
 42
0.0
 43
0.0
 44
0.0
 45
0.0
 46
0.0
 47
0.0
 48
0.0
 49
0.0
140
0.0
141
0.0
142
1.0
143
1.0
 70
   688
 72
     0
 73
     0
 74
     5
  7

 75
    16
147
1.0
148
0.0
149
0.0
100
AcDbLayout
  1
Layout1
 70
     1
 71
     1
 10
0.0
 20
0.0
 11
12.0
 21
9.0
 12
0.0
 22
0.0
 32
0.0
 14
1.00000000000000E+20
 24
1.00000000000000E+20
 34
1.00000000000000E+20
 15
-1.00000000000000E+20
 25
-1.00000000000000E+20
 35
-1.00000000000000E+20
146
0.0
 13
0.0
 23
0.0
 33
0.0
 16
1.0
 26
0.0
 36
0.0
 17
0.0
 27
1.0
 37
0.0
 76
     0
330
1B
  0
LAYOUT
  5
26
102
{ACAD_REACTORS
330
1A
102
}
330
1A
100
AcDbPlotSettings
  1

  2
none_device
  4

  6

 40
0.0
 41
0.0
 42
0.0
 43
0.0
 44
0.0
 45
0.0
 46
0.0
 47
0.0
 48
0.0
 49
0.0
140
0.0
141
0.0
142
1.0
143
1.0
 70
   688
 72
     0
 73
     0
 74
     5
  7

 75
    16
147
1.0
148
0.0
149
0.0
100
AcDbLayout
  1
Layout2
 70
     1
 71
     2
 10
0.0
 20
0.0
 11
0.0
 21
0.0
 12
0.0
 22
0.0
 32
0.0
 14
0.0
 24
0.0
 34
0.0
 15
0.0
 25
0.0
 35
0.0
146
0.0
 13
0.0
 23
0.0
 33
0.0
 16
1.0
 26
0.0
 36
0.0
 17
0.0
 27
1.0
 37
0.0
 76
     0
330
23
  0
LAYOUT
  5
22
102
{ACAD_REACTORS
330
1A
102
}
330
1A
100
AcDbPlotSettings
  1

  2
none_device
  4

  6

 40
0.0
 41
0.0
 42
0.0
 43
0.0
 44
0.0
 45
0.0
 46
0.0
 47
0.0
 48
0.0
 49
0.0
140
0.0
141
0.0
142
1.0
143
1.0
 70
  1712
 72
     0
 73
     0
 74
     0
  7

 75
     0
147
1.0
148
0.0
149
0.0
100
AcDbLayout
  1
Model
 70
     1
 71
     0
 10
0.0
 20
0.0
 11
12.0
 21
9.0
 12
0.0
 22
0.0
 32
0.0
 14
-64.513327289759
 24
-3.71453159792522
 34
0.0
 15
222.5
 25
255.799118041992
 35
0.0
146
0.0
 13
0.0
 23
0.0
 33
0.0
 16
1.0
 26
0.0
 36
0.0
 17
0.0
 27
1.0
 37
0.0
 76
     0
330
1F
331
29
  0
MATERIAL
  5
3D
102
{ACAD_REACTORS
330
3B
102
}
102
{ACAD_XDICTIONARY
360
31D
102
}
330
3B
100
AcDbMaterial
  1
ByBlock
  0
MATERIAL
  5
3C
102
{ACAD_REACTORS
330
3B
102
}
102
{ACAD_XDICTIONARY
360
31B
102
}
330
3B
100
AcDbMaterial
  1
ByLayer
  0
MATERIAL
  5
3E
102
{ACAD_REACTORS
330
3B
102
}
102
{ACAD_XDICTIONARY
360
31F
102
}
330
3B
100
AcDbMaterial
  1
Global
  0
MLINESTYLE
  5
18
102
{ACAD_REACTORS
330
17
102
}
330
17
100
AcDbMlineStyle
  2
Standard
 70
     0
  3

 62
   256
 51
90.0
 52
90.0
 71
     2
 49
0.5
 62
   256
  6
BYLAYER
 49
-0.5
 62
   256
  6
BYLAYER
  0
ACDBPLACEHOLDER
  5
F
102
{ACAD_REACTORS
330
E
102
}
330
E
  0
SCALE
  5
2BC
102
{ACAD_REACTORS
330
2BB
102
}
330
2BB
100
AcDbScale
 70
     0
300
1:1
140
1.0
141
1.0
290
     1
  0
SCALE
  5
2BD
102
{ACAD_REACTORS
330
2BB
102
}
330
2BB
100
AcDbScale
 70
     0
300
1:2
140
1.0
141
2.0
290
     0
  0
SCALE
  5
2BE
102
{ACAD_REACTORS
330
2BB
102
}
330
2BB
100
AcDbScale
 70
     0
300
1:4
140
1.0
141
4.0
290
     0
  0
SCALE
  5
2BF
102
{ACAD_REACTORS
330
2BB
102
}
330
2BB
100
AcDbScale
 70
     0
300
1:5
140
1.0
141
5.0
290
     0
  0
SCALE
  5
2C0
102
{ACAD_REACTORS
330
2BB
102
}
330
2BB
100
AcDbScale
 70
     0
300
1:8
140
1.0
141
8.0
290
     0
  0
SCALE
  5
2C1
102
{ACAD_REACTORS
330
2BB
102
}
330
2BB
100
AcDbScale
 70
     0
300
1:10
140
1.0
141
10.0
290
     0
  0
SCALE
  5
2C2
102
{ACAD_REACTORS
330
2BB
102
}
330
2BB
100
AcDbScale
 70
     0
300
1:16
140
1.0
141
16.0
290
     0
  0
SCALE
  5
2C3
102
{ACAD_REACTORS
330
2BB
102
}
330
2BB
100
AcDbScale
 70
     0
300
1:20
140
1.0
141
20.0
290
     0
  0
SCALE
  5
2C4
102
{ACAD_REACTORS
330
2BB
102
}
330
2BB
100
AcDbScale
 70
     0
300
1:30
140
1.0
141
30.0
290
     0
  0
SCALE
  5
2C5
102
{ACAD_REACTORS
330
2BB
102
}
330
2BB
100
AcDbScale
 70
     0
300
1:40
140
1.0
141
40.0
290
     0
  0
SCALE
  5
2C6
102
{ACAD_REACTORS
330
2BB
102
}
330
2BB
100
AcDbScale
 70
     0
300
1:50
140
1.0
141
50.0
290
     0
  0
SCALE
  5
2C7
102
{ACAD_REACTORS
330
2BB
102
}
330
2BB
100
AcDbScale
 70
     0
300
1:100
140
1.0
141
100.0
290
     0
  0
SCALE
  5
2C8
102
{ACAD_REACTORS
330
2BB
102
}
330
2BB
100
AcDbScale
 70
     0
300
2:1
140
2.0
141
1.0
290
     0
  0
SCALE
  5
2C9
102
{ACAD_REACTORS
330
2BB
102
}
330
2BB
100
AcDbScale
 70
     0
300
4:1
140
4.0
141
1.0
290
     0
  0
SCALE
  5
2CA
102
{ACAD_REACTORS
330
2BB
102
}
330
2BB
100
AcDbScale
 70
     0
300
8:1
140
8.0
141
1.0
290
     0
  0
SCALE
  5
2CB
102
{ACAD_REACTORS
330
2BB
102
}
330
2BB
100
AcDbScale
 70
     0
300
10:1
140
10.0
141
1.0
290
     0
  0
SCALE
  5
2CC
102
{ACAD_REACTORS
330
2BB
102
}
330
2BB
100
AcDbScale
 70
     0
300
100:1
140
100.0
141
1.0
290
     0
  0
SCALE
  5
2CD
102
{ACAD_REACTORS
330
2BB
102
}
330
2BB
100
AcDbScale
 70
     0
300
1/128" = 1'-0"
140
0.0078125
141
12.0
290
     0
  0
SCALE
  5
2CE
102
{ACAD_REACTORS
330
2BB
102
}
330
2BB
100
AcDbScale
 70
     0
300
1/64" = 1'-0"
140
0.015625
141
12.0
290
     0
  0
SCALE
  5
2CF
102
{ACAD_REACTORS
330
2BB
102
}
330
2BB
100
AcDbScale
 70
     0
300
1/32" = 1'-0"
140
0.03125
141
12.0
290
     0
  0
SCALE
  5
2D0
102
{ACAD_REACTORS
330
2BB
102
}
330
2BB
100
AcDbScale
 70
     0
300
1/16" = 1'-0"
140
0.0625
141
12.0
290
     0
  0
SCALE
  5
2D1
102
{ACAD_REACTORS
330
2BB
102
}
330
2BB
100
AcDbScale
 70
     0
300
3/32" = 1'-0"
140
0.09375
141
12.0
290
     0
  0
SCALE
  5
2D2
102
{ACAD_REACTORS
330
2BB
102
}
330
2BB
100
AcDbScale
 70
     0
300
1/8" = 1'-0"
140
0.125
141
12.0
290
     0
  0
SCALE
  5
2D3
102
{ACAD_REACTORS
330
2BB
102
}
330
2BB
100
AcDbScale
 70
     0
300
3/16" = 1'-0"
140
0.1875
141
12.0
290
     0
  0
SCALE
  5
2D4
102
{ACAD_REACTORS
330
2BB
102
}
330
2BB
100
AcDbScale
 70
     0
300
1/4" = 1'-0"
140
0.25
141
12.0
290
     0
  0
SCALE
  5
2D5
102
{ACAD_REACTORS
330
2BB
102
}
330
2BB
100
AcDbScale
 70
     0
300
3/8" = 1'-0"
140
0.375
141
12.0
290
     0
  0
SCALE
  5
2D6
102
{ACAD_REACTORS
330
2BB
102
}
330
2BB
100
AcDbScale
 70
     0
300
1/2" = 1'-0"
140
0.5
141
12.0
290
     0
  0
SCALE
  5
2D7
102
{ACAD_REACTORS
330
2BB
102
}
330
2BB
100
AcDbScale
 70
     0
300
3/4" = 1'-0"
140
0.75
141
12.0
290
     0
  0
SCALE
  5
2D8
102
{ACAD_REACTORS
330
2BB
102
}
330
2BB
100
AcDbScale
 70
     0
300
1" = 1'-0"
140
1.0
141
12.0
290
     0
  0
SCALE
  5
2D9
102
{ACAD_REACTORS
330
2BB
102
}
330
2BB
100
AcDbScale
 70
     0
300
1-1/2" = 1'-0"
140
1.5
141
12.0
290
     0
  0
SCALE
  5
2DA
102
{ACAD_REACTORS
330
2BB
102
}
330
2BB
100
AcDbScale
 70
     0
300
3" = 1'-0"
140
3.0
141
12.0
290
     0
  0
SCALE
  5
2DB
102
{ACAD_REACTORS
330
2BB
102
}
330
2BB
100
AcDbScale
 70
     0
300
6" = 1'-0"
140
6.0
141
12.0
290
     0
  0
SCALE
  5
2DC
102
{ACAD_REACTORS
330
2BB
102
}
330
2BB
100
AcDbScale
 70
     0
300
1'-0" = 1'-0"
140
12.0
141
12.0
290
     0
  0
VISUALSTYLE
  5
2F
102
{ACAD_REACTORS
330
2A
102
}
102
{ACAD_XDICTIONARY
360
303
102
}
330
2A
100
AcDbVisualStyle
  2
2dWireframe
 70
     4
 71
     0
 72
     2
 73
     0
 90
        0
 40
-0.6
 41
-30.0
 62
     5
 63
     7
 74
     1
 91
        4
 64
     7
 65
   257
 75
     1
175
     1
 42
1.0
 92
        0
 66
   257
 43
1.0
 76
     1
 77
     6
 78
     2
 67
     7
 79
     5
170
     0
171
     0
290
     0
174
     0
 93
        1
 44
0.0
173
     0
291
     0
 45
0.0
1001
ACAD
1000
AcDbSavedByObjectVersion
1070
     0
  0
VISUALSTYLE
  5
31
102
{ACAD_REACTORS
330
2A
102
}
102
{ACAD_XDICTIONARY
360
307
102
}
330
2A
100
AcDbVisualStyle
  2
3D Hidden
 70
     6
 71
     1
 72
     2
 73
     2
 90
        0
 40
-0.6
 41
-30.0
 62
     5
 63
     7
 74
     2
 91
        2
 64
     7
 65
   257
 75
     2
175
     1
 42
40.0
 92
        0
 66
   257
 43
1.0
 76
     1
 77
     6
 78
     2
 67
     7
 79
     3
170
     0
171
     0
290
     0
174
     0
 93
        1
 44
0.0
173
     0
291
     0
 45
0.0
1001
ACAD
1000
AcDbSavedByObjectVersion
1070
     0
  0
VISUALSTYLE
  5
30
102
{ACAD_REACTORS
330
2A
102
}
102
{ACAD_XDICTIONARY
360
305
102
}
330
2A
100
AcDbVisualStyle
  2
3dWireframe
 70
     5
 71
     0
 72
     2
 73
     0
 90
        0
 40
-0.6
 41
-30.0
 62
     5
 63
     7
 74
     1
 91
        4
 64
     7
 65
   257
 75
     1
175
     1
 42
1.0
 92
        0
 66
   257
 43
1.0
 76
     1
 77
     6
 78
     2
 67
     7
 79
     5
170
     0
171
     0
290
     0
174
     0
 93
        1
 44
0.0
173
     0
291
     0
 45
0.0
1001
ACAD
1000
AcDbSavedByObjectVersion
1070
     0
  0
VISUALSTYLE
  5
32
102
{ACAD_REACTORS
330
2A
102
}
102
{ACAD_XDICTIONARY
360
309
102
}
330
2A
100
AcDbVisualStyle
  2
Basic
 70
     7
 71
     1
 72
     0
 73
     1
 90
        0
 40
-0.6
 41
-30.0
 62
     5
 63
     7
 74
     0
 91
        4
 64
     7
 65
   257
 75
     1
175
     1
 42
1.0
 92
        8
 66
     7
 43
1.0
 76
     1
 77
     6
 78
     2
 67
     7
 79
     5
170
     0
171
     0
290
     0
174
     0
 93
        1
 44
0.0
173
     0
291
     1
 45
0.0
1001
ACAD
1000
AcDbSavedByObjectVersion
1070
     0
  0
VISUALSTYLE
  5
36
102
{ACAD_REACTORS
330
2A
102
}
102
{ACAD_XDICTIONARY
360
311
102
}
330
2A
100
AcDbVisualStyle
  2
Brighten
 70
    12
 71
     2
 72
     2
 73
     0
 90
        0
 40
-0.6
 41
-30.0
 62
     5
 63
     7
 74
     1
 91
        4
 64
     7
 65
   257
 75
     1
175
     1
 42
1.0
 92
        8
 66
     7
 43
1.0
 76
     1
 77
     6
 78
     2
 67
     7
 79
     5
170
     0
171
     0
290
     0
174
     0
 93
        1
 44
50.0
173
     0
291
     1
 45
0.0
1001
ACAD
1000
AcDbSavedByObjectVersion
1070
     0
  0
VISUALSTYLE
  5
3A
102
{ACAD_REACTORS
330
2A
102
}
102
{ACAD_XDICTIONARY
360
319
102
}
330
2A
100
AcDbVisualStyle
  2
ColorChange
 70
    16
 71
     2
 72
     2
 73
     3
 90
        0
 40
-0.6
 41
-30.0
 62
     5
 63
     8
 74
     1
 91
        4
 64
     7
 65
   257
 75
     1
175
     1
 42
1.0
 92
        8
 66
     8
 43
1.0
 76
     1
 77
     6
 78
     2
 67
     7
 79
     5
170
     0
171
     0
290
     0
174
     0
 93
        1
 44
0.0
173
     0
291
     1
 45
0.0
1001
ACAD
1000
AcDbSavedByObjectVersion
1070
     0
  0
VISUALSTYLE
  5
34
102
{ACAD_REACTORS
330
2A
102
}
102
{ACAD_XDICTIONARY
360
30D
102
}
330
2A
100
AcDbVisualStyle
  2
Conceptual
 70
     9
 71
     3
 72
     2
 73
     0
 90
        0
 40
-0.6
 41
-30.0
 62
     5
 63
     7
 74
     2
 91
        2
 64
     7
 65
   257
 75
     1
175
     1
 42
40.0
 92
        8
 66
     7
 43
1.0
 76
     1
 77
     6
 78
     2
 67
     7
 79
     3
170
     0
171
     0
290
     0
174
     0
 93
        1
 44
0.0
173
     0
291
     0
 45
0.0
1001
ACAD
1000
AcDbSavedByObjectVersion
1070
     0
  0
VISUALSTYLE
  5
35
102
{ACAD_REACTORS
330
2A
102
}
102
{ACAD_XDICTIONARY
360
30F
102
}
330
2A
100
AcDbVisualStyle
  2
Dim
 70
    11
 71
     2
 72
     2
 73
     0
 90
        0
 40
-0.6
 41
-30.0
 62
     5
 63
     7
 74
     1
 91
        4
 64
     7
 65
   257
 75
     1
175
     1
 42
1.0
 92
        8
 66
     7
 43
1.0
 76
     1
 77
     6
 78
     2
 67
     7
 79
     5
170
     0
171
     0
290
     0
174
     0
 93
        1
 44
-50.0
173
     0
291
     1
 45
0.0
1001
ACAD
1000
AcDbSavedByObjectVersion
1070
     0
  0
VISUALSTYLE
  5
39
102
{ACAD_REACTORS
330
2A
102
}
102
{ACAD_XDICTIONARY
360
317
102
}
330
2A
100
AcDbVisualStyle
  2
Facepattern
 70
    15
 71
     2
 72
     2
 73
     0
 90
        0
 40
-0.6
 41
-30.0
 62
     5
 63
     7
 74
     1
 91
        4
 64
     7
 65
   257
 75
     1
175
     1
 42
1.0
 92
        8
 66
     7
 43
1.0
 76
     1
 77
     6
 78
     2
 67
     7
 79
     5
170
     0
171
     0
290
     0
174
     0
 93
        1
 44
0.0
173
     0
291
     1
 45
0.0
1001
ACAD
1000
AcDbSavedByObjectVersion
1070
     0
  0
VISUALSTYLE
  5
2B
102
{ACAD_REACTORS
330
2A
102
}
102
{ACAD_XDICTIONARY
360
2FB
102
}
330
2A
100
AcDbVisualStyle
  2
Flat
 70
     0
 71
     2
 72
     1
 73
     1
 90
        2
 40
-0.6
 41
30.0
 62
     5
 63
     7
 74
     0
 91
        4
 64
     7
 65
   257
 75
     1
175
     1
 42
1.0
 92
        8
 66
     7
 43
1.0
 76
     1
 77
     6
 78
     2
 67
     7
 79
     5
170
     0
171
     0
290
     0
174
     0
 93
       13
 44
0.0
173
     0
291
     1
 45
0.0
1001
ACAD
1000
AcDbSavedByObjectVersion
1070
     0
  0
VISUALSTYLE
  5
2C
102
{ACAD_REACTORS
330
2A
102
}
102
{ACAD_XDICTIONARY
360
2FD
102
}
330
2A
100
AcDbVisualStyle
  2
FlatWithEdges
 70
     1
 71
     2
 72
     1
 73
     1
 90
        2
 40
-0.6
 41
30.0
 62
     5
 63
     7
 74
     1
 91
        4
 64
     7
 65
   257
 75
     1
175
     1
 42
1.0
 92
        0
 66
   257
 43
1.0
 76
     1
 77
     6
 78
     2
 67
     7
 79
     5
170
     0
171
     0
290
     0
174
     0
 93
       13
 44
0.0
173
     0
291
     1
 45
0.0
1001
ACAD
1000
AcDbSavedByObjectVersion
1070
     0
  0
VISUALSTYLE
  5
2D
102
{ACAD_REACTORS
330
2A
102
}
102
{ACAD_XDICTIONARY
360
2FF
102
}
330
2A
100
AcDbVisualStyle
  2
Gouraud
 70
     2
 71
     2
 72
     2
 73
     1
 90
        2
 40
-0.6
 41
30.0
 62
     5
 63
     7
 74
     0
 91
        4
 64
     7
 65
   257
 75
     1
175
     1
 42
1.0
 92
        0
 66
     7
 43
1.0
 76
     1
 77
     6
 78
     2
 67
     7
 79
     5
170
     0
171
     0
290
     0
174
     0
 93
       13
 44
0.0
173
     0
291
     1
 45
0.0
1001
ACAD
1000
AcDbSavedByObjectVersion
1070
     0
  0
VISUALSTYLE
  5
2E
102
{ACAD_REACTORS
330
2A
102
}
102
{ACAD_XDICTIONARY
360
301
102
}
330
2A
100
AcDbVisualStyle
  2
GouraudWithEdges
 70
     3
 71
     2
 72
     2
 73
     1
 90
        2
 40
-0.6
 41
30.0
 62
     5
 63
     7
 74
     1
 91
        4
 64
     7
 65
   257
 75
     1
175
     1
 42
1.0
 92
        0
 66
   257
 43
1.0
 76
     1
 77
     6
 78
     2
 67
     7
 79
     5
170
     0
171
     0
290
     0
174
     0
 93
       13
 44
0.0
173
     0
291
     1
 45
0.0
1001
ACAD
1000
AcDbSavedByObjectVersion
1070
     0
  0
VISUALSTYLE
  5
38
102
{ACAD_REACTORS
330
2A
102
}
102
{ACAD_XDICTIONARY
360
315
102
}
330
2A
100
AcDbVisualStyle
  2
Linepattern
 70
    14
 71
     2
 72
     2
 73
     0
 90
        0
 40
-0.6
 41
-30.0
 62
     5
 63
     7
 74
     1
 91
        4
 64
     7
 65
   257
 75
     7
175
     7
 42
1.0
 92
        8
 66
     7
 43
1.0
 76
     1
 77
     6
 78
     2
 67
     7
 79
     5
170
     0
171
     0
290
     0
174
     0
 93
        1
 44
0.0
173
     0
291
     1
 45
0.0
1001
ACAD
1000
AcDbSavedByObjectVersion
1070
     0
  0
VISUALSTYLE
  5
33
102
{ACAD_REACTORS
330
2A
102
}
102
{ACAD_XDICTIONARY
360
30B
102
}
330
2A
100
AcDbVisualStyle
  2
Realistic
 70
     8
 71
     2
 72
     2
 73
     0
 90
        0
 40
-0.6
 41
-30.0
 62
     5
 63
     7
 74
     1
 91
        0
 64
     7
 65
   257
 75
     1
175
     1
 42
1.0
 92
        8
 66
     8
 43
1.0
 76
     1
 77
     6
 78
     2
 67
     7
 79
     5
170
     0
171
     0
290
     0
174
     0
 93
       13
 44
0.0
173
     0
291
     0
 45
0.0
1001
ACAD
1000
AcDbSavedByObjectVersion
1070
     0
  0
VISUALSTYLE
  5
37
102
{ACAD_REACTORS
330
2A
102
}
102
{ACAD_XDICTIONARY
360
313
102
}
330
2A
100
AcDbVisualStyle
  2
Thicken
 70
    13
 71
     2
 72
     2
 73
     0
 90
        0
 40
-0.6
 41
-30.0
 62
     5
 63
     7
 74
     1
 91
        4
 64
     7
 65
   257
 75
     1
175
     1
 42
1.0
 92
       12
 66
     7
 43
1.0
 76
     1
 77
     6
 78
     2
 67
     7
 79
     5
170
     0
171
     0
290
     0
174
     0
 93
        1
 44
0.0
173
     0
291
     1
 45
0.0
1001
ACAD
1000
AcDbSavedByObjectVersion
1070
     0
  0
DICTIONARYVAR
  5
2F8
102
{ACAD_REACTORS
330
2F5
102
}
330
2F5
100
DictionaryVariables
280
     0
  1
1:1
  0
DICTIONARYVAR
  5
2F9
102
{ACAD_REACTORS
330
2F5
102
}
330
2F5
100
DictionaryVariables
280
     0
  1
2
  0
DICTIONARYVAR
  5
2FA
102
{ACAD_REACTORS
330
2F5
102
}
330
2F5
100
DictionaryVariables
280
     0
  1
1
  0
DICTIONARY
  5
31D
330
3D
100
AcDbDictionary
280
     1
281
     1
  3
ACAD_XREC_ROUNDTRIP
360
31E
  0
DICTIONARY
  5
31B
330
3C
100
AcDbDictionary
280
     1
281
     1
  3
ACAD_XREC_ROUNDTRIP
360
31C
  0
DICTIONARY
  5
31F
330
3E
100
AcDbDictionary
280
     1
281
     1
  3
ACAD_XREC_ROUNDTRIP
360
320
  0
DICTIONARY
  5
303
330
2F
100
AcDbDictionary
280
     1
281
     1
  3
ACAD_XREC_ROUNDTRIP
360
304
  0
DICTIONARY
  5
307
330
31
100
AcDbDictionary
280
     1
281
     1
  3
ACAD_XREC_ROUNDTRIP
360
308
  0
DICTIONARY
  5
305
330
30
100
AcDbDictionary
280
     1
281
     1
  3
ACAD_XREC_ROUNDTRIP
360
306
  0
DICTIONARY
  5
309
330
32
100
AcDbDictionary
280
     1
281
     1
  3
ACAD_XREC_ROUNDTRIP
360
30A
  0
DICTIONARY
  5
311
330
36
100
AcDbDictionary
280
     1
281
     1
  3
ACAD_XREC_ROUNDTRIP
360
312
  0
DICTIONARY
  5
319
330
3A
100
AcDbDictionary
280
     1
281
     1
  3
ACAD_XREC_ROUNDTRIP
360
31A
  0
DICTIONARY
  5
30D
330
34
100
AcDbDictionary
280
     1
281
     1
  3
ACAD_XREC_ROUNDTRIP
360
30E
  0
DICTIONARY
  5
30F
330
35
100
AcDbDictionary
280
     1
281
     1
  3
ACAD_XREC_ROUNDTRIP
360
310
  0
DICTIONARY
  5
317
330
39
100
AcDbDictionary
280
     1
281
     1
  3
ACAD_XREC_ROUNDTRIP
360
318
  0
DICTIONARY
  5
2FB
330
2B
100
AcDbDictionary
280
     1
281
     1
  3
ACAD_XREC_ROUNDTRIP
360
2FC
  0
DICTIONARY
  5
2FD
330
2C
100
AcDbDictionary
280
     1
281
     1
  3
ACAD_XREC_ROUNDTRIP
360
2FE
  0
DICTIONARY
  5
2FF
330
2D
100
AcDbDictionary
280
     1
281
     1
  3
ACAD_XREC_ROUNDTRIP
360
300
  0
DICTIONARY
  5
301
330
2E
100
AcDbDictionary
280
     1
281
     1
  3
ACAD_XREC_ROUNDTRIP
360
302
  0
DICTIONARY
  5
315
330
38
100
AcDbDictionary
280
     1
281
     1
  3
ACAD_XREC_ROUNDTRIP
360
316
  0
DICTIONARY
  5
30B
330
33
100
AcDbDictionary
280
     1
281
     1
  3
ACAD_XREC_ROUNDTRIP
360
30C
  0
DICTIONARY
  5
313
330
37
100
AcDbDictionary
280
     1
281
     1
  3
ACAD_XREC_ROUNDTRIP
360
314
  0
XRECORD
  5
31E
102
{ACAD_REACTORS
330
31D
102
}
330
31D
100
AcDbXrecord
280
     1
102
MATERIAL
148
0.0
149
0.0
149
0.0
 93
        0
 94
      127
282
     0
 72
     1
 77
     1
171
     1
175
     1
179
     1
273
     0
  0
XRECORD
  5
31C
102
{ACAD_REACTORS
330
31B
102
}
330
31B
100
AcDbXrecord
280
     1
102
MATERIAL
148
0.0
149
0.0
149
0.0
 93
        0
 94
      127
282
     0
 72
     1
 77
     1
171
     1
175
     1
179
     1
273
     0
  0
XRECORD
  5
320
102
{ACAD_REACTORS
330
31F
102
}
330
31F
100
AcDbXrecord
280
     1
102
MATERIAL
148
0.0
149
0.0
149
0.0
 93
        0
 94
      127
282
     0
 72
     1
 77
     1
171
     1
175
     1
179
     1
273
     0
  0
XRECORD
  5
304
102
{ACAD_REACTORS
330
303
102
}
330
303
100
AcDbXrecord
280
     1
102
RTVSPropertyOp0
 70
     1
102
RTVSPropertyOp1
 70
     1
102
RTVSPropertyOp2
 70
     1
102
RTVSPropertyOp3
 70
     1
102
RTVSPropertyOp4
 70
     1
102
RTVSPropertyOp5
 70
     1
102
RTVSPropertyOp6
 70
     1
102
RTVSPropertyOp7
 70
     1
102
RTVSPropertyOp8
 70
     1
102
RTVSPropertyOp9
 70
     1
102
RTVSPropertyOp10
 70
     1
102
RTVSPropertyOp11
 70
     1
102
RTVSPropertyOp12
 70
     1
102
RTVSPropertyOp13
 70
     1
102
RTVSPropertyOp14
 70
     1
102
RTVSPropertyOp15
 70
     1
102
RTVSPropertyOp16
 70
     1
102
RTVSPropertyOp17
 70
     1
102
RTVSPropertyOp18
 70
     1
102
RTVSPropertyOp19
 70
     1
102
RTVSPropertyOp20
 70
     1
102
RTVSPropertyOp21
 70
     1
102
RTVSPropertyOp22
 70
     1
102
RTVSPropertyOp23
 70
     1
102
RTVSPropertyOp24
 70
     1
102
RTVSPropertyOp25
 70
     1
102
RTVSPropertyOp26
 70
     1
102
RTVSPropertyOp27
 70
     1
  0
XRECORD
  5
308
102
{ACAD_REACTORS
330
307
102
}
330
307
100
AcDbXrecord
280
     1
102
RTVSPropertyOp0
 70
     1
102
RTVSPropertyOp1
 70
     1
102
RTVSPropertyOp2
 70
     1
102
RTVSPropertyOp3
 70
     1
102
RTVSPropertyOp4
 70
     1
102
RTVSPropertyOp5
 70
     1
102
RTVSPropertyOp6
 70
     1
102
RTVSPropertyOp7
 70
     1
102
RTVSPropertyOp8
 70
     1
102
RTVSPropertyOp9
 70
     1
102
RTVSPropertyOp10
 70
     1
102
RTVSPropertyOp11
 70
     1
102
RTVSPropertyOp12
 70
     1
102
RTVSPropertyOp13
 70
     1
102
RTVSPropertyOp14
 70
     1
102
RTVSPropertyOp15
 70
     1
102
RTVSPropertyOp16
 70
     1
102
RTVSPropertyOp17
 70
     1
102
RTVSPropertyOp18
 70
     1
102
RTVSPropertyOp19
 70
     1
102
RTVSPropertyOp20
 70
     1
102
RTVSPropertyOp21
 70
     1
102
RTVSPropertyOp22
 70
     1
102
RTVSPropertyOp23
 70
     1
102
RTVSPropertyOp24
 70
     1
102
RTVSPropertyOp25
 70
     1
102
RTVSPropertyOp26
 70
     1
102
RTVSPropertyOp27
 70
     1
  0
XRECORD
  5
306
102
{ACAD_REACTORS
330
305
102
}
330
305
100
AcDbXrecord
280
     1
102
RTVSPropertyOp0
 70
     1
102
RTVSPropertyOp1
 70
     1
102
RTVSPropertyOp2
 70
     1
102
RTVSPropertyOp3
 70
     1
102
RTVSPropertyOp4
 70
     1
102
RTVSPropertyOp5
 70
     1
102
RTVSPropertyOp6
 70
     1
102
RTVSPropertyOp7
 70
     1
102
RTVSPropertyOp8
 70
     1
102
RTVSPropertyOp9
 70
     1
102
RTVSPropertyOp10
 70
     1
102
RTVSPropertyOp11
 70
     1
102
RTVSPropertyOp12
 70
     1
102
RTVSPropertyOp13
 70
     1
102
RTVSPropertyOp14
 70
     1
102
RTVSPropertyOp15
 70
     1
102
RTVSPropertyOp16
 70
     1
102
RTVSPropertyOp17
 70
     1
102
RTVSPropertyOp18
 70
     1
102
RTVSPropertyOp19
 70
     1
102
RTVSPropertyOp20
 70
     1
102
RTVSPropertyOp21
 70
     1
102
RTVSPropertyOp22
 70
     1
102
RTVSPropertyOp23
 70
     1
102
RTVSPropertyOp24
 70
     1
102
RTVSPropertyOp25
 70
     1
102
RTVSPropertyOp26
 70
     1
102
RTVSPropertyOp27
 70
     1
  0
XRECORD
  5
30A
102
{ACAD_REACTORS
330
309
102
}
330
309
100
AcDbXrecord
280
     1
102
RTVSPropertyOp0
 70
     1
102
RTVSPropertyOp1
 70
     1
102
RTVSPropertyOp2
 70
     1
102
RTVSPropertyOp3
 70
     1
102
RTVSPropertyOp4
 70
     1
102
RTVSPropertyOp5
 70
     1
102
RTVSPropertyOp6
 70
     1
102
RTVSPropertyOp7
 70
     1
102
RTVSPropertyOp8
 70
     1
102
RTVSPropertyOp9
 70
     1
102
RTVSPropertyOp10
 70
     1
102
RTVSPropertyOp11
 70
     1
102
RTVSPropertyOp12
 70
     1
102
RTVSPropertyOp13
 70
     1
102
RTVSPropertyOp14
 70
     1
102
RTVSPropertyOp15
 70
     1
102
RTVSPropertyOp16
 70
     1
102
RTVSPropertyOp17
 70
     1
102
RTVSPropertyOp18
 70
     1
102
RTVSPropertyOp19
 70
     1
102
RTVSPropertyOp20
 70
     1
102
RTVSPropertyOp21
 70
     1
102
RTVSPropertyOp22
 70
     1
102
RTVSPropertyOp23
 70
     1
102
RTVSPropertyOp24
 70
     1
102
RTVSPropertyOp25
 70
     1
102
RTVSPropertyOp26
 70
     1
102
RTVSPropertyOp27
 70
     1
  0
XRECORD
  5
312
102
{ACAD_REACTORS
330
311
102
}
330
311
100
AcDbXrecord
280
     1
102
RTVSPropertyOp0
 70
     1
102
RTVSPropertyOp1
 70
     1
102
RTVSPropertyOp2
 70
     1
102
RTVSPropertyOp3
 70
     1
102
RTVSPropertyOp4
 70
     1
102
RTVSPropertyOp5
 70
     1
102
RTVSPropertyOp6
 70
     1
102
RTVSPropertyOp7
 70
     1
102
RTVSPropertyOp8
 70
     1
102
RTVSPropertyOp9
 70
     1
102
RTVSPropertyOp10
 70
     1
102
RTVSPropertyOp11
 70
     1
102
RTVSPropertyOp12
 70
     1
102
RTVSPropertyOp13
 70
     1
102
RTVSPropertyOp14
 70
     1
102
RTVSPropertyOp15
 70
     1
102
RTVSPropertyOp16
 70
     1
102
RTVSPropertyOp17
 70
     1
102
RTVSPropertyOp18
 70
     1
102
RTVSPropertyOp19
 70
     1
102
RTVSPropertyOp20
 70
     1
102
RTVSPropertyOp21
 70
     1
102
RTVSPropertyOp22
 70
     1
102
RTVSPropertyOp23
 70
     1
102
RTVSPropertyOp24
 70
     1
102
RTVSPropertyOp25
 70
     1
102
RTVSPropertyOp26
 70
     1
102
RTVSPropertyOp27
 70
     1
  0
XRECORD
  5
31A
102
{ACAD_REACTORS
330
319
102
}
330
319
100
AcDbXrecord
280
     1
102
RTVSPropertyOp0
 70
     1
102
RTVSPropertyOp1
 70
     1
102
RTVSPropertyOp2
 70
     1
102
RTVSPropertyOp3
 70
     1
102
RTVSPropertyOp4
 70
     1
102
RTVSPropertyOp5
 70
     1
102
RTVSPropertyOp6
 70
     1
102
RTVSPropertyOp7
 70
     1
102
RTVSPropertyOp8
 70
     1
102
RTVSPropertyOp9
 70
     1
102
RTVSPropertyOp10
 70
     1
102
RTVSPropertyOp11
 70
     1
102
RTVSPropertyOp12
 70
     1
102
RTVSPropertyOp13
 70
     1
102
RTVSPropertyOp14
 70
     1
102
RTVSPropertyOp15
 70
     1
102
RTVSPropertyOp16
 70
     1
102
RTVSPropertyOp17
 70
     1
102
RTVSPropertyOp18
 70
     1
102
RTVSPropertyOp19
 70
     1
102
RTVSPropertyOp20
 70
     1
102
RTVSPropertyOp21
 70
     1
102
RTVSPropertyOp22
 70
     1
102
RTVSPropertyOp23
 70
     1
102
RTVSPropertyOp24
 70
     1
102
RTVSPropertyOp25
 70
     1
102
RTVSPropertyOp26
 70
     1
102
RTVSPropertyOp27
 70
     1
  0
XRECORD
  5
30E
102
{ACAD_REACTORS
330
30D
102
}
330
30D
100
AcDbXrecord
280
     1
102
RTVSPropertyOp0
 70
     1
102
RTVSPropertyOp1
 70
     1
102
RTVSPropertyOp2
 70
     1
102
RTVSPropertyOp3
 70
     1
102
RTVSPropertyOp4
 70
     1
102
RTVSPropertyOp5
 70
     1
102
RTVSPropertyOp6
 70
     1
102
RTVSPropertyOp7
 70
     1
102
RTVSPropertyOp8
 70
     1
102
RTVSPropertyOp9
 70
     1
102
RTVSPropertyOp10
 70
     1
102
RTVSPropertyOp11
 70
     1
102
RTVSPropertyOp12
 70
     1
102
RTVSPropertyOp13
 70
     1
102
RTVSPropertyOp14
 70
     1
102
RTVSPropertyOp15
 70
     1
102
RTVSPropertyOp16
 70
     1
102
RTVSPropertyOp17
 70
     1
102
RTVSPropertyOp18
 70
     1
102
RTVSPropertyOp19
 70
     1
102
RTVSPropertyOp20
 70
     1
102
RTVSPropertyOp21
 70
     1
102
RTVSPropertyOp22
 70
     1
102
RTVSPropertyOp23
 70
     1
102
RTVSPropertyOp24
 70
     1
102
RTVSPropertyOp25
 70
     1
102
RTVSPropertyOp26
 70
     1
102
RTVSPropertyOp27
 70
     1
  0
XRECORD
  5
310
102
{ACAD_REACTORS
330
30F
102
}
330
30F
100
AcDbXrecord
280
     1
102
RTVSPropertyOp0
 70
     1
102
RTVSPropertyOp1
 70
     1
102
RTVSPropertyOp2
 70
     1
102
RTVSPropertyOp3
 70
     1
102
RTVSPropertyOp4
 70
     1
102
RTVSPropertyOp5
 70
     1
102
RTVSPropertyOp6
 70
     1
102
RTVSPropertyOp7
 70
     1
102
RTVSPropertyOp8
 70
     1
102
RTVSPropertyOp9
 70
     1
102
RTVSPropertyOp10
 70
     1
102
RTVSPropertyOp11
 70
     1
102
RTVSPropertyOp12
 70
     1
102
RTVSPropertyOp13
 70
     1
102
RTVSPropertyOp14
 70
     1
102
RTVSPropertyOp15
 70
     1
102
RTVSPropertyOp16
 70
     1
102
RTVSPropertyOp17
 70
     1
102
RTVSPropertyOp18
 70
     1
102
RTVSPropertyOp19
 70
     1
102
RTVSPropertyOp20
 70
     1
102
RTVSPropertyOp21
 70
     1
102
RTVSPropertyOp22
 70
     1
102
RTVSPropertyOp23
 70
     1
102
RTVSPropertyOp24
 70
     1
102
RTVSPropertyOp25
 70
     1
102
RTVSPropertyOp26
 70
     1
102
RTVSPropertyOp27
 70
     1
  0
XRECORD
  5
318
102
{ACAD_REACTORS
330
317
102
}
330
317
100
AcDbXrecord
280
     1
102
RTVSPropertyOp0
 70
     1
102
RTVSPropertyOp1
 70
     1
102
RTVSPropertyOp2
 70
     1
102
RTVSPropertyOp3
 70
     1
102
RTVSPropertyOp4
 70
     1
102
RTVSPropertyOp5
 70
     1
102
RTVSPropertyOp6
 70
     1
102
RTVSPropertyOp7
 70
     1
102
RTVSPropertyOp8
 70
     1
102
RTVSPropertyOp9
 70
     1
102
RTVSPropertyOp10
 70
     1
102
RTVSPropertyOp11
 70
     1
102
RTVSPropertyOp12
 70
     1
102
RTVSPropertyOp13
 70
     1
102
RTVSPropertyOp14
 70
     1
102
RTVSPropertyOp15
 70
     1
102
RTVSPropertyOp16
 70
     1
102
RTVSPropertyOp17
 70
     1
102
RTVSPropertyOp18
 70
     1
102
RTVSPropertyOp19
 70
     1
102
RTVSPropertyOp20
 70
     1
102
RTVSPropertyOp21
 70
     1
102
RTVSPropertyOp22
 70
     1
102
RTVSPropertyOp23
 70
     1
102
RTVSPropertyOp24
 70
     1
102
RTVSPropertyOp25
 70
     1
102
RTVSPropertyOp26
 70
     1
102
RTVSPropertyOp27
 70
     1
  0
XRECORD
  5
2FC
102
{ACAD_REACTORS
330
2FB
102
}
330
2FB
100
AcDbXrecord
280
     1
102
RTVSPropertyOp0
 70
     1
102
RTVSPropertyOp1
 70
     1
102
RTVSPropertyOp2
 70
     1
102
RTVSPropertyOp3
 70
     1
102
RTVSPropertyOp4
 70
     1
102
RTVSPropertyOp5
 70
     1
102
RTVSPropertyOp6
 70
     1
102
RTVSPropertyOp7
 70
     1
102
RTVSPropertyOp8
 70
     1
102
RTVSPropertyOp9
 70
     1
102
RTVSPropertyOp10
 70
     1
102
RTVSPropertyOp11
 70
     1
102
RTVSPropertyOp12
 70
     1
102
RTVSPropertyOp13
 70
     1
102
RTVSPropertyOp14
 70
     1
102
RTVSPropertyOp15
 70
     1
102
RTVSPropertyOp16
 70
     1
102
RTVSPropertyOp17
 70
     1
102
RTVSPropertyOp18
 70
     1
102
RTVSPropertyOp19
 70
     1
102
RTVSPropertyOp20
 70
     1
102
RTVSPropertyOp21
 70
     1
102
RTVSPropertyOp22
 70
     1
102
RTVSPropertyOp23
 70
     1
102
RTVSPropertyOp24
 70
     1
102
RTVSPropertyOp25
 70
     1
102
RTVSPropertyOp26
 70
     1
102
RTVSPropertyOp27
 70
     1
  0
XRECORD
  5
2FE
102
{ACAD_REACTORS
330
2FD
102
}
330
2FD
100
AcDbXrecord
280
     1
102
RTVSPropertyOp0
 70
     1
102
RTVSPropertyOp1
 70
     1
102
RTVSPropertyOp2
 70
     1
102
RTVSPropertyOp3
 70
     1
102
RTVSPropertyOp4
 70
     1
102
RTVSPropertyOp5
 70
     1
102
RTVSPropertyOp6
 70
     1
102
RTVSPropertyOp7
 70
     1
102
RTVSPropertyOp8
 70
     1
102
RTVSPropertyOp9
 70
     1
102
RTVSPropertyOp10
 70
     1
102
RTVSPropertyOp11
 70
     1
102
RTVSPropertyOp12
 70
     1
102
RTVSPropertyOp13
 70
     1
102
RTVSPropertyOp14
 70
     1
102
RTVSPropertyOp15
 70
     1
102
RTVSPropertyOp16
 70
     1
102
RTVSPropertyOp17
 70
     1
102
RTVSPropertyOp18
 70
     1
102
RTVSPropertyOp19
 70
     1
102
RTVSPropertyOp20
 70
     1
102
RTVSPropertyOp21
 70
     1
102
RTVSPropertyOp22
 70
     1
102
RTVSPropertyOp23
 70
     1
102
RTVSPropertyOp24
 70
     1
102
RTVSPropertyOp25
 70
     1
102
RTVSPropertyOp26
 70
     1
102
RTVSPropertyOp27
 70
     1
  0
XRECORD
  5
300
102
{ACAD_REACTORS
330
2FF
102
}
330
2FF
100
AcDbXrecord
280
     1
102
RTVSPropertyOp0
 70
     1
102
RTVSPropertyOp1
 70
     1
102
RTVSPropertyOp2
 70
     1
102
RTVSPropertyOp3
 70
     1
102
RTVSPropertyOp4
 70
     1
102
RTVSPropertyOp5
 70
     1
102
RTVSPropertyOp6
 70
     1
102
RTVSPropertyOp7
 70
     1
102
RTVSPropertyOp8
 70
     1
102
RTVSPropertyOp9
 70
     1
102
RTVSPropertyOp10
 70
     1
102
RTVSPropertyOp11
 70
     1
102
RTVSPropertyOp12
 70
     1
102
RTVSPropertyOp13
 70
     1
102
RTVSPropertyOp14
 70
     1
102
RTVSPropertyOp15
 70
     1
102
RTVSPropertyOp16
 70
     1
102
RTVSPropertyOp17
 70
     1
102
RTVSPropertyOp18
 70
     1
102
RTVSPropertyOp19
 70
     1
102
RTVSPropertyOp20
 70
     1
102
RTVSPropertyOp21
 70
     1
102
RTVSPropertyOp22
 70
     1
102
RTVSPropertyOp23
 70
     1
102
RTVSPropertyOp24
 70
     1
102
RTVSPropertyOp25
 70
     1
102
RTVSPropertyOp26
 70
     1
102
RTVSPropertyOp27
 70
     1
  0
XRECORD
  5
302
102
{ACAD_REACTORS
330
301
102
}
330
301
100
AcDbXrecord
280
     1
102
RTVSPropertyOp0
 70
     1
102
RTVSPropertyOp1
 70
     1
102
RTVSPropertyOp2
 70
     1
102
RTVSPropertyOp3
 70
     1
102
RTVSPropertyOp4
 70
     1
102
RTVSPropertyOp5
 70
     1
102
RTVSPropertyOp6
 70
     1
102
RTVSPropertyOp7
 70
     1
102
RTVSPropertyOp8
 70
     1
102
RTVSPropertyOp9
 70
     1
102
RTVSPropertyOp10
 70
     1
102
RTVSPropertyOp11
 70
     1
102
RTVSPropertyOp12
 70
     1
102
RTVSPropertyOp13
 70
     1
102
RTVSPropertyOp14
 70
     1
102
RTVSPropertyOp15
 70
     1
102
RTVSPropertyOp16
 70
     1
102
RTVSPropertyOp17
 70
     1
102
RTVSPropertyOp18
 70
     1
102
RTVSPropertyOp19
 70
     1
102
RTVSPropertyOp20
 70
     1
102
RTVSPropertyOp21
 70
     1
102
RTVSPropertyOp22
 70
     1
102
RTVSPropertyOp23
 70
     1
102
RTVSPropertyOp24
 70
     1
102
RTVSPropertyOp25
 70
     1
102
RTVSPropertyOp26
 70
     1
102
RTVSPropertyOp27
 70
     1
  0
XRECORD
  5
316
102
{ACAD_REACTORS
330
315
102
}
330
315
100
AcDbXrecord
280
     1
102
RTVSPropertyOp0
 70
     1
102
RTVSPropertyOp1
 70
     1
102
RTVSPropertyOp2
 70
     1
102
RTVSPropertyOp3
 70
     1
102
RTVSPropertyOp4
 70
     1
102
RTVSPropertyOp5
 70
     1
102
RTVSPropertyOp6
 70
     1
102
RTVSPropertyOp7
 70
     1
102
RTVSPropertyOp8
 70
     1
102
RTVSPropertyOp9
 70
     1
102
RTVSPropertyOp10
 70
     1
102
RTVSPropertyOp11
 70
     1
102
RTVSPropertyOp12
 70
     1
102
RTVSPropertyOp13
 70
     1
102
RTVSPropertyOp14
 70
     1
102
RTVSPropertyOp15
 70
     1
102
RTVSPropertyOp16
 70
     1
102
RTVSPropertyOp17
 70
     1
102
RTVSPropertyOp18
 70
     1
102
RTVSPropertyOp19
 70
     1
102
RTVSPropertyOp20
 70
     1
102
RTVSPropertyOp21
 70
     1
102
RTVSPropertyOp22
 70
     1
102
RTVSPropertyOp23
 70
     1
102
RTVSPropertyOp24
 70
     1
102
RTVSPropertyOp25
 70
     1
102
RTVSPropertyOp26
 70
     1
102
RTVSPropertyOp27
 70
     1
  0
XRECORD
  5
30C
102
{ACAD_REACTORS
330
30B
102
}
330
30B
100
AcDbXrecord
280
     1
102
RTVSPropertyOp0
 70
     1
102
RTVSPropertyOp1
 70
     1
102
RTVSPropertyOp2
 70
     1
102
RTVSPropertyOp3
 70
     1
102
RTVSPropertyOp4
 70
     1
102
RTVSPropertyOp5
 70
     1
102
RTVSPropertyOp6
 70
     1
102
RTVSPropertyOp7
 70
     1
102
RTVSPropertyOp8
 70
     1
102
RTVSPropertyOp9
 70
     1
102
RTVSPropertyOp10
 70
     1
102
RTVSPropertyOp11
 70
     1
102
RTVSPropertyOp12
 70
     1
102
RTVSPropertyOp13
 70
     1
102
RTVSPropertyOp14
 70
     1
102
RTVSPropertyOp15
 70
     1
102
RTVSPropertyOp16
 70
     1
102
RTVSPropertyOp17
 70
     1
102
RTVSPropertyOp18
 70
     1
102
RTVSPropertyOp19
 70
     1
102
RTVSPropertyOp20
 70
     1
102
RTVSPropertyOp21
 70
     1
102
RTVSPropertyOp22
 70
     1
102
RTVSPropertyOp23
 70
     1
102
RTVSPropertyOp24
 70
     1
102
RTVSPropertyOp25
 70
     1
102
RTVSPropertyOp26
 70
     1
102
RTVSPropertyOp27
 70
     1
  0
XRECORD
  5
314
102
{ACAD_REACTORS
330
313
102
}
330
313
100
AcDbXrecord
280
     1
102
RTVSPropertyOp0
 70
     1
102
RTVSPropertyOp1
 70
     1
102
RTVSPropertyOp2
 70
     1
102
RTVSPropertyOp3
 70
     1
102
RTVSPropertyOp4
 70
     1
102
RTVSPropertyOp5
 70
     1
102
RTVSPropertyOp6
 70
     1
102
RTVSPropertyOp7
 70
     1
102
RTVSPropertyOp8
 70
     1
102
RTVSPropertyOp9
 70
     1
102
RTVSPropertyOp10
 70
     1
102
RTVSPropertyOp11
 70
     1
102
RTVSPropertyOp12
 70
     1
102
RTVSPropertyOp13
 70
     1
102
RTVSPropertyOp14
 70
     1
102
RTVSPropertyOp15
 70
     1
102
RTVSPropertyOp16
 70
     1
102
RTVSPropertyOp17
 70
     1
102
RTVSPropertyOp18
 70
     1
102
RTVSPropertyOp19
 70
     1
102
RTVSPropertyOp20
 70
     1
102
RTVSPropertyOp21
 70
     1
102
RTVSPropertyOp22
 70
     1
102
RTVSPropertyOp23
 70
     1
102
RTVSPropertyOp24
 70
     1
102
RTVSPropertyOp25
 70
     1
102
RTVSPropertyOp26
 70
     1
102
RTVSPropertyOp27
 70
     1
  0
ENDSEC
  0
EOF
