  0
SECTION
  2
HEADER
  9
$ACADVER
  1
AC1015
  9
$ACADMAINTVER
 70
     6
  9
$DWGCODEPAGE
  3
ANSI_932
  9
$INSBASE
 10
0.0
 20
0.0
 30
0.0
  9
$EXTMIN
 10
24.9999999999994
 20
14.35622072616551
 30
0.0
  9
$EXTMAX
 10
379.2497625
 20
317.0
 30
0.0
  9
$LIMMIN
 10
0.0
 20
0.0
  9
$LIMMAX
 10
12.0
 20
9.0
  9
$ORTHOMODE
 70
     0
  9
$REGENMODE
 70
     1
  9
$FILLMODE
 70
     1
  9
$QTEXTMODE
 70
     0
  9
$MIRRTEXT
 70
     1
  9
$LTSCALE
 40
1.0
  9
$ATTMODE
 70
     1
  9
$TEXTSIZE
 40
0.2
  9
$TRACEWID
 40
0.05
  9
$TEXTSTYLE
  7
Standard
  9
$CLAYER
  8
0
  9
$CELTYPE
  6
ByLayer
  9
$CECOLOR
 62
   256
  9
$CELTSCALE
 40
1.0
  9
$DISPSILH
 70
     0
  9
$DIMSCALE
 40
1.0
  9
$DIMASZ
 40
0.18
  9
$DIMEXO
 40
0.0625
  9
$DIMDLI
 40
0.38
  9
$DIMRND
 40
0.0
  9
$DIMDLE
 40
0.0
  9
$DIMEXE
 40
0.18
  9
$DIMTP
 40
0.0
  9
$DIMTM
 40
0.0
  9
$DIMTXT
 40
0.18
  9
$DIMCEN
 40
0.09
  9
$DIMTSZ
 40
0.0
  9
$DIMTOL
 70
     0
  9
$DIMLIM
 70
     0
  9
$DIMTIH
 70
     1
  9
$DIMTOH
 70
     1
  9
$DIMSE1
 70
     0
  9
$DIMSE2
 70
     0
  9
$DIMTAD
 70
     0
  9
$DIMZIN
 70
     0
  9
$DIMBLK
  1

  9
$DIMASO
 70
     1
  9
$DIMSHO
 70
     1
  9
$DIMPOST
  1

  9
$DIMAPOST
  1

  9
$DIMALT
 70
     0
  9
$DIMALTD
 70
     2
  9
$DIMALTF
 40
25.4
  9
$DIMLFAC
 40
1.0
  9
$DIMTOFL
 70
     0
  9
$DIMTVP
 40
0.0
  9
$DIMTIX
 70
     0
  9
$DIMSOXD
 70
     0
  9
$DIMSAH
 70
     0
  9
$DIMBLK1
  1

  9
$DIMBLK2
  1

  9
$DIMSTYLE
  2
Standard
  9
$DIMCLRD
 70
     0
  9
$DIMCLRE
 70
     0
  9
$DIMCLRT
 70
     0
  9
$DIMTFAC
 40
1.0
  9
$DIMGAP
 40
0.09
  9
$DIMJUST
 70
     0
  9
$DIMSD1
 70
     0
  9
$DIMSD2
 70
     0
  9
$DIMTOLJ
 70
     1
  9
$DIMTZIN
 70
     0
  9
$DIMALTZ
 70
     0
  9
$DIMALTTZ
 70
     0
  9
$DIMUPT
 70
     0
  9
$DIMDEC
 70
     4
  9
$DIMTDEC
 70
     4
  9
$DIMALTU
 70
     2
  9
$DIMALTTD
 70
     2
  9
$DIMTXSTY
  7
Standard
  9
$DIMAUNIT
 70
     0
  9
$DIMADEC
 70
     0
  9
$DIMALTRND
 40
0.0
  9
$DIMAZIN
 70
     0
  9
$DIMDSEP
 70
    46
  9
$DIMATFIT
 70
     3
  9
$DIMFRAC
 70
     0
  9
$DIMLDRBLK
  1

  9
$DIMLUNIT
 70
     2
  9
$DIMLWD
 70
    -2
  9
$DIMLWE
 70
    -2
  9
$DIMTMOVE
 70
     0
  9
$LUNITS
 70
     2
  9
$LUPREC
 70
     4
  9
$SKETCHINC
 40
0.1
  9
$FILLETRAD
 40
0.5
  9
$AUNITS
 70
     0
  9
$AUPREC
 70
     0
  9
$MENU
  1
.
  9
$ELEVATION
 40
0.0
  9
$PELEVATION
 40
0.0
  9
$THICKNESS
 40
0.0
  9
$LIMCHECK
 70
     0
  9
$CHAMFERA
 40
0.5
  9
$CHAMFERB
 40
0.5
  9
$CHAMFERC
 40
1.0
  9
$CHAMFERD
 40
0.0
  9
$SKPOLY
 70
     0
  9
$TDCREATE
 40
2457624.468519467
  9
$TDUCREATE
 40
2457624.093519467
  9
$TDUPDATE
 40
2457624.468519479
  9
$TDUUPDATE
 40
2457624.093519479
  9
$TDINDWG
 40
0.0000000116
  9
$TDUSRTIMER
 40
0.0000000116
  9
$USRTIMER
 70
     1
  9
$ANGBASE
 50
0.0
  9
$ANGDIR
 70
     0
  9
$PDMODE
 70
     0
  9
$PDSIZE
 40
0.0
  9
$PLINEWID
 40
0.0
  9
$SPLFRAME
 70
     0
  9
$SPLINETYPE
 70
     6
  9
$SPLINESEGS
 70
     8
  9
$HANDSEED
  5
3FC
  9
$SURFTAB1
 70
     6
  9
$SURFTAB2
 70
     6
  9
$SURFTYPE
 70
     6
  9
$SURFU
 70
     6
  9
$SURFV
 70
     6
  9
$UCSBASE
  2

  9
$UCSNAME
  2

  9
$UCSORG
 10
0.0
 20
0.0
 30
0.0
  9
$UCSXDIR
 10
1.0
 20
0.0
 30
0.0
  9
$UCSYDIR
 10
0.0
 20
1.0
 30
0.0
  9
$UCSORTHOREF
  2

  9
$UCSORTHOVIEW
 70
     0
  9
$UCSORGTOP
 10
0.0
 20
0.0
 30
0.0
  9
$UCSORGBOTTOM
 10
0.0
 20
0.0
 30
0.0
  9
$UCSORGLEFT
 10
0.0
 20
0.0
 30
0.0
  9
$UCSORGRIGHT
 10
0.0
 20
0.0
 30
0.0
  9
$UCSORGFRONT
 10
0.0
 20
0.0
 30
0.0
  9
$UCSORGBACK
 10
0.0
 20
0.0
 30
0.0
  9
$PUCSBASE
  2

  9
$PUCSNAME
  2

  9
$PUCSORG
 10
0.0
 20
0.0
 30
0.0
  9
$PUCSXDIR
 10
1.0
 20
0.0
 30
0.0
  9
$PUCSYDIR
 10
0.0
 20
1.0
 30
0.0
  9
$PUCSORTHOREF
  2

  9
$PUCSORTHOVIEW
 70
     0
  9
$PUCSORGTOP
 10
0.0
 20
0.0
 30
0.0
  9
$PUCSORGBOTTOM
 10
0.0
 20
0.0
 30
0.0
  9
$PUCSORGLEFT
 10
0.0
 20
0.0
 30
0.0
  9
$PUCSORGRIGHT
 10
0.0
 20
0.0
 30
0.0
  9
$PUCSORGFRONT
 10
0.0
 20
0.0
 30
0.0
  9
$PUCSORGBACK
 10
0.0
 20
0.0
 30
0.0
  9
$USERI1
 70
     0
  9
$USERI2
 70
     0
  9
$USERI3
 70
     0
  9
$USERI4
 70
     0
  9
$USERI5
 70
     0
  9
$USERR1
 40
18.0
  9
$USERR2
 40
0.0
  9
$USERR3
 40
0.0
  9
$USERR4
 40
0.0
  9
$USERR5
 40
0.0
  9
$WORLDVIEW
 70
     1
  9
$SHADEDGE
 70
     3
  9
$SHADEDIF
 70
    70
  9
$TILEMODE
 70
     1
  9
$MAXACTVP
 70
    64
  9
$PINSBASE
 10
0.0
 20
0.0
 30
0.0
  9
$PLIMCHECK
 70
     0
  9
$PEXTMIN
 10
1.00000000000000E+20
 20
1.00000000000000E+20
 30
1.00000000000000E+20
  9
$PEXTMAX
 10
-1.00000000000000E+20
 20
-1.00000000000000E+20
 30
-1.00000000000000E+20
  9
$PLIMMIN
 10
0.0
 20
0.0
  9
$PLIMMAX
 10
12.0
 20
9.0
  9
$UNITMODE
 70
     0
  9
$VISRETAIN
 70
     1
  9
$PLINEGEN
 70
     0
  9
$PSLTSCALE
 70
     1
  9
$TREEDEPTH
 70
  3020
  9
$CMLSTYLE
  2
Standard
  9
$CMLJUST
 70
     0
  9
$CMLSCALE
 40
1.0
  9
$PROXYGRAPHICS
 70
     1
  9
$MEASUREMENT
 70
     1
  9
$CELWEIGHT
370
    -1
  9
$ENDCAPS
280
     0
  9
$JOINSTYLE
280
     0
  9
$LWDISPLAY
290
     0
  9
$INSUNITS
 70
     1
  9
$HYPERLINKBASE
  1

  9
$STYLESHEET
  1

  9
$XEDIT
290
     1
  9
$CEPSNTYPE
380
     0
  9
$PSTYLEMODE
290
     1
  9
$FINGERPRINTGUID
  2
{F905278A-070A-4A0B-8A2B-506EC7C58C30}
  9
$VERSIONGUID
  2
{FAEB1C32-E019-11D5-929B-00C0DF256EC4}
  9
$EXTNAMES
290
     1
  9
$PSVPSCALE
 40
0.0
  9
$OLESTARTUP
290
     0
  0
ENDSEC
  0
SECTION
  2
CLASSES
  0
CLASS
  1
ACDBDICTIONARYWDFLT
  2
AcDbDictionaryWithDefault
  3
ObjectDBX Classes
 90
        0
280
     0
281
     0
  0
CLASS
  1
VISUALSTYLE
  2
AcDbVisualStyle
  3
ObjectDBX Classes
 90
     4095
280
     0
281
     0
  0
CLASS
  1
MATERIAL
  2
AcDbMaterial
  3
ObjectDBX Classes
 90
     1153
280
     0
281
     0
  0
CLASS
  1

  2
exOdDbCircle
  3

 90
        0
280
     0
281
     1
  0
CLASS
  1
SCALE
  2
AcDbScale
  3
ObjectDBX Classes
 90
     1153
280
     0
281
     0
  0
CLASS
  1
DICTIONARYVAR
  2
AcDbDictionaryVar
  3
ObjectDBX Classes
 90
        0
280
     0
281
     0
  0
CLASS
  1
ACDBPLACEHOLDER
  2
AcDbPlaceHolder
  3
ObjectDBX Classes
 90
        0
280
     0
281
     0
  0
CLASS
  1
LAYOUT
  2
AcDbLayout
  3
ObjectDBX Classes
 90
        0
280
     0
281
     0
  0
ENDSEC
  0
SECTION
  2
TABLES
  0
TABLE
  2
VPORT
  5
8
330
0
100
AcDbSymbolTable
 70
     1
  0
VPORT
  5
29
330
8
100
AcDbSymbolTableRecord
100
AcDbViewportTableRecord
  2
*Active
 70
     0
 10
0.0
 20
0.0
 11
1.0
 21
1.0
 12
202.1248812499997
 22
165.6781103630828
 13
0.0
 23
0.0
 14
0.5
 24
0.5
 15
0.5
 25
0.5
 16
0.0
 26
0.0
 36
1.0
 17
0.0
 27
0.0
 37
0.0
 40
332.9081572012179
 41
1.60267857142857
 42
50.0
 43
0.0
 44
0.0
 50
0.0
 51
0.0
 71
     0
 72
   100
 73
     1
 74
     3
 75
     0
 76
     0
 77
     0
 78
     0
281
     0
 65
     1
110
0.0
120
0.0
130
0.0
111
1.0
121
0.0
131
0.0
112
0.0
122
1.0
132
0.0
 79
     0
146
0.0
  0
ENDTAB
  0
TABLE
  2
LTYPE
  5
5
330
0
100
AcDbSymbolTable
 70
     8
  0
LTYPE
  5
14
330
5
100
AcDbSymbolTableRecord
100
AcDbLinetypeTableRecord
  2
ByBlock
 70
     0
  3

 72
    65
 73
     0
 40
0.0
  0
LTYPE
  5
15
330
5
100
AcDbSymbolTableRecord
100
AcDbLinetypeTableRecord
  2
ByLayer
 70
     0
  3

 72
    65
 73
     0
 40
0.0
  0
LTYPE
  5
16
330
5
100
AcDbSymbolTableRecord
100
AcDbLinetypeTableRecord
  2
Continuous
 70
     0
  3
Solid line
 72
    65
 73
     0
 40
0.0
  0
LTYPE
  5
3F
330
5
100
AcDbSymbolTableRecord
100
AcDbLinetypeTableRecord
  2
DASHED
 70
     0
  3
Dashed
 72
    65
 73
     2
 40
15.0
 49
7.0
 74
     0
 49
-8.0
 74
     0
  0
LTYPE
  5
40
330
5
100
AcDbSymbolTableRecord
100
AcDbLinetypeTableRecord
  2
DOTTED
 70
     0
  3
Dotted
 72
    65
 73
     2
 40
1.0
 49
0.0
 74
     0
 49
-1.0
 74
     0
  0
LTYPE
  5
41
330
5
100
AcDbSymbolTableRecord
100
AcDbLinetypeTableRecord
  2
DOT_CENTER
 70
     0
  3
Dot_Center
 72
    65
 73
     4
 40
14.0
 49
12.0
 74
     0
 49
-1.0
 74
     0
 49
0.0
 74
     0
 49
-1.0
 74
     0
  0
LTYPE
  5
42
330
5
100
AcDbSymbolTableRecord
100
AcDbLinetypeTableRecord
  2
LONG_DASHED
 70
     0
  3
Long_Dashed
 72
    65
 73
     2
 40
15.0
 49
10.0
 74
     0
 49
-5.0
 74
     0
  0
LTYPE
  5
43
330
5
100
AcDbSymbolTableRecord
100
AcDbLinetypeTableRecord
  2
DASH_CENTER
 70
     0
  3
Dash_Center
 72
    65
 73
     4
 40
14.0
 49
11.0
 74
     0
 49
-1.0
 74
     0
 49
1.0
 74
     0
 49
-1.0
 74
     0
  0
LTYPE
  5
44
330
5
100
AcDbSymbolTableRecord
100
AcDbLinetypeTableRecord
  2
PHANTOM
 70
     0
  3
Phantom
 72
    65
 73
     6
 40
13.0
 49
10.0
 74
     0
 49
-1.0
 74
     0
 49
0.0
 74
     0
 49
-1.0
 74
     0
 49
0.0
 74
     0
 49
-1.0
 74
     0
  0
LTYPE
  5
45
330
5
100
AcDbSymbolTableRecord
100
AcDbLinetypeTableRecord
  2
CENTER_DASH_DASH
 70
     0
  3
Center_Dash_Dash
 72
    65
 73
     6
 40
14.0
 49
9.0
 74
     0
 49
-1.0
 74
     0
 49
1.0
 74
     0
 49
-1.0
 74
     0
 49
1.0
 74
     0
 49
-1.0
 74
     0
  0
ENDTAB
  0
TABLE
  2
LAYER
  5
2
330
0
100
AcDbSymbolTable
 70
     4
  0
LAYER
  5
10
330
2
100
AcDbSymbolTableRecord
100
AcDbLayerTableRecord
  2
0
 70
     0
 62
     7
  6
Continuous
370
    -3
390
F
  0
LAYER
  5
46
330
2
100
AcDbSymbolTableRecord
100
AcDbLayerTableRecord
  2
1
 70
     0
 62
     7
  6
Continuous
370
    -3
390
F
  0
LAYER
  5
47
330
2
100
AcDbSymbolTableRecord
100
AcDbLayerTableRecord
  2
2
 70
     0
 62
     7
  6
Continuous
370
    -3
390
F
  0
LAYER
  5
48
330
2
100
AcDbSymbolTableRecord
100
AcDbLayerTableRecord
  2
3
 70
     0
 62
     7
  6
Continuous
370
    -3
390
F
  0
ENDTAB
  0
TABLE
  2
STYLE
  5
3
330
0
100
AcDbSymbolTable
 70
     2
  0
STYLE
  5
11
330
3
100
AcDbSymbolTableRecord
100
AcDbTextStyleTableRecord
  2
Standard
 70
     0
 40
0.0
 41
1.0
 50
0.0
 71
     0
 42
0.2
  3
txt
  4

  0
STYLE
  5
388
330
3
100
AcDbSymbolTableRecord
100
AcDbTextStyleTableRecord
  2
CONVERTER_11
 70
     0
 40
0.0
 41
0.9
 50
0.0
 71
     0
 42
0.2
  3
txt.shx
  4

  0
ENDTAB
  0
TABLE
  2
VIEW
  5
6
330
0
100
AcDbSymbolTable
 70
     0
  0
ENDTAB
  0
TABLE
  2
UCS
  5
7
330
0
100
AcDbSymbolTable
 70
     0
  0
ENDTAB
  0
TABLE
  2
APPID
  5
9
330
0
100
AcDbSymbolTable
 70
     1
  0
APPID
  5
12
330
9
100
AcDbSymbolTableRecord
100
AcDbRegAppTableRecord
  2
ACAD
 70
     0
  0
ENDTAB
  0
TABLE
  2
DIMSTYLE
  5
A
330
0
100
AcDbSymbolTable
 70
     4
100
AcDbDimStyleTable
  0
DIMSTYLE
105
27
330
A
100
AcDbSymbolTableRecord
100
AcDbDimStyleTableRecord
  2
Standard
 70
     0
340
11
  0
DIMSTYLE
105
3B4
102
{ACAD_REACTORS
330
3B5
102
}
330
A
100
AcDbSymbolTableRecord
100
AcDbDimStyleTableRecord
  2
ME10_DIM_10
 70
     0
 41
7.0
 42
1.0
 44
1.0
 73
     0
 74
     0
 77
     1
 78
    12
140
10.0
147
1.0
172
     1
173
     1
174
     1
175
     1
176
     2
177
     2
178
     2
271
     3
340
388
343
3AE
344
3AE
  0
DIMSTYLE
105
3C1
102
{ACAD_REACTORS
330
3C2
102
}
330
A
100
AcDbSymbolTableRecord
100
AcDbDimStyleTableRecord
  2
ME10_DIM_11
 70
     0
 41
7.0
 42
1.0
 44
1.0
 73
     0
 74
     0
 77
     1
 78
    12
140
10.0
147
1.0
172
     1
173
     1
174
     1
175
     1
176
     2
177
     2
178
     2
271
     3
340
388
343
3AE
344
3AE
  0
DIMSTYLE
105
3CE
102
{ACAD_REACTORS
330
3CF
102
}
330
A
100
AcDbSymbolTableRecord
100
AcDbDimStyleTableRecord
  2
ME10_DIM_12
 70
     0
 41
7.0
 42
1.0
 44
1.0
 73
     0
 74
     0
 77
     1
 78
    12
140
10.0
147
1.0
172
     1
173
     1
174
     1
175
     1
176
     2
177
     2
178
     2
271
     3
340
388
343
3AE
344
3AE
  0
ENDTAB
  0
TABLE
  2
BLOCK_RECORD
  5
1
330
0
100
AcDbSymbolTable
 70
     5
  0
BLOCK_RECORD
  5
1F
330
1
100
AcDbSymbolTableRecord
100
AcDbBlockTableRecord
  2
*Model_Space
340
22
  0
BLOCK_RECORD
  5
1B
330
1
100
AcDbSymbolTableRecord
100
AcDbBlockTableRecord
  2
*Paper_Space
340
1E
  0
BLOCK_RECORD
  5
23
330
1
100
AcDbSymbolTableRecord
100
AcDbBlockTableRecord
  2
*Paper_Space0
340
26
  0
BLOCK_RECORD
  5
380
330
1
100
AcDbSymbolTableRecord
100
AcDbBlockTableRecord
  2
*D1
340
0
  0
BLOCK_RECORD
  5
3AE
330
1
100
AcDbSymbolTableRecord
100
AcDbBlockTableRecord
  2
_OPEN30
340
0
  0
BLOCK_RECORD
  5
3B6
330
1
100
AcDbSymbolTableRecord
100
AcDbBlockTableRecord
  2
*D3
340
0
  0
BLOCK_RECORD
  5
3C3
330
1
100
AcDbSymbolTableRecord
100
AcDbBlockTableRecord
  2
*D4
340
0
  0
ENDTAB
  0
ENDSEC
  0
SECTION
  2
BLOCKS
  0
BLOCK
  5
20
330
1F
100
AcDbEntity
  8
0
100
AcDbBlockBegin
  2
*Model_Space
 70
     0
 10
0.0
 20
0.0
 30
0.0
  3
*Model_Space
  1

  0
ENDBLK
  5
21
330
1F
100
AcDbEntity
  8
0
100
AcDbBlockEnd
  0
BLOCK
  5
1C
330
1B
100
AcDbEntity
 67
     1
  8
0
100
AcDbBlockBegin
  2
*Paper_Space
 70
     0
 10
0.0
 20
0.0
 30
0.0
  3
*Paper_Space
  1

  0
ENDBLK
  5
1D
330
1B
100
AcDbEntity
 67
     1
  8
0
100
AcDbBlockEnd
  0
BLOCK
  5
24
330
23
100
AcDbEntity
  8
0
100
AcDbBlockBegin
  2
*Paper_Space0
 70
     0
 10
0.0
 20
0.0
 30
0.0
  3
*Paper_Space0
  1

  0
ENDBLK
  5
25
330
23
100
AcDbEntity
  8
0
100
AcDbBlockEnd
  0
BLOCK
  5
3AC
330
380
100
AcDbEntity
  8
0
100
AcDbBlockBegin
  2
*D1
 70
     1
 10
0.0
 20
0.0
 30
0.0
  3
*D1
  1

  0
LINE
  5
381
330
380
100
AcDbEntity
  8
1
  6
Continuous
 62
     2
100
AcDbLine
 10
147.5
 20
35.5409292510546
 30
0.0
 11
212.5
 21
35.5409292510546
 31
0.0
  0
LINE
  5
382
330
380
100
AcDbEntity
  8
1
  6
Continuous
 62
     2
100
AcDbLine
 10
147.5
 20
75.9
 30
0.0
 11
147.5
 21
34.5409292510546
 31
0.0
  0
LINE
  5
383
330
380
100
AcDbEntity
  8
1
  6
Continuous
 62
     2
100
AcDbLine
 10
212.5
 20
75.9
 30
0.0
 11
212.5
 21
34.5409292510546
 31
0.0
  0
LINE
  5
384
330
380
100
AcDbEntity
  8
1
 62
     2
100
AcDbLine
 10
212.5
 20
35.5409292510546
 30
0.0
 11
205.5
 21
33.66528490403674
 31
0.0
  0
LINE
  5
385
330
380
100
AcDbEntity
  8
1
 62
     2
100
AcDbLine
 10
212.5
 20
35.5409292510546
 30
0.0
 11
205.5
 21
37.41657359807246
 31
0.0
  0
LINE
  5
386
330
380
100
AcDbEntity
  8
1
 62
     2
100
AcDbLine
 10
147.5
 20
35.5409292510546
 30
0.0
 11
154.5
 21
37.41657359807246
 31
0.0
  0
LINE
  5
387
330
380
100
AcDbEntity
  8
1
 62
     2
100
AcDbLine
 10
147.5
 20
35.5409292510546
 30
0.0
 11
154.5
 21
33.66528490403674
 31
0.0
  0
MTEXT
  5
3AB
330
380
100
AcDbEntity
  8
1
 62
     2
100
AcDbMText
 10
172.6200121203637
 20
36.54091136144446
 30
0.0
 40
10.0
 41
0.0
 71
     7
 72
     1
  1
65
  7
CONVERTER_11
 11
0.9999999999882478
 21
4.848136811095759E-6
 31
0.0
 73
     1
 44
0.60024009603842
  0
ENDBLK
  5
3AD
330
380
100
AcDbEntity
  8
0
100
AcDbBlockEnd
  0
BLOCK
  5
3AF
330
3AE
100
AcDbEntity
  8
0
100
AcDbBlockBegin
  2
_OPEN30
 70
     0
 10
0.0
 20
0.0
 30
0.0
  3
_OPEN30
  1

  0
LINE
  5
3B1
330
3AE
100
AcDbEntity
  8
0
  6
ByBlock
 62
     0
370
    -2
100
AcDbLine
 10
-1.0
 20
0.267949
 30
0.0
 11
0.0
 21
0.0
 31
0.0
  0
LINE
  5
3B2
330
3AE
100
AcDbEntity
  8
0
  6
ByBlock
 62
     0
370
    -2
100
AcDbLine
 10
0.0
 20
0.0
 30
0.0
 11
-1.0
 21
-0.267949
 31
0.0
  0
LINE
  5
3B3
330
3AE
100
AcDbEntity
  8
0
  6
ByBlock
 62
     0
370
    -2
100
AcDbLine
 10
0.0
 20
0.0
 30
0.0
 11
-1.0
 21
0.0
 31
0.0
  0
ENDBLK
  5
3B0
330
3AE
100
AcDbEntity
  8
0
100
AcDbBlockEnd
  0
BLOCK
  5
3BF
330
3B6
100
AcDbEntity
  8
0
100
AcDbBlockBegin
  2
*D3
 70
     1
 10
0.0
 20
0.0
 30
0.0
  3
*D3
  1

  0
LINE
  5
3B7
330
3B6
100
AcDbEntity
  8
1
  6
Continuous
 62
     2
100
AcDbLine
 10
251.7000000000001
 20
16.23186507318337
 30
0.0
 11
147.5
 21
16.23186507318337
 31
0.0
  0
LINE
  5
3B8
330
3B6
100
AcDbEntity
  8
1
  6
Continuous
 62
     2
100
AcDbLine
 10
147.5
 20
75.9
 30
0.0
 11
147.5
 21
15.23186507318337
 31
0.0
  0
LINE
  5
3B9
330
3B6
100
AcDbEntity
  8
1
  6
Continuous
 62
     2
100
AcDbLine
 10
251.7000000000001
 20
77.5
 30
0.0
 11
251.7000000000001
 21
15.23186507318337
 31
0.0
  0
LINE
  5
3BA
330
3B6
100
AcDbEntity
  8
1
 62
     2
100
AcDbLine
 10
251.7000000000001
 20
16.23186507318337
 30
0.0
 11
244.7000000000001
 21
14.35622072616551
 31
0.0
  0
LINE
  5
3BB
330
3B6
100
AcDbEntity
  8
1
 62
     2
100
AcDbLine
 10
251.7000000000001
 20
16.23186507318337
 30
0.0
 11
244.7000000000001
 21
18.10750942020123
 31
0.0
  0
LINE
  5
3BC
330
3B6
100
AcDbEntity
  8
1
 62
     2
100
AcDbLine
 10
147.5
 20
16.23186507318337
 30
0.0
 11
154.5
 21
18.10750942020123
 31
0.0
  0
LINE
  5
3BD
330
3B6
100
AcDbEntity
  8
1
 62
     2
100
AcDbLine
 10
147.5
 20
16.23186507318337
 30
0.0
 11
154.5
 21
14.35622072616551
 31
0.0
  0
MTEXT
  5
3BE
330
3B6
100
AcDbEntity
  8
1
 62
     2
100
AcDbMText
 10
155.6000121204713
 20
17.39833563274835
 30
0.0
 40
10.0
 41
0.0
 71
     7
 72
     1
  1
\U+53ef\U+52d5\U+7bc4\U+56f293\U+ff5e105
  7
CONVERTER_11
 11
0.9999999999882478
 21
4.848136811095759E-6
 31
0.0
 73
     1
 44
0.60024009603842
  0
ENDBLK
  5
3C0
330
3B6
100
AcDbEntity
  8
0
100
AcDbBlockEnd
  0
BLOCK
  5
3CC
330
3C3
100
AcDbEntity
  8
0
100
AcDbBlockBegin
  2
*D4
 70
     1
 10
0.0
 20
0.0
 30
0.0
  3
*D4
  1

  0
LINE
  5
3C4
330
3C3
100
AcDbEntity
  8
1
  6
Continuous
 62
     2
100
AcDbLine
 10
135.417901574047
 20
90.0
 30
0.0
 11
135.417901574047
 21
175.5
 31
0.0
  0
LINE
  5
3C5
330
3C3
100
AcDbEntity
  8
1
  6
Continuous
 62
     2
100
AcDbLine
 10
140.5
 20
90.0
 30
0.0
 11
134.417901574047
 21
90.0
 31
0.0
  0
LINE
  5
3C6
330
3C3
100
AcDbEntity
  8
1
  6
Continuous
 62
     2
100
AcDbLine
 10
167.816315289295
 20
175.5
 30
0.0
 11
134.417901574047
 21
175.5
 31
0.0
  0
LINE
  5
3C7
330
3C3
100
AcDbEntity
  8
1
 62
     2
100
AcDbLine
 10
135.417901574047
 20
175.5
 30
0.0
 11
137.2935459210649
 21
168.5
 31
0.0
  0
LINE
  5
3C8
330
3C3
100
AcDbEntity
  8
1
 62
     2
100
AcDbLine
 10
135.417901574047
 20
175.5
 30
0.0
 11
133.5422572270291
 21
168.5
 31
0.0
  0
LINE
  5
3C9
330
3C3
100
AcDbEntity
  8
1
 62
     2
100
AcDbLine
 10
135.417901574047
 20
90.0
 30
0.0
 11
133.5422572270291
 21
97.0
 31
0.0
  0
LINE
  5
3CA
330
3C3
100
AcDbEntity
  8
1
 62
     2
100
AcDbLine
 10
135.417901574047
 20
90.0
 30
0.0
 11
137.2935459210649
 21
97.0
 31
0.0
  0
MTEXT
  5
3CB
330
3C3
100
AcDbEntity
  8
1
 62
     2
100
AcDbMText
 10
134.417901574047
 20
128.261309584693
 30
0.0
 40
10.0
 41
0.0
 71
     7
 72
     1
  1
86
  7
CONVERTER_11
 11
0.0
 21
1.0
 31
0.0
 73
     1
 44
0.60024009603842
  0
ENDBLK
  5
3CD
330
3C3
100
AcDbEntity
  8
0
100
AcDbBlockEnd
  0
ENDSEC
  0
SECTION
  2
ENTITIES
  0
POINT
  5
49
330
1F
100
AcDbEntity
  8
1
 62
     7
100
AcDbPoint
 10
147.5
 20
76.9
 30
0.0
  0
POINT
  5
4A
330
1F
100
AcDbEntity
  8
1
 62
     7
100
AcDbPoint
 10
212.5
 20
76.9
 30
0.0
  0
POINT
  5
4B
330
1F
100
AcDbEntity
  8
1
 62
     7
100
AcDbPoint
 10
147.5
 20
76.9
 30
0.0
  0
POINT
  5
4C
330
1F
100
AcDbEntity
  8
1
 62
     7
100
AcDbPoint
 10
251.7
 20
78.5
 30
0.0
  0
POINT
  5
4D
330
1F
100
AcDbEntity
  8
1
 62
     7
100
AcDbPoint
 10
141.5
 20
90.0
 30
0.0
  0
POINT
  5
4E
330
1F
100
AcDbEntity
  8
1
 62
     7
100
AcDbPoint
 10
168.816315289295
 20
175.5
 30
0.0
  0
POINT
  5
4F
330
1F
100
AcDbEntity
  8
1
 62
     7
100
AcDbPoint
 10
251.7
 20
78.5
 30
0.0
  0
POINT
  5
50
330
1F
100
AcDbEntity
  8
1
 62
     7
100
AcDbPoint
 10
212.5
 20
76.9
 30
0.0
  0
LINE
  5
51
330
1F
100
AcDbEntity
  8
1
  6
Continuous
 62
     4
100
AcDbLine
 10
375.6853125
 20
271.0
 30
0.0
 11
376.3784000000001
 21
269.5
 31
0.0
  0
LINE
  5
52
330
1F
100
AcDbEntity
  8
1
  6
Continuous
 62
     4
100
AcDbLine
 10
377.9626
 20
266.375
 30
0.0
 11
377.0714875000001
 21
266.375
 31
0.0
  0
LINE
  5
53
330
1F
100
AcDbEntity
  8
1
  6
Continuous
 62
     4
100
AcDbLine
 10
377.9626
 20
275.375
 30
0.0
 11
377.9626
 21
266.375
 31
0.0
  0
LINE
  5
54
330
1F
100
AcDbEntity
  8
1
  6
Continuous
 62
     4
100
AcDbLine
 10
374.7942000000001
 20
272.625
 30
0.0
 11
379.2497625
 21
272.625
 31
0.0
  0
LINE
  5
55
330
1F
100
AcDbEntity
  8
1
  6
Continuous
 62
     4
100
AcDbLine
 10
374.0021
 20
274.125
 30
0.0
 11
374.596175
 21
276.0
 31
0.0
  0
LINE
  5
56
330
1F
100
AcDbEntity
  8
1
  6
Continuous
 62
     4
100
AcDbLine
 10
372.615925
 20
271.375
 30
0.0
 11
374.0021
 21
274.125
 31
0.0
  0
LINE
  5
57
330
1F
100
AcDbEntity
  8
1
  6
Continuous
 62
     4
100
AcDbLine
 10
374.0021
 20
266.0
 30
0.0
 11
374.0021
 21
274.125
 31
0.0
  0
LINE
  5
58
330
1F
100
AcDbEntity
  8
1
  6
Continuous
 62
     4
100
AcDbLine
 10
369.5465375
 20
274.5
 30
0.0
 11
367.5662875
 21
274.5
 31
0.0
  0
LINE
  5
59
330
1F
100
AcDbEntity
  8
1
  6
Continuous
 62
     4
100
AcDbLine
 10
368.85345
 20
268.875
 30
0.0
 11
368.85345
 21
266.625
 31
0.0
  0
LINE
  5
5A
330
1F
100
AcDbEntity
  8
1
  6
Continuous
 62
     4
100
AcDbLine
 10
371.1307375
 20
268.875
 30
0.0
 11
371.1307375
 21
270.75
 31
0.0
  0
LINE
  5
5B
330
1F
100
AcDbEntity
  8
1
  6
Continuous
 62
     4
100
AcDbLine
 10
369.5465375
 20
270.75
 30
0.0
 11
368.85345
 21
270.75
 31
0.0
  0
LINE
  5
5C
330
1F
100
AcDbEntity
  8
1
  6
Continuous
 62
     4
100
AcDbLine
 10
370.0416
 20
272.25
 30
0.0
 11
371.3287625
 21
272.25
 31
0.0
  0
LINE
  5
5D
330
1F
100
AcDbEntity
  8
1
  6
Continuous
 62
     4
100
AcDbLine
 10
368.85345
 20
272.25
 30
0.0
 11
370.0416
 21
272.25
 31
0.0
  0
LINE
  5
5E
330
1F
100
AcDbEntity
  8
1
  6
Continuous
 62
     4
100
AcDbLine
 10
369.5465375
 20
270.75
 30
0.0
 11
370.0416
 21
272.25
 31
0.0
  0
LINE
  5
5F
330
1F
100
AcDbEntity
  8
1
  6
Continuous
 62
     4
100
AcDbLine
 10
368.85345
 20
268.875
 30
0.0
 11
371.1307375
 21
268.875
 31
0.0
  0
LINE
  5
60
330
1F
100
AcDbEntity
  8
1
  6
Continuous
 62
     4
100
AcDbLine
 10
368.85345
 20
270.75
 30
0.0
 11
368.85345
 21
268.875
 31
0.0
  0
LINE
  5
61
330
1F
100
AcDbEntity
  8
1
  6
Continuous
 62
     4
100
AcDbLine
 10
371.1307375
 20
270.75
 30
0.0
 11
369.5465375
 21
270.75
 31
0.0
  0
LINE
  5
62
330
1F
100
AcDbEntity
  8
1
  6
Continuous
 62
     4
100
AcDbLine
 10
371.1307375
 20
266.625
 30
0.0
 11
371.1307375
 21
268.875
 31
0.0
  0
LINE
  5
63
330
1F
100
AcDbEntity
  8
1
  6
Continuous
 62
     4
100
AcDbLine
 10
368.85345
 20
266.625
 30
0.0
 11
371.1307375
 21
266.625
 31
0.0
  0
LINE
  5
64
330
1F
100
AcDbEntity
  8
1
  6
Continuous
 62
     4
100
AcDbLine
 10
368.06135
 20
271.625
 30
0.0
 11
368.06135
 21
266.0
 31
0.0
  0
LINE
  5
65
330
1F
100
AcDbEntity
  8
1
  6
Continuous
 62
     4
100
AcDbLine
 10
367.7643125
 20
270.75
 30
0.0
 11
367.1702375
 21
268.875
 31
0.0
  0
LINE
  5
66
330
1F
100
AcDbEntity
  8
1
  6
Continuous
 62
     4
100
AcDbLine
 10
368.4574
 20
273.5
 30
0.0
 11
367.7643125
 21
270.75
 31
0.0
  0
LINE
  5
67
330
1F
100
AcDbEntity
  8
1
  6
Continuous
 62
     4
100
AcDbLine
 10
367.5662875
 20
274.5
 30
0.0
 11
367.5662875
 21
272.875
 31
0.0
  0
LINE
  5
68
330
1F
100
AcDbEntity
  8
1
  6
Continuous
 62
     4
100
AcDbLine
 10
371.3287625
 20
274.5
 30
0.0
 11
369.5465375
 21
274.5
 31
0.0
  0
LINE
  5
69
330
1F
100
AcDbEntity
  8
1
  6
Continuous
 62
     4
100
AcDbLine
 10
371.3287625
 20
273.25
 30
0.0
 11
371.3287625
 21
274.5
 31
0.0
  0
LINE
  5
6A
330
1F
100
AcDbEntity
  8
1
  6
Continuous
 62
     4
100
AcDbLine
 10
369.5465375
 20
276.0
 30
0.0
 11
369.5465375
 21
274.5
 31
0.0
  0
LINE
  5
6B
330
1F
100
AcDbEntity
  8
1
  6
Continuous
 62
     4
100
AcDbLine
 10
364.89295
 20
273.5
 30
0.0
 11
366.0811
 21
276.0
 31
0.0
  0
LINE
  5
6C
330
1F
100
AcDbEntity
  8
1
  6
Continuous
 62
     4
100
AcDbLine
 10
365.5860375
 20
272.25
 30
0.0
 11
364.694925
 21
273.875
 31
0.0
  0
LINE
  5
6D
330
1F
100
AcDbEntity
  8
1
  6
Continuous
 62
     4
100
AcDbLine
 10
364.89295
 20
270.375
 30
0.0
 11
366.675175
 21
274.5
 31
0.0
  0
LINE
  5
6E
330
1F
100
AcDbEntity
  8
1
  6
Continuous
 62
     4
100
AcDbLine
 10
366.675175
 20
270.75
 30
0.0
 11
364.4969
 21
270.375
 31
0.0
  0
LINE
  5
6F
330
1F
100
AcDbEntity
  8
1
  6
Continuous
 62
     4
100
AcDbLine
 10
366.8732
 20
270.125
 30
0.0
 11
366.279125
 21
271.625
 31
0.0
  0
LINE
  5
70
330
1F
100
AcDbEntity
  8
1
  6
Continuous
 62
     4
100
AcDbLine
 10
366.675175
 20
267.625
 30
0.0
 11
366.47715
 21
269.5
 31
0.0
  0
LINE
  5
71
330
1F
100
AcDbEntity
  8
1
  6
Continuous
 62
     4
100
AcDbLine
 10
365.7840625
 20
270.375
 30
0.0
 11
365.7840625
 21
266.0
 31
0.0
  0
LINE
  5
72
330
1F
100
AcDbEntity
  8
1
  6
Continuous
 62
     4
100
AcDbLine
 10
364.89295
 20
267.625
 30
0.0
 11
365.1899875
 21
269.125
 31
0.0
  0
LINE
  5
73
330
1F
100
AcDbEntity
  8
1
  6
Continuous
 62
     4
100
AcDbLine
 10
364.694925
 20
266.625
 30
0.0
 11
364.89295
 21
267.625
 31
0.0
  0
LINE
  5
74
330
1F
100
AcDbEntity
  8
1
  6
Continuous
 62
     4
100
AcDbLine
 10
359.6452875
 20
271.625
 30
0.0
 11
359.6452875
 21
269.5
 31
0.0
  0
LINE
  5
75
330
1F
100
AcDbEntity
  8
1
  6
Continuous
 62
     4
100
AcDbLine
 10
363.2097375
 20
271.625
 30
0.0
 11
363.2097375
 21
273.875
 31
0.0
  0
LINE
  5
76
330
1F
100
AcDbEntity
  8
1
  6
Continuous
 62
     4
100
AcDbLine
 10
361.4275125
 20
275.75
 30
0.0
 11
361.4275125
 21
266.0
 31
0.0
  0
LINE
  5
77
330
1F
100
AcDbEntity
  8
1
  6
Continuous
 62
     4
100
AcDbLine
 10
363.2097375
 20
269.5
 30
0.0
 11
363.2097375
 21
271.625
 31
0.0
  0
LINE
  5
78
330
1F
100
AcDbEntity
  8
1
  6
Continuous
 62
     4
100
AcDbLine
 10
359.6452875
 20
269.5
 30
0.0
 11
363.2097375
 21
269.5
 31
0.0
  0
LINE
  5
79
330
1F
100
AcDbEntity
  8
1
  6
Continuous
 62
     4
100
AcDbLine
 10
359.6452875
 20
273.875
 30
0.0
 11
359.6452875
 21
271.625
 31
0.0
  0
LINE
  5
7A
330
1F
100
AcDbEntity
  8
1
  6
Continuous
 62
     4
100
AcDbLine
 10
363.2097375
 20
273.875
 30
0.0
 11
359.6452875
 21
273.875
 31
0.0
  0
LINE
  5
7B
330
1F
100
AcDbEntity
  8
1
  6
Continuous
 62
     4
100
AcDbLine
 10
359.6452875
 20
271.625
 30
0.0
 11
363.2097375
 21
271.625
 31
0.0
  0
LINE
  5
7C
330
1F
100
AcDbEntity
  8
1
  6
Continuous
 62
     4
100
AcDbLine
 10
357.8630625
 20
273.875
 30
0.0
 11
356.5759
 21
271.625
 31
0.0
  0
LINE
  5
7D
330
1F
100
AcDbEntity
  8
1
  6
Continuous
 62
     4
100
AcDbLine
 10
358.754175
 20
275.75
 30
0.0
 11
357.8630625
 21
273.875
 31
0.0
  0
LINE
  5
7E
330
1F
100
AcDbEntity
  8
1
  6
Continuous
 62
     4
100
AcDbLine
 10
357.8630625
 20
266.0
 30
0.0
 11
357.8630625
 21
273.5
 31
0.0
  0
LINE
  5
7F
330
1F
100
AcDbEntity
  8
1
  6
Continuous
 62
     4
100
AcDbLine
 10
352.417375
 20
266.0
 30
0.0
 11
349.447
 21
266.0
 31
0.0
  0
LINE
  5
80
330
1F
100
AcDbEntity
  8
1
  6
Continuous
 62
     4
100
AcDbLine
 10
353.01145
 20
266.25
 30
0.0
 11
352.417375
 21
266.0
 31
0.0
  0
LINE
  5
81
330
1F
100
AcDbEntity
  8
1
  6
Continuous
 62
     4
100
AcDbLine
 10
353.605525
 20
266.75
 30
0.0
 11
353.01145
 21
266.25
 31
0.0
  0
LINE
  5
82
330
1F
100
AcDbEntity
  8
1
  6
Continuous
 62
     4
100
AcDbLine
 10
354.001575
 20
267.5
 30
0.0
 11
353.605525
 21
266.75
 31
0.0
  0
LINE
  5
83
330
1F
100
AcDbEntity
  8
1
  6
Continuous
 62
     4
100
AcDbLine
 10
354.1996
 20
268.5
 30
0.0
 11
354.001575
 21
267.5
 31
0.0
  0
LINE
  5
84
330
1F
100
AcDbEntity
  8
1
  6
Continuous
 62
     4
100
AcDbLine
 10
354.1996
 20
269.75
 30
0.0
 11
354.1996
 21
268.5
 31
0.0
  0
LINE
  5
85
330
1F
100
AcDbEntity
  8
1
  6
Continuous
 62
     4
100
AcDbLine
 10
354.001575
 20
270.75
 30
0.0
 11
354.1996
 21
269.75
 31
0.0
  0
LINE
  5
86
330
1F
100
AcDbEntity
  8
1
  6
Continuous
 62
     4
100
AcDbLine
 10
353.80355
 20
271.25
 30
0.0
 11
354.001575
 21
270.75
 31
0.0
  0
LINE
  5
87
330
1F
100
AcDbEntity
  8
1
  6
Continuous
 62
     4
100
AcDbLine
 10
353.4075
 20
271.75
 30
0.0
 11
353.80355
 21
271.25
 31
0.0
  0
LINE
  5
88
330
1F
100
AcDbEntity
  8
1
  6
Continuous
 62
     4
100
AcDbLine
 10
352.6154
 20
272.0
 30
0.0
 11
353.4075
 21
271.75
 31
0.0
  0
LINE
  5
89
330
1F
100
AcDbEntity
  8
1
  6
Continuous
 62
     4
100
AcDbLine
 10
353.209475
 20
272.25
 30
0.0
 11
352.6154
 21
272.0
 31
0.0
  0
LINE
  5
8A
330
1F
100
AcDbEntity
  8
1
  6
Continuous
 62
     4
100
AcDbLine
 10
353.605525
 20
272.5
 30
0.0
 11
353.209475
 21
272.25
 31
0.0
  0
LINE
  5
8B
330
1F
100
AcDbEntity
  8
1
  6
Continuous
 62
     4
100
AcDbLine
 10
354.001575
 20
273.0
 30
0.0
 11
353.605525
 21
272.5
 31
0.0
  0
LINE
  5
8C
330
1F
100
AcDbEntity
  8
1
  6
Continuous
 62
     4
100
AcDbLine
 10
354.1996
 20
273.75
 30
0.0
 11
354.001575
 21
273.0
 31
0.0
  0
LINE
  5
8D
330
1F
100
AcDbEntity
  8
1
  6
Continuous
 62
     4
100
AcDbLine
 10
354.1996
 20
274.5
 30
0.0
 11
354.1996
 21
273.75
 31
0.0
  0
LINE
  5
8E
330
1F
100
AcDbEntity
  8
1
  6
Continuous
 62
     4
100
AcDbLine
 10
354.001575
 20
275.25
 30
0.0
 11
354.1996
 21
274.5
 31
0.0
  0
LINE
  5
8F
330
1F
100
AcDbEntity
  8
1
  6
Continuous
 62
     4
100
AcDbLine
 10
353.4075
 20
275.75
 30
0.0
 11
354.001575
 21
275.25
 31
0.0
  0
LINE
  5
90
330
1F
100
AcDbEntity
  8
1
  6
Continuous
 62
     4
100
AcDbLine
 10
352.417375
 20
276.0
 30
0.0
 11
353.4075
 21
275.75
 31
0.0
  0
LINE
  5
91
330
1F
100
AcDbEntity
  8
1
  6
Continuous
 62
     4
100
AcDbLine
 10
349.447
 20
276.0
 30
0.0
 11
352.417375
 21
276.0
 31
0.0
  0
LINE
  5
92
330
1F
100
AcDbEntity
  8
1
  6
Continuous
 62
     4
100
AcDbLine
 10
350.63515
 20
272.0
 30
0.0
 11
352.6154
 21
272.0
 31
0.0
  0
LINE
  5
93
330
1F
100
AcDbEntity
  8
1
  6
Continuous
 62
     4
100
AcDbLine
 10
347.0707
 20
276.0
 30
0.0
 11
347.0707
 21
266.0
 31
0.0
  0
LINE
  5
94
330
1F
100
AcDbEntity
  8
1
  6
Continuous
 62
     4
100
AcDbLine
 10
344.6944
 20
273.0
 30
0.0
 11
347.0707
 21
276.0
 31
0.0
  0
LINE
  5
95
330
1F
100
AcDbEntity
  8
1
  6
Continuous
 62
     4
100
AcDbLine
 10
338.3576
 20
269.5
 30
0.0
 11
342.3181
 21
269.5
 31
0.0
  0
LINE
  5
96
330
1F
100
AcDbEntity
  8
1
  6
Continuous
 62
     4
100
AcDbLine
 10
335.783275
 20
274.0
 30
0.0
 11
335.9813
 21
273.0
 31
0.0
  0
LINE
  5
97
330
1F
100
AcDbEntity
  8
1
  6
Continuous
 62
     4
100
AcDbLine
 10
335.387225
 20
274.75
 30
0.0
 11
335.783275
 21
274.0
 31
0.0
  0
LINE
  5
98
330
1F
100
AcDbEntity
  8
1
  6
Continuous
 62
     4
100
AcDbLine
 10
334.991175
 20
275.25
 30
0.0
 11
335.387225
 21
274.75
 31
0.0
  0
LINE
  5
99
330
1F
100
AcDbEntity
  8
1
  6
Continuous
 62
     4
100
AcDbLine
 10
334.3971
 20
275.75
 30
0.0
 11
334.991175
 21
275.25
 31
0.0
  0
LINE
  5
9A
330
1F
100
AcDbEntity
  8
1
  6
Continuous
 62
     4
100
AcDbLine
 10
333.605
 20
276.0
 30
0.0
 11
334.3971
 21
275.75
 31
0.0
  0
LINE
  5
9B
330
1F
100
AcDbEntity
  8
1
  6
Continuous
 62
     4
100
AcDbLine
 10
330.4366
 20
276.0
 30
0.0
 11
333.605
 21
276.0
 31
0.0
  0
LINE
  5
9C
330
1F
100
AcDbEntity
  8
1
  6
Continuous
 62
     4
100
AcDbLine
 10
330.4366
 20
266.0
 30
0.0
 11
330.4366
 21
276.0
 31
0.0
  0
LINE
  5
9D
330
1F
100
AcDbEntity
  8
1
  6
Continuous
 62
     4
100
AcDbLine
 10
333.605
 20
266.0
 30
0.0
 11
330.4366
 21
266.0
 31
0.0
  0
LINE
  5
9E
330
1F
100
AcDbEntity
  8
1
  6
Continuous
 62
     4
100
AcDbLine
 10
334.3971
 20
266.25
 30
0.0
 11
333.605
 21
266.0
 31
0.0
  0
LINE
  5
9F
330
1F
100
AcDbEntity
  8
1
  6
Continuous
 62
     4
100
AcDbLine
 10
334.991175
 20
266.75
 30
0.0
 11
334.3971
 21
266.25
 31
0.0
  0
LINE
  5
A0
330
1F
100
AcDbEntity
  8
1
  6
Continuous
 62
     4
100
AcDbLine
 10
335.387225
 20
267.25
 30
0.0
 11
334.991175
 21
266.75
 31
0.0
  0
LINE
  5
A1
330
1F
100
AcDbEntity
  8
1
  6
Continuous
 62
     4
100
AcDbLine
 10
335.783275
 20
268.0
 30
0.0
 11
335.387225
 21
267.25
 31
0.0
  0
LINE
  5
A2
330
1F
100
AcDbEntity
  8
1
  6
Continuous
 62
     4
100
AcDbLine
 10
335.9813
 20
269.0
 30
0.0
 11
335.783275
 21
268.0
 31
0.0
  0
LINE
  5
A3
330
1F
100
AcDbEntity
  8
1
  6
Continuous
 62
     4
100
AcDbLine
 10
335.9813
 20
273.0
 30
0.0
 11
335.9813
 21
269.0
 31
0.0
  0
LINE
  5
A4
330
1F
100
AcDbEntity
  8
1
  6
Continuous
 62
     4
100
AcDbLine
 10
327.070175
 20
266.75
 30
0.0
 11
326.4761
 21
266.25
 31
0.0
  0
LINE
  5
A5
330
1F
100
AcDbEntity
  8
1
  6
Continuous
 62
     4
100
AcDbLine
 10
327.466225
 20
267.25
 30
0.0
 11
327.070175
 21
266.75
 31
0.0
  0
LINE
  5
A6
330
1F
100
AcDbEntity
  8
1
  6
Continuous
 62
     4
100
AcDbLine
 10
327.862275
 20
268.0
 30
0.0
 11
327.466225
 21
267.25
 31
0.0
  0
LINE
  5
A7
330
1F
100
AcDbEntity
  8
1
  6
Continuous
 62
     4
100
AcDbLine
 10
328.0603
 20
269.0
 30
0.0
 11
327.862275
 21
268.0
 31
0.0
  0
LINE
  5
A8
330
1F
100
AcDbEntity
  8
1
  6
Continuous
 62
     4
100
AcDbLine
 10
328.0603
 20
273.0
 30
0.0
 11
328.0603
 21
269.0
 31
0.0
  0
LINE
  5
A9
330
1F
100
AcDbEntity
  8
1
  6
Continuous
 62
     4
100
AcDbLine
 10
327.862275
 20
274.0
 30
0.0
 11
328.0603
 21
273.0
 31
0.0
  0
LINE
  5
AA
330
1F
100
AcDbEntity
  8
1
  6
Continuous
 62
     4
100
AcDbLine
 10
327.466225
 20
274.75
 30
0.0
 11
327.862275
 21
274.0
 31
0.0
  0
LINE
  5
AB
330
1F
100
AcDbEntity
  8
1
  6
Continuous
 62
     4
100
AcDbLine
 10
327.070175
 20
275.25
 30
0.0
 11
327.466225
 21
274.75
 31
0.0
  0
LINE
  5
AC
330
1F
100
AcDbEntity
  8
1
  6
Continuous
 62
     4
100
AcDbLine
 10
326.4761
 20
275.75
 30
0.0
 11
327.070175
 21
275.25
 31
0.0
  0
LINE
  5
AD
330
1F
100
AcDbEntity
  8
1
  6
Continuous
 62
     4
100
AcDbLine
 10
325.882025
 20
276.0
 30
0.0
 11
326.4761
 21
275.75
 31
0.0
  0
LINE
  5
AE
330
1F
100
AcDbEntity
  8
1
  6
Continuous
 62
     4
100
AcDbLine
 10
324.693875
 20
276.0
 30
0.0
 11
325.882025
 21
276.0
 31
0.0
  0
LINE
  5
AF
330
1F
100
AcDbEntity
  8
1
  6
Continuous
 62
     4
100
AcDbLine
 10
324.0998
 20
275.75
 30
0.0
 11
324.693875
 21
276.0
 31
0.0
  0
LINE
  5
B0
330
1F
100
AcDbEntity
  8
1
  6
Continuous
 62
     4
100
AcDbLine
 10
323.505725
 20
275.25
 30
0.0
 11
324.0998
 21
275.75
 31
0.0
  0
LINE
  5
B1
330
1F
100
AcDbEntity
  8
1
  6
Continuous
 62
     4
100
AcDbLine
 10
323.109675
 20
274.75
 30
0.0
 11
323.505725
 21
275.25
 31
0.0
  0
LINE
  5
B2
330
1F
100
AcDbEntity
  8
1
  6
Continuous
 62
     4
100
AcDbLine
 10
322.713625
 20
274.0
 30
0.0
 11
323.109675
 21
274.75
 31
0.0
  0
LINE
  5
B3
330
1F
100
AcDbEntity
  8
1
  6
Continuous
 62
     4
100
AcDbLine
 10
322.5156
 20
273.0
 30
0.0
 11
322.713625
 21
274.0
 31
0.0
  0
LINE
  5
B4
330
1F
100
AcDbEntity
  8
1
  6
Continuous
 62
     4
100
AcDbLine
 10
322.5156
 20
269.0
 30
0.0
 11
322.5156
 21
273.0
 31
0.0
  0
LINE
  5
B5
330
1F
100
AcDbEntity
  8
1
  6
Continuous
 62
     4
100
AcDbLine
 10
322.713625
 20
268.0
 30
0.0
 11
322.5156
 21
269.0
 31
0.0
  0
LINE
  5
B6
330
1F
100
AcDbEntity
  8
1
  6
Continuous
 62
     4
100
AcDbLine
 10
323.109675
 20
267.25
 30
0.0
 11
322.713625
 21
268.0
 31
0.0
  0
LINE
  5
B7
330
1F
100
AcDbEntity
  8
1
  6
Continuous
 62
     4
100
AcDbLine
 10
323.505725
 20
266.75
 30
0.0
 11
323.109675
 21
267.25
 31
0.0
  0
LINE
  5
B8
330
1F
100
AcDbEntity
  8
1
  6
Continuous
 62
     4
100
AcDbLine
 10
324.0998
 20
266.25
 30
0.0
 11
323.505725
 21
266.75
 31
0.0
  0
LINE
  5
B9
330
1F
100
AcDbEntity
  8
1
  6
Continuous
 62
     4
100
AcDbLine
 10
324.693875
 20
266.0
 30
0.0
 11
324.0998
 21
266.25
 31
0.0
  0
LINE
  5
BA
330
1F
100
AcDbEntity
  8
1
  6
Continuous
 62
     4
100
AcDbLine
 10
325.882025
 20
266.0
 30
0.0
 11
324.693875
 21
266.0
 31
0.0
  0
LINE
  5
BB
330
1F
100
AcDbEntity
  8
1
  6
Continuous
 62
     4
100
AcDbLine
 10
326.4761
 20
266.25
 30
0.0
 11
325.882025
 21
266.0
 31
0.0
  0
LINE
  5
BC
330
1F
100
AcDbEntity
  8
1
  6
Continuous
 62
     4
100
AcDbLine
 10
326.4761
 20
268.0
 30
0.0
 11
328.0603
 21
266.0
 31
0.0
  0
LINE
  5
BD
330
1F
100
AcDbEntity
  8
1
  6
Continuous
 62
     4
100
AcDbLine
 10
316.1788
 20
269.5
 30
0.0
 11
320.1393000000001
 21
269.5
 31
0.0
  0
LINE
  5
BE
330
1F
100
AcDbEntity
  8
1
  6
Continuous
 62
     4
100
AcDbLine
 10
313.8025
 20
266.0
 30
0.0
 11
313.8025
 21
276.0
 31
0.0
  0
LINE
  5
BF
330
1F
100
AcDbEntity
  8
1
  6
Continuous
 62
     4
100
AcDbLine
 10
308.2578
 20
276.0
 30
0.0
 11
313.8025
 21
266.0
 31
0.0
  0
LINE
  5
C0
330
1F
100
AcDbEntity
  8
1
  6
Continuous
 62
     4
100
AcDbLine
 10
308.2578
 20
266.0
 30
0.0
 11
308.2578
 21
276.0
 31
0.0
  0
LINE
  5
C1
330
1F
100
AcDbEntity
  8
1
  6
Continuous
 62
     4
100
AcDbLine
 10
301.921
 20
269.5
 30
0.0
 11
305.8815
 21
269.5
 31
0.0
  0
LINE
  5
C2
330
1F
100
AcDbEntity
  8
1
  6
Continuous
 62
     4
100
AcDbLine
 10
294.0
 20
269.0
 30
0.0
 11
294.0
 21
276.0
 31
0.0
  0
LINE
  5
C3
330
1F
100
AcDbEntity
  8
1
  6
Continuous
 62
     4
100
AcDbLine
 10
294.0
 20
266.0
 30
0.0
 11
294.0
 21
269.0
 31
0.0
  0
LINE
  5
C4
330
1F
100
AcDbEntity
  8
1
  6
Continuous
 62
     4
100
AcDbLine
 10
295.5842
 20
271.0
 30
0.0
 11
299.5447
 21
266.0
 31
0.0
  0
LINE
  5
C5
330
1F
100
AcDbEntity
  8
1
  6
Continuous
 62
     4
100
AcDbLine
 10
299.5447
 20
276.0
 30
0.0
 11
295.5842
 21
271.0
 31
0.0
  0
LINE
  5
C6
330
1F
100
AcDbEntity
  8
1
  6
Continuous
 62
     4
100
AcDbLine
 10
295.5842
 20
271.0
 30
0.0
 11
294.0
 21
269.0
 31
0.0
  0
LINE
  5
C7
330
1F
100
AcDbEntity
  8
1
  6
Continuous
 62
     4
100
AcDbLine
 10
201.645471088837
 20
56.9862757642696
 30
0.0
 11
200.853371088837
 21
55.7362757642696
 31
0.0
  0
LINE
  5
C8
330
1F
100
AcDbEntity
  8
1
  6
Continuous
 62
     4
100
AcDbLine
 10
200.853371088837
 20
58.2362757642696
 30
0.0
 11
201.645471088837
 21
56.9862757642696
 31
0.0
  0
LINE
  5
C9
330
1F
100
AcDbEntity
  8
1
  6
Continuous
 62
     4
100
AcDbLine
 10
195.704721088837
 20
56.9862757642696
 30
0.0
 11
201.645471088837
 21
56.9862757642696
 31
0.0
  0
LINE
  5
CA
330
1F
100
AcDbEntity
  8
1
  6
Continuous
 62
     4
100
AcDbLine
 10
189.169896088837
 20
59.8612757642696
 30
0.0
 11
193.724471088837
 21
59.8612757642696
 31
0.0
  0
LINE
  5
CB
330
1F
100
AcDbEntity
  8
1
  6
Continuous
 62
     4
100
AcDbLine
 10
189.169896088837
 20
59.8612757642696
 30
0.0
 11
190.259033588837
 21
61.7362757642696
 31
0.0
  0
LINE
  5
CC
330
1F
100
AcDbEntity
  8
1
  6
Continuous
 62
     4
100
AcDbLine
 10
191.744221088837
 20
55.1112757642696
 30
0.0
 11
190.061008588837
 21
55.1112757642696
 31
0.0
  0
LINE
  5
CD
330
1F
100
AcDbEntity
  8
1
  6
Continuous
 62
     4
100
AcDbLine
 10
191.744221088837
 20
57.6112757642696
 30
0.0
 11
191.744221088837
 21
55.1112757642696
 31
0.0
  0
LINE
  5
CE
330
1F
100
AcDbEntity
  8
1
  6
Continuous
 62
     4
100
AcDbLine
 10
190.061008588837
 20
57.6112757642696
 30
0.0
 11
191.744221088837
 21
57.6112757642696
 31
0.0
  0
LINE
  5
CF
330
1F
100
AcDbEntity
  8
1
  6
Continuous
 62
     4
100
AcDbLine
 10
190.061008588837
 20
55.1112757642696
 30
0.0
 11
190.061008588837
 21
57.6112757642696
 31
0.0
  0
LINE
  5
D0
330
1F
100
AcDbEntity
  8
1
  6
Continuous
 62
     4
100
AcDbLine
 10
193.724471088837
 20
52.3612757642696
 30
0.0
 11
192.635333588837
 21
52.3612757642696
 31
0.0
  0
LINE
  5
D1
330
1F
100
AcDbEntity
  8
1
  6
Continuous
 62
     4
100
AcDbLine
 10
193.724471088837
 20
59.8612757642696
 30
0.0
 11
193.724471088837
 21
52.3612757642696
 31
0.0
  0
LINE
  5
D2
330
1F
100
AcDbEntity
  8
1
  6
Continuous
 62
     4
100
AcDbLine
 10
188.080758588837
 20
59.8612757642696
 30
0.0
 11
189.169896088837
 21
59.8612757642696
 31
0.0
  0
LINE
  5
D3
330
1F
100
AcDbEntity
  8
1
  6
Continuous
 62
     4
100
AcDbLine
 10
188.080758588837
 20
52.3612757642696
 30
0.0
 11
188.080758588837
 21
59.8612757642696
 31
0.0
  0
LINE
  5
D4
330
1F
100
AcDbEntity
  8
1
  6
Continuous
 62
     4
100
AcDbLine
 10
183.823221088837
 20
51.9862757642696
 30
0.0
 11
183.031121088837
 21
52.6112757642696
 31
0.0
  0
LINE
  5
D5
330
1F
100
AcDbEntity
  8
1
  6
Continuous
 62
     4
100
AcDbLine
 10
184.318283588837
 20
52.9862757642696
 30
0.0
 11
183.823221088837
 21
51.9862757642696
 31
0.0
  0
LINE
  5
D6
330
1F
100
AcDbEntity
  8
1
  6
Continuous
 62
     4
100
AcDbLine
 10
184.714333588837
 20
54.4862757642696
 30
0.0
 11
184.318283588837
 21
52.9862757642696
 31
0.0
  0
LINE
  5
D7
330
1F
100
AcDbEntity
  8
1
  6
Continuous
 62
     4
100
AcDbLine
 10
185.209396088837
 20
56.7362757642696
 30
0.0
 11
184.714333588837
 21
54.4862757642696
 31
0.0
  0
LINE
  5
D8
330
1F
100
AcDbEntity
  8
1
  6
Continuous
 62
     4
100
AcDbLine
 10
185.209396088837
 20
57.6112757642696
 30
0.0
 11
185.209396088837
 21
56.7362757642696
 31
0.0
  0
LINE
  5
D9
330
1F
100
AcDbEntity
  8
1
  6
Continuous
 62
     4
100
AcDbLine
 10
182.338033588837
 20
57.6112757642696
 30
0.0
 11
185.209396088837
 21
57.6112757642696
 31
0.0
  0
LINE
  5
DA
330
1F
100
AcDbEntity
  8
1
  6
Continuous
 62
     4
100
AcDbLine
 10
179.664696088837
 20
60.1112757642696
 30
0.0
 11
186.298533588837
 21
60.1112757642696
 31
0.0
  0
LINE
  5
DB
330
1F
100
AcDbEntity
  8
1
  6
Continuous
 62
     4
100
AcDbLine
 10
182.536058588837
 20
59.2362757642696
 30
0.0
 11
182.734083588837
 21
61.7362757642696
 31
0.0
  0
LINE
  5
DC
330
1F
100
AcDbEntity
  8
1
  6
Continuous
 62
     4
100
AcDbLine
 10
182.140008588837
 20
56.7362757642696
 30
0.0
 11
182.536058588837
 21
59.2362757642696
 31
0.0
  0
LINE
  5
DD
330
1F
100
AcDbEntity
  8
1
  6
Continuous
 62
     4
100
AcDbLine
 10
181.644946088837
 20
55.1112757642696
 30
0.0
 11
182.140008588837
 21
56.7362757642696
 31
0.0
  0
LINE
  5
DE
330
1F
100
AcDbEntity
  8
1
  6
Continuous
 62
     4
100
AcDbLine
 10
181.050871088837
 20
53.6112757642696
 30
0.0
 11
181.644946088837
 21
55.1112757642696
 31
0.0
  0
LINE
  5
DF
330
1F
100
AcDbEntity
  8
1
  6
Continuous
 62
     4
100
AcDbLine
 10
180.159758588837
 20
52.3612757642696
 30
0.0
 11
181.050871088837
 21
53.6112757642696
 31
0.0
  0
LINE
  5
E0
330
1F
100
AcDbEntity
  8
1
  6
Continuous
 62
     4
100
AcDbLine
 10
177.486421088837
 20
55.1112757642696
 30
0.0
 11
178.575558588837
 21
53.6112757642696
 31
0.0
  0
LINE
  5
E1
330
1F
100
AcDbEntity
  8
1
  6
Continuous
 62
     4
100
AcDbLine
 10
176.595308588837
 20
56.9862757642696
 30
0.0
 11
177.486421088837
 21
55.1112757642696
 31
0.0
  0
LINE
  5
E2
330
1F
100
AcDbEntity
  8
1
  6
Continuous
 62
     4
100
AcDbLine
 10
175.902221088837
 20
59.2362757642696
 30
0.0
 11
176.595308588837
 21
56.9862757642696
 31
0.0
  0
LINE
  5
E3
330
1F
100
AcDbEntity
  8
1
  6
Continuous
 62
     4
100
AcDbLine
 10
177.882471088837
 20
59.4862757642696
 30
0.0
 11
176.397283588837
 21
57.9862757642696
 31
0.0
  0
LINE
  5
E4
330
1F
100
AcDbEntity
  8
1
  6
Continuous
 62
     4
100
AcDbLine
 10
175.308146088837
 20
51.9862757642696
 30
0.0
 11
174.615058588837
 21
52.3612757642696
 31
0.0
  0
LINE
  5
E5
330
1F
100
AcDbEntity
  8
1
  6
Continuous
 62
     4
100
AcDbLine
 10
175.308146088837
 20
61.7362757642696
 30
0.0
 11
175.308146088837
 21
51.9862757642696
 31
0.0
  0
LINE
  5
E6
330
1F
100
AcDbEntity
  8
1
  6
Continuous
 62
     4
100
AcDbLine
 10
174.219008588837
 20
58.6112757642696
 30
0.0
 11
171.941721088837
 21
58.6112757642696
 31
0.0
  0
LINE
  5
E7
330
1F
100
AcDbEntity
  8
1
  6
Continuous
 62
     4
100
AcDbLine
 10
173.723946088837
 20
56.7362757642696
 30
0.0
 11
174.219008588837
 21
58.6112757642696
 31
0.0
  0
LINE
  5
E8
330
1F
100
AcDbEntity
  8
1
  6
Continuous
 62
     4
100
AcDbLine
 10
172.832833588837
 20
54.8612757642696
 30
0.0
 11
173.723946088837
 21
56.7362757642696
 31
0.0
  0
LINE
  5
E9
330
1F
100
AcDbEntity
  8
1
  6
Continuous
 62
     4
100
AcDbLine
 10
171.941721088837
 20
53.6112757642696
 30
0.0
 11
172.832833588837
 21
54.8612757642696
 31
0.0
  0
LINE
  5
EA
330
1F
100
AcDbEntity
  8
1
  6
Continuous
 62
     4
100
AcDbLine
 10
167.585171088837
 20
60.4862757642696
 30
0.0
 11
170.258508588837
 21
60.4862757642696
 31
0.0
  0
LINE
  5
EB
330
1F
100
AcDbEntity
  8
1
  6
Continuous
 62
     4
100
AcDbLine
 10
170.654558588837
 20
52.9862757642696
 30
0.0
 11
170.654558588837
 21
53.6112757642696
 31
0.0
  0
LINE
  5
EC
330
1F
100
AcDbEntity
  8
1
  6
Continuous
 62
     4
100
AcDbLine
 10
170.258508588837
 20
52.3612757642696
 30
0.0
 11
170.654558588837
 21
52.9862757642696
 31
0.0
  0
LINE
  5
ED
330
1F
100
AcDbEntity
  8
1
  6
Continuous
 62
     4
100
AcDbLine
 10
169.367396088837
 20
52.3612757642696
 30
0.0
 11
170.258508588837
 21
52.3612757642696
 31
0.0
  0
LINE
  5
EE
330
1F
100
AcDbEntity
  8
1
  6
Continuous
 62
     4
100
AcDbLine
 10
168.872333588837
 20
53.2362757642696
 30
0.0
 11
169.367396088837
 21
52.3612757642696
 31
0.0
  0
LINE
  5
EF
330
1F
100
AcDbEntity
  8
1
  6
Continuous
 62
     4
100
AcDbLine
 10
168.872333588837
 20
56.3612757642696
 30
0.0
 11
168.872333588837
 21
53.2362757642696
 31
0.0
  0
LINE
  5
F0
330
1F
100
AcDbEntity
  8
1
  6
Continuous
 62
     4
100
AcDbLine
 10
167.585171088837
 20
52.3612757642696
 30
0.0
 11
167.585171088837
 21
56.3612757642696
 31
0.0
  0
LINE
  5
F1
330
1F
100
AcDbEntity
  8
1
  6
Continuous
 62
     4
100
AcDbLine
 10
165.604921088837
 20
52.6112757642696
 30
0.0
 11
164.911833588837
 21
51.9862757642696
 31
0.0
  0
LINE
  5
F2
330
1F
100
AcDbEntity
  8
1
  6
Continuous
 62
     4
100
AcDbLine
 10
166.000971088837
 20
53.2362757642696
 30
0.0
 11
165.604921088837
 21
52.6112757642696
 31
0.0
  0
LINE
  5
F3
330
1F
100
AcDbEntity
  8
1
  6
Continuous
 62
     4
100
AcDbLine
 10
166.298008588837
 20
54.2362757642696
 30
0.0
 11
166.000971088837
 21
53.2362757642696
 31
0.0
  0
LINE
  5
F4
330
1F
100
AcDbEntity
  8
1
  6
Continuous
 62
     4
100
AcDbLine
 10
166.496033588837
 20
56.3612757642696
 30
0.0
 11
166.298008588837
 21
54.2362757642696
 31
0.0
  0
LINE
  5
F5
330
1F
100
AcDbEntity
  8
1
  6
Continuous
 62
     4
100
AcDbLine
 10
168.674308588837
 20
59.4862757642696
 30
0.0
 11
169.565421088837
 21
57.3612757642696
 31
0.0
  0
LINE
  5
F6
330
1F
100
AcDbEntity
  8
1
  6
Continuous
 62
     4
100
AcDbLine
 10
165.802946088837
 20
57.9862757642696
 30
0.0
 11
169.169371088837
 21
58.2362757642696
 31
0.0
  0
LINE
  5
F7
330
1F
100
AcDbEntity
  8
1
  6
Continuous
 62
     4
100
AcDbLine
 10
167.585171088837
 20
60.4862757642696
 30
0.0
 11
166.694058588837
 21
57.9862757642696
 31
0.0
  0
LINE
  5
F8
330
1F
100
AcDbEntity
  8
1
  6
Continuous
 62
     4
100
AcDbLine
 10
167.783196088837
 20
61.9862757642696
 30
0.0
 11
167.783196088837
 21
60.4862757642696
 31
0.0
  0
LINE
  5
F9
330
1F
100
AcDbEntity
  8
1
  6
Continuous
 62
     4
100
AcDbLine
 10
165.406896088837
 20
60.4862757642696
 30
0.0
 11
167.585171088837
 21
60.4862757642696
 31
0.0
  0
LINE
  5
FA
330
1F
100
AcDbEntity
  8
1
  6
Continuous
 62
     4
100
AcDbLine
 10
163.822696088837
 20
52.3612757642696
 30
0.0
 11
164.713808588837
 21
56.3612757642696
 31
0.0
  0
LINE
  5
FB
330
1F
100
AcDbEntity
  8
1
  6
Continuous
 62
     4
100
AcDbLine
 10
163.624671088837
 20
58.8612757642696
 30
0.0
 11
164.317758588837
 21
57.9862757642696
 31
0.0
  0
LINE
  5
FC
330
1F
100
AcDbEntity
  8
1
  6
Continuous
 62
     4
100
AcDbLine
 10
164.317758588837
 20
61.7362757642696
 30
0.0
 11
164.713808588837
 21
60.7362757642696
 31
0.0
  0
LINE
  5
FD
330
1F
100
AcDbEntity
  8
1
  6
Continuous
 62
     4
100
AcDbLine
 10
315.709430510453
 20
63.2942663162452
 30
0.0
 11
315.709430510453
 21
59.2942663162452
 31
0.0
  0
LINE
  5
FE
330
1F
100
AcDbEntity
  8
1
  6
Continuous
 62
     4
100
AcDbLine
 10
311.209430510453
 20
61.2942663162452
 30
0.0
 11
317.209430510453
 21
61.2942663162452
 31
0.0
  0
LINE
  5
FF
330
1F
100
AcDbEntity
  8
1
  6
Continuous
 62
     4
100
AcDbLine
 10
315.709430510453
 20
69.2942663162452
 30
0.0
 11
311.209430510453
 21
61.2942663162452
 31
0.0
  0
LINE
  5
100
330
1F
100
AcDbEntity
  8
1
  6
Continuous
 62
     4
100
AcDbLine
 10
304.209430510453
 20
59.2942663162452
 30
0.0
 11
308.209430510453
 21
69.2942663162452
 31
0.0
  0
LINE
  5
101
330
1F
100
AcDbEntity
  8
1
  6
Continuous
 62
     4
100
AcDbLine
 10
298.959430510453
 20
59.2942663162452
 30
0.0
 11
295.209430510453
 21
59.2942663162452
 31
0.0
  0
LINE
  5
102
330
1F
100
AcDbEntity
  8
1
  6
Continuous
 62
     4
100
AcDbLine
 10
299.709430510453
 20
59.5442663162452
 30
0.0
 11
298.959430510453
 21
59.2942663162452
 31
0.0
  0
LINE
  5
103
330
1F
100
AcDbEntity
  8
1
  6
Continuous
 62
     4
100
AcDbLine
 10
300.459430510453
 20
60.0442663162452
 30
0.0
 11
299.709430510453
 21
59.5442663162452
 31
0.0
  0
LINE
  5
104
330
1F
100
AcDbEntity
  8
1
  6
Continuous
 62
     4
100
AcDbLine
 10
300.959430510453
 20
60.7942663162452
 30
0.0
 11
300.459430510453
 21
60.0442663162452
 31
0.0
  0
LINE
  5
105
330
1F
100
AcDbEntity
  8
1
  6
Continuous
 62
     4
100
AcDbLine
 10
301.209430510453
 20
61.7942663162452
 30
0.0
 11
300.959430510453
 21
60.7942663162452
 31
0.0
  0
LINE
  5
106
330
1F
100
AcDbEntity
  8
1
  6
Continuous
 62
     4
100
AcDbLine
 10
301.209430510453
 20
63.0442663162452
 30
0.0
 11
301.209430510453
 21
61.7942663162452
 31
0.0
  0
LINE
  5
107
330
1F
100
AcDbEntity
  8
1
  6
Continuous
 62
     4
100
AcDbLine
 10
300.959430510453
 20
64.0442663162452
 30
0.0
 11
301.209430510453
 21
63.0442663162452
 31
0.0
  0
LINE
  5
108
330
1F
100
AcDbEntity
  8
1
  6
Continuous
 62
     4
100
AcDbLine
 10
300.709430510453
 20
64.5442663162452
 30
0.0
 11
300.959430510453
 21
64.0442663162452
 31
0.0
  0
LINE
  5
109
330
1F
100
AcDbEntity
  8
1
  6
Continuous
 62
     4
100
AcDbLine
 10
300.209430510453
 20
65.0442663162452
 30
0.0
 11
300.709430510453
 21
64.5442663162452
 31
0.0
  0
LINE
  5
10A
330
1F
100
AcDbEntity
  8
1
  6
Continuous
 62
     4
100
AcDbLine
 10
299.209430510453
 20
65.2942663162452
 30
0.0
 11
300.209430510453
 21
65.0442663162452
 31
0.0
  0
LINE
  5
10B
330
1F
100
AcDbEntity
  8
1
  6
Continuous
 62
     4
100
AcDbLine
 10
299.959430510453
 20
65.5442663162452
 30
0.0
 11
299.209430510453
 21
65.2942663162452
 31
0.0
  0
LINE
  5
10C
330
1F
100
AcDbEntity
  8
1
  6
Continuous
 62
     4
100
AcDbLine
 10
300.459430510453
 20
65.7942663162452
 30
0.0
 11
299.959430510453
 21
65.5442663162452
 31
0.0
  0
LINE
  5
10D
330
1F
100
AcDbEntity
  8
1
  6
Continuous
 62
     4
100
AcDbLine
 10
300.959430510453
 20
66.2942663162452
 30
0.0
 11
300.459430510453
 21
65.7942663162452
 31
0.0
  0
LINE
  5
10E
330
1F
100
AcDbEntity
  8
1
  6
Continuous
 62
     4
100
AcDbLine
 10
301.209430510453
 20
67.0442663162452
 30
0.0
 11
300.959430510453
 21
66.2942663162452
 31
0.0
  0
LINE
  5
10F
330
1F
100
AcDbEntity
  8
1
  6
Continuous
 62
     4
100
AcDbLine
 10
301.209430510453
 20
67.7942663162452
 30
0.0
 11
301.209430510453
 21
67.0442663162452
 31
0.0
  0
LINE
  5
110
330
1F
100
AcDbEntity
  8
1
  6
Continuous
 62
     4
100
AcDbLine
 10
300.959430510453
 20
68.5442663162452
 30
0.0
 11
301.209430510453
 21
67.7942663162452
 31
0.0
  0
LINE
  5
111
330
1F
100
AcDbEntity
  8
1
  6
Continuous
 62
     4
100
AcDbLine
 10
300.209430510453
 20
69.0442663162452
 30
0.0
 11
300.959430510453
 21
68.5442663162452
 31
0.0
  0
LINE
  5
112
330
1F
100
AcDbEntity
  8
1
  6
Continuous
 62
     4
100
AcDbLine
 10
298.959430510453
 20
69.2942663162452
 30
0.0
 11
300.209430510453
 21
69.0442663162452
 31
0.0
  0
LINE
  5
113
330
1F
100
AcDbEntity
  8
1
  6
Continuous
 62
     4
100
AcDbLine
 10
295.209430510453
 20
69.2942663162452
 30
0.0
 11
298.959430510453
 21
69.2942663162452
 31
0.0
  0
LINE
  5
114
330
1F
100
AcDbEntity
  8
1
  6
Continuous
 62
     4
100
AcDbLine
 10
296.709430510453
 20
65.2942663162452
 30
0.0
 11
299.209430510453
 21
65.2942663162452
 31
0.0
  0
LINE
  5
115
330
1F
100
AcDbEntity
  8
1
  6
Continuous
 62
     4
100
AcDbLine
 10
292.209430510453
 20
64.7942663162452
 30
0.0
 11
289.709430510453
 21
64.7942663162452
 31
0.0
  0
LINE
  5
116
330
1F
100
AcDbEntity
  8
1
  6
Continuous
 62
     4
100
AcDbLine
 10
292.209430510453
 20
59.2942663162452
 30
0.0
 11
292.209430510453
 21
64.7942663162452
 31
0.0
  0
LINE
  5
117
330
1F
100
AcDbEntity
  8
1
  6
Continuous
 62
     4
100
AcDbLine
 10
287.959430510453
 20
59.2942663162452
 30
0.0
 11
292.209430510453
 21
59.2942663162452
 31
0.0
  0
LINE
  5
118
330
1F
100
AcDbEntity
  8
1
  6
Continuous
 62
     4
100
AcDbLine
 10
287.209430510453
 20
59.5442663162452
 30
0.0
 11
287.959430510453
 21
59.2942663162452
 31
0.0
  0
LINE
  5
119
330
1F
100
AcDbEntity
  8
1
  6
Continuous
 62
     4
100
AcDbLine
 10
286.209430510453
 20
60.0442663162452
 30
0.0
 11
287.209430510453
 21
59.5442663162452
 31
0.0
  0
LINE
  5
11A
330
1F
100
AcDbEntity
  8
1
  6
Continuous
 62
     4
100
AcDbLine
 10
285.709430510453
 20
60.5442663162452
 30
0.0
 11
286.209430510453
 21
60.0442663162452
 31
0.0
  0
LINE
  5
11B
330
1F
100
AcDbEntity
  8
1
  6
Continuous
 62
     4
100
AcDbLine
 10
285.459430510453
 20
61.2942663162452
 30
0.0
 11
285.709430510453
 21
60.5442663162452
 31
0.0
  0
LINE
  5
11C
330
1F
100
AcDbEntity
  8
1
  6
Continuous
 62
     4
100
AcDbLine
 10
285.209430510453
 20
62.2942663162452
 30
0.0
 11
285.459430510453
 21
61.2942663162452
 31
0.0
  0
LINE
  5
11D
330
1F
100
AcDbEntity
  8
1
  6
Continuous
 62
     4
100
AcDbLine
 10
285.209430510453
 20
66.2942663162452
 30
0.0
 11
285.209430510453
 21
62.2942663162452
 31
0.0
  0
LINE
  5
11E
330
1F
100
AcDbEntity
  8
1
  6
Continuous
 62
     4
100
AcDbLine
 10
285.459430510453
 20
67.2942663162452
 30
0.0
 11
285.209430510453
 21
66.2942663162452
 31
0.0
  0
LINE
  5
11F
330
1F
100
AcDbEntity
  8
1
  6
Continuous
 62
     4
100
AcDbLine
 10
285.709430510453
 20
68.0442663162452
 30
0.0
 11
285.459430510453
 21
67.2942663162452
 31
0.0
  0
LINE
  5
120
330
1F
100
AcDbEntity
  8
1
  6
Continuous
 62
     4
100
AcDbLine
 10
286.209430510453
 20
68.5442663162452
 30
0.0
 11
285.709430510453
 21
68.0442663162452
 31
0.0
  0
LINE
  5
121
330
1F
100
AcDbEntity
  8
1
  6
Continuous
 62
     4
100
AcDbLine
 10
286.959430510453
 20
69.0442663162452
 30
0.0
 11
286.209430510453
 21
68.5442663162452
 31
0.0
  0
LINE
  5
122
330
1F
100
AcDbEntity
  8
1
  6
Continuous
 62
     4
100
AcDbLine
 10
287.959430510453
 20
69.2942663162452
 30
0.0
 11
286.959430510453
 21
69.0442663162452
 31
0.0
  0
LINE
  5
123
330
1F
100
AcDbEntity
  8
1
  6
Continuous
 62
     4
100
AcDbLine
 10
292.209430510453
 20
69.2942663162452
 30
0.0
 11
287.959430510453
 21
69.2942663162452
 31
0.0
  0
LINE
  5
124
330
1F
100
AcDbEntity
  8
1
  6
Continuous
 62
     4
100
AcDbLine
 10
245.134291882265
 20
120.108561315836
 30
0.0
 11
245.134291882265
 21
116.108561315836
 31
0.0
  0
LINE
  5
125
330
1F
100
AcDbEntity
  8
1
  6
Continuous
 62
     4
100
AcDbLine
 10
240.634291882265
 20
118.108561315836
 30
0.0
 11
246.634291882265
 21
118.108561315836
 31
0.0
  0
LINE
  5
126
330
1F
100
AcDbEntity
  8
1
  6
Continuous
 62
     4
100
AcDbLine
 10
245.134291882265
 20
126.108561315836
 30
0.0
 11
240.634291882265
 21
118.108561315836
 31
0.0
  0
LINE
  5
127
330
1F
100
AcDbEntity
  8
1
  6
Continuous
 62
     4
100
AcDbLine
 10
233.634291882265
 20
116.108561315836
 30
0.0
 11
237.634291882265
 21
126.108561315836
 31
0.0
  0
LINE
  5
128
330
1F
100
AcDbEntity
  8
1
  6
Continuous
 62
     4
100
AcDbLine
 10
228.384291882265
 20
116.108561315836
 30
0.0
 11
224.634291882265
 21
116.108561315836
 31
0.0
  0
LINE
  5
129
330
1F
100
AcDbEntity
  8
1
  6
Continuous
 62
     4
100
AcDbLine
 10
229.134291882265
 20
116.358561315836
 30
0.0
 11
228.384291882265
 21
116.108561315836
 31
0.0
  0
LINE
  5
12A
330
1F
100
AcDbEntity
  8
1
  6
Continuous
 62
     4
100
AcDbLine
 10
229.884291882265
 20
116.858561315836
 30
0.0
 11
229.134291882265
 21
116.358561315836
 31
0.0
  0
LINE
  5
12B
330
1F
100
AcDbEntity
  8
1
  6
Continuous
 62
     4
100
AcDbLine
 10
230.384291882265
 20
117.608561315836
 30
0.0
 11
229.884291882265
 21
116.858561315836
 31
0.0
  0
LINE
  5
12C
330
1F
100
AcDbEntity
  8
1
  6
Continuous
 62
     4
100
AcDbLine
 10
230.634291882265
 20
118.608561315836
 30
0.0
 11
230.384291882265
 21
117.608561315836
 31
0.0
  0
LINE
  5
12D
330
1F
100
AcDbEntity
  8
1
  6
Continuous
 62
     4
100
AcDbLine
 10
230.634291882265
 20
119.858561315836
 30
0.0
 11
230.634291882265
 21
118.608561315836
 31
0.0
  0
LINE
  5
12E
330
1F
100
AcDbEntity
  8
1
  6
Continuous
 62
     4
100
AcDbLine
 10
230.384291882265
 20
120.858561315836
 30
0.0
 11
230.634291882265
 21
119.858561315836
 31
0.0
  0
LINE
  5
12F
330
1F
100
AcDbEntity
  8
1
  6
Continuous
 62
     4
100
AcDbLine
 10
230.134291882265
 20
121.358561315836
 30
0.0
 11
230.384291882265
 21
120.858561315836
 31
0.0
  0
LINE
  5
130
330
1F
100
AcDbEntity
  8
1
  6
Continuous
 62
     4
100
AcDbLine
 10
229.634291882265
 20
121.858561315836
 30
0.0
 11
230.134291882265
 21
121.358561315836
 31
0.0
  0
LINE
  5
131
330
1F
100
AcDbEntity
  8
1
  6
Continuous
 62
     4
100
AcDbLine
 10
228.634291882265
 20
122.108561315836
 30
0.0
 11
229.634291882265
 21
121.858561315836
 31
0.0
  0
LINE
  5
132
330
1F
100
AcDbEntity
  8
1
  6
Continuous
 62
     4
100
AcDbLine
 10
229.384291882265
 20
122.358561315836
 30
0.0
 11
228.634291882265
 21
122.108561315836
 31
0.0
  0
LINE
  5
133
330
1F
100
AcDbEntity
  8
1
  6
Continuous
 62
     4
100
AcDbLine
 10
229.884291882265
 20
122.608561315836
 30
0.0
 11
229.384291882265
 21
122.358561315836
 31
0.0
  0
LINE
  5
134
330
1F
100
AcDbEntity
  8
1
  6
Continuous
 62
     4
100
AcDbLine
 10
230.384291882265
 20
123.108561315836
 30
0.0
 11
229.884291882265
 21
122.608561315836
 31
0.0
  0
LINE
  5
135
330
1F
100
AcDbEntity
  8
1
  6
Continuous
 62
     4
100
AcDbLine
 10
230.634291882265
 20
123.858561315836
 30
0.0
 11
230.384291882265
 21
123.108561315836
 31
0.0
  0
LINE
  5
136
330
1F
100
AcDbEntity
  8
1
  6
Continuous
 62
     4
100
AcDbLine
 10
230.634291882265
 20
124.608561315836
 30
0.0
 11
230.634291882265
 21
123.858561315836
 31
0.0
  0
LINE
  5
137
330
1F
100
AcDbEntity
  8
1
  6
Continuous
 62
     4
100
AcDbLine
 10
230.384291882265
 20
125.358561315836
 30
0.0
 11
230.634291882265
 21
124.608561315836
 31
0.0
  0
LINE
  5
138
330
1F
100
AcDbEntity
  8
1
  6
Continuous
 62
     4
100
AcDbLine
 10
229.634291882265
 20
125.858561315836
 30
0.0
 11
230.384291882265
 21
125.358561315836
 31
0.0
  0
LINE
  5
139
330
1F
100
AcDbEntity
  8
1
  6
Continuous
 62
     4
100
AcDbLine
 10
228.384291882265
 20
126.108561315836
 30
0.0
 11
229.634291882265
 21
125.858561315836
 31
0.0
  0
LINE
  5
13A
330
1F
100
AcDbEntity
  8
1
  6
Continuous
 62
     4
100
AcDbLine
 10
224.634291882265
 20
126.108561315836
 30
0.0
 11
228.384291882265
 21
126.108561315836
 31
0.0
  0
LINE
  5
13B
330
1F
100
AcDbEntity
  8
1
  6
Continuous
 62
     4
100
AcDbLine
 10
226.134291882265
 20
122.108561315836
 30
0.0
 11
228.634291882265
 21
122.108561315836
 31
0.0
  0
LINE
  5
13C
330
1F
100
AcDbEntity
  8
1
  6
Continuous
 62
     4
100
AcDbLine
 10
221.634291882265
 20
121.608561315836
 30
0.0
 11
219.134291882265
 21
121.608561315836
 31
0.0
  0
LINE
  5
13D
330
1F
100
AcDbEntity
  8
1
  6
Continuous
 62
     4
100
AcDbLine
 10
221.634291882265
 20
116.108561315836
 30
0.0
 11
221.634291882265
 21
121.608561315836
 31
0.0
  0
LINE
  5
13E
330
1F
100
AcDbEntity
  8
1
  6
Continuous
 62
     4
100
AcDbLine
 10
217.384291882265
 20
116.108561315836
 30
0.0
 11
221.634291882265
 21
116.108561315836
 31
0.0
  0
LINE
  5
13F
330
1F
100
AcDbEntity
  8
1
  6
Continuous
 62
     4
100
AcDbLine
 10
216.634291882265
 20
116.358561315836
 30
0.0
 11
217.384291882265
 21
116.108561315836
 31
0.0
  0
LINE
  5
140
330
1F
100
AcDbEntity
  8
1
  6
Continuous
 62
     4
100
AcDbLine
 10
215.634291882265
 20
116.858561315836
 30
0.0
 11
216.634291882265
 21
116.358561315836
 31
0.0
  0
LINE
  5
141
330
1F
100
AcDbEntity
  8
1
  6
Continuous
 62
     4
100
AcDbLine
 10
215.134291882265
 20
117.358561315836
 30
0.0
 11
215.634291882265
 21
116.858561315836
 31
0.0
  0
LINE
  5
142
330
1F
100
AcDbEntity
  8
1
  6
Continuous
 62
     4
100
AcDbLine
 10
214.884291882265
 20
118.108561315836
 30
0.0
 11
215.134291882265
 21
117.358561315836
 31
0.0
  0
LINE
  5
143
330
1F
100
AcDbEntity
  8
1
  6
Continuous
 62
     4
100
AcDbLine
 10
214.634291882265
 20
119.108561315836
 30
0.0
 11
214.884291882265
 21
118.108561315836
 31
0.0
  0
LINE
  5
144
330
1F
100
AcDbEntity
  8
1
  6
Continuous
 62
     4
100
AcDbLine
 10
214.634291882265
 20
123.108561315836
 30
0.0
 11
214.634291882265
 21
119.108561315836
 31
0.0
  0
LINE
  5
145
330
1F
100
AcDbEntity
  8
1
  6
Continuous
 62
     4
100
AcDbLine
 10
214.884291882265
 20
124.108561315836
 30
0.0
 11
214.634291882265
 21
123.108561315836
 31
0.0
  0
LINE
  5
146
330
1F
100
AcDbEntity
  8
1
  6
Continuous
 62
     4
100
AcDbLine
 10
215.134291882265
 20
124.858561315836
 30
0.0
 11
214.884291882265
 21
124.108561315836
 31
0.0
  0
LINE
  5
147
330
1F
100
AcDbEntity
  8
1
  6
Continuous
 62
     4
100
AcDbLine
 10
215.634291882265
 20
125.358561315836
 30
0.0
 11
215.134291882265
 21
124.858561315836
 31
0.0
  0
LINE
  5
148
330
1F
100
AcDbEntity
  8
1
  6
Continuous
 62
     4
100
AcDbLine
 10
216.384291882265
 20
125.858561315836
 30
0.0
 11
215.634291882265
 21
125.358561315836
 31
0.0
  0
LINE
  5
149
330
1F
100
AcDbEntity
  8
1
  6
Continuous
 62
     4
100
AcDbLine
 10
217.384291882265
 20
126.108561315836
 30
0.0
 11
216.384291882265
 21
125.858561315836
 31
0.0
  0
LINE
  5
14A
330
1F
100
AcDbEntity
  8
1
  6
Continuous
 62
     4
100
AcDbLine
 10
221.634291882265
 20
126.108561315836
 30
0.0
 11
217.384291882265
 21
126.108561315836
 31
0.0
  0
LINE
  5
14B
330
1F
100
AcDbEntity
  8
1
  6
Continuous
 62
     4
100
AcDbLine
 10
129.648217086108
 20
63.5310617907838
 30
0.0
 11
129.648217086108
 21
59.5310617907838
 31
0.0
  0
LINE
  5
14C
330
1F
100
AcDbEntity
  8
1
  6
Continuous
 62
     4
100
AcDbLine
 10
125.148217086108
 20
61.5310617907838
 30
0.0
 11
131.148217086108
 21
61.5310617907838
 31
0.0
  0
LINE
  5
14D
330
1F
100
AcDbEntity
  8
1
  6
Continuous
 62
     4
100
AcDbLine
 10
129.648217086108
 20
69.53106179078381
 30
0.0
 11
125.148217086108
 21
61.5310617907838
 31
0.0
  0
LINE
  5
14E
330
1F
100
AcDbEntity
  8
1
  6
Continuous
 62
     4
100
AcDbLine
 10
118.148217086108
 20
59.5310617907838
 30
0.0
 11
122.148217086108
 21
69.53106179078381
 31
0.0
  0
LINE
  5
14F
330
1F
100
AcDbEntity
  8
1
  6
Continuous
 62
     4
100
AcDbLine
 10
112.898217086108
 20
59.5310617907838
 30
0.0
 11
109.148217086108
 21
59.5310617907838
 31
0.0
  0
LINE
  5
150
330
1F
100
AcDbEntity
  8
1
  6
Continuous
 62
     4
100
AcDbLine
 10
113.648217086108
 20
59.7810617907838
 30
0.0
 11
112.898217086108
 21
59.5310617907838
 31
0.0
  0
LINE
  5
151
330
1F
100
AcDbEntity
  8
1
  6
Continuous
 62
     4
100
AcDbLine
 10
114.398217086108
 20
60.2810617907838
 30
0.0
 11
113.648217086108
 21
59.7810617907838
 31
0.0
  0
LINE
  5
152
330
1F
100
AcDbEntity
  8
1
  6
Continuous
 62
     4
100
AcDbLine
 10
114.898217086108
 20
61.0310617907838
 30
0.0
 11
114.398217086108
 21
60.2810617907838
 31
0.0
  0
LINE
  5
153
330
1F
100
AcDbEntity
  8
1
  6
Continuous
 62
     4
100
AcDbLine
 10
115.148217086108
 20
62.0310617907838
 30
0.0
 11
114.898217086108
 21
61.0310617907838
 31
0.0
  0
LINE
  5
154
330
1F
100
AcDbEntity
  8
1
  6
Continuous
 62
     4
100
AcDbLine
 10
115.148217086108
 20
63.2810617907838
 30
0.0
 11
115.148217086108
 21
62.0310617907838
 31
0.0
  0
LINE
  5
155
330
1F
100
AcDbEntity
  8
1
  6
Continuous
 62
     4
100
AcDbLine
 10
114.898217086108
 20
64.28106179078381
 30
0.0
 11
115.148217086108
 21
63.2810617907838
 31
0.0
  0
LINE
  5
156
330
1F
100
AcDbEntity
  8
1
  6
Continuous
 62
     4
100
AcDbLine
 10
114.648217086108
 20
64.78106179078381
 30
0.0
 11
114.898217086108
 21
64.28106179078381
 31
0.0
  0
LINE
  5
157
330
1F
100
AcDbEntity
  8
1
  6
Continuous
 62
     4
100
AcDbLine
 10
114.148217086108
 20
65.28106179078381
 30
0.0
 11
114.648217086108
 21
64.78106179078381
 31
0.0
  0
LINE
  5
158
330
1F
100
AcDbEntity
  8
1
  6
Continuous
 62
     4
100
AcDbLine
 10
113.148217086108
 20
65.53106179078381
 30
0.0
 11
114.148217086108
 21
65.28106179078381
 31
0.0
  0
LINE
  5
159
330
1F
100
AcDbEntity
  8
1
  6
Continuous
 62
     4
100
AcDbLine
 10
113.898217086108
 20
65.78106179078381
 30
0.0
 11
113.148217086108
 21
65.53106179078381
 31
0.0
  0
LINE
  5
15A
330
1F
100
AcDbEntity
  8
1
  6
Continuous
 62
     4
100
AcDbLine
 10
114.398217086108
 20
66.03106179078381
 30
0.0
 11
113.898217086108
 21
65.78106179078381
 31
0.0
  0
LINE
  5
15B
330
1F
100
AcDbEntity
  8
1
  6
Continuous
 62
     4
100
AcDbLine
 10
114.898217086108
 20
66.53106179078381
 30
0.0
 11
114.398217086108
 21
66.03106179078381
 31
0.0
  0
LINE
  5
15C
330
1F
100
AcDbEntity
  8
1
  6
Continuous
 62
     4
100
AcDbLine
 10
115.148217086108
 20
67.28106179078381
 30
0.0
 11
114.898217086108
 21
66.53106179078381
 31
0.0
  0
LINE
  5
15D
330
1F
100
AcDbEntity
  8
1
  6
Continuous
 62
     4
100
AcDbLine
 10
115.148217086108
 20
68.03106179078381
 30
0.0
 11
115.148217086108
 21
67.28106179078381
 31
0.0
  0
LINE
  5
15E
330
1F
100
AcDbEntity
  8
1
  6
Continuous
 62
     4
100
AcDbLine
 10
114.898217086108
 20
68.78106179078381
 30
0.0
 11
115.148217086108
 21
68.03106179078381
 31
0.0
  0
LINE
  5
15F
330
1F
100
AcDbEntity
  8
1
  6
Continuous
 62
     4
100
AcDbLine
 10
114.148217086108
 20
69.28106179078381
 30
0.0
 11
114.898217086108
 21
68.78106179078381
 31
0.0
  0
LINE
  5
160
330
1F
100
AcDbEntity
  8
1
  6
Continuous
 62
     4
100
AcDbLine
 10
112.898217086108
 20
69.53106179078381
 30
0.0
 11
114.148217086108
 21
69.28106179078381
 31
0.0
  0
LINE
  5
161
330
1F
100
AcDbEntity
  8
1
  6
Continuous
 62
     4
100
AcDbLine
 10
109.148217086108
 20
69.53106179078381
 30
0.0
 11
112.898217086108
 21
69.53106179078381
 31
0.0
  0
LINE
  5
162
330
1F
100
AcDbEntity
  8
1
  6
Continuous
 62
     4
100
AcDbLine
 10
110.648217086108
 20
65.53106179078381
 30
0.0
 11
113.148217086108
 21
65.53106179078381
 31
0.0
  0
LINE
  5
163
330
1F
100
AcDbEntity
  8
1
  6
Continuous
 62
     4
100
AcDbLine
 10
106.148217086108
 20
65.03106179078381
 30
0.0
 11
103.648217086108
 21
65.03106179078381
 31
0.0
  0
LINE
  5
164
330
1F
100
AcDbEntity
  8
1
  6
Continuous
 62
     4
100
AcDbLine
 10
106.148217086108
 20
59.5310617907838
 30
0.0
 11
106.148217086108
 21
65.03106179078381
 31
0.0
  0
LINE
  5
165
330
1F
100
AcDbEntity
  8
1
  6
Continuous
 62
     4
100
AcDbLine
 10
101.898217086108
 20
59.5310617907838
 30
0.0
 11
106.148217086108
 21
59.5310617907838
 31
0.0
  0
LINE
  5
166
330
1F
100
AcDbEntity
  8
1
  6
Continuous
 62
     4
100
AcDbLine
 10
101.148217086108
 20
59.7810617907838
 30
0.0
 11
101.898217086108
 21
59.5310617907838
 31
0.0
  0
LINE
  5
167
330
1F
100
AcDbEntity
  8
1
  6
Continuous
 62
     4
100
AcDbLine
 10
100.148217086108
 20
60.2810617907838
 30
0.0
 11
101.148217086108
 21
59.7810617907838
 31
0.0
  0
LINE
  5
168
330
1F
100
AcDbEntity
  8
1
  6
Continuous
 62
     4
100
AcDbLine
 10
99.648217086108
 20
60.7810617907838
 30
0.0
 11
100.148217086108
 21
60.2810617907838
 31
0.0
  0
LINE
  5
169
330
1F
100
AcDbEntity
  8
1
  6
Continuous
 62
     4
100
AcDbLine
 10
99.398217086108
 20
61.5310617907838
 30
0.0
 11
99.648217086108
 21
60.7810617907838
 31
0.0
  0
LINE
  5
16A
330
1F
100
AcDbEntity
  8
1
  6
Continuous
 62
     4
100
AcDbLine
 10
99.148217086108
 20
62.5310617907838
 30
0.0
 11
99.398217086108
 21
61.5310617907838
 31
0.0
  0
LINE
  5
16B
330
1F
100
AcDbEntity
  8
1
  6
Continuous
 62
     4
100
AcDbLine
 10
99.148217086108
 20
66.53106179078381
 30
0.0
 11
99.148217086108
 21
62.5310617907838
 31
0.0
  0
LINE
  5
16C
330
1F
100
AcDbEntity
  8
1
  6
Continuous
 62
     4
100
AcDbLine
 10
99.398217086108
 20
67.53106179078381
 30
0.0
 11
99.148217086108
 21
66.53106179078381
 31
0.0
  0
LINE
  5
16D
330
1F
100
AcDbEntity
  8
1
  6
Continuous
 62
     4
100
AcDbLine
 10
99.648217086108
 20
68.28106179078381
 30
0.0
 11
99.398217086108
 21
67.53106179078381
 31
0.0
  0
LINE
  5
16E
330
1F
100
AcDbEntity
  8
1
  6
Continuous
 62
     4
100
AcDbLine
 10
100.148217086108
 20
68.78106179078381
 30
0.0
 11
99.648217086108
 21
68.28106179078381
 31
0.0
  0
LINE
  5
16F
330
1F
100
AcDbEntity
  8
1
  6
Continuous
 62
     4
100
AcDbLine
 10
100.898217086108
 20
69.28106179078381
 30
0.0
 11
100.148217086108
 21
68.78106179078381
 31
0.0
  0
LINE
  5
170
330
1F
100
AcDbEntity
  8
1
  6
Continuous
 62
     4
100
AcDbLine
 10
101.898217086108
 20
69.53106179078381
 30
0.0
 11
100.898217086108
 21
69.28106179078381
 31
0.0
  0
LINE
  5
171
330
1F
100
AcDbEntity
  8
1
  6
Continuous
 62
     4
100
AcDbLine
 10
106.148217086108
 20
69.53106179078381
 30
0.0
 11
101.898217086108
 21
69.53106179078381
 31
0.0
  0
LINE
  5
172
330
1F
100
AcDbEntity
  8
2
  6
DOT_CENTER
 62
     1
100
AcDbLine
 10
180.0
 20
66.102141655121
 30
0.0
 11
180.0
 21
181.499999999961
 31
0.0
  0
LINE
  5
173
330
1F
100
AcDbEntity
  8
2
  6
Continuous
 62
     3
100
AcDbLine
 10
164.968458556551
 20
112.000000000001
 30
0.0
 11
195.0
 21
112.0
 31
0.0
  0
LINE
  5
174
330
1F
100
AcDbEntity
  8
2
  6
Continuous
 62
     3
100
AcDbLine
 10
195.0
 20
103.75
 30
0.0
 11
195.0
 21
112.0
 31
0.0
  0
LINE
  5
175
330
1F
100
AcDbEntity
  8
2
  6
Continuous
 62
     3
100
AcDbLine
 10
165.0
 20
103.75
 30
0.0
 11
165.0
 21
112.0
 31
0.0
  0
LINE
  5
176
330
1F
100
AcDbEntity
  8
2
  6
DOTTED
 62
     4
100
AcDbLine
 10
212.5
 20
76.9
 30
0.0
 11
212.5
 21
103.1
 31
0.0
  0
LINE
  5
177
330
1F
100
AcDbEntity
  8
2
  6
Continuous
 62
     3
100
AcDbLine
 10
147.5
 20
76.9
 30
0.0
 11
147.5
 21
103.1
 31
0.0
  0
LINE
  5
178
330
1F
100
AcDbEntity
  8
2
  6
Continuous
 62
     3
100
AcDbLine
 10
159.678427124746
 20
101.75
 30
0.0
 11
163.0
 21
101.75
 31
0.0
  0
LINE
  5
179
330
1F
100
AcDbEntity
  8
2
  6
Continuous
 62
     3
100
AcDbLine
 10
197.0
 20
101.75
 30
0.0
 11
200.321572875254
 21
101.75
 31
0.0
  0
LINE
  5
17A
330
1F
100
AcDbEntity
  8
2
  6
Continuous
 62
     3
100
AcDbLine
 10
198.095234179198
 20
78.25
 30
0.0
 11
200.321572875254
 21
78.25
 31
0.0
  0
LINE
  5
17B
330
1F
100
AcDbEntity
  8
2
  6
Continuous
 62
     3
100
AcDbLine
 10
159.678427124746
 20
78.25
 30
0.0
 11
161.904765820802
 21
78.25
 31
0.0
  0
LINE
  5
17C
330
1F
100
AcDbEntity
  8
2
  6
DOT_CENTER
 62
     1
100
AcDbLine
 10
349.0
 20
66.102141655121
 30
0.0
 11
349.0
 21
181.500000000002
 31
0.0
  0
LINE
  5
17D
330
1F
100
AcDbEntity
  8
2
  6
Continuous
 62
     3
100
AcDbLine
 10
364.0
 20
99.237604307034
 30
0.0
 11
364.0
 21
112.0
 31
0.0
  0
LINE
  5
17E
330
1F
100
AcDbEntity
  8
2
  6
Continuous
 62
     3
100
AcDbLine
 10
334.0
 20
99.237604307034
 30
0.0
 11
334.0
 21
112.0
 31
0.0
  0
LINE
  5
17F
330
1F
100
AcDbEntity
  8
2
  6
Continuous
 62
     3
100
AcDbLine
 10
334.0
 20
112.0
 30
0.0
 11
364.0
 21
112.0
 31
0.0
  0
LINE
  5
180
330
1F
100
AcDbEntity
  8
2
  6
Continuous
 62
     3
100
AcDbLine
 10
202.5
 20
103.1
 30
0.0
 11
205.071428571429
 21
103.1
 31
0.0
  0
LINE
  5
181
330
1F
100
AcDbEntity
  8
2
  6
Continuous
 62
     3
100
AcDbLine
 10
202.5
 20
76.9
 30
0.0
 11
205.071428571429
 21
76.9
 31
0.0
  0
LINE
  5
182
330
1F
100
AcDbEntity
  8
2
  6
Continuous
 62
     3
100
AcDbLine
 10
201.388731602904
 20
102.0585
 30
0.0
 11
205.071428571429
 21
102.0585
 31
0.0
  0
LINE
  5
183
330
1F
100
AcDbEntity
  8
2
  6
Continuous
 62
     3
100
AcDbLine
 10
202.5
 20
103.1
 30
0.0
 11
201.735786437627
 21
102.335786437627
 31
0.0
  0
LINE
  5
184
330
1F
100
AcDbEntity
  8
2
  6
Continuous
 62
     3
100
AcDbLine
 10
202.5
 20
76.9
 30
0.0
 11
201.735786437627
 21
77.6642135623731
 31
0.0
  0
LINE
  5
185
330
1F
100
AcDbEntity
  8
2
  6
Continuous
 62
     3
100
AcDbLine
 10
147.5
 20
103.1
 30
0.0
 11
157.5
 21
103.1
 31
0.0
  0
LINE
  5
186
330
1F
100
AcDbEntity
  8
2
  6
Continuous
 62
     3
100
AcDbLine
 10
147.5
 20
76.9
 30
0.0
 11
157.5
 21
76.9
 31
0.0
  0
LINE
  5
187
330
1F
100
AcDbEntity
  8
2
  6
Continuous
 62
     3
100
AcDbLine
 10
147.5
 20
102.0585
 30
0.0
 11
158.611268397096
 21
102.0585
 31
0.0
  0
LINE
  5
188
330
1F
100
AcDbEntity
  8
2
  6
Continuous
 62
     3
100
AcDbLine
 10
147.5
 20
77.9415
 30
0.0
 11
158.611268397096
 21
77.9415
 31
0.0
  0
LINE
  5
189
330
1F
100
AcDbEntity
  8
2
  6
Continuous
 62
     3
100
AcDbLine
 10
157.5
 20
103.1
 30
0.0
 11
158.264213562373
 21
102.335786437627
 31
0.0
  0
LINE
  5
18A
330
1F
100
AcDbEntity
  8
2
  6
Continuous
 62
     3
100
AcDbLine
 10
157.5
 20
76.9
 30
0.0
 11
158.264213562373
 21
77.6642135623731
 31
0.0
  0
LINE
  5
18B
330
1F
100
AcDbEntity
  8
2
  6
Continuous
 62
     3
100
AcDbLine
 10
192.0
 20
90.0
 30
0.0
 11
172.0
 21
90.0
 31
0.0
  0
LINE
  5
18C
330
1F
100
AcDbEntity
  8
2
  6
Continuous
 62
     3
100
AcDbLine
 10
187.0
 20
85.0
 30
0.0
 11
192.0
 21
90.0
 31
0.0
  0
LINE
  5
18D
330
1F
100
AcDbEntity
  8
2
  6
Continuous
 62
     3
100
AcDbLine
 10
187.933333333333
 20
88.5
 30
0.0
 11
187.0
 21
85.0
 31
0.0
  0
LINE
  5
18E
330
1F
100
AcDbEntity
  8
2
  6
Continuous
 62
     3
100
AcDbLine
 10
180.1
 20
88.5
 30
0.0
 11
187.933333333333
 21
88.5
 31
0.0
  0
LINE
  5
18F
330
1F
100
AcDbEntity
  8
2
  6
Continuous
 62
     3
100
AcDbLine
 10
178.0
 20
85.0
 30
0.0
 11
180.1
 21
88.5
 31
0.0
  0
LINE
  5
190
330
1F
100
AcDbEntity
  8
2
  6
Continuous
 62
     3
100
AcDbLine
 10
169.0
 20
85.0
 30
0.0
 11
178.0
 21
85.0
 31
0.0
  0
LINE
  5
191
330
1F
100
AcDbEntity
  8
2
  6
Continuous
 62
     3
100
AcDbLine
 10
172.0
 20
90.0
 30
0.0
 11
169.0
 21
85.0
 31
0.0
  0
LINE
  5
192
330
1F
100
AcDbEntity
  8
2
  6
Continuous
 62
     3
100
AcDbLine
 10
180.846625875638
 20
93.795928487533
 30
0.0
 11
180.740926303153
 21
93.817857142857
 31
0.0
  0
LINE
  5
193
330
1F
100
AcDbEntity
  8
2
  6
Continuous
 62
     3
100
AcDbLine
 10
180.938860463593
 20
93.732642861531
 30
0.0
 11
180.846625875638
 21
93.795928487533
 31
0.0
  0
LINE
  5
194
330
1F
100
AcDbEntity
  8
2
  6
Continuous
 62
     3
100
AcDbLine
 10
181.038404856853
 20
93.5193586144
 30
0.0
 11
180.938860463593
 21
93.732642861531
 31
0.0
  0
LINE
  5
195
330
1F
100
AcDbEntity
  8
2
  6
Continuous
 62
     3
100
AcDbLine
 10
181.091961313076
 20
93.308286143278
 30
0.0
 11
181.038404856853
 21
93.5193586144
 31
0.0
  0
LINE
  5
196
330
1F
100
AcDbEntity
  8
2
  6
Continuous
 62
     3
100
AcDbLine
 10
181.200858863011
 20
93.095660758657
 30
0.0
 11
181.091961313076
 21
93.308286143278
 31
0.0
  0
LINE
  5
197
330
1F
100
AcDbEntity
  8
2
  6
Continuous
 62
     3
100
AcDbLine
 10
181.353960004048
 20
92.902755857316
 30
0.0
 11
181.200858863011
 21
93.095660758657
 31
0.0
  0
LINE
  5
198
330
1F
100
AcDbEntity
  8
2
  6
Continuous
 62
     3
100
AcDbLine
 10
181.543624796384
 20
92.7386630959
 30
0.0
 11
181.353960004048
 21
92.902755857316
 31
0.0
  0
LINE
  5
199
330
1F
100
AcDbEntity
  8
2
  6
Continuous
 62
     3
100
AcDbLine
 10
181.757490709304
 20
92.611864042048
 30
0.0
 11
181.543624796384
 21
92.7386630959
 31
0.0
  0
LINE
  5
19A
330
1F
100
AcDbEntity
  8
2
  6
Continuous
 62
     3
100
AcDbLine
 10
181.995913445006
 20
92.52019016492
 30
0.0
 11
181.757490709304
 21
92.611864042048
 31
0.0
  0
LINE
  5
19B
330
1F
100
AcDbEntity
  8
2
  6
Continuous
 62
     3
100
AcDbLine
 10
182.534274294553
 20
92.446428571429
 30
0.0
 11
181.995913445006
 21
92.52019016492
 31
0.0
  0
LINE
  5
19C
330
1F
100
AcDbEntity
  8
2
  6
Continuous
 62
     3
100
AcDbLine
 10
183.092948807326
 20
92.526325035877
 30
0.0
 11
182.534274294553
 21
92.446428571429
 31
0.0
  0
LINE
  5
19D
330
1F
100
AcDbEntity
  8
2
  6
Continuous
 62
     3
100
AcDbLine
 10
183.557339521447
 20
92.76262851273
 30
0.0
 11
183.092948807326
 21
92.526325035877
 31
0.0
  0
LINE
  5
19E
330
1F
100
AcDbEntity
  8
2
  6
Continuous
 62
     3
100
AcDbLine
 10
183.900255763977
 20
93.148901197518
 30
0.0
 11
183.557339521447
 21
92.76262851273
 31
0.0
  0
LINE
  5
19F
330
1F
100
AcDbEntity
  8
2
  6
Continuous
 62
     3
100
AcDbLine
 10
184.034274294553
 20
93.589285714286
 30
0.0
 11
183.900255763977
 21
93.148901197518
 31
0.0
  0
LINE
  5
1A0
330
1F
100
AcDbEntity
  8
2
  6
Continuous
 62
     3
100
AcDbLine
 10
183.900255763977
 20
94.029670231054
 30
0.0
 11
184.034274294553
 21
93.589285714286
 31
0.0
  0
LINE
  5
1A1
330
1F
100
AcDbEntity
  8
2
  6
Continuous
 62
     3
100
AcDbLine
 10
183.557339521447
 20
94.415942915842
 30
0.0
 11
183.900255763977
 21
94.029670231054
 31
0.0
  0
LINE
  5
1A2
330
1F
100
AcDbEntity
  8
2
  6
Continuous
 62
     3
100
AcDbLine
 10
183.092948807326
 20
94.652246392695
 30
0.0
 11
183.557339521447
 21
94.415942915842
 31
0.0
  0
LINE
  5
1A3
330
1F
100
AcDbEntity
  8
2
  6
Continuous
 62
     3
100
AcDbLine
 10
182.534274294553
 20
94.732142857143
 30
0.0
 11
183.092948807326
 21
94.652246392695
 31
0.0
  0
LINE
  5
1A4
330
1F
100
AcDbEntity
  8
2
  6
Continuous
 62
     3
100
AcDbLine
 10
181.334274294553
 20
94.732142857143
 30
0.0
 11
182.534274294553
 21
94.732142857143
 31
0.0
  0
LINE
  5
1A5
330
1F
100
AcDbEntity
  8
2
  6
Continuous
 62
     3
100
AcDbLine
 10
181.219548368755
 20
94.758106734418
 30
0.0
 11
181.334274294553
 21
94.732142857143
 31
0.0
  0
LINE
  5
1A6
330
1F
100
AcDbEntity
  8
2
  6
Continuous
 62
     3
100
AcDbLine
 10
181.122142260197
 20
94.832563389308
 30
0.0
 11
181.219548368755
 21
94.758106734418
 31
0.0
  0
LINE
  5
1A7
330
1F
100
AcDbEntity
  8
2
  6
Continuous
 62
     3
100
AcDbLine
 10
181.056992687169
 20
94.943884656232
 30
0.0
 11
181.122142260197
 21
94.832563389308
 31
0.0
  0
LINE
  5
1A8
330
1F
100
AcDbEntity
  8
2
  6
Continuous
 62
     3
100
AcDbLine
 10
181.034274294553
 20
95.075
 30
0.0
 11
181.056992687169
 21
94.943884656232
 31
0.0
  0
LINE
  5
1A9
330
1F
100
AcDbEntity
  8
2
  6
Continuous
 62
     3
100
AcDbLine
 10
181.034274294553
 20
95.532142857143
 30
0.0
 11
181.034274294553
 21
95.075
 31
0.0
  0
LINE
  5
1AA
330
1F
100
AcDbEntity
  8
2
  6
Continuous
 62
     3
100
AcDbLine
 10
181.056992687169
 20
95.663258200911
 30
0.0
 11
181.034274294553
 21
95.532142857143
 31
0.0
  0
LINE
  5
1AB
330
1F
100
AcDbEntity
  8
2
  6
Continuous
 62
     3
100
AcDbLine
 10
181.122142260197
 20
95.774579467835
 30
0.0
 11
181.056992687169
 21
95.663258200911
 31
0.0
  0
LINE
  5
1AC
330
1F
100
AcDbEntity
  8
2
  6
Continuous
 62
     3
100
AcDbLine
 10
181.219548368755
 20
95.849036122725
 30
0.0
 11
181.122142260197
 21
95.774579467835
 31
0.0
  0
LINE
  5
1AD
330
1F
100
AcDbEntity
  8
2
  6
Continuous
 62
     3
100
AcDbLine
 10
181.334274294553
 20
95.875
 30
0.0
 11
181.219548368755
 21
95.849036122725
 31
0.0
  0
LINE
  5
1AE
330
1F
100
AcDbEntity
  8
2
  6
Continuous
 62
     3
100
AcDbLine
 10
182.534274294553
 20
95.875
 30
0.0
 11
181.334274294553
 21
95.875
 31
0.0
  0
LINE
  5
1AF
330
1F
100
AcDbEntity
  8
2
  6
Continuous
 62
     3
100
AcDbLine
 10
183.092948807326
 20
95.954896464448
 30
0.0
 11
182.534274294553
 21
95.875
 31
0.0
  0
LINE
  5
1B0
330
1F
100
AcDbEntity
  8
2
  6
Continuous
 62
     3
100
AcDbLine
 10
183.557339521447
 20
96.191199941301
 30
0.0
 11
183.092948807326
 21
95.954896464448
 31
0.0
  0
LINE
  5
1B1
330
1F
100
AcDbEntity
  8
2
  6
Continuous
 62
     3
100
AcDbLine
 10
183.900255763977
 20
96.577472626089
 30
0.0
 11
183.557339521447
 21
96.191199941301
 31
0.0
  0
LINE
  5
1B2
330
1F
100
AcDbEntity
  8
2
  6
Continuous
 62
     3
100
AcDbLine
 10
184.034274294553
 20
97.017857142857
 30
0.0
 11
183.900255763977
 21
96.577472626089
 31
0.0
  0
LINE
  5
1B3
330
1F
100
AcDbEntity
  8
2
  6
Continuous
 62
     3
100
AcDbLine
 10
183.900255763977
 20
97.458241659625
 30
0.0
 11
184.034274294553
 21
97.017857142857
 31
0.0
  0
LINE
  5
1B4
330
1F
100
AcDbEntity
  8
2
  6
Continuous
 62
     3
100
AcDbLine
 10
183.557339521447
 20
97.844514344413
 30
0.0
 11
183.900255763977
 21
97.458241659625
 31
0.0
  0
LINE
  5
1B5
330
1F
100
AcDbEntity
  8
2
  6
Continuous
 62
     3
100
AcDbLine
 10
183.092948807326
 20
98.080817821266
 30
0.0
 11
183.557339521447
 21
97.844514344413
 31
0.0
  0
LINE
  5
1B6
330
1F
100
AcDbEntity
  8
2
  6
Continuous
 62
     3
100
AcDbLine
 10
182.534274294553
 20
98.160714285714
 30
0.0
 11
183.092948807326
 21
98.080817821266
 31
0.0
  0
LINE
  5
1B7
330
1F
100
AcDbEntity
  8
2
  6
Continuous
 62
     3
100
AcDbLine
 10
181.995913445006
 20
98.086952692223
 30
0.0
 11
182.534274294553
 21
98.160714285714
 31
0.0
  0
LINE
  5
1B8
330
1F
100
AcDbEntity
  8
2
  6
Continuous
 62
     3
100
AcDbLine
 10
181.757490709304
 20
97.995278815095
 30
0.0
 11
181.995913445006
 21
98.086952692223
 31
0.0
  0
LINE
  5
1B9
330
1F
100
AcDbEntity
  8
2
  6
Continuous
 62
     3
100
AcDbLine
 10
181.543624796384
 20
97.868479761243
 30
0.0
 11
181.757490709304
 21
97.995278815095
 31
0.0
  0
LINE
  5
1BA
330
1F
100
AcDbEntity
  8
2
  6
Continuous
 62
     3
100
AcDbLine
 10
181.353960004048
 20
97.704386999827
 30
0.0
 11
181.543624796384
 21
97.868479761243
 31
0.0
  0
LINE
  5
1BB
330
1F
100
AcDbEntity
  8
2
  6
Continuous
 62
     3
100
AcDbLine
 10
181.200858863011
 20
97.511482098486
 30
0.0
 11
181.353960004048
 21
97.704386999827
 31
0.0
  0
LINE
  5
1BC
330
1F
100
AcDbEntity
  8
2
  6
Continuous
 62
     3
100
AcDbLine
 10
181.091961313076
 20
97.298856713865
 30
0.0
 11
181.200858863011
 21
97.511482098486
 31
0.0
  0
LINE
  5
1BD
330
1F
100
AcDbEntity
  8
2
  6
Continuous
 62
     3
100
AcDbLine
 10
181.038404856853
 20
97.087784242743
 30
0.0
 11
181.091961313076
 21
97.298856713865
 31
0.0
  0
LINE
  5
1BE
330
1F
100
AcDbEntity
  8
2
  6
Continuous
 62
     3
100
AcDbLine
 10
180.938860463591
 20
96.87449999561
 30
0.0
 11
181.038404856853
 21
97.087784242743
 31
0.0
  0
LINE
  5
1BF
330
1F
100
AcDbEntity
  8
2
  6
Continuous
 62
     3
100
AcDbLine
 10
180.846625875637
 20
96.811214369609
 30
0.0
 11
180.938860463591
 21
96.87449999561
 31
0.0
  0
LINE
  5
1C0
330
1F
100
AcDbEntity
  8
2
  6
Continuous
 62
     3
100
AcDbLine
 10
180.740926303153
 20
96.789285714286
 30
0.0
 11
180.846625875637
 21
96.811214369609
 31
0.0
  0
LINE
  5
1C1
330
1F
100
AcDbEntity
  8
2
  6
Continuous
 62
     3
100
AcDbLine
 10
180.338042044363
 20
96.789285714286
 30
0.0
 11
180.740926303153
 21
96.789285714286
 31
0.0
  0
LINE
  5
1C2
330
1F
100
AcDbEntity
  8
2
  6
Continuous
 62
     3
100
AcDbLine
 10
180.218029359841
 20
96.81791542243
 30
0.0
 11
180.338042044363
 21
96.789285714286
 31
0.0
  0
LINE
  5
1C3
330
1F
100
AcDbEntity
  8
2
  6
Continuous
 62
     3
100
AcDbLine
 10
180.11805958942
 20
96.899023195771
 30
0.0
 11
180.218029359841
 21
96.81791542243
 31
0.0
  0
LINE
  5
1C4
330
1F
100
AcDbEntity
  8
2
  6
Continuous
 62
     3
100
AcDbLine
 10
180.054828347631
 20
97.019063498361
 30
0.0
 11
180.11805958942
 21
96.899023195771
 31
0.0
  0
LINE
  5
1C5
330
1F
100
AcDbEntity
  8
2
  6
Continuous
 62
     3
100
AcDbLine
 10
180.038895671153
 20
97.157988803657
 30
0.0
 11
180.054828347631
 21
97.019063498361
 31
0.0
  0
LINE
  5
1C6
330
1F
100
AcDbEntity
  8
2
  6
Continuous
 62
     3
100
AcDbLine
 10
180.269928025305
 20
97.98790582894
 30
0.0
 11
180.038895671153
 21
97.157988803657
 31
0.0
  0
LINE
  5
1C7
330
1F
100
AcDbEntity
  8
2
  6
Continuous
 62
     3
100
AcDbLine
 10
180.821926470487
 20
98.683238550537
 30
0.0
 11
180.269928025305
 21
97.98790582894
 31
0.0
  0
LINE
  5
1C8
330
1F
100
AcDbEntity
  8
2
  6
Continuous
 62
     3
100
AcDbLine
 10
181.613771415743
 20
99.143647643177
 30
0.0
 11
180.821926470487
 21
98.683238550537
 31
0.0
  0
LINE
  5
1C9
330
1F
100
AcDbEntity
  8
2
  6
Continuous
 62
     3
100
AcDbLine
 10
182.534274294553
 20
99.303571428572
 30
0.0
 11
181.613771415743
 21
99.143647643177
 31
0.0
  0
LINE
  5
1CA
330
1F
100
AcDbEntity
  8
2
  6
Continuous
 62
     3
100
AcDbLine
 10
183.490323676215
 20
99.130478913405
 30
0.0
 11
182.534274294553
 21
99.303571428572
 31
0.0
  0
LINE
  5
1CB
330
1F
100
AcDbEntity
  8
2
  6
Continuous
 62
     3
100
AcDbLine
 10
184.302041247534
 20
98.634101214152
 30
0.0
 11
183.490323676215
 21
99.130478913405
 31
0.0
  0
LINE
  5
1CC
330
1F
100
AcDbEntity
  8
2
  6
Continuous
 62
     3
100
AcDbLine
 10
184.84495435609
 20
97.891959434662
 30
0.0
 11
184.302041247534
 21
98.634101214152
 31
0.0
  0
LINE
  5
1CD
330
1F
100
AcDbEntity
  8
2
  6
Continuous
 62
     3
100
AcDbLine
 10
185.034274294553
 20
97.017857142857
 30
0.0
 11
184.84495435609
 21
97.891959434662
 31
0.0
  0
LINE
  5
1CE
330
1F
100
AcDbEntity
  8
2
  6
Continuous
 62
     3
100
AcDbLine
 10
184.978745415758
 20
96.536527438454
 30
0.0
 11
185.034274294553
 21
97.017857142857
 31
0.0
  0
LINE
  5
1CF
330
1F
100
AcDbEntity
  8
2
  6
Continuous
 62
     3
100
AcDbLine
 10
184.814053887372
 20
96.078459829957
 30
0.0
 11
184.978745415758
 21
96.536527438454
 31
0.0
  0
LINE
  5
1D0
330
1F
100
AcDbEntity
  8
2
  6
Continuous
 62
     3
100
AcDbLine
 10
184.546364554923
 20
95.661042660414
 30
0.0
 11
184.814053887372
 21
96.078459829957
 31
0.0
  0
LINE
  5
1D1
330
1F
100
AcDbEntity
  8
2
  6
Continuous
 62
     3
100
AcDbLine
 10
184.187914541953
 20
95.303571428572
 30
0.0
 11
184.546364554923
 21
95.661042660414
 31
0.0
  0
LINE
  5
1D2
330
1F
100
AcDbEntity
  8
2
  6
Continuous
 62
     3
100
AcDbLine
 10
184.546364554923
 20
94.946100196729
 30
0.0
 11
184.187914541953
 21
95.303571428572
 31
0.0
  0
LINE
  5
1D3
330
1F
100
AcDbEntity
  8
2
  6
Continuous
 62
     3
100
AcDbLine
 10
184.814053887372
 20
94.528683027186
 30
0.0
 11
184.546364554923
 21
94.946100196729
 31
0.0
  0
LINE
  5
1D4
330
1F
100
AcDbEntity
  8
2
  6
Continuous
 62
     3
100
AcDbLine
 10
184.978745415758
 20
94.070615418689
 30
0.0
 11
184.814053887372
 21
94.528683027186
 31
0.0
  0
LINE
  5
1D5
330
1F
100
AcDbEntity
  8
2
  6
Continuous
 62
     3
100
AcDbLine
 10
185.034274294553
 20
93.589285714286
 30
0.0
 11
184.978745415758
 21
94.070615418689
 31
0.0
  0
LINE
  5
1D6
330
1F
100
AcDbEntity
  8
2
  6
Continuous
 62
     3
100
AcDbLine
 10
184.84495435609
 20
92.715183422481
 30
0.0
 11
185.034274294553
 21
93.589285714286
 31
0.0
  0
LINE
  5
1D7
330
1F
100
AcDbEntity
  8
2
  6
Continuous
 62
     3
100
AcDbLine
 10
184.302041247534
 20
91.973041642991
 30
0.0
 11
184.84495435609
 21
92.715183422481
 31
0.0
  0
LINE
  5
1D8
330
1F
100
AcDbEntity
  8
2
  6
Continuous
 62
     3
100
AcDbLine
 10
183.490323676215
 20
91.476663943738
 30
0.0
 11
184.302041247534
 21
91.973041642991
 31
0.0
  0
LINE
  5
1D9
330
1F
100
AcDbEntity
  8
2
  6
Continuous
 62
     3
100
AcDbLine
 10
182.534274294553
 20
91.303571428572
 30
0.0
 11
183.490323676215
 21
91.476663943738
 31
0.0
  0
LINE
  5
1DA
330
1F
100
AcDbEntity
  8
2
  6
Continuous
 62
     3
100
AcDbLine
 10
181.613771415743
 20
91.463495213967
 30
0.0
 11
182.534274294553
 21
91.303571428572
 31
0.0
  0
LINE
  5
1DB
330
1F
100
AcDbEntity
  8
2
  6
Continuous
 62
     3
100
AcDbLine
 10
180.821926470488
 20
91.923904306606
 30
0.0
 11
181.613771415743
 21
91.463495213967
 31
0.0
  0
LINE
  5
1DC
330
1F
100
AcDbEntity
  8
2
  6
Continuous
 62
     3
100
AcDbLine
 10
180.269928025315
 20
92.6192370282
 30
0.0
 11
180.821926470488
 21
91.923904306606
 31
0.0
  0
LINE
  5
1DD
330
1F
100
AcDbEntity
  8
2
  6
Continuous
 62
     3
100
AcDbLine
 10
180.038895671178
 20
93.449154053475
 30
0.0
 11
180.269928025315
 21
92.6192370282
 31
0.0
  0
LINE
  5
1DE
330
1F
100
AcDbEntity
  8
2
  6
Continuous
 62
     3
100
AcDbLine
 10
180.054828347644
 20
93.588079358785
 30
0.0
 11
180.038895671178
 21
93.449154053475
 31
0.0
  0
LINE
  5
1DF
330
1F
100
AcDbEntity
  8
2
  6
Continuous
 62
     3
100
AcDbLine
 10
180.118059589413
 20
93.708119661363
 30
0.0
 11
180.054828347644
 21
93.588079358785
 31
0.0
  0
LINE
  5
1E0
330
1F
100
AcDbEntity
  8
2
  6
Continuous
 62
     3
100
AcDbLine
 10
180.218029359831
 20
93.789227434708
 30
0.0
 11
180.118059589413
 21
93.708119661363
 31
0.0
  0
LINE
  5
1E1
330
1F
100
AcDbEntity
  8
2
  6
Continuous
 62
     3
100
AcDbLine
 10
180.338042044353
 20
93.817857142857
 30
0.0
 11
180.218029359831
 21
93.789227434708
 31
0.0
  0
LINE
  5
1E2
330
1F
100
AcDbEntity
  8
2
  6
Continuous
 62
     3
100
AcDbLine
 10
180.740926303153
 20
93.817857142857
 30
0.0
 11
180.338042044353
 21
93.817857142857
 31
0.0
  0
LINE
  5
1E3
330
1F
100
AcDbEntity
  8
2
  6
Continuous
 62
     3
100
AcDbLine
 10
177.219548368755
 20
99.049036122725
 30
0.0
 11
177.334274294553
 21
99.075
 31
0.0
  0
LINE
  5
1E4
330
1F
100
AcDbEntity
  8
2
  6
Continuous
 62
     3
100
AcDbLine
 10
177.122142260197
 20
98.974579467836
 30
0.0
 11
177.219548368755
 21
99.049036122725
 31
0.0
  0
LINE
  5
1E5
330
1F
100
AcDbEntity
  8
2
  6
Continuous
 62
     3
100
AcDbLine
 10
177.056992687169
 20
98.863258200911
 30
0.0
 11
177.122142260197
 21
98.974579467836
 31
0.0
  0
LINE
  5
1E6
330
1F
100
AcDbEntity
  8
2
  6
Continuous
 62
     3
100
AcDbLine
 10
177.034274294553
 20
98.732142857143
 30
0.0
 11
177.056992687169
 21
98.863258200911
 31
0.0
  0
LINE
  5
1E7
330
1F
100
AcDbEntity
  8
2
  6
Continuous
 62
     3
100
AcDbLine
 10
177.034274294553
 20
91.875
 30
0.0
 11
177.034274294553
 21
98.732142857143
 31
0.0
  0
LINE
  5
1E8
330
1F
100
AcDbEntity
  8
2
  6
Continuous
 62
     3
100
AcDbLine
 10
177.056992687169
 20
91.743884656232
 30
0.0
 11
177.034274294553
 21
91.875
 31
0.0
  0
LINE
  5
1E9
330
1F
100
AcDbEntity
  8
2
  6
Continuous
 62
     3
100
AcDbLine
 10
177.122142260197
 20
91.632563389308
 30
0.0
 11
177.056992687169
 21
91.743884656232
 31
0.0
  0
LINE
  5
1EA
330
1F
100
AcDbEntity
  8
2
  6
Continuous
 62
     3
100
AcDbLine
 10
177.219548368755
 20
91.558106734418
 30
0.0
 11
177.122142260197
 21
91.632563389308
 31
0.0
  0
LINE
  5
1EB
330
1F
100
AcDbEntity
  8
2
  6
Continuous
 62
     3
100
AcDbLine
 10
177.334274294553
 20
91.532142857143
 30
0.0
 11
177.219548368755
 21
91.558106734418
 31
0.0
  0
LINE
  5
1EC
330
1F
100
AcDbEntity
  8
2
  6
Continuous
 62
     3
100
AcDbLine
 10
177.734274294553
 20
91.532142857143
 30
0.0
 11
177.334274294553
 21
91.532142857143
 31
0.0
  0
LINE
  5
1ED
330
1F
100
AcDbEntity
  8
2
  6
Continuous
 62
     3
100
AcDbLine
 10
177.84900022035
 20
91.558106734418
 30
0.0
 11
177.734274294553
 21
91.532142857143
 31
0.0
  0
LINE
  5
1EE
330
1F
100
AcDbEntity
  8
2
  6
Continuous
 62
     3
100
AcDbLine
 10
177.946406328909
 20
91.632563389308
 30
0.0
 11
177.84900022035
 21
91.558106734418
 31
0.0
  0
LINE
  5
1EF
330
1F
100
AcDbEntity
  8
2
  6
Continuous
 62
     3
100
AcDbLine
 10
178.011555901937
 20
91.743884656232
 30
0.0
 11
177.946406328909
 21
91.632563389308
 31
0.0
  0
LINE
  5
1F0
330
1F
100
AcDbEntity
  8
2
  6
Continuous
 62
     3
100
AcDbLine
 10
178.034274294553
 20
91.875
 30
0.0
 11
178.011555901937
 21
91.743884656232
 31
0.0
  0
LINE
  5
1F1
330
1F
100
AcDbEntity
  8
2
  6
Continuous
 62
     3
100
AcDbLine
 10
178.034274294553
 20
98.732142857143
 30
0.0
 11
178.034274294553
 21
91.875
 31
0.0
  0
LINE
  5
1F2
330
1F
100
AcDbEntity
  8
2
  6
Continuous
 62
     3
100
AcDbLine
 10
178.011555901937
 20
98.863258200911
 30
0.0
 11
178.034274294553
 21
98.732142857143
 31
0.0
  0
LINE
  5
1F3
330
1F
100
AcDbEntity
  8
2
  6
Continuous
 62
     3
100
AcDbLine
 10
177.946406328909
 20
98.974579467835
 30
0.0
 11
178.011555901937
 21
98.863258200911
 31
0.0
  0
LINE
  5
1F4
330
1F
100
AcDbEntity
  8
2
  6
Continuous
 62
     3
100
AcDbLine
 10
177.84900022035
 20
99.049036122725
 30
0.0
 11
177.946406328909
 21
98.974579467835
 31
0.0
  0
LINE
  5
1F5
330
1F
100
AcDbEntity
  8
2
  6
Continuous
 62
     3
100
AcDbLine
 10
177.734274294553
 20
99.075
 30
0.0
 11
177.84900022035
 21
99.049036122725
 31
0.0
  0
LINE
  5
1F6
330
1F
100
AcDbEntity
  8
2
  6
Continuous
 62
     3
100
AcDbLine
 10
177.334274294553
 20
99.075
 30
0.0
 11
177.734274294553
 21
99.075
 31
0.0
  0
LINE
  5
1F7
330
1F
100
AcDbEntity
  8
2
  6
DOT_CENTER
 62
     1
100
AcDbLine
 10
141.5
 20
90.0
 30
0.0
 11
269.2
 21
90.0
 31
0.0
  0
LINE
  5
1F8
330
1F
100
AcDbEntity
  8
2
  6
Continuous
 62
     3
100
AcDbLine
 10
343.397322068867
 20
91.5
 30
0.0
 11
354.602677931133
 21
91.5
 31
0.0
  0
LINE
  5
1F9
330
1F
100
AcDbEntity
  8
2
  6
Continuous
 62
     3
100
AcDbLine
 10
193.27905619136
 20
116.6046541797
 30
0.0
 11
195.216930457819
 21
116.174015453814
 31
0.0
  0
LINE
  5
1FA
330
1F
100
AcDbEntity
  8
2
  6
Continuous
 62
     3
100
AcDbLine
 10
166.72094380864
 20
116.6046541797
 30
0.0
 11
164.783069542181
 21
116.174015453814
 31
0.0
  0
LINE
  5
1FB
330
1F
100
AcDbEntity
  8
2
  6
Continuous
 62
     3
100
AcDbLine
 10
166.72094380864
 20
124.47286142901
 30
0.0
 11
168.5
 21
125.5
 31
0.0
  0
LINE
  5
1FC
330
1F
100
AcDbEntity
  8
2
  6
Continuous
 62
     3
100
AcDbLine
 10
166.72094380864
 20
124.47286142901
 30
0.0
 11
166.72094380864
 21
116.6046541797
 31
0.0
  0
LINE
  5
1FD
330
1F
100
AcDbEntity
  8
2
  6
Continuous
 62
     3
100
AcDbLine
 10
196.0
 20
115.19782839363
 30
0.0
 11
195.999999999997
 21
114.64575131106
 31
0.0
  0
LINE
  5
1FE
330
1F
100
AcDbEntity
  8
2
  6
Continuous
 62
     3
100
AcDbLine
 10
164.0
 20
115.19782839363
 30
0.0
 11
164.0
 21
114.45594312763
 31
0.0
  0
LINE
  5
1FF
330
1F
100
AcDbEntity
  8
2
  6
Continuous
 62
     3
100
AcDbLine
 10
193.27905619136
 20
124.47286142901
 30
0.0
 11
191.5
 21
125.5
 31
0.0
  0
LINE
  5
200
330
1F
100
AcDbEntity
  8
2
  6
Continuous
 62
     3
100
AcDbLine
 10
193.27905619136
 20
124.47286142901
 30
0.0
 11
193.27905619136
 21
116.6046541797
 31
0.0
  0
LINE
  5
201
330
1F
100
AcDbEntity
  8
2
  6
Continuous
 62
     3
100
AcDbLine
 10
169.515909090906
 20
132.95
 30
0.0
 11
168.5
 21
125.5
 31
0.0
  0
LINE
  5
202
330
1F
100
AcDbEntity
  8
2
  6
Continuous
 62
     3
100
AcDbLine
 10
190.484090909094
 20
132.95
 30
0.0
 11
191.5
 21
125.5
 31
0.0
  0
LINE
  5
203
330
1F
100
AcDbEntity
  8
2
  6
Continuous
 62
     3
100
AcDbLine
 10
337.5
 20
125.5
 30
0.0
 11
337.5
 21
116.6046541797
 31
0.0
  0
LINE
  5
204
330
1F
100
AcDbEntity
  8
2
  6
Continuous
 62
     3
100
AcDbLine
 10
359.484090909093
 20
132.95
 30
0.0
 11
360.5
 21
125.5
 31
0.0
  0
LINE
  5
205
330
1F
100
AcDbEntity
  8
2
  6
Continuous
 62
     3
100
AcDbLine
 10
338.515909090907
 20
132.95
 30
0.0
 11
337.5
 21
125.5
 31
0.0
  0
LINE
  5
206
330
1F
100
AcDbEntity
  8
2
  6
Continuous
 62
     3
100
AcDbLine
 10
333.0
 20
115.19782839363
 30
0.0
 11
333.0
 21
114.45594312763
 31
0.0
  0
LINE
  5
207
330
1F
100
AcDbEntity
  8
2
  6
Continuous
 62
     3
100
AcDbLine
 10
365.0
 20
115.19782839363
 30
0.0
 11
364.999999999997
 21
114.64575131106
 31
0.0
  0
LINE
  5
208
330
1F
100
AcDbEntity
  8
2
  6
Continuous
 62
     3
100
AcDbLine
 10
360.5
 20
125.5
 30
0.0
 11
360.5
 21
116.6046541797
 31
0.0
  0
LINE
  5
209
330
1F
100
AcDbEntity
  8
2
  6
Continuous
 62
     3
100
AcDbLine
 10
337.5
 20
117.000000000008
 30
0.0
 11
333.783069542181
 21
116.174015453814
 31
0.0
  0
LINE
  5
20A
330
1F
100
AcDbEntity
  8
2
  6
Continuous
 62
     3
100
AcDbLine
 10
360.5
 20
117.000000000008
 30
0.0
 11
364.216930457818
 21
116.174015453814
 31
0.0
  0
LINE
  5
20B
330
1F
100
AcDbEntity
  8
2
  6
Continuous
 62
     3
100
AcDbLine
 10
349.0
 20
116.6046541797
 30
0.0
 11
349.0
 21
124.47286142901
 31
0.0
  0
LINE
  5
20C
330
1F
100
AcDbEntity
  8
2
  6
DOT_CENTER
 62
     1
100
AcDbLine
 10
141.5
 20
282.0
 30
0.0
 11
269.2
 21
282.0
 31
0.0
  0
LINE
  5
20D
330
1F
100
AcDbEntity
  8
2
  6
Continuous
 62
     3
100
AcDbLine
 10
147.5
 20
269.9415
 30
0.0
 11
155.593302084186
 21
269.9415
 31
0.0
  0
LINE
  5
20E
330
1F
100
AcDbEntity
  8
2
  6
Continuous
 62
     3
100
AcDbLine
 10
147.5
 20
294.0585
 30
0.0
 11
155.593302084185
 21
294.0585
 31
0.0
  0
LINE
  5
20F
330
1F
100
AcDbEntity
  8
2
  6
Continuous
 62
     3
100
AcDbLine
 10
147.5
 20
268.9
 30
0.0
 11
155.760194575235
 21
268.9
 31
0.0
  0
LINE
  5
210
330
1F
100
AcDbEntity
  8
2
  6
Continuous
 62
     3
100
AcDbLine
 10
147.5
 20
295.1
 30
0.0
 11
155.760194575234
 21
295.1
 31
0.0
  0
LINE
  5
211
330
1F
100
AcDbEntity
  8
2
  6
Continuous
 62
     3
100
AcDbLine
 10
204.406697915815
 20
269.9415
 30
0.0
 11
205.071428571429
 21
269.9415
 31
0.0
  0
LINE
  5
212
330
1F
100
AcDbEntity
  8
2
  6
Continuous
 62
     3
100
AcDbLine
 10
204.406697915815
 20
294.0585
 30
0.0
 11
205.071428571429
 21
294.0585
 31
0.0
  0
LINE
  5
213
330
1F
100
AcDbEntity
  8
2
  6
Continuous
 62
     3
100
AcDbLine
 10
204.239805424766
 20
268.9
 30
0.0
 11
205.071428571429
 21
268.9
 31
0.0
  0
LINE
  5
214
330
1F
100
AcDbEntity
  8
2
  6
Continuous
 62
     3
100
AcDbLine
 10
147.5
 20
268.9
 30
0.0
 11
147.5
 21
295.1
 31
0.0
  0
LINE
  5
215
330
1F
100
AcDbEntity
  8
2
  6
DOT_CENTER
 62
     1
100
AcDbLine
 10
180.0
 20
247.0
 30
0.0
 11
180.0
 21
317.0
 31
0.0
  0
LINE
  5
216
330
1F
100
AcDbEntity
  8
2
  6
DOT_CENTER
 62
     1
100
AcDbLine
 10
327.5
 20
90.0
 30
0.0
 11
370.0
 21
90.0
 31
0.0
  0
LINE
  5
217
330
1F
100
AcDbEntity
  8
2
  6
Continuous
 62
     3
100
AcDbLine
 10
173.36047190432
 20
116.6046541797
 30
0.0
 11
173.36047190432
 21
124.47286142901
 31
0.0
  0
LINE
  5
218
330
1F
100
AcDbEntity
  8
2
  6
Continuous
 62
     3
100
AcDbLine
 10
186.63952809568
 20
116.6046541797
 30
0.0
 11
186.63952809568
 21
124.47286142901
 31
0.0
  0
LINE
  5
219
330
1F
100
AcDbEntity
  8
2
  6
Continuous
 62
     3
100
AcDbLine
 10
167.5
 20
156.95
 30
0.0
 11
192.5
 21
156.95
 31
0.0
  0
LINE
  5
21A
330
1F
100
AcDbEntity
  8
2
  6
Continuous
 62
     3
100
AcDbLine
 10
165.0
 20
132.95
 30
0.0
 11
195.0
 21
132.95
 31
0.0
  0
LINE
  5
21B
330
1F
100
AcDbEntity
  8
2
  6
Continuous
 62
     3
100
AcDbLine
 10
195.0
 20
154.45
 30
0.0
 11
195.0
 21
132.95
 31
0.0
  0
LINE
  5
21C
330
1F
100
AcDbEntity
  8
2
  6
Continuous
 62
     3
100
AcDbLine
 10
165.0
 20
154.45
 30
0.0
 11
165.0
 21
132.95
 31
0.0
  0
LINE
  5
21D
330
1F
100
AcDbEntity
  8
2
  6
Continuous
 62
     3
100
AcDbLine
 10
364.0
 20
154.45
 30
0.0
 11
364.0
 21
132.95
 31
0.0
  0
LINE
  5
21E
330
1F
100
AcDbEntity
  8
2
  6
Continuous
 62
     3
100
AcDbLine
 10
334.0
 20
132.95
 30
0.0
 11
364.0
 21
132.95
 31
0.0
  0
LINE
  5
21F
330
1F
100
AcDbEntity
  8
2
  6
Continuous
 62
     3
100
AcDbLine
 10
334.0
 20
154.45
 30
0.0
 11
334.0
 21
132.95
 31
0.0
  0
LINE
  5
220
330
1F
100
AcDbEntity
  8
2
  6
Continuous
 62
     3
100
AcDbLine
 10
183.5
 20
157.5
 30
0.0
 11
183.5
 21
157.0
 31
0.0
  0
LINE
  5
221
330
1F
100
AcDbEntity
  8
2
  6
Continuous
 62
     3
100
AcDbLine
 10
176.5
 20
157.5
 30
0.0
 11
176.5
 21
157.0
 31
0.0
  0
LINE
  5
222
330
1F
100
AcDbEntity
  8
2
  6
Continuous
 62
     3
100
AcDbLine
 10
168.5
 20
125.5
 30
0.0
 11
191.5
 21
125.5
 31
0.0
  0
LINE
  5
223
330
1F
100
AcDbEntity
  8
2
  6
Continuous
 62
     3
100
AcDbLine
 10
337.5
 20
125.5
 30
0.0
 11
360.5
 21
125.5
 31
0.0
  0
LINE
  5
224
330
1F
100
AcDbEntity
  8
3
  6
Continuous
 62
     3
100
AcDbLine
 10
151.0
 20
157.5
 30
0.0
 11
209.0
 21
157.5
 31
0.0
  0
LINE
  5
225
330
1F
100
AcDbEntity
  8
3
  6
Continuous
 62
     3
100
AcDbLine
 10
183.600006103516
 20
168.0
 30
0.0
 11
183.600006103516
 21
169.199996948242
 31
0.0
  0
LINE
  5
226
330
1F
100
AcDbEntity
  8
3
  6
Continuous
 62
     3
100
AcDbLine
 10
176.400001525879
 20
168.0
 30
0.0
 11
176.400001525879
 21
169.199996948242
 31
0.0
  0
LINE
  5
227
330
1F
100
AcDbEntity
  8
3
  6
Continuous
 62
     3
100
AcDbLine
 10
180.000007629395
 20
169.199996948242
 30
0.0
 11
179.500007629395
 21
168.0
 31
0.0
  0
LINE
  5
228
330
1F
100
AcDbEntity
  8
3
  6
Continuous
 62
     3
100
AcDbLine
 10
180.500007629395
 20
169.199996948242
 30
0.0
 11
180.000007629395
 21
168.0
 31
0.0
  0
LINE
  5
229
330
1F
100
AcDbEntity
  8
3
  6
Continuous
 62
     3
100
AcDbLine
 10
176.25
 20
167.5
 30
0.0
 11
183.75
 21
167.5
 31
0.0
  0
LINE
  5
22A
330
1F
100
AcDbEntity
  8
3
  6
Continuous
 62
     3
100
AcDbLine
 10
150.999999999999
 20
166.476991029251
 30
0.0
 11
151.0
 21
157.5
 31
0.0
  0
LINE
  5
22B
330
1F
100
AcDbEntity
  8
3
  6
Continuous
 62
     3
100
AcDbLine
 10
209.0
 20
157.5
 30
0.0
 11
209.0
 21
166.476991029251
 31
0.0
  0
LINE
  5
22C
330
1F
100
AcDbEntity
  8
3
  6
Continuous
 62
     3
100
AcDbLine
 10
183.75
 20
167.5
 30
0.0
 11
176.25
 21
167.5
 31
0.0
  0
LINE
  5
22D
330
1F
100
AcDbEntity
  8
3
  6
Continuous
 62
     3
100
AcDbLine
 10
176.25
 20
168.0
 30
0.0
 11
183.75
 21
168.0
 31
0.0
  0
LINE
  5
22E
330
1F
100
AcDbEntity
  8
3
  6
Continuous
 62
     3
100
AcDbLine
 10
156.058046379913
 20
166.476991029251
 30
0.0
 11
156.058046379913
 21
160.0
 31
0.0
  0
LINE
  5
22F
330
1F
100
AcDbEntity
  8
3
  6
Continuous
 62
     3
100
AcDbLine
 10
164.038702051544
 20
166.476991029251
 30
0.0
 11
164.038702051544
 21
160.0
 31
0.0
  0
LINE
  5
230
330
1F
100
AcDbEntity
  8
3
  6
Continuous
 62
     3
100
AcDbLine
 10
174.356824256275
 20
166.476991029251
 30
0.0
 11
174.356824256275
 21
160.0
 31
0.0
  0
LINE
  5
231
330
1F
100
AcDbEntity
  8
3
  6
Continuous
 62
     3
100
AcDbLine
 10
185.643175743725
 20
166.476991029251
 30
0.0
 11
185.643175743725
 21
160.0
 31
0.0
  0
LINE
  5
232
330
1F
100
AcDbEntity
  8
3
  6
Continuous
 62
     3
100
AcDbLine
 10
195.961297948456
 20
166.476991029251
 30
0.0
 11
195.961297948456
 21
160.0
 31
0.0
  0
LINE
  5
233
330
1F
100
AcDbEntity
  8
3
  6
Continuous
 62
     3
100
AcDbLine
 10
203.941953620087
 20
166.476991029251
 30
0.0
 11
203.941953620087
 21
160.0
 31
0.0
  0
LINE
  5
234
330
1F
100
AcDbEntity
  8
3
  6
Continuous
 62
     3
100
AcDbLine
 10
151.784140224491
 20
166.476991029251
 30
0.0
 11
151.784140224491
 21
160.0
 31
0.0
  0
LINE
  5
235
330
1F
100
AcDbEntity
  8
3
  6
Continuous
 62
     3
100
AcDbLine
 10
208.215859775509
 20
166.476991029251
 30
0.0
 11
208.215859775509
 21
160.0
 31
0.0
  0
LINE
  5
236
330
1F
100
AcDbEntity
  8
3
  6
DOTTED
 62
     6
100
AcDbLine
 10
150.999999999999
 20
156.476991029251
 30
0.0
 11
151.0
 21
147.5
 31
0.0
  0
LINE
  5
237
330
1F
100
AcDbEntity
  8
3
  6
DOTTED
 62
     6
100
AcDbLine
 10
209.0
 20
147.5
 30
0.0
 11
209.0
 21
156.476991029251
 31
0.0
  0
LINE
  5
238
330
1F
100
AcDbEntity
  8
3
  6
DOTTED
 62
     6
100
AcDbLine
 10
151.0
 20
147.5
 30
0.0
 11
209.0
 21
147.5
 31
0.0
  0
LINE
  5
239
330
1F
100
AcDbEntity
  8
3
  6
DOTTED
 62
     6
100
AcDbLine
 10
168.816315289295
 20
165.5
 30
0.0
 11
191.183684710705
 21
165.5
 31
0.0
  0
LINE
  5
23A
330
1F
100
AcDbEntity
  8
3
  6
Continuous
 62
     3
100
AcDbLine
 10
183.75
 20
169.199996948242
 30
0.0
 11
176.25
 21
169.199996948242
 31
0.0
  0
LINE
  5
23B
330
1F
100
AcDbEntity
  8
3
  6
Continuous
 62
     3
100
AcDbLine
 10
168.816315289295
 20
175.5
 30
0.0
 11
173.749999999999
 21
175.500000000001
 31
0.0
  0
LINE
  5
23C
330
1F
100
AcDbEntity
  8
3
  6
Continuous
 62
     3
100
AcDbLine
 10
176.25
 20
173.0
 30
0.0
 11
176.25
 21
167.5
 31
0.0
  0
LINE
  5
23D
330
1F
100
AcDbEntity
  8
3
  6
Continuous
 62
     3
100
AcDbLine
 10
191.183684710705
 20
175.5
 30
0.0
 11
186.249999999999
 21
175.5
 31
0.0
  0
LINE
  5
23E
330
1F
100
AcDbEntity
  8
3
  6
Continuous
 62
     3
100
AcDbLine
 10
183.75
 20
173.0
 30
0.0
 11
183.75
 21
167.5
 31
0.0
  0
LINE
  5
23F
330
1F
100
AcDbEntity
  8
2
  6
DOTTED
 62
     6
100
AcDbLine
 10
165.0
 20
122.95
 30
0.0
 11
195.0
 21
122.95
 31
0.0
  0
LINE
  5
240
330
1F
100
AcDbEntity
  8
2
  6
DOTTED
 62
     6
100
AcDbLine
 10
195.0
 20
131.217091891216
 30
0.0
 11
195.0
 21
122.95
 31
0.0
  0
LINE
  5
241
330
1F
100
AcDbEntity
  8
2
  6
DOTTED
 62
     6
100
AcDbLine
 10
165.0
 20
131.217091891216
 30
0.0
 11
165.0
 21
122.95
 31
0.0
  0
LINE
  5
242
330
1F
100
AcDbEntity
  8
2
  6
Continuous
 62
     3
100
AcDbLine
 10
170.263979074468
 20
285.528908810493
 30
0.0
 11
155.071527258725
 21
286.72067867176
 31
0.0
  0
LINE
  5
243
330
1F
100
AcDbEntity
  8
2
  6
Continuous
 62
     3
100
AcDbLine
 10
175.279321328239
 20
306.928472741274
 30
0.0
 11
176.471091189507
 21
291.736020925532
 31
0.0
  0
LINE
  5
244
330
1F
100
AcDbEntity
  8
2
  6
Continuous
 62
     3
100
AcDbLine
 10
183.528908810493
 20
291.736020925532
 30
0.0
 11
184.720678671761
 21
306.928472741274
 31
0.0
  0
LINE
  5
245
330
1F
100
AcDbEntity
  8
2
  6
Continuous
 62
     3
100
AcDbLine
 10
204.928472741274
 20
286.720678671761
 30
0.0
 11
189.736020925532
 21
285.528908810493
 31
0.0
  0
LINE
  5
246
330
1F
100
AcDbEntity
  8
2
  6
Continuous
 62
     3
100
AcDbLine
 10
189.736020925532
 20
278.471091189507
 30
0.0
 11
204.928472741274
 21
277.279321328239
 31
0.0
  0
LINE
  5
247
330
1F
100
AcDbEntity
  8
2
  6
Continuous
 62
     3
100
AcDbLine
 10
184.720678671761
 20
257.071527258725
 30
0.0
 11
183.528908810493
 21
272.263979074468
 31
0.0
  0
LINE
  5
248
330
1F
100
AcDbEntity
  8
2
  6
Continuous
 62
     3
100
AcDbLine
 10
155.071527258726
 20
277.279321328239
 30
0.0
 11
170.263979074468
 21
278.471091189506
 31
0.0
  0
LINE
  5
249
330
1F
100
AcDbEntity
  8
2
  6
Continuous
 62
     3
100
AcDbLine
 10
176.471091189507
 20
272.263979074468
 30
0.0
 11
175.279321328239
 21
257.071527258725
 31
0.0
  0
LINE
  5
24A
330
1F
100
AcDbEntity
  8
3
  6
Continuous
 62
     3
100
AcDbLine
 10
352.75
 20
173.0
 30
0.0
 11
352.75
 21
167.5
 31
0.0
  0
LINE
  5
24B
330
1F
100
AcDbEntity
  8
3
  6
Continuous
 62
     3
100
AcDbLine
 10
360.183684710705
 20
175.5
 30
0.0
 11
355.249999999999
 21
175.5
 31
0.0
  0
LINE
  5
24C
330
1F
100
AcDbEntity
  8
3
  6
Continuous
 62
     3
100
AcDbLine
 10
345.25
 20
173.0
 30
0.0
 11
345.25
 21
167.5
 31
0.0
  0
LINE
  5
24D
330
1F
100
AcDbEntity
  8
3
  6
Continuous
 62
     3
100
AcDbLine
 10
337.816315289295
 20
175.5
 30
0.0
 11
342.749999999999
 21
175.500000000001
 31
0.0
  0
LINE
  5
24E
330
1F
100
AcDbEntity
  8
3
  6
Continuous
 62
     3
100
AcDbLine
 10
352.75
 20
169.199996948242
 30
0.0
 11
345.25
 21
169.199996948242
 31
0.0
  0
LINE
  5
24F
330
1F
100
AcDbEntity
  8
3
  6
Continuous
 62
     3
100
AcDbLine
 10
377.215859775509
 20
166.476991029251
 30
0.0
 11
377.215859775509
 21
160.0
 31
0.0
  0
LINE
  5
250
330
1F
100
AcDbEntity
  8
3
  6
Continuous
 62
     3
100
AcDbLine
 10
320.784140224491
 20
166.476991029251
 30
0.0
 11
320.784140224491
 21
160.0
 31
0.0
  0
LINE
  5
251
330
1F
100
AcDbEntity
  8
3
  6
Continuous
 62
     3
100
AcDbLine
 10
372.941953620087
 20
166.476991029251
 30
0.0
 11
372.941953620087
 21
160.0
 31
0.0
  0
LINE
  5
252
330
1F
100
AcDbEntity
  8
3
  6
Continuous
 62
     3
100
AcDbLine
 10
364.961297948456
 20
166.476991029251
 30
0.0
 11
364.961297948456
 21
160.0
 31
0.0
  0
LINE
  5
253
330
1F
100
AcDbEntity
  8
3
  6
Continuous
 62
     3
100
AcDbLine
 10
354.643175743726
 20
166.476991029251
 30
0.0
 11
354.643175743725
 21
160.0
 31
0.0
  0
LINE
  5
254
330
1F
100
AcDbEntity
  8
3
  6
Continuous
 62
     3
100
AcDbLine
 10
343.356824256275
 20
166.476991029251
 30
0.0
 11
343.356824256275
 21
160.0
 31
0.0
  0
LINE
  5
255
330
1F
100
AcDbEntity
  8
3
  6
Continuous
 62
     3
100
AcDbLine
 10
333.038702051544
 20
166.476991029251
 30
0.0
 11
333.038702051544
 21
160.0
 31
0.0
  0
LINE
  5
256
330
1F
100
AcDbEntity
  8
3
  6
Continuous
 62
     3
100
AcDbLine
 10
345.25
 20
168.0
 30
0.0
 11
352.75
 21
168.0
 31
0.0
  0
LINE
  5
257
330
1F
100
AcDbEntity
  8
3
  6
Continuous
 62
     3
100
AcDbLine
 10
352.75
 20
167.5
 30
0.0
 11
345.25
 21
167.5
 31
0.0
  0
LINE
  5
258
330
1F
100
AcDbEntity
  8
3
  6
Continuous
 62
     3
100
AcDbLine
 10
378.0
 20
157.5
 30
0.0
 11
378.0
 21
166.476991029251
 31
0.0
  0
LINE
  5
259
330
1F
100
AcDbEntity
  8
3
  6
Continuous
 62
     3
100
AcDbLine
 10
319.999999999999
 20
166.476991029251
 30
0.0
 11
320.0
 21
157.5
 31
0.0
  0
LINE
  5
25A
330
1F
100
AcDbEntity
  8
3
  6
Continuous
 62
     3
100
AcDbLine
 10
345.25
 20
167.5
 30
0.0
 11
352.75
 21
167.5
 31
0.0
  0
LINE
  5
25B
330
1F
100
AcDbEntity
  8
3
  6
Continuous
 62
     3
100
AcDbLine
 10
349.500007629394
 20
169.199996948242
 30
0.0
 11
349.000007629394
 21
168.0
 31
0.0
  0
LINE
  5
25C
330
1F
100
AcDbEntity
  8
3
  6
Continuous
 62
     3
100
AcDbLine
 10
349.000007629394
 20
169.199996948242
 30
0.0
 11
348.500007629394
 21
168.0
 31
0.0
  0
LINE
  5
25D
330
1F
100
AcDbEntity
  8
3
  6
Continuous
 62
     3
100
AcDbLine
 10
345.400001525879
 20
168.0
 30
0.0
 11
345.400001525879
 21
169.199996948242
 31
0.0
  0
LINE
  5
25E
330
1F
100
AcDbEntity
  8
3
  6
Continuous
 62
     3
100
AcDbLine
 10
352.600006103516
 20
168.0
 30
0.0
 11
352.600006103516
 21
169.199996948242
 31
0.0
  0
LINE
  5
25F
330
1F
100
AcDbEntity
  8
3
  6
Continuous
 62
     3
100
AcDbLine
 10
320.0
 20
157.5
 30
0.0
 11
378.0
 21
157.5
 31
0.0
  0
LINE
  5
260
330
1F
100
AcDbEntity
  8
2
  6
Continuous
 62
     3
100
AcDbLine
 10
352.5
 20
157.5
 30
0.0
 11
352.5
 21
157.0
 31
0.0
  0
LINE
  5
261
330
1F
100
AcDbEntity
  8
2
  6
Continuous
 62
     3
100
AcDbLine
 10
336.5
 20
156.95
 30
0.0
 11
361.5
 21
156.95
 31
0.0
  0
LINE
  5
262
330
1F
100
AcDbEntity
  8
2
  6
Continuous
 62
     3
100
AcDbLine
 10
41.5
 20
156.95
 30
0.0
 11
66.5
 21
156.95
 31
0.0
  0
LINE
  5
263
330
1F
100
AcDbEntity
  8
2
  6
Continuous
 62
     3
100
AcDbLine
 10
50.5
 20
157.0
 30
0.0
 11
50.5
 21
157.5
 31
0.0
  0
LINE
  5
264
330
1F
100
AcDbEntity
  8
2
  6
Continuous
 62
     3
100
AcDbLine
 10
57.5
 20
157.0
 30
0.0
 11
57.5
 21
157.5
 31
0.0
  0
LINE
  5
265
330
1F
100
AcDbEntity
  8
3
  6
Continuous
 62
     3
100
AcDbLine
 10
25.0000000000002
 20
157.5
 30
0.0
 11
83.0
 21
157.5
 31
0.0
  0
LINE
  5
266
330
1F
100
AcDbEntity
  8
3
  6
Continuous
 62
     3
100
AcDbLine
 10
50.3999938964844
 20
169.199996948242
 30
0.0
 11
50.3999938964844
 21
168.0
 31
0.0
  0
LINE
  5
267
330
1F
100
AcDbEntity
  8
3
  6
Continuous
 62
     3
100
AcDbLine
 10
57.5999984741211
 20
169.199996948242
 30
0.0
 11
57.5999984741211
 21
168.0
 31
0.0
  0
LINE
  5
268
330
1F
100
AcDbEntity
  8
3
  6
Continuous
 62
     3
100
AcDbLine
 10
54.4999923706055
 20
168.0
 30
0.0
 11
53.9999923706055
 21
169.199996948242
 31
0.0
  0
LINE
  5
269
330
1F
100
AcDbEntity
  8
3
  6
Continuous
 62
     3
100
AcDbLine
 10
53.9999923706055
 20
168.0
 30
0.0
 11
53.4999923706055
 21
169.199996948242
 31
0.0
  0
LINE
  5
26A
330
1F
100
AcDbEntity
  8
3
  6
Continuous
 62
     3
100
AcDbLine
 10
50.25
 20
167.5
 30
0.0
 11
57.75
 21
167.5
 31
0.0
  0
LINE
  5
26B
330
1F
100
AcDbEntity
  8
3
  6
Continuous
 62
     3
100
AcDbLine
 10
83.0
 20
157.5
 30
0.0
 11
83.0
 21
166.476991029251
 31
0.0
  0
LINE
  5
26C
330
1F
100
AcDbEntity
  8
3
  6
Continuous
 62
     3
100
AcDbLine
 10
24.9999999999994
 20
166.476991029251
 30
0.0
 11
25.0000000000002
 21
157.5
 31
0.0
  0
LINE
  5
26D
330
1F
100
AcDbEntity
  8
3
  6
Continuous
 62
     3
100
AcDbLine
 10
57.75
 20
167.5
 30
0.0
 11
50.25
 21
167.5
 31
0.0
  0
LINE
  5
26E
330
1F
100
AcDbEntity
  8
3
  6
Continuous
 62
     3
100
AcDbLine
 10
50.25
 20
168.0
 30
0.0
 11
57.75
 21
168.0
 31
0.0
  0
LINE
  5
26F
330
1F
100
AcDbEntity
  8
3
  6
Continuous
 62
     3
100
AcDbLine
 10
77.941953620087
 20
160.0
 30
0.0
 11
77.941953620087
 21
166.476991029251
 31
0.0
  0
LINE
  5
270
330
1F
100
AcDbEntity
  8
3
  6
Continuous
 62
     3
100
AcDbLine
 10
69.9612979484558
 20
160.0
 30
0.0
 11
69.9612979484558
 21
166.476991029251
 31
0.0
  0
LINE
  5
271
330
1F
100
AcDbEntity
  8
3
  6
Continuous
 62
     3
100
AcDbLine
 10
59.6431757437253
 20
160.0
 30
0.0
 11
59.6431757437253
 21
166.476991029251
 31
0.0
  0
LINE
  5
272
330
1F
100
AcDbEntity
  8
3
  6
Continuous
 62
     3
100
AcDbLine
 10
48.3568242562746
 20
160.0
 30
0.0
 11
48.3568242562746
 21
166.476991029251
 31
0.0
  0
LINE
  5
273
330
1F
100
AcDbEntity
  8
3
  6
Continuous
 62
     3
100
AcDbLine
 10
38.0387020515442
 20
160.0
 30
0.0
 11
38.0387020515442
 21
166.476991029251
 31
0.0
  0
LINE
  5
274
330
1F
100
AcDbEntity
  8
3
  6
Continuous
 62
     3
100
AcDbLine
 10
30.058046379913
 20
160.0
 30
0.0
 11
30.058046379913
 21
166.476991029251
 31
0.0
  0
LINE
  5
275
330
1F
100
AcDbEntity
  8
3
  6
Continuous
 62
     3
100
AcDbLine
 10
82.2158597755094
 20
160.0
 30
0.0
 11
82.2158597755094
 21
166.476991029251
 31
0.0
  0
LINE
  5
276
330
1F
100
AcDbEntity
  8
3
  6
Continuous
 62
     3
100
AcDbLine
 10
25.7841402244906
 20
160.0
 30
0.0
 11
25.7841402244906
 21
166.476991029251
 31
0.0
  0
LINE
  5
277
330
1F
100
AcDbEntity
  8
3
  6
Continuous
 62
     3
100
AcDbLine
 10
57.75
 20
169.199996948242
 30
0.0
 11
50.25
 21
169.199996948242
 31
0.0
  0
LINE
  5
278
330
1F
100
AcDbEntity
  8
3
  6
Continuous
 62
     3
100
AcDbLine
 10
60.2500000000005
 20
175.5
 30
0.0
 11
65.1836847107049
 21
175.5
 31
0.0
  0
LINE
  5
279
330
1F
100
AcDbEntity
  8
3
  6
Continuous
 62
     3
100
AcDbLine
 10
57.75
 20
167.5
 30
0.0
 11
57.7500000000005
 21
173.0
 31
0.0
  0
LINE
  5
27A
330
1F
100
AcDbEntity
  8
3
  6
Continuous
 62
     3
100
AcDbLine
 10
47.7500000000006
 20
175.500000000001
 30
0.0
 11
42.8163152892951
 21
175.5
 31
0.0
  0
LINE
  5
27B
330
1F
100
AcDbEntity
  8
3
  6
Continuous
 62
     3
100
AcDbLine
 10
50.25
 20
167.5
 30
0.0
 11
50.25
 21
173.0
 31
0.0
  0
LINE
  5
27C
330
1F
100
AcDbEntity
  8
2
  6
Continuous
 62
     3
100
AcDbLine
 10
42.5
 20
125.5
 30
0.0
 11
65.5
 21
125.5
 31
0.0
  0
LINE
  5
27D
330
1F
100
AcDbEntity
  8
2
  6
Continuous
 62
     3
100
AcDbLine
 10
69.0
 20
132.95
 30
0.0
 11
69.0
 21
154.45
 31
0.0
  0
LINE
  5
27E
330
1F
100
AcDbEntity
  8
2
  6
Continuous
 62
     3
100
AcDbLine
 10
39.0
 20
132.95
 30
0.0
 11
69.0
 21
132.95
 31
0.0
  0
LINE
  5
27F
330
1F
100
AcDbEntity
  8
2
  6
Continuous
 62
     3
100
AcDbLine
 10
39.0
 20
132.95
 30
0.0
 11
39.0
 21
154.45
 31
0.0
  0
LINE
  5
280
330
1F
100
AcDbEntity
  8
2
  6
DOT_CENTER
 62
     1
100
AcDbLine
 10
32.5
 20
90.0
 30
0.0
 11
75.5
 21
90.0
 31
0.0
  0
LINE
  5
281
330
1F
100
AcDbEntity
  8
2
  6
Continuous
 62
     3
100
AcDbLine
 10
54.0
 20
124.47286142901
 30
0.0
 11
54.0
 21
116.6046541797
 31
0.0
  0
LINE
  5
282
330
1F
100
AcDbEntity
  8
2
  6
Continuous
 62
     3
100
AcDbLine
 10
38.7830695421815
 20
116.174015453814
 30
0.0
 11
42.5
 21
117.000000000008
 31
0.0
  0
LINE
  5
283
330
1F
100
AcDbEntity
  8
2
  6
Continuous
 62
     3
100
AcDbLine
 10
69.2169304578187
 20
116.174015453814
 30
0.0
 11
65.5
 21
117.000000000008
 31
0.0
  0
LINE
  5
284
330
1F
100
AcDbEntity
  8
2
  6
Continuous
 62
     3
100
AcDbLine
 10
42.5
 20
116.6046541797
 30
0.0
 11
42.5
 21
125.5
 31
0.0
  0
LINE
  5
285
330
1F
100
AcDbEntity
  8
2
  6
Continuous
 62
     3
100
AcDbLine
 10
38.0
 20
114.64575131106
 30
0.0
 11
38.0000000000001
 21
115.19782839363
 31
0.0
  0
LINE
  5
286
330
1F
100
AcDbEntity
  8
2
  6
Continuous
 62
     3
100
AcDbLine
 10
70.000000000005
 20
114.45594312763
 30
0.0
 11
70.0
 21
115.19782839363
 31
0.0
  0
LINE
  5
287
330
1F
100
AcDbEntity
  8
2
  6
Continuous
 62
     3
100
AcDbLine
 10
65.5
 20
125.5
 30
0.0
 11
64.4840909090935
 21
132.95
 31
0.0
  0
LINE
  5
288
330
1F
100
AcDbEntity
  8
2
  6
Continuous
 62
     3
100
AcDbLine
 10
42.5
 20
125.5
 30
0.0
 11
43.5159090909065
 21
132.95
 31
0.0
  0
LINE
  5
289
330
1F
100
AcDbEntity
  8
2
  6
Continuous
 62
     3
100
AcDbLine
 10
65.5
 20
116.6046541797
 30
0.0
 11
65.5
 21
125.5
 31
0.0
  0
LINE
  5
28A
330
1F
100
AcDbEntity
  8
2
  6
Continuous
 62
     3
100
AcDbLine
 10
44.872431868236
 20
91.5
 30
0.0
 11
63.1275681317643
 21
91.5
 31
0.0
  0
LINE
  5
28B
330
1F
100
AcDbEntity
  8
2
  6
Continuous
 62
     3
100
AcDbLine
 10
38.9999999999978
 20
111.999999999998
 30
0.0
 11
69.0
 21
112.0
 31
0.0
  0
LINE
  5
28C
330
1F
100
AcDbEntity
  8
2
  6
Continuous
 62
     3
100
AcDbLine
 10
69.0
 20
112.0
 30
0.0
 11
69.0
 21
90.0
 31
0.0
  0
LINE
  5
28D
330
1F
100
AcDbEntity
  8
2
  6
Continuous
 62
     3
100
AcDbLine
 10
38.9999999999978
 20
111.999999999998
 30
0.0
 11
39.0
 21
90.0
 31
0.0
  0
LINE
  5
28E
330
1F
100
AcDbEntity
  8
2
  6
DOT_CENTER
 62
     1
100
AcDbLine
 10
54.0
 20
181.499999999936
 30
0.0
 11
54.0
 21
66.102141655121
 31
0.0
  0
LINE
  5
28F
330
1F
100
AcDbEntity
  8
3
  6
Continuous
 62
     3
100
AcDbLine
 10
223.071428571429
 20
105.5
 30
0.0
 11
221.687024410535
 21
107.897858344878
 31
0.0
  0
LINE
  5
290
330
1F
100
AcDbEntity
  8
3
  6
Continuous
 62
     3
100
AcDbLine
 10
221.687024410535
 20
107.897858344878
 30
0.0
 11
206.455832732323
 21
107.897858344878
 31
0.0
  0
LINE
  5
291
330
1F
100
AcDbEntity
  8
3
  6
Continuous
 62
     3
100
AcDbLine
 10
206.455832732323
 20
107.897858344878
 30
0.0
 11
205.071428571429
 21
105.5
 31
0.0
  0
LINE
  5
292
330
1F
100
AcDbEntity
  8
3
  6
Continuous
 62
     3
100
AcDbLine
 10
223.071428571429
 20
74.5
 30
0.0
 11
221.687024410535
 21
72.102141655121
 31
0.0
  0
LINE
  5
293
330
1F
100
AcDbEntity
  8
3
  6
Continuous
 62
     3
100
AcDbLine
 10
205.071428571429
 20
74.5
 30
0.0
 11
205.071428571429
 21
105.5
 31
0.0
  0
LINE
  5
294
330
1F
100
AcDbEntity
  8
3
  6
Continuous
 62
     3
100
AcDbLine
 10
221.687024410535
 20
72.102141655121
 30
0.0
 11
206.455832732323
 21
72.102141655121
 31
0.0
  0
LINE
  5
295
330
1F
100
AcDbEntity
  8
3
  6
Continuous
 62
     3
100
AcDbLine
 10
206.455832732323
 20
72.102141655121
 30
0.0
 11
205.071428571429
 21
74.5
 31
0.0
  0
LINE
  5
296
330
1F
100
AcDbEntity
  8
3
  6
Continuous
 62
     3
100
AcDbLine
 10
224.571428571429
 20
81.3
 30
0.0
 11
224.571428571429
 21
98.7
 31
0.0
  0
LINE
  5
297
330
1F
100
AcDbEntity
  8
3
  6
Continuous
 62
     3
100
AcDbLine
 10
224.571428571429
 20
81.3
 30
0.0
 11
223.071428571429
 21
79.875
 31
0.0
  0
LINE
  5
298
330
1F
100
AcDbEntity
  8
3
  6
Continuous
 62
     3
100
AcDbLine
 10
223.071428571429
 20
100.125
 30
0.0
 11
224.571428571429
 21
98.7
 31
0.0
  0
LINE
  5
299
330
1F
100
AcDbEntity
  8
3
  6
Continuous
 62
     3
100
AcDbLine
 10
224.571428571429
 20
81.5
 30
0.0
 11
244.85
 21
81.5
 31
0.0
  0
LINE
  5
29A
330
1F
100
AcDbEntity
  8
3
  6
Continuous
 62
     3
100
AcDbLine
 10
224.571428571429
 20
98.5
 30
0.0
 11
244.85
 21
98.5
 31
0.0
  0
LINE
  5
29B
330
1F
100
AcDbEntity
  8
2
  6
Continuous
 62
     3
100
AcDbLine
 10
201.388731602904
 20
77.9415
 30
0.0
 11
205.071428571429
 21
77.9415
 31
0.0
  0
LINE
  5
29C
330
1F
100
AcDbEntity
  8
2
  6
DOTTED
 62
     4
100
AcDbLine
 10
205.071428571429
 20
77.9415
 30
0.0
 11
212.5
 21
77.9415
 31
0.0
  0
LINE
  5
29D
330
1F
100
AcDbEntity
  8
2
  6
DOTTED
 62
     4
100
AcDbLine
 10
205.071428571429
 20
76.9
 30
0.0
 11
212.5
 21
76.9
 31
0.0
  0
LINE
  5
29E
330
1F
100
AcDbEntity
  8
2
  6
DOTTED
 62
     4
100
AcDbLine
 10
205.071428571429
 20
102.0585
 30
0.0
 11
212.5
 21
102.0585
 31
0.0
  0
LINE
  5
29F
330
1F
100
AcDbEntity
  8
2
  6
DOTTED
 62
     4
100
AcDbLine
 10
205.071428571429
 20
103.1
 30
0.0
 11
212.5
 21
103.1
 31
0.0
  0
LINE
  5
2A0
330
1F
100
AcDbEntity
  8
2
  6
Continuous
 62
     3
100
AcDbLine
 10
364.5
 20
98.9489291724392
 30
0.0
 11
349.0
 21
107.897858344878
 31
0.0
  0
LINE
  5
2A1
330
1F
100
AcDbEntity
  8
2
  6
Continuous
 62
     3
100
AcDbLine
 10
364.5
 20
81.0510708275608
 30
0.0
 11
364.5
 21
98.9489291724392
 31
0.0
  0
LINE
  5
2A2
330
1F
100
AcDbEntity
  8
2
  6
Continuous
 62
     3
100
AcDbLine
 10
349.0
 20
72.1021416551216
 30
0.0
 11
364.5
 21
81.0510708275608
 31
0.0
  0
LINE
  5
2A3
330
1F
100
AcDbEntity
  8
2
  6
Continuous
 62
     3
100
AcDbLine
 10
333.5
 20
81.0510708275608
 30
0.0
 11
349.0
 21
72.1021416551216
 31
0.0
  0
LINE
  5
2A4
330
1F
100
AcDbEntity
  8
2
  6
Continuous
 62
     3
100
AcDbLine
 10
333.5
 20
98.9489291724392
 30
0.0
 11
333.5
 21
81.0510708275608
 31
0.0
  0
LINE
  5
2A5
330
1F
100
AcDbEntity
  8
2
  6
Continuous
 62
     3
100
AcDbLine
 10
349.0
 20
107.897858344878
 30
0.0
 11
333.5
 21
98.9489291724392
 31
0.0
  0
LINE
  5
2A6
330
1F
100
AcDbEntity
  8
2
  6
Continuous
 62
     3
100
AcDbLine
 10
39.0
 20
99.237604307034
 30
0.0
 11
38.5
 21
98.9489291724392
 31
0.0
  0
LINE
  5
2A7
330
1F
100
AcDbEntity
  8
2
  6
Continuous
 62
     3
100
AcDbLine
 10
38.5
 20
98.9489291724392
 30
0.0
 11
38.5
 21
81.0510708275608
 31
0.0
  0
LINE
  5
2A8
330
1F
100
AcDbEntity
  8
2
  6
Continuous
 62
     3
100
AcDbLine
 10
38.5
 20
81.0510708275608
 30
0.0
 11
54.0
 21
72.1021416551216
 31
0.0
  0
LINE
  5
2A9
330
1F
100
AcDbEntity
  8
2
  6
Continuous
 62
     3
100
AcDbLine
 10
54.0
 20
72.1021416551216
 30
0.0
 11
69.5
 21
81.0510708275608
 31
0.0
  0
LINE
  5
2AA
330
1F
100
AcDbEntity
  8
2
  6
Continuous
 62
     3
100
AcDbLine
 10
69.5
 20
81.0510708275608
 30
0.0
 11
69.5
 21
98.9489291724392
 31
0.0
  0
LINE
  5
2AB
330
1F
100
AcDbEntity
  8
2
  6
Continuous
 62
     3
100
AcDbLine
 10
69.5
 20
98.9489291724392
 30
0.0
 11
69.0
 21
99.237604307034
 31
0.0
  0
LINE
  5
2AC
330
1F
100
AcDbEntity
  8
2
  6
Continuous
 62
     3
100
AcDbLine
 10
205.071428571429
 20
266.5
 30
0.0
 11
223.071428571429
 21
266.5
 31
0.0
  0
LINE
  5
2AD
330
1F
100
AcDbEntity
  8
2
  6
Continuous
 62
     3
100
AcDbLine
 10
205.071428571429
 20
297.5
 30
0.0
 11
223.071428571429
 21
297.5
 31
0.0
  0
LINE
  5
2AE
330
1F
100
AcDbEntity
  8
2
  6
Continuous
 62
     3
100
AcDbLine
 10
209.0
 20
282.0
 30
0.0
 11
221.687024410535
 21
282.0
 31
0.0
  0
LINE
  5
2AF
330
1F
100
AcDbEntity
  8
3
  6
Continuous
 62
     3
100
AcDbLine
 10
223.071428571429
 20
266.5
 30
0.0
 11
223.071428571429
 21
297.5
 31
0.0
  0
LINE
  5
2B0
330
1F
100
AcDbEntity
  8
3
  6
Continuous
 62
     3
100
AcDbLine
 10
205.071428571429
 20
266.5
 30
0.0
 11
205.071428571429
 21
271.960103255273
 31
0.0
  0
LINE
  5
2B1
330
1F
100
AcDbEntity
  8
3
  6
Continuous
 62
     3
100
AcDbLine
 10
224.571428571429
 20
273.3
 30
0.0
 11
224.571428571429
 21
290.7
 31
0.0
  0
LINE
  5
2B2
330
1F
100
AcDbEntity
  8
3
  6
Continuous
 62
     3
100
AcDbLine
 10
224.571428571429
 20
273.3
 30
0.0
 11
223.071428571429
 21
271.875
 31
0.0
  0
LINE
  5
2B3
330
1F
100
AcDbEntity
  8
3
  6
Continuous
 62
     3
100
AcDbLine
 10
223.071428571429
 20
292.125
 30
0.0
 11
224.571428571429
 21
290.7
 31
0.0
  0
LINE
  5
2B4
330
1F
100
AcDbEntity
  8
3
  6
Continuous
 62
     3
100
AcDbLine
 10
224.571428571429
 20
273.5
 30
0.0
 11
244.85
 21
273.5
 31
0.0
  0
LINE
  5
2B5
330
1F
100
AcDbEntity
  8
3
  6
Continuous
 62
     3
100
AcDbLine
 10
224.571428571429
 20
290.5
 30
0.0
 11
244.85
 21
290.5
 31
0.0
  0
LINE
  5
2B6
330
1F
100
AcDbEntity
  8
2
  6
Continuous
 62
     3
100
AcDbLine
 10
204.239805424766
 20
295.1
 30
0.0
 11
205.071428571429
 21
295.1
 31
0.0
  0
LINE
  5
2B7
330
1F
100
AcDbEntity
  8
2
  6
Continuous
 62
     3
100
AcDbLine
 10
206.455832732324
 20
81.0510708275619
 30
0.0
 11
221.687024410535
 21
81.0510708275608
 31
0.0
  0
LINE
  5
2B8
330
1F
100
AcDbEntity
  8
2
  6
Continuous
 62
     3
100
AcDbLine
 10
206.455832732323
 20
98.9489291724379
 30
0.0
 11
221.687024410535
 21
98.9489291724392
 31
0.0
  0
LINE
  5
2B9
330
1F
100
AcDbEntity
  8
2
  6
Continuous
 62
     3
100
AcDbLine
 10
202.5
 20
103.1
 30
0.0
 11
202.5
 21
76.9
 31
0.0
  0
LINE
  5
2BA
330
1F
100
AcDbEntity
  8
2
  6
Continuous
 62
     3
100
AcDbLine
 10
157.5
 20
103.1
 30
0.0
 11
157.5
 21
76.9
 31
0.0
  0
LINE
  5
2BB
330
1F
100
AcDbEntity
  8
3
  6
Continuous
 62
     3
100
AcDbLine
 10
223.071428571429
 20
74.5
 30
0.0
 11
223.071428571429
 21
105.5
 31
0.0
  0
LINE
  5
2BC
330
1F
100
AcDbEntity
  8
3
  6
Continuous
 62
     3
100
AcDbLine
 10
205.071428571429
 20
292.039896744726
 30
0.0
 11
205.071428571429
 21
297.5
 31
0.0
  0
LINE
  5
2BD
330
1F
100
AcDbEntity
  8
2
  6
Continuous
 62
     3
100
AcDbLine
 10
345.5
 20
157.5
 30
0.0
 11
345.5
 21
157.0
 31
0.0
  0
LINE
  5
2BE
330
1F
100
AcDbEntity
  8
1
  6
Continuous
 62
     4
100
AcDbLine
 10
263.0
 20
90.0
 30
0.0
 11
269.186179006933
 21
84.4930786680262
 31
0.0
  0
LINE
  5
2BF
330
1F
100
AcDbEntity
  8
1
  6
Continuous
 62
     4
100
AcDbLine
 10
263.0
 20
90.0
 30
0.0
 11
265.603927506375
 21
82.1377767264017
 31
0.0
  0
LINE
  5
2C0
330
1F
100
AcDbEntity
  8
3
  6
DOTTED
 62
     6
100
AcDbLine
 10
237.5
 20
78.5
 30
0.0
 11
240.5
 21
78.5
 31
0.0
  0
LINE
  5
2C1
330
1F
100
AcDbEntity
  8
3
  6
DOTTED
 62
     6
100
AcDbLine
 10
237.5
 20
101.5
 30
0.0
 11
240.5
 21
101.5
 31
0.0
  0
LINE
  5
2C2
330
1F
100
AcDbEntity
  8
3
  6
DOTTED
 62
     6
100
AcDbLine
 10
234.0
 20
80.85
 30
0.0
 11
237.5
 21
80.85
 31
0.0
  0
LINE
  5
2C3
330
1F
100
AcDbEntity
  8
3
  6
DOTTED
 62
     6
100
AcDbLine
 10
234.0
 20
99.15
 30
0.0
 11
237.5
 21
99.15
 31
0.0
  0
LINE
  5
2C4
330
1F
100
AcDbEntity
  8
3
  6
DOTTED
 62
     6
100
AcDbLine
 10
237.5
 20
99.15
 30
0.0
 11
237.5
 21
101.5
 31
0.0
  0
LINE
  5
2C5
330
1F
100
AcDbEntity
  8
3
  6
DOTTED
 62
     6
100
AcDbLine
 10
240.5
 20
78.5
 30
0.0
 11
240.5
 21
101.5
 31
0.0
  0
LINE
  5
2C6
330
1F
100
AcDbEntity
  8
3
  6
DOTTED
 62
     6
100
AcDbLine
 10
237.5
 20
78.5
 30
0.0
 11
237.5
 21
80.85
 31
0.0
  0
LINE
  5
2C7
330
1F
100
AcDbEntity
  8
2
  6
Continuous
 62
     3
100
AcDbLine
 10
246.384404160895
 20
81.051070827562
 30
0.0
 11
261.615595839106
 21
81.051070827561
 31
0.0
  0
LINE
  5
2C8
330
1F
100
AcDbEntity
  8
2
  6
Continuous
 62
     3
100
AcDbLine
 10
246.384404160895
 20
98.9489291724379
 30
0.0
 11
261.615595839106
 21
98.9489291724392
 31
0.0
  0
LINE
  5
2C9
330
1F
100
AcDbEntity
  8
3
  6
DOTTED
 62
     4
100
AcDbLine
 10
248.7
 20
78.5
 30
0.0
 11
248.7
 21
80.85
 31
0.0
  0
LINE
  5
2CA
330
1F
100
AcDbEntity
  8
3
  6
DOTTED
 62
     4
100
AcDbLine
 10
251.7
 20
78.5
 30
0.0
 11
251.7
 21
101.5
 31
0.0
  0
LINE
  5
2CB
330
1F
100
AcDbEntity
  8
3
  6
Continuous
 62
     3
100
AcDbLine
 10
263.2
 20
74.5
 30
0.0
 11
263.2
 21
105.5
 31
0.0
  0
LINE
  5
2CC
330
1F
100
AcDbEntity
  8
3
  6
Continuous
 62
     3
100
AcDbLine
 10
261.815595839106
 20
107.897858344878
 30
0.0
 11
263.2
 21
105.5
 31
0.0
  0
LINE
  5
2CD
330
1F
100
AcDbEntity
  8
3
  6
Continuous
 62
     3
100
AcDbLine
 10
246.584404160895
 20
107.897858344878
 30
0.0
 11
261.815595839106
 21
107.897858344878
 31
0.0
  0
LINE
  5
2CE
330
1F
100
AcDbEntity
  8
3
  6
Continuous
 62
     3
100
AcDbLine
 10
246.584404160895
 20
72.102141655121
 30
0.0
 11
261.815595839106
 21
72.102141655121
 31
0.0
  0
LINE
  5
2CF
330
1F
100
AcDbEntity
  8
3
  6
Continuous
 62
     3
100
AcDbLine
 10
261.815595839106
 20
72.102141655121
 30
0.0
 11
263.2
 21
74.5
 31
0.0
  0
LINE
  5
2D0
330
1F
100
AcDbEntity
  8
3
  6
Continuous
 62
     3
100
AcDbLine
 10
245.2
 20
74.5
 30
0.0
 11
246.584404160895
 21
72.102141655121
 31
0.0
  0
LINE
  5
2D1
330
1F
100
AcDbEntity
  8
3
  6
Continuous
 62
     3
100
AcDbLine
 10
245.2
 20
74.5
 30
0.0
 11
245.2
 21
105.5
 31
0.0
  0
LINE
  5
2D2
330
1F
100
AcDbEntity
  8
3
  6
Continuous
 62
     3
100
AcDbLine
 10
245.2
 20
105.5
 30
0.0
 11
246.584404160895
 21
107.897858344878
 31
0.0
  0
LINE
  5
2D3
330
1F
100
AcDbEntity
  8
3
  6
DOTTED
 62
     4
100
AcDbLine
 10
248.7
 20
99.15
 30
0.0
 11
248.7
 21
101.5
 31
0.0
  0
LINE
  5
2D4
330
1F
100
AcDbEntity
  8
3
  6
DOTTED
 62
     4
100
AcDbLine
 10
245.2
 20
99.15
 30
0.0
 11
248.7
 21
99.15
 31
0.0
  0
LINE
  5
2D5
330
1F
100
AcDbEntity
  8
3
  6
DOTTED
 62
     4
100
AcDbLine
 10
245.2
 20
80.85
 30
0.0
 11
248.7
 21
80.85
 31
0.0
  0
LINE
  5
2D6
330
1F
100
AcDbEntity
  8
3
  6
DOTTED
 62
     4
100
AcDbLine
 10
248.7
 20
101.5
 30
0.0
 11
251.7
 21
101.5
 31
0.0
  0
LINE
  5
2D7
330
1F
100
AcDbEntity
  8
3
  6
DOTTED
 62
     4
100
AcDbLine
 10
248.7
 20
78.5
 30
0.0
 11
251.7
 21
78.5
 31
0.0
  0
LINE
  5
2D8
330
1F
100
AcDbEntity
  8
1
  6
Continuous
 62
     4
100
AcDbLine
 10
207.406293408096
 20
103.1
 30
0.0
 11
209.712914372533
 21
111.05452657226
 31
0.0
  0
LINE
  5
2D9
330
1F
100
AcDbEntity
  8
1
  6
Continuous
 62
     4
100
AcDbLine
 10
207.406293408096
 20
103.1
 30
0.0
 11
213.38114904633
 21
108.835511604437
 31
0.0
  0
LINE
  5
2DA
330
1F
100
AcDbEntity
  8
2
  6
DOTTED
 62
     4
100
AcDbLine
 10
205.071428571429
 20
103.1
 30
0.0
 11
212.5
 21
103.1
 31
0.0
  0
LINE
  5
2DB
330
1F
100
AcDbEntity
  8
2
  6
DOTTED
 62
     4
100
AcDbLine
 10
205.071428571429
 20
102.0585
 30
0.0
 11
212.5
 21
102.0585
 31
0.0
  0
LINE
  5
2DC
330
1F
100
AcDbEntity
  8
2
  6
DOTTED
 62
     4
100
AcDbLine
 10
212.5
 20
76.9
 30
0.0
 11
212.5
 21
103.1
 31
0.0
  0
LINE
  5
2DD
330
1F
100
AcDbEntity
  8
2
  6
DOTTED
 62
     4
100
AcDbLine
 10
205.071428571429
 20
76.9
 30
0.0
 11
212.5
 21
76.9
 31
0.0
  0
LINE
  5
2DE
330
1F
100
AcDbEntity
  8
2
  6
DOTTED
 62
     4
100
AcDbLine
 10
205.071428571429
 20
77.9415
 30
0.0
 11
212.5
 21
77.9415
 31
0.0
  0
LINE
  5
2DF
330
1F
100
AcDbEntity
  8
1
  6
Continuous
 62
     4
100
AcDbLine
 10
153.009420605766
 20
76.9
 30
0.0
 11
145.94770967182
 21
72.5725028078851
 31
0.0
  0
LINE
  5
2E0
330
1F
100
AcDbEntity
  8
1
  6
Continuous
 62
     4
100
AcDbLine
 10
153.009420605766
 20
76.9
 30
0.0
 11
149.057548138844
 21
69.6214220298499
 31
0.0
  0
LINE
  5
2E1
330
1F
100
AcDbEntity
  8
3
  6
Continuous
 62
     3
100
AcDbLine
 10
245.2
 20
266.5
 30
0.0
 11
245.2
 21
297.5
 31
0.0
  0
LINE
  5
2E2
330
1F
100
AcDbEntity
  8
3
  6
Continuous
 62
     3
100
AcDbLine
 10
245.05
 20
290.5
 30
0.0
 11
245.2
 21
290.65
 31
0.0
  0
LINE
  5
2E3
330
1F
100
AcDbEntity
  8
3
  6
Continuous
 62
     3
100
AcDbLine
 10
263.2
 20
266.5
 30
0.0
 11
263.2
 21
297.5
 31
0.0
  0
LINE
  5
2E4
330
1F
100
AcDbEntity
  8
3
  6
Continuous
 62
     3
100
AcDbLine
 10
245.05
 20
273.5
 30
0.0
 11
245.2
 21
273.35
 31
0.0
  0
LINE
  5
2E5
330
1F
100
AcDbEntity
  8
2
  6
Continuous
 62
     3
100
AcDbLine
 10
245.2
 20
297.5
 30
0.0
 11
263.2
 21
297.5
 31
0.0
  0
LINE
  5
2E6
330
1F
100
AcDbEntity
  8
2
  6
Continuous
 62
     3
100
AcDbLine
 10
246.584404160895
 20
282.0
 30
0.0
 11
261.815595839106
 21
282.0
 31
0.0
  0
LINE
  5
2E7
330
1F
100
AcDbEntity
  8
2
  6
Continuous
 62
     3
100
AcDbLine
 10
245.2
 20
266.5
 30
0.0
 11
263.2
 21
266.5
 31
0.0
  0
LINE
  5
2E8
330
1F
100
AcDbEntity
  8
3
  6
Continuous
 62
     3
100
AcDbLine
 10
325.058046379913
 20
166.476991029251
 30
0.0
 11
325.058046379913
 21
160.0
 31
0.0
  0
ARC
  5
2E9
330
1F
100
AcDbEntity
  8
2
  6
Continuous
 62
     3
100
AcDbCircle
 10
197.0
 20
103.75
 30
0.0
 40
2.0
100
AcDbArc
 50
180.0
 51
270.0
  0
ARC
  5
2EA
330
1F
100
AcDbEntity
  8
2
  6
Continuous
 62
     3
100
AcDbCircle
 10
163.0
 20
103.75
 30
0.0
 40
2.0
100
AcDbArc
 50
270.0
 51
0.0
  0
ARC
  5
2EB
330
1F
100
AcDbEntity
  8
2
  6
Continuous
 62
     3
100
AcDbCircle
 10
180.0
 20
125.0
 30
0.0
 40
50.00000000000006
100
AcDbArc
 50
249.635865193682
 51
290.364134806318
  0
ARC
  5
2EC
330
1F
100
AcDbEntity
  8
2
  6
Continuous
 62
     3
100
AcDbCircle
 10
198.095234179198
 20
76.2500000000002
 30
0.0
 40
1.999999999999801
100
AcDbArc
 50
90.0
 51
110.3641348063278
  0
ARC
  5
2ED
330
1F
100
AcDbEntity
  8
2
  6
Continuous
 62
     3
100
AcDbCircle
 10
161.904765820802
 20
76.2499999999994
 30
0.0
 40
2.000000000000651
100
AcDbArc
 50
69.63586519368108
 51
90.0
  0
ARC
  5
2EE
330
1F
100
AcDbEntity
  8
2
  6
Continuous
 62
     3
100
AcDbCircle
 10
200.321572875254
 20
103.75
 30
0.0
 40
2.0
100
AcDbArc
 50
270.0
 51
315.0000000000003
  0
ARC
  5
2EF
330
1F
100
AcDbEntity
  8
2
  6
Continuous
 62
     3
100
AcDbCircle
 10
200.321572875254
 20
76.25
 30
0.0
 40
1.999999999999956
100
AcDbArc
 50
45.00000000000173
 51
90.0
  0
ARC
  5
2F0
330
1F
100
AcDbEntity
  8
2
  6
Continuous
 62
     3
100
AcDbCircle
 10
159.678427124746
 20
103.75
 30
0.0
 40
1.999999999999885
100
AcDbArc
 50
224.9999999999997
 51
270.0
  0
ARC
  5
2F1
330
1F
100
AcDbEntity
  8
2
  6
Continuous
 62
     3
100
AcDbCircle
 10
159.678427124746
 20
76.25
 30
0.0
 40
2.0
100
AcDbArc
 50
90.0
 51
134.9999999999983
  0
ARC
  5
2F2
330
1F
100
AcDbEntity
  8
2
  6
Continuous
 62
     3
100
AcDbCircle
 10
167.99691009521
 20
114.6131362915
 30
0.0
 40
3.999999999994896
100
AcDbArc
 50
182.2522061696068
 51
220.7896669763097
  0
ARC
  5
2F3
330
1F
100
AcDbEntity
  8
2
  6
Continuous
 62
     3
100
AcDbCircle
 10
165.0
 20
115.19782839363
 30
0.0
 40
1.000000000000107
100
AcDbArc
 50
102.5288077091697
 51
180.0
  0
ARC
  5
2F4
330
1F
100
AcDbEntity
  8
2
  6
Continuous
 62
     3
100
AcDbCircle
 10
192.0
 20
114.64575131106
 30
0.0
 40
3.999999999996961
100
AcDbArc
 50
318.5903778907785
 51
0.0
  0
ARC
  5
2F5
330
1F
100
AcDbEntity
  8
2
  6
Continuous
 62
     3
100
AcDbCircle
 10
195.0
 20
115.19782839363
 30
0.0
 40
1.0
100
AcDbArc
 50
0.0
 51
77.4711922908303
  0
ARC
  5
2F6
330
1F
100
AcDbEntity
  8
2
  6
Continuous
 62
     3
100
AcDbCircle
 10
364.0
 20
115.19782839363
 30
0.0
 40
1.0
100
AcDbArc
 50
0.0
 51
77.47119229088435
  0
ARC
  5
2F7
330
1F
100
AcDbEntity
  8
2
  6
Continuous
 62
     3
100
AcDbCircle
 10
361.0
 20
114.64575131106
 30
0.0
 40
3.999999999996961
100
AcDbArc
 50
318.5903778907785
 51
0.0
  0
ARC
  5
2F8
330
1F
100
AcDbEntity
  8
2
  6
Continuous
 62
     3
100
AcDbCircle
 10
334.0
 20
115.19782839363
 30
0.0
 40
1.000000000000107
100
AcDbArc
 50
102.5288077091697
 51
180.0
  0
ARC
  5
2F9
330
1F
100
AcDbEntity
  8
2
  6
Continuous
 62
     3
100
AcDbCircle
 10
336.99691009521
 20
114.6131362915
 30
0.0
 40
3.999999999994896
100
AcDbArc
 50
182.2522061696068
 51
220.7896669763097
  0
ARC
  5
2FA
330
1F
100
AcDbEntity
  8
2
  6
Continuous
 62
     3
100
AcDbCircle
 10
343.25
 20
74.9876697666389
 30
0.0
 40
42.01233023336091
100
AcDbArc
 50
82.13354654051032
 51
97.86645345948969
  0
ARC
  5
2FB
330
1F
100
AcDbEntity
  8
2
  6
Continuous
 62
     3
100
AcDbCircle
 10
354.75
 20
74.9876697666577
 30
0.0
 40
42.01233023334228
100
AcDbArc
 50
82.13354654050681
 51
97.86645345949319
  0
ARC
  5
2FC
330
1F
100
AcDbEntity
  8
2
  6
Continuous
 62
     3
100
AcDbCircle
 10
189.95929214352
 20
102.864107982124
 30
0.0
 40
14.13589201787604
100
AcDbArc
 50
76.41742833920655
 51
103.5825716607934
  0
ARC
  5
2FD
330
1F
100
AcDbEntity
  8
2
  6
Continuous
 62
     3
100
AcDbCircle
 10
180.0
 20
61.0494506589429
 30
0.0
 40
55.95054934105711
100
AcDbArc
 50
83.18477674548318
 51
96.81522325451684
  0
ARC
  5
2FE
330
1F
100
AcDbEntity
  8
2
  6
Continuous
 62
     3
100
AcDbCircle
 10
170.04070785648
 20
102.86410798212
 30
0.0
 40
14.13589201787993
100
AcDbArc
 50
76.41742833921036
 51
103.5825716607896
  0
ARC
  5
2FF
330
1F
100
AcDbEntity
  8
2
  6
Continuous
 62
     3
100
AcDbCircle
 10
167.5
 20
154.45
 30
0.0
 40
2.5
100
AcDbArc
 50
90.0
 51
180.0
  0
ARC
  5
300
330
1F
100
AcDbEntity
  8
3
  6
Continuous
 62
     3
100
AcDbCircle
 10
179.471280022544
 20
106.551691078827
 30
0.0
 40
69.99999999999925
100
AcDbArc
 50
101.2741638648805
 51
110.5554521953937
  0
ARC
  5
301
330
1F
100
AcDbEntity
  8
3
  6
Continuous
 62
     3
100
AcDbCircle
 10
157.0
 20
166.476991029251
 30
0.0
 40
6.000000000000439
100
AcDbArc
 50
110.5554521953872
 51
180.0
  0
ARC
  5
302
330
1F
100
AcDbEntity
  8
3
  6
Continuous
 62
     3
100
AcDbCircle
 10
203.0
 20
166.476991029251
 30
0.0
 40
6.0
100
AcDbArc
 50
0.0
 51
69.44454780460947
  0
ARC
  5
303
330
1F
100
AcDbEntity
  8
3
  6
Continuous
 62
     3
100
AcDbCircle
 10
180.528719977456
 20
106.55169107883
 30
0.0
 40
69.99999999999568
100
AcDbArc
 50
69.44454780460515
 51
78.72583613511893
  0
ARC
  5
304
330
1F
100
AcDbEntity
  8
3
  6
Continuous
 62
     3
100
AcDbCircle
 10
191.183684710705
 20
160.000000000001
 30
0.0
 40
15.49999999999803
100
AcDbArc
 50
78.7258361351183
 51
90.0
  0
ARC
  5
305
330
1F
100
AcDbEntity
  8
3
  6
Continuous
 62
     3
100
AcDbCircle
 10
168.816315289295
 20
160.000000000001
 30
0.0
 40
15.49999999999901
100
AcDbArc
 50
90.0
 51
101.274163864881
  0
ARC
  5
306
330
1F
100
AcDbEntity
  8
3
  6
DOTTED
 62
     6
100
AcDbCircle
 10
157.0
 20
156.476991029251
 30
0.0
 40
6.000000000000439
100
AcDbArc
 50
110.5554521953872
 51
180.0
  0
ARC
  5
307
330
1F
100
AcDbEntity
  8
3
  6
DOTTED
 62
     6
100
AcDbCircle
 10
179.471280022546
 20
96.551691078822
 30
0.0
 40
70.00000000000455
100
AcDbArc
 50
101.2741638648813
 51
110.5554521953938
  0
ARC
  5
308
330
1F
100
AcDbEntity
  8
3
  6
DOTTED
 62
     6
100
AcDbCircle
 10
168.816315289295
 20
150.000000000001
 30
0.0
 40
15.49999999999901
100
AcDbArc
 50
90.0
 51
101.274163864881
  0
ARC
  5
309
330
1F
100
AcDbEntity
  8
3
  6
DOTTED
 62
     6
100
AcDbCircle
 10
191.183684710705
 20
150.000000000001
 30
0.0
 40
15.499999999999
100
AcDbArc
 50
78.72583613511901
 51
90.0
  0
ARC
  5
30A
330
1F
100
AcDbEntity
  8
3
  6
DOTTED
 62
     6
100
AcDbCircle
 10
180.528719977456
 20
96.5516910788297
 30
0.0
 40
69.9999999999969
100
AcDbArc
 50
69.44454780460552
 51
78.72583613511912
  0
ARC
  5
30B
330
1F
100
AcDbEntity
  8
3
  6
DOTTED
 62
     6
100
AcDbCircle
 10
203.0
 20
156.476991029251
 30
0.0
 40
6.0
100
AcDbArc
 50
0.0
 51
69.4445478046128
  0
ARC
  5
30C
330
1F
100
AcDbEntity
  8
3
  6
Continuous
 62
     3
100
AcDbCircle
 10
177.699950531771
 20
170.342555467172
 30
0.0
 40
1.599926504619631
100
AcDbArc
 50
102.774914468204
 51
154.9936185178648
  0
ARC
  5
30D
330
1F
100
AcDbEntity
  8
3
  6
Continuous
 62
     3
100
AcDbCircle
 10
180.000039368274
 20
160.199272237718
 30
0.0
 40
12.00072471053033
100
AcDbArc
 50
77.22419886998294
 51
102.7761305644962
  0
ARC
  5
30E
330
1F
100
AcDbEntity
  8
3
  6
Continuous
 62
     3
100
AcDbCircle
 10
182.299980682186
 20
170.342477497023
 30
0.0
 40
1.600035167441223
100
AcDbArc
 50
25.0082502664934
 51
77.22302188295691
  0
ARC
  5
30F
330
1F
100
AcDbEntity
  8
3
  6
Continuous
 62
     3
100
AcDbCircle
 10
173.749999999999
 20
173.0
 30
0.0
 40
2.500000000000995
100
AcDbArc
 50
0.0
 51
90.0
  0
ARC
  5
310
330
1F
100
AcDbEntity
  8
3
  6
Continuous
 62
     3
100
AcDbCircle
 10
186.249999999999
 20
173.000000000001
 30
0.0
 40
2.499999999999005
100
AcDbArc
 50
90.0
 51
180.0000000000228
  0
ARC
  5
311
330
1F
100
AcDbEntity
  8
2
  6
Continuous
 62
     3
100
AcDbCircle
 10
156.23787657009
 20
278.629319044802
 30
0.0
 40
5.000000000000741
100
AcDbArc
 50
188.0735995924351
 51
225.991802248883
  0
ARC
  5
312
330
1F
100
AcDbEntity
  8
2
  6
Continuous
 62
     3
100
AcDbCircle
 10
156.23787657009
 20
285.370680955197
 30
0.0
 40
5.000000000000413
100
AcDbArc
 50
134.0081977511089
 51
171.9264004075533
  0
ARC
  5
313
330
1F
100
AcDbEntity
  8
2
  6
Continuous
 62
     3
100
AcDbCircle
 10
180.0
 20
282.0
 30
0.0
 40
29.00000000000099
100
AcDbArc
 50
171.9264004075587
 51
188.0735995924413
  0
ARC
  5
314
330
1F
100
AcDbEntity
  8
2
  6
Continuous
 62
     3
100
AcDbCircle
 10
155.227936490984
 20
288.714553329823
 30
0.0
 40
2.000000000000363
100
AcDbArc
 50
141.6550533434949
 51
265.5146255463365
  0
ARC
  5
315
330
1F
100
AcDbEntity
  8
2
  6
Continuous
 62
     3
100
AcDbCircle
 10
170.303081382532
 20
286.027377475009
 30
0.0
 40
0.5000000000002935
100
AcDbArc
 50
265.514625546424
 51
337.445642563809
  0
ARC
  5
316
330
1F
100
AcDbEntity
  8
2
  6
Continuous
 62
     3
100
AcDbCircle
 10
180.0
 20
282.0
 30
0.0
 40
9.999999999999371
100
AcDbArc
 50
112.5543574361485
 51
157.4456425638516
  0
ARC
  5
317
330
1F
100
AcDbEntity
  8
2
  6
Continuous
 62
     3
100
AcDbCircle
 10
175.972622524991
 20
291.696918617467
 30
0.0
 40
0.50000000000007
100
AcDbArc
 50
292.5543574362275
 51
4.48537445368642
  0
ARC
  5
318
330
1F
100
AcDbEntity
  8
2
  6
Continuous
 62
     3
100
AcDbCircle
 10
173.285446670176
 20
306.772063509016
 30
0.0
 40
2.000000000000366
100
AcDbArc
 50
4.48537445363501
 51
128.3449466564639
  0
ARC
  5
319
330
1F
100
AcDbEntity
  8
2
  6
Continuous
 62
     3
100
AcDbCircle
 10
186.714553329824
 20
306.772063509016
 30
0.0
 40
1.999999999999728
100
AcDbArc
 50
51.65505334351791
 51
175.514625546365
  0
ARC
  5
31A
330
1F
100
AcDbEntity
  8
2
  6
Continuous
 62
     3
100
AcDbCircle
 10
184.027377475009
 20
291.696918617468
 30
0.0
 40
0.5000000000002935
100
AcDbArc
 50
175.514625546424
 51
247.4456425639202
  0
ARC
  5
31B
330
1F
100
AcDbEntity
  8
2
  6
Continuous
 62
     3
100
AcDbCircle
 10
180.0
 20
282.0
 30
0.0
 40
9.99999999999936
100
AcDbArc
 50
22.5543574361484
 51
67.44564256384619
  0
ARC
  5
31C
330
1F
100
AcDbEntity
  8
2
  6
Continuous
 62
     3
100
AcDbCircle
 10
189.696918617468
 20
286.027377475009
 30
0.0
 40
0.5000000000009842
100
AcDbArc
 50
202.554357436191
 51
274.485374453576
  0
ARC
  5
31D
330
1F
100
AcDbEntity
  8
2
  6
Continuous
 62
     3
100
AcDbCircle
 10
204.772063509016
 20
288.714553329823
 30
0.0
 40
1.999999999999346
100
AcDbArc
 50
274.4853744536373
 51
38.34494665649977
  0
ARC
  5
31E
330
1F
100
AcDbEntity
  8
2
  6
Continuous
 62
     3
100
AcDbCircle
 10
204.772063509016
 20
275.285446670176
 30
0.0
 40
1.999999999999728
100
AcDbArc
 50
321.6550533435179
 51
85.51462554636501
  0
ARC
  5
31F
330
1F
100
AcDbEntity
  8
2
  6
Continuous
 62
     3
100
AcDbCircle
 10
189.696918617468
 20
277.972622524991
 30
0.0
 40
0.5000000000002935
100
AcDbArc
 50
85.51462554642397
 51
157.4456425638723
  0
ARC
  5
320
330
1F
100
AcDbEntity
  8
2
  6
Continuous
 62
     3
100
AcDbCircle
 10
180.0
 20
282.0
 30
0.0
 40
10.00000000000032
100
AcDbArc
 50
292.5543574361463
 51
337.4456425638484
  0
ARC
  5
321
330
1F
100
AcDbEntity
  8
2
  6
Continuous
 62
     3
100
AcDbCircle
 10
184.027377475009
 20
272.303081382532
 30
0.0
 40
0.5000000000000175
100
AcDbArc
 50
112.55435743623
 51
184.485374453576
  0
ARC
  5
322
330
1F
100
AcDbEntity
  8
2
  6
Continuous
 62
     3
100
AcDbCircle
 10
186.714553329824
 20
257.227936490984
 30
0.0
 40
2.000000000000446
100
AcDbArc
 50
184.4853744536642
 51
308.3449466564644
  0
ARC
  5
323
330
1F
100
AcDbEntity
  8
2
  6
Continuous
 62
     3
100
AcDbCircle
 10
203.76212342991
 20
278.629319044802
 30
0.0
 40
4.999999999999677
100
AcDbArc
 50
314.008197751117
 51
351.9264004075632
  0
ARC
  5
324
330
1F
100
AcDbEntity
  8
2
  6
Continuous
 62
     3
100
AcDbCircle
 10
214.183542702918
 20
267.840713002491
 30
0.0
 40
10.00000000000074
100
AcDbArc
 50
134.0081977511093
 51
180.9918022488819
  0
ARC
  5
325
330
1F
100
AcDbEntity
  8
2
  6
Continuous
 62
     3
100
AcDbCircle
 10
199.185789973317
 20
267.581072747956
 30
0.0
 40
5.00000000000087
100
AcDbArc
 50
323.0735995924385
 51
0.99180224888742
  0
ARC
  5
326
330
1F
100
AcDbEntity
  8
2
  6
Continuous
 62
     3
100
AcDbCircle
 10
180.0
 20
282.0
 30
0.0
 40
28.99999999999962
100
AcDbArc
 50
306.9264004075572
 51
323.0735995924412
  0
ARC
  5
327
330
1F
100
AcDbEntity
  8
2
  6
Continuous
 62
     3
100
AcDbCircle
 10
194.418927252044
 20
262.814210026682
 30
0.0
 40
4.999999999999352
100
AcDbArc
 50
269.0081977511122
 51
306.926400407559
  0
ARC
  5
328
330
1F
100
AcDbEntity
  8
2
  6
Continuous
 62
     3
100
AcDbCircle
 10
194.159286997508
 20
247.816457297082
 30
0.0
 40
10.00000000000066
100
AcDbArc
 50
89.00819775111238
 51
135.9918022488867
  0
ARC
  5
329
330
1F
100
AcDbEntity
  8
2
  6
Continuous
 62
     3
100
AcDbCircle
 10
183.370680955198
 20
258.23787657009
 30
0.0
 40
4.999999999999724
100
AcDbArc
 50
278.0735995924364
 51
315.9918022488828
  0
ARC
  5
32A
330
1F
100
AcDbEntity
  8
2
  6
Continuous
 62
     3
100
AcDbCircle
 10
180.0
 20
282.0
 30
0.0
 40
28.99999999999997
100
AcDbArc
 50
261.9264004075584
 51
278.0735995924416
  0
ARC
  5
32B
330
1F
100
AcDbEntity
  8
2
  6
Continuous
 62
     3
100
AcDbCircle
 10
176.629319044802
 20
258.23787657009
 30
0.0
 40
4.999999999999657
100
AcDbArc
 50
224.0081977511172
 51
261.9264004075636
  0
ARC
  5
32C
330
1F
100
AcDbEntity
  8
2
  6
Continuous
 62
     3
100
AcDbCircle
 10
165.840713002492
 20
247.816457297082
 30
0.0
 40
10.00000000000003
100
AcDbArc
 50
44.00819775111326
 51
90.99180224888764
  0
ARC
  5
32D
330
1F
100
AcDbEntity
  8
2
  6
Continuous
 62
     3
100
AcDbCircle
 10
165.581072747956
 20
262.814210026682
 30
0.0
 40
4.9999999999995
100
AcDbArc
 50
233.073599592441
 51
270.9918022488878
  0
ARC
  5
32E
330
1F
100
AcDbEntity
  8
2
  6
Continuous
 62
     3
100
AcDbCircle
 10
180.0
 20
282.0
 30
0.0
 40
29.0000000000002
100
AcDbArc
 50
216.9264004075588
 51
233.0735995924428
  0
ARC
  5
32F
330
1F
100
AcDbEntity
  8
2
  6
Continuous
 62
     3
100
AcDbCircle
 10
160.814210026682
 20
267.581072747955
 30
0.0
 40
4.999999999999341
100
AcDbArc
 50
179.0081977511005
 51
216.9264004075591
  0
ARC
  5
330
330
1F
100
AcDbEntity
  8
2
  6
Continuous
 62
     3
100
AcDbCircle
 10
145.816457297083
 20
267.840713002491
 30
0.0
 40
9.999999999999652
100
AcDbArc
 50
359.0081977511181
 51
45.9918022488948
  0
ARC
  5
331
330
1F
100
AcDbEntity
  8
2
  6
Continuous
 62
     3
100
AcDbCircle
 10
145.816457297083
 20
296.159286997508
 30
0.0
 40
9.999999999999316
100
AcDbArc
 50
314.0081977511092
 51
0.99180224888782
  0
ARC
  5
332
330
1F
100
AcDbEntity
  8
2
  6
Continuous
 62
     3
100
AcDbCircle
 10
160.814210026683
 20
296.418927252044
 30
0.0
 40
4.999999999999675
100
AcDbArc
 50
143.0735995924568
 51
180.9918022488874
  0
ARC
  5
333
330
1F
100
AcDbEntity
  8
2
  6
Continuous
 62
     3
100
AcDbCircle
 10
180.0
 20
282.0
 30
0.0
 40
28.9999999999994
100
AcDbArc
 50
126.92640040756
 51
143.0735995924443
  0
ARC
  5
334
330
1F
100
AcDbEntity
  8
2
  6
Continuous
 62
     3
100
AcDbCircle
 10
165.581072747956
 20
301.185789973318
 30
0.0
 40
4.999999999999352
100
AcDbArc
 50
89.00819775111218
 51
126.9264004075752
  0
ARC
  5
335
330
1F
100
AcDbEntity
  8
2
  6
Continuous
 62
     3
100
AcDbCircle
 10
165.840713002492
 20
316.183542702917
 30
0.0
 40
9.99999999999967
100
AcDbArc
 50
269.0081977511123
 51
315.9918022488828
  0
ARC
  5
336
330
1F
100
AcDbEntity
  8
2
  6
Continuous
 62
     3
100
AcDbCircle
 10
176.629319044802
 20
305.762123429909
 30
0.0
 40
5.000000000000709
100
AcDbArc
 50
98.07359959243485
 51
135.9918022488909
  0
ARC
  5
337
330
1F
100
AcDbEntity
  8
2
  6
Continuous
 62
     3
100
AcDbCircle
 10
180.0
 20
282.0
 30
0.0
 40
29.0
100
AcDbArc
 50
81.92640040755845
 51
98.07359959244157
  0
ARC
  5
338
330
1F
100
AcDbEntity
  8
2
  6
Continuous
 62
     3
100
AcDbCircle
 10
183.370680955197
 20
305.762123429909
 30
0.0
 40
5.000000000000353
100
AcDbArc
 50
44.00819775110907
 51
81.92640040755387
  0
ARC
  5
339
330
1F
100
AcDbEntity
  8
2
  6
Continuous
 62
     3
100
AcDbCircle
 10
194.159286997508
 20
316.183542702917
 30
0.0
 40
10.00000000000003
100
AcDbArc
 50
224.0081977511133
 51
270.9918022488877
  0
ARC
  5
33A
330
1F
100
AcDbEntity
  8
2
  6
Continuous
 62
     3
100
AcDbCircle
 10
194.418927252044
 20
301.185789973318
 30
0.0
 40
4.9999999999995
100
AcDbArc
 50
53.073599592441
 51
90.99180224888782
  0
ARC
  5
33B
330
1F
100
AcDbEntity
  8
2
  6
Continuous
 62
     3
100
AcDbCircle
 10
180.0
 20
282.0
 30
0.0
 40
28.99999999999958
100
AcDbArc
 50
36.92640040755722
 51
53.07359959244278
  0
ARC
  5
33C
330
1F
100
AcDbEntity
  8
2
  6
Continuous
 62
     3
100
AcDbCircle
 10
199.185789973317
 20
296.418927252044
 30
0.0
 40
5.000000000000346
100
AcDbArc
 50
359.0081977511124
 51
36.92640040755209
  0
ARC
  5
33D
330
1F
100
AcDbEntity
  8
2
  6
Continuous
 62
     3
100
AcDbCircle
 10
214.183542702918
 20
296.159286997508
 30
0.0
 40
10.00000000000017
100
AcDbArc
 50
202.5000000000001
 51
225.9918022488866
  0
ARC
  5
33E
330
1F
100
AcDbEntity
  8
2
  6
Continuous
 62
     3
100
AcDbCircle
 10
203.76212342991
 20
285.370680955197
 30
0.0
 40
4.999999999999871
100
AcDbArc
 50
8.07359959244838
 51
45.99180224889115
  0
ARC
  5
33F
330
1F
100
AcDbEntity
  8
2
  6
Continuous
 62
     3
100
AcDbCircle
 10
180.0
 20
282.0
 30
0.0
 40
28.99999999999998
100
AcDbArc
 50
351.9264004075584
 51
8.07359959244162
  0
ARC
  5
340
330
1F
100
AcDbEntity
  8
2
  6
Continuous
 62
     3
100
AcDbCircle
 10
184.027377475009
 20
291.696918617468
 30
0.0
 40
0.5000000000002935
100
AcDbArc
 50
175.514625546424
 51
247.4456425639202
  0
ARC
  5
341
330
1F
100
AcDbEntity
  8
2
  6
Continuous
 62
     3
100
AcDbCircle
 10
180.0
 20
282.0
 30
0.0
 40
11.50000000000002
100
AcDbArc
 50
251.6450253534814
 51
288.3549746465186
  0
ARC
  5
342
330
1F
100
AcDbEntity
  8
2
  6
Continuous
 62
     3
100
AcDbCircle
 10
180.0
 20
282.0
 30
0.0
 40
11.50000000000001
100
AcDbArc
 50
161.6450253534815
 51
198.3549746465185
  0
ARC
  5
343
330
1F
100
AcDbEntity
  8
2
  6
Continuous
 62
     3
100
AcDbCircle
 10
180.0
 20
282.0
 30
0.0
 40
11.50000000000002
100
AcDbArc
 50
71.64502535348142
 51
108.3549746465186
  0
ARC
  5
344
330
1F
100
AcDbEntity
  8
2
  6
Continuous
 62
     3
100
AcDbCircle
 10
180.0
 20
282.0
 30
0.0
 40
11.50000000000015
100
AcDbArc
 50
359.9999907415649
 51
18.35497464651845
  0
ARC
  5
345
330
1F
100
AcDbEntity
  8
2
  6
Continuous
 62
     3
100
AcDbCircle
 10
180.0
 20
282.0
 30
0.0
 40
25.0000000000001
100
AcDbArc
 50
169.1838626983027
 51
190.8161373016973
  0
ARC
  5
346
330
1F
100
AcDbEntity
  8
2
  6
Continuous
 62
     3
100
AcDbCircle
 10
180.0
 20
282.0
 30
0.0
 40
25.0000000000001
100
AcDbArc
 50
79.1838626983026
 51
100.8161373016974
  0
ARC
  5
347
330
1F
100
AcDbEntity
  8
2
  6
Continuous
 62
     3
100
AcDbCircle
 10
180.0
 20
282.0
 30
0.0
 40
25.0000000000001
100
AcDbArc
 50
349.1838626983026
 51
10.81613730169734
  0
ARC
  5
348
330
1F
100
AcDbEntity
  8
2
  6
Continuous
 62
     3
100
AcDbCircle
 10
180.0
 20
282.0
 30
0.0
 40
25.0000000000001
100
AcDbArc
 50
259.1838626983026
 51
280.8161373016974
  0
ARC
  5
349
330
1F
100
AcDbEntity
  8
2
  6
Continuous
 62
     3
100
AcDbCircle
 10
214.183542702918
 20
296.159286997508
 30
0.0
 40
10.00000000000066
100
AcDbArc
 50
179.0081977511124
 51
202.5000000000001
  0
ARC
  5
34A
330
1F
100
AcDbEntity
  8
2
  6
Continuous
 62
     3
100
AcDbCircle
 10
180.0
 20
282.0
 30
0.0
 40
11.50000000000001
100
AcDbArc
 50
341.6450253534816
 51
359.9999907415649
  0
ARC
  5
34B
330
1F
100
AcDbEntity
  8
2
  6
Continuous
 62
     3
100
AcDbCircle
 10
155.227936490984
 20
275.285446670176
 30
0.0
 40
2.000000000000366
100
AcDbArc
 50
94.485374453635
 51
218.3449466564644
  0
ARC
  5
34C
330
1F
100
AcDbEntity
  8
2
  6
Continuous
 62
     3
100
AcDbCircle
 10
170.303081382532
 20
277.972622524991
 30
0.0
 40
0.4999999999996469
100
AcDbArc
 50
22.55435743612772
 51
94.48537445358468
  0
ARC
  5
34D
330
1F
100
AcDbEntity
  8
2
  6
Continuous
 62
     3
100
AcDbCircle
 10
180.0
 20
282.0
 30
0.0
 40
10.0000000000007
100
AcDbArc
 50
202.5543574361515
 51
247.4456425638537
  0
ARC
  5
34E
330
1F
100
AcDbEntity
  8
2
  6
Continuous
 62
     3
100
AcDbCircle
 10
175.972622524991
 20
272.303081382532
 30
0.0
 40
0.5000000000002935
100
AcDbArc
 50
355.514625546424
 51
67.44564256377002
  0
ARC
  5
34F
330
1F
100
AcDbEntity
  8
2
  6
Continuous
 62
     3
100
AcDbCircle
 10
173.285446670176
 20
257.227936490984
 30
0.0
 40
1.999999999999728
100
AcDbArc
 50
231.6550533435179
 51
355.5146255463358
  0
ARC
  5
350
330
1F
100
AcDbEntity
  8
3
  6
Continuous
 62
     3
100
AcDbCircle
 10
355.249999999999
 20
173.000000000001
 30
0.0
 40
2.499999999999005
100
AcDbArc
 50
90.0
 51
180.0000000000228
  0
ARC
  5
351
330
1F
100
AcDbEntity
  8
3
  6
Continuous
 62
     3
100
AcDbCircle
 10
342.749999999999
 20
173.0
 30
0.0
 40
2.500000000001023
100
AcDbArc
 50
0.0
 51
90.0
  0
ARC
  5
352
330
1F
100
AcDbEntity
  8
3
  6
Continuous
 62
     3
100
AcDbCircle
 10
351.299980682187
 20
170.342477497023
 30
0.0
 40
1.600035167440321
100
AcDbArc
 50
25.00825026650845
 51
77.22302188299264
  0
ARC
  5
353
330
1F
100
AcDbEntity
  8
3
  6
Continuous
 62
     3
100
AcDbCircle
 10
349.000039368274
 20
160.199272237718
 30
0.0
 40
12.00072471053033
100
AcDbArc
 50
77.22419886998281
 51
102.7761305644961
  0
ARC
  5
354
330
1F
100
AcDbEntity
  8
3
  6
Continuous
 62
     3
100
AcDbCircle
 10
346.699950531771
 20
170.342555467172
 30
0.0
 40
1.599926504619624
100
AcDbArc
 50
102.774914468203
 51
154.9936185178644
  0
ARC
  5
355
330
1F
100
AcDbEntity
  8
3
  6
Continuous
 62
     3
100
AcDbCircle
 10
337.816315289295
 20
160.000000000002
 30
0.0
 40
15.49999999999801
100
AcDbArc
 50
90.0
 51
101.2741638648818
  0
ARC
  5
356
330
1F
100
AcDbEntity
  8
3
  6
Continuous
 62
     3
100
AcDbCircle
 10
360.183684710705
 20
160.000000000002
 30
0.0
 40
15.49999999999803
100
AcDbArc
 50
78.72583613511819
 51
90.0
  0
ARC
  5
357
330
1F
100
AcDbEntity
  8
3
  6
Continuous
 62
     3
100
AcDbCircle
 10
349.528719977457
 20
106.551691078831
 30
0.0
 40
69.99999999999535
100
AcDbArc
 50
69.44454780460589
 51
78.72583613511969
  0
ARC
  5
358
330
1F
100
AcDbEntity
  8
3
  6
Continuous
 62
     3
100
AcDbCircle
 10
372.0
 20
166.476991029251
 30
0.0
 40
6.0
100
AcDbArc
 50
0.0
 51
69.44454780461255
  0
ARC
  5
359
330
1F
100
AcDbEntity
  8
3
  6
Continuous
 62
     3
100
AcDbCircle
 10
326.0
 20
166.476991029251
 30
0.0
 40
5.999999999999857
100
AcDbArc
 50
110.5554521953994
 51
180.0
  0
ARC
  5
35A
330
1F
100
AcDbEntity
  8
3
  6
Continuous
 62
     3
100
AcDbCircle
 10
348.471280022544
 20
106.55169107883
 30
0.0
 40
69.99999999999632
100
AcDbArc
 50
101.274163864881
 51
110.5554521953957
  0
ARC
  5
35B
330
1F
100
AcDbEntity
  8
2
  6
Continuous
 62
     3
100
AcDbCircle
 10
336.5
 20
154.45
 30
0.0
 40
2.5
100
AcDbArc
 50
90.0
 51
180.0
  0
ARC
  5
35C
330
1F
100
AcDbEntity
  8
2
  6
Continuous
 62
     3
100
AcDbCircle
 10
361.5
 20
154.45
 30
0.0
 40
2.5
100
AcDbArc
 50
0.0
 51
90.0
  0
ARC
  5
35D
330
1F
100
AcDbEntity
  8
2
  6
Continuous
 62
     3
100
AcDbCircle
 10
41.5
 20
154.45
 30
0.0
 40
2.5
100
AcDbArc
 50
90.0
 51
180.0
  0
ARC
  5
35E
330
1F
100
AcDbEntity
  8
2
  6
Continuous
 62
     3
100
AcDbCircle
 10
66.5
 20
154.45
 30
0.0
 40
2.5
100
AcDbArc
 50
0.0
 51
90.0
  0
ARC
  5
35F
330
1F
100
AcDbEntity
  8
3
  6
Continuous
 62
     3
100
AcDbCircle
 10
54.5287199774568
 20
106.551691078831
 30
0.0
 40
69.99999999999545
100
AcDbArc
 50
69.44454780460566
 51
78.72583613511948
  0
ARC
  5
360
330
1F
100
AcDbEntity
  8
3
  6
Continuous
 62
     3
100
AcDbCircle
 10
76.9999999999999
 20
166.476991029251
 30
0.0
 40
6.000000000000099
100
AcDbArc
 50
0.0
 51
69.44454780461089
  0
ARC
  5
361
330
1F
100
AcDbEntity
  8
3
  6
Continuous
 62
     3
100
AcDbCircle
 10
31.0
 20
166.476991029251
 30
0.0
 40
6.000000000000548
100
AcDbArc
 50
110.55545219539
 51
180.0
  0
ARC
  5
362
330
1F
100
AcDbEntity
  8
3
  6
Continuous
 62
     3
100
AcDbCircle
 10
53.4712800225442
 20
106.551691078827
 30
0.0
 40
69.99999999999929
100
AcDbArc
 50
101.2741638648806
 51
110.5554521953941
  0
ARC
  5
363
330
1F
100
AcDbEntity
  8
3
  6
Continuous
 62
     3
100
AcDbCircle
 10
42.8163152892951
 20
160.000000000001
 30
0.0
 40
15.49999999999901
100
AcDbArc
 50
90.0
 51
101.2741638648813
  0
ARC
  5
364
330
1F
100
AcDbEntity
  8
3
  6
Continuous
 62
     3
100
AcDbCircle
 10
65.1836847107049
 20
160.000000000001
 30
0.0
 40
15.49999999999904
100
AcDbArc
 50
78.7258361351183
 51
90.0
  0
ARC
  5
365
330
1F
100
AcDbEntity
  8
3
  6
Continuous
 62
     3
100
AcDbCircle
 10
56.3000494682286
 20
170.342555467172
 30
0.0
 40
1.599926504619986
100
AcDbArc
 50
25.00638148212929
 51
77.22508553176797
  0
ARC
  5
366
330
1F
100
AcDbEntity
  8
3
  6
Continuous
 62
     3
100
AcDbCircle
 10
53.9999606317263
 20
160.199272237718
 30
0.0
 40
12.00072471053053
100
AcDbArc
 50
77.22386943550329
 51
102.7758011300189
  0
ARC
  5
367
330
1F
100
AcDbEntity
  8
3
  6
Continuous
 62
     3
100
AcDbCircle
 10
51.7000193178134
 20
170.342477497023
 30
0.0
 40
1.600035167440812
100
AcDbArc
 50
102.7769781170252
 51
154.9917497334992
  0
ARC
  5
368
330
1F
100
AcDbEntity
  8
3
  6
Continuous
 62
     3
100
AcDbCircle
 10
60.2500000000005
 20
173.0
 30
0.0
 40
2.5
100
AcDbArc
 50
90.0
 51
180.0
  0
ARC
  5
369
330
1F
100
AcDbEntity
  8
3
  6
Continuous
 62
     3
100
AcDbCircle
 10
47.7500000000006
 20
173.000000000001
 30
0.0
 40
2.499999999999403
100
AcDbArc
 50
359.9999999999772
 51
90.0
  0
ARC
  5
36A
330
1F
100
AcDbEntity
  8
2
  6
Continuous
 62
     3
100
AcDbCircle
 10
48.25
 20
74.9876697666578
 30
0.0
 40
42.01233023334218
100
AcDbArc
 50
82.1335465405068
 51
97.86645345949321
  0
ARC
  5
36B
330
1F
100
AcDbEntity
  8
2
  6
Continuous
 62
     3
100
AcDbCircle
 10
59.7500000000001
 20
74.9876697666383
 30
0.0
 40
42.01233023336148
100
AcDbArc
 50
82.13354654051057
 51
97.86645345948969
  0
ARC
  5
36C
330
1F
100
AcDbEntity
  8
2
  6
Continuous
 62
     3
100
AcDbCircle
 10
66.0030899047899
 20
114.6131362915
 30
0.0
 40
4.00000000000026
100
AcDbArc
 50
319.2103330236871
 51
357.7477938303961
  0
ARC
  5
36D
330
1F
100
AcDbEntity
  8
2
  6
Continuous
 62
     3
100
AcDbCircle
 10
69.0
 20
115.19782839363
 30
0.0
 40
1.0
100
AcDbArc
 50
0.0
 51
77.4711922908462
  0
ARC
  5
36E
330
1F
100
AcDbEntity
  8
2
  6
Continuous
 62
     3
100
AcDbCircle
 10
41.9999999999999
 20
114.64575131106
 30
0.0
 40
3.999999999999901
100
AcDbArc
 50
180.0
 51
221.4096221092231
  0
ARC
  5
36F
330
1F
100
AcDbEntity
  8
2
  6
Continuous
 62
     3
100
AcDbCircle
 10
39.0
 20
115.19782839363
 30
0.0
 40
1.000000000000001
100
AcDbArc
 50
102.5288077091423
 51
180.0
  0
ARC
  5
370
330
1F
100
AcDbEntity
  8
2
  6
Continuous
 62
     3
100
AcDbCircle
 10
54.0
 20
90.0
 30
0.0
 40
15.0
100
AcDbArc
 50
180.0
 51
0.0
  0
ARC
  5
371
330
1F
100
AcDbEntity
  8
2
  6
Continuous
 62
     3
100
AcDbCircle
 10
192.5
 20
154.45
 30
0.0
 40
2.5
100
AcDbArc
 50
0.0
 51
90.0
  0
CIRCLE
  5
372
330
1F
100
AcDbEntity
  8
2
  6
Continuous
 62
     3
100
AcDbCircle
 10
54.0
 20
90.0
 30
0.0
 40
9.25
  0
CIRCLE
  5
373
330
1F
100
AcDbEntity
  8
2
  6
Continuous
 62
     3
100
AcDbCircle
 10
54.0
 20
90.0
 30
0.0
 40
10.825
  0
CIRCLE
  5
374
330
1F
100
AcDbEntity
  8
2
  6
Continuous
 62
     3
100
AcDbCircle
 10
54.0
 20
90.0
 30
0.0
 40
12.0585
  0
CIRCLE
  5
375
330
1F
100
AcDbEntity
  8
2
  6
Continuous
 62
     3
100
AcDbCircle
 10
54.0
 20
90.0
 30
0.0
 40
13.09999999999999
  0
CIRCLE
  5
376
330
1F
100
AcDbEntity
  8
2
  6
Continuous
 62
     3
100
AcDbCircle
 10
349.0
 20
90.0
 30
0.0
 40
5.800000000000011
  0
CIRCLE
  5
377
330
1F
100
AcDbEntity
  8
2
  6
Continuous
 62
     3
100
AcDbCircle
 10
349.0
 20
90.0
 30
0.0
 40
13.10000000000002
  0
CIRCLE
  5
378
330
1F
100
AcDbEntity
  8
2
  6
Continuous
 62
     3
100
AcDbCircle
 10
349.0
 20
90.0
 30
0.0
 40
7.5
  0
CIRCLE
  5
379
330
1F
100
AcDbEntity
  8
2
  6
Continuous
 62
     3
100
AcDbCircle
 10
349.0
 20
90.0
 30
0.0
 40
12.0
  0
CIRCLE
  5
37A
330
1F
100
AcDbEntity
  8
2
  6
Continuous
 62
     3
100
AcDbCircle
 10
180.0
 20
282.0
 30
0.0
 40
7.5
  0
CIRCLE
  5
37B
330
1F
100
AcDbEntity
  8
2
  6
Continuous
 62
     3
100
AcDbCircle
 10
180.0
 20
282.0
 30
0.0
 40
9.0
  0
CIRCLE
  5
37C
330
1F
100
AcDbEntity
  8
2
  6
Continuous
 62
     3
100
AcDbCircle
 10
180.0
 20
282.0
 30
0.0
 40
4.599999999999994
  0
LEADER
  5
37D
330
1F
100
AcDbEntity
  8
1
  6
Continuous
 62
     4
100
AcDbLeader
  3
Standard
 71
     0
 76
     3
 10
263.0
 20
90.0
 30
0.0
 10
284.575138628188
 20
57.1857050004094
 30
0.0
 10
321.022926134622
 20
57.1857050004094
 30
0.0
  0
LEADER
  5
37E
330
1F
100
AcDbEntity
  8
1
  6
Continuous
 62
     4
100
AcDbLeader
  3
Standard
 71
     0
 76
     3
 10
207.406293408096
 20
103.1
 30
0.0
 10
214.0
 20
114.0
 30
0.0
 10
249.009378672544
 20
114.0
 30
0.0
  0
LEADER
  5
37F
330
1F
100
AcDbEntity
  8
1
  6
Continuous
 62
     4
100
AcDbLeader
  3
Standard
 71
     0
 76
     3
 10
153.009420605766
 20
76.9
 30
0.0
 10
134.094630965494
 20
56.9676616998114
 30
0.0
 10
97.7050484843492
 20
56.9676616998114
 30
0.0
  0
DIMENSION
  5
3B5
330
1F
100
AcDbEntity
  8
1
100
AcDbDimension
  2
*D1
 10
212.5
 20
35.5409292510546
 30
0.0
 11
180.0
 21
41.5409292510546
 31
0.0
 70
    32
  1
65
 71
     5
 42
-1.0
 53
0.00013888888889
  3
ME10_DIM_10
100
AcDbAlignedDimension
 13
147.5
 23
76.9
 33
0.0
 14
212.5
 24
76.9
 34
0.0
100
AcDbRotatedDimension
  0
DIMENSION
  5
3C2
330
1F
100
AcDbEntity
  8
1
100
AcDbDimension
  2
*D3
 10
251.7000000000001
 20
16.23186507318337
 30
0.0
 11
199.6
 21
22.3984422917435
 31
0.0
 70
    32
  1
可動範囲93～105
 71
     5
 42
-1.0
 53
0.00013888888889
  3
ME10_DIM_11
100
AcDbAlignedDimension
 13
147.5
 23
76.9
 33
0.0
 14
251.7
 24
78.5
 34
0.0
100
AcDbRotatedDimension
  0
DIMENSION
  5
3CF
330
1F
100
AcDbEntity
  8
1
100
AcDbDimension
  2
*D4
 10
135.417901574047
 20
175.5
 30
0.0
 11
129.417901574047
 21
135.641309584693
 31
0.0
 70
    32
  1
86
 71
     5
 42
-1.0
 53
90.0
  3
ME10_DIM_12
100
AcDbAlignedDimension
 13
141.5
 23
90.0
 33
0.0
 14
168.816315289295
 24
175.5
 34
0.0
 50
90.0
100
AcDbRotatedDimension
  0
ENDSEC
  0
SECTION
  2
OBJECTS
  0
DICTIONARY
  5
C
330
0
100
AcDbDictionary
281
     1
  3
ACAD_GROUP
350
D
  3
ACAD_LAYOUT
350
1A
  3
ACAD_MATERIAL
350
3B
  3
ACAD_MLEADERSTYLE
350
3D2
  3
ACAD_MLINESTYLE
350
17
  3
ACAD_PLOTSETTINGS
350
19
  3
ACAD_PLOTSTYLENAME
350
E
  3
ACAD_SCALELIST
350
389
  3
ACAD_VISUALSTYLE
350
2A
  3
AcDbVariableDictionary
350
3D0
  0
DICTIONARY
  5
D
102
{ACAD_REACTORS
330
C
102
}
330
C
100
AcDbDictionary
281
     1
  0
DICTIONARY
  5
1A
102
{ACAD_REACTORS
330
C
102
}
330
C
100
AcDbDictionary
281
     1
  3
Layout1
350
1E
  3
Layout2
350
26
  3
Model
350
22
  0
DICTIONARY
  5
3B
102
{ACAD_REACTORS
330
C
102
}
330
C
100
AcDbDictionary
281
     1
  3
ByBlock
350
3D
  3
ByLayer
350
3C
  3
Global
350
3E
  0
DICTIONARY
  5
3D2
102
{ACAD_REACTORS
330
C
102
}
330
C
100
AcDbDictionary
281
     1
  0
DICTIONARY
  5
17
102
{ACAD_REACTORS
330
C
102
}
330
C
100
AcDbDictionary
281
     1
  3
Standard
350
18
  0
DICTIONARY
  5
19
102
{ACAD_REACTORS
330
C
102
}
330
C
100
AcDbDictionary
281
     1
  0
ACDBDICTIONARYWDFLT
  5
E
102
{ACAD_REACTORS
330
C
102
}
330
C
100
AcDbDictionary
281
     1
  3
Normal
350
F
100
AcDbDictionaryWithDefault
340
F
  0
DICTIONARY
  5
389
102
{ACAD_REACTORS
330
C
102
}
330
C
100
AcDbDictionary
281
     1
  3
A0
350
38A
  3
A1
350
38B
  3
A2
350
38C
  3
A3
350
38D
  3
A4
350
38E
  3
A5
350
38F
  3
A6
350
390
  3
A7
350
391
  3
A8
350
392
  3
A9
350
393
  3
B0
350
394
  3
B1
350
395
  3
B2
350
396
  3
B3
350
397
  3
B4
350
398
  3
B5
350
399
  3
B6
350
39A
  3
B7
350
39B
  3
B8
350
39C
  3
B9
350
39D
  3
C0
350
39E
  3
C1
350
39F
  3
C2
350
3A0
  3
C3
350
3A1
  3
C4
350
3A2
  3
C5
350
3A3
  3
C6
350
3A4
  3
C7
350
3A5
  3
C8
350
3A6
  3
C9
350
3A7
  3
D0
350
3A8
  3
D1
350
3A9
  3
D2
350
3AA
  0
DICTIONARY
  5
2A
102
{ACAD_REACTORS
330
C
102
}
330
C
100
AcDbDictionary
281
     1
  3
2dWireframe
350
2F
  3
3D Hidden
350
31
  3
3dWireframe
350
30
  3
Basic
350
32
  3
Brighten
350
36
  3
ColorChange
350
3A
  3
Conceptual
350
34
  3
Dim
350
35
  3
Facepattern
350
39
  3
Flat
350
2B
  3
FlatWithEdges
350
2C
  3
Gouraud
350
2D
  3
GouraudWithEdges
350
2E
  3
Linepattern
350
38
  3
Realistic
350
33
  3
Thicken
350
37
  0
DICTIONARY
  5
3D0
102
{ACAD_REACTORS
330
C
102
}
330
C
100
AcDbDictionary
281
     1
  3
CANNOSCALE
350
3D3
  3
DIMASSOC
350
3D4
  3
HIDETEXT
350
3D5
  0
LAYOUT
  5
1E
102
{ACAD_REACTORS
330
1A
102
}
330
1A
100
AcDbPlotSettings
  1

  2
none_device
  4

  6

 40
0.0
 41
0.0
 42
0.0
 43
0.0
 44
0.0
 45
0.0
 46
0.0
 47
0.0
 48
0.0
 49
0.0
140
0.0
141
0.0
142
1.0
143
1.0
 70
   688
 72
     0
 73
     0
 74
     5
  7

 75
    16
147
1.0
148
0.0
149
0.0
100
AcDbLayout
  1
Layout1
 70
     1
 71
     1
 10
0.0
 20
0.0
 11
12.0
 21
9.0
 12
0.0
 22
0.0
 32
0.0
 14
1.00000000000000E+20
 24
1.00000000000000E+20
 34
1.00000000000000E+20
 15
-1.00000000000000E+20
 25
-1.00000000000000E+20
 35
-1.00000000000000E+20
146
0.0
 13
0.0
 23
0.0
 33
0.0
 16
1.0
 26
0.0
 36
0.0
 17
0.0
 27
1.0
 37
0.0
 76
     0
330
1B
  0
LAYOUT
  5
26
102
{ACAD_REACTORS
330
1A
102
}
330
1A
100
AcDbPlotSettings
  1

  2
none_device
  4

  6

 40
0.0
 41
0.0
 42
0.0
 43
0.0
 44
0.0
 45
0.0
 46
0.0
 47
0.0
 48
0.0
 49
0.0
140
0.0
141
0.0
142
1.0
143
1.0
 70
   688
 72
     0
 73
     0
 74
     5
  7

 75
    16
147
1.0
148
0.0
149
0.0
100
AcDbLayout
  1
Layout2
 70
     1
 71
     2
 10
0.0
 20
0.0
 11
0.0
 21
0.0
 12
0.0
 22
0.0
 32
0.0
 14
0.0
 24
0.0
 34
0.0
 15
0.0
 25
0.0
 35
0.0
146
0.0
 13
0.0
 23
0.0
 33
0.0
 16
1.0
 26
0.0
 36
0.0
 17
0.0
 27
1.0
 37
0.0
 76
     0
330
23
  0
LAYOUT
  5
22
102
{ACAD_REACTORS
330
1A
102
}
330
1A
100
AcDbPlotSettings
  1

  2
none_device
  4

  6

 40
0.0
 41
0.0
 42
0.0
 43
0.0
 44
0.0
 45
0.0
 46
0.0
 47
0.0
 48
0.0
 49
0.0
140
0.0
141
0.0
142
1.0
143
1.0
 70
  1712
 72
     0
 73
     0
 74
     0
  7

 75
     0
147
1.0
148
0.0
149
0.0
100
AcDbLayout
  1
Model
 70
     1
 71
     0
 10
0.0
 20
0.0
 11
12.0
 21
9.0
 12
0.0
 22
0.0
 32
0.0
 14
24.9999999999994
 24
14.35622072616551
 34
0.0
 15
379.2497625
 25
317.0
 35
0.0
146
0.0
 13
0.0
 23
0.0
 33
0.0
 16
1.0
 26
0.0
 36
0.0
 17
0.0
 27
1.0
 37
0.0
 76
     0
330
1F
331
29
  0
MATERIAL
  5
3D
102
{ACAD_REACTORS
330
3B
102
}
102
{ACAD_XDICTIONARY
360
3F8
102
}
330
3B
100
AcDbMaterial
  1
ByBlock
  0
MATERIAL
  5
3C
102
{ACAD_REACTORS
330
3B
102
}
102
{ACAD_XDICTIONARY
360
3F6
102
}
330
3B
100
AcDbMaterial
  1
ByLayer
  0
MATERIAL
  5
3E
102
{ACAD_REACTORS
330
3B
102
}
102
{ACAD_XDICTIONARY
360
3FA
102
}
330
3B
100
AcDbMaterial
  1
Global
  0
MLINESTYLE
  5
18
102
{ACAD_REACTORS
330
17
102
}
330
17
100
AcDbMlineStyle
  2
Standard
 70
     0
  3

 62
   256
 51
90.0
 52
90.0
 71
     2
 49
0.5
 62
   256
  6
BYLAYER
 49
-0.5
 62
   256
  6
BYLAYER
  0
ACDBPLACEHOLDER
  5
F
102
{ACAD_REACTORS
330
E
102
}
330
E
  0
SCALE
  5
38A
102
{ACAD_REACTORS
330
389
102
}
330
389
100
AcDbScale
 70
     0
300
1:1
140
1.0
141
1.0
290
     1
  0
SCALE
  5
38B
102
{ACAD_REACTORS
330
389
102
}
330
389
100
AcDbScale
 70
     0
300
1:2
140
1.0
141
2.0
290
     0
  0
SCALE
  5
38C
102
{ACAD_REACTORS
330
389
102
}
330
389
100
AcDbScale
 70
     0
300
1:4
140
1.0
141
4.0
290
     0
  0
SCALE
  5
38D
102
{ACAD_REACTORS
330
389
102
}
330
389
100
AcDbScale
 70
     0
300
1:5
140
1.0
141
5.0
290
     0
  0
SCALE
  5
38E
102
{ACAD_REACTORS
330
389
102
}
330
389
100
AcDbScale
 70
     0
300
1:8
140
1.0
141
8.0
290
     0
  0
SCALE
  5
38F
102
{ACAD_REACTORS
330
389
102
}
330
389
100
AcDbScale
 70
     0
300
1:10
140
1.0
141
10.0
290
     0
  0
SCALE
  5
390
102
{ACAD_REACTORS
330
389
102
}
330
389
100
AcDbScale
 70
     0
300
1:16
140
1.0
141
16.0
290
     0
  0
SCALE
  5
391
102
{ACAD_REACTORS
330
389
102
}
330
389
100
AcDbScale
 70
     0
300
1:20
140
1.0
141
20.0
290
     0
  0
SCALE
  5
392
102
{ACAD_REACTORS
330
389
102
}
330
389
100
AcDbScale
 70
     0
300
1:30
140
1.0
141
30.0
290
     0
  0
SCALE
  5
393
102
{ACAD_REACTORS
330
389
102
}
330
389
100
AcDbScale
 70
     0
300
1:40
140
1.0
141
40.0
290
     0
  0
SCALE
  5
394
102
{ACAD_REACTORS
330
389
102
}
330
389
100
AcDbScale
 70
     0
300
1:50
140
1.0
141
50.0
290
     0
  0
SCALE
  5
395
102
{ACAD_REACTORS
330
389
102
}
330
389
100
AcDbScale
 70
     0
300
1:100
140
1.0
141
100.0
290
     0
  0
SCALE
  5
396
102
{ACAD_REACTORS
330
389
102
}
330
389
100
AcDbScale
 70
     0
300
2:1
140
2.0
141
1.0
290
     0
  0
SCALE
  5
397
102
{ACAD_REACTORS
330
389
102
}
330
389
100
AcDbScale
 70
     0
300
4:1
140
4.0
141
1.0
290
     0
  0
SCALE
  5
398
102
{ACAD_REACTORS
330
389
102
}
330
389
100
AcDbScale
 70
     0
300
8:1
140
8.0
141
1.0
290
     0
  0
SCALE
  5
399
102
{ACAD_REACTORS
330
389
102
}
330
389
100
AcDbScale
 70
     0
300
10:1
140
10.0
141
1.0
290
     0
  0
SCALE
  5
39A
102
{ACAD_REACTORS
330
389
102
}
330
389
100
AcDbScale
 70
     0
300
100:1
140
100.0
141
1.0
290
     0
  0
SCALE
  5
39B
102
{ACAD_REACTORS
330
389
102
}
330
389
100
AcDbScale
 70
     0
300
1/128" = 1'-0"
140
0.0078125
141
12.0
290
     0
  0
SCALE
  5
39C
102
{ACAD_REACTORS
330
389
102
}
330
389
100
AcDbScale
 70
     0
300
1/64" = 1'-0"
140
0.015625
141
12.0
290
     0
  0
SCALE
  5
39D
102
{ACAD_REACTORS
330
389
102
}
330
389
100
AcDbScale
 70
     0
300
1/32" = 1'-0"
140
0.03125
141
12.0
290
     0
  0
SCALE
  5
39E
102
{ACAD_REACTORS
330
389
102
}
330
389
100
AcDbScale
 70
     0
300
1/16" = 1'-0"
140
0.0625
141
12.0
290
     0
  0
SCALE
  5
39F
102
{ACAD_REACTORS
330
389
102
}
330
389
100
AcDbScale
 70
     0
300
3/32" = 1'-0"
140
0.09375
141
12.0
290
     0
  0
SCALE
  5
3A0
102
{ACAD_REACTORS
330
389
102
}
330
389
100
AcDbScale
 70
     0
300
1/8" = 1'-0"
140
0.125
141
12.0
290
     0
  0
SCALE
  5
3A1
102
{ACAD_REACTORS
330
389
102
}
330
389
100
AcDbScale
 70
     0
300
3/16" = 1'-0"
140
0.1875
141
12.0
290
     0
  0
SCALE
  5
3A2
102
{ACAD_REACTORS
330
389
102
}
330
389
100
AcDbScale
 70
     0
300
1/4" = 1'-0"
140
0.25
141
12.0
290
     0
  0
SCALE
  5
3A3
102
{ACAD_REACTORS
330
389
102
}
330
389
100
AcDbScale
 70
     0
300
3/8" = 1'-0"
140
0.375
141
12.0
290
     0
  0
SCALE
  5
3A4
102
{ACAD_REACTORS
330
389
102
}
330
389
100
AcDbScale
 70
     0
300
1/2" = 1'-0"
140
0.5
141
12.0
290
     0
  0
SCALE
  5
3A5
102
{ACAD_REACTORS
330
389
102
}
330
389
100
AcDbScale
 70
     0
300
3/4" = 1'-0"
140
0.75
141
12.0
290
     0
  0
SCALE
  5
3A6
102
{ACAD_REACTORS
330
389
102
}
330
389
100
AcDbScale
 70
     0
300
1" = 1'-0"
140
1.0
141
12.0
290
     0
  0
SCALE
  5
3A7
102
{ACAD_REACTORS
330
389
102
}
330
389
100
AcDbScale
 70
     0
300
1-1/2" = 1'-0"
140
1.5
141
12.0
290
     0
  0
SCALE
  5
3A8
102
{ACAD_REACTORS
330
389
102
}
330
389
100
AcDbScale
 70
     0
300
3" = 1'-0"
140
3.0
141
12.0
290
     0
  0
SCALE
  5
3A9
102
{ACAD_REACTORS
330
389
102
}
330
389
100
AcDbScale
 70
     0
300
6" = 1'-0"
140
6.0
141
12.0
290
     0
  0
SCALE
  5
3AA
102
{ACAD_REACTORS
330
389
102
}
330
389
100
AcDbScale
 70
     0
300
1'-0" = 1'-0"
140
12.0
141
12.0
290
     0
  0
VISUALSTYLE
  5
2F
102
{ACAD_REACTORS
330
2A
102
}
102
{ACAD_XDICTIONARY
360
3DE
102
}
330
2A
100
AcDbVisualStyle
  2
2dWireframe
 70
     4
 71
     0
 72
     2
 73
     0
 90
        0
 40
-0.6
 41
-30.0
 62
     5
 63
     7
 74
     1
 91
        4
 64
     7
 65
   257
 75
     1
175
     1
 42
1.0
 92
        0
 66
   257
 43
1.0
 76
     1
 77
     6
 78
     2
 67
     7
 79
     5
170
     0
171
     0
290
     0
174
     0
 93
        1
 44
0.0
173
     0
291
     0
 45
0.0
1001
ACAD
1000
AcDbSavedByObjectVersion
1070
     0
  0
VISUALSTYLE
  5
31
102
{ACAD_REACTORS
330
2A
102
}
102
{ACAD_XDICTIONARY
360
3E2
102
}
330
2A
100
AcDbVisualStyle
  2
3D Hidden
 70
     6
 71
     1
 72
     2
 73
     2
 90
        0
 40
-0.6
 41
-30.0
 62
     5
 63
     7
 74
     2
 91
        2
 64
     7
 65
   257
 75
     2
175
     1
 42
40.0
 92
        0
 66
   257
 43
1.0
 76
     1
 77
     6
 78
     2
 67
     7
 79
     3
170
     0
171
     0
290
     0
174
     0
 93
        1
 44
0.0
173
     0
291
     0
 45
0.0
1001
ACAD
1000
AcDbSavedByObjectVersion
1070
     0
  0
VISUALSTYLE
  5
30
102
{ACAD_REACTORS
330
2A
102
}
102
{ACAD_XDICTIONARY
360
3E0
102
}
330
2A
100
AcDbVisualStyle
  2
3dWireframe
 70
     5
 71
     0
 72
     2
 73
     0
 90
        0
 40
-0.6
 41
-30.0
 62
     5
 63
     7
 74
     1
 91
        4
 64
     7
 65
   257
 75
     1
175
     1
 42
1.0
 92
        0
 66
   257
 43
1.0
 76
     1
 77
     6
 78
     2
 67
     7
 79
     5
170
     0
171
     0
290
     0
174
     0
 93
        1
 44
0.0
173
     0
291
     0
 45
0.0
1001
ACAD
1000
AcDbSavedByObjectVersion
1070
     0
  0
VISUALSTYLE
  5
32
102
{ACAD_REACTORS
330
2A
102
}
102
{ACAD_XDICTIONARY
360
3E4
102
}
330
2A
100
AcDbVisualStyle
  2
Basic
 70
     7
 71
     1
 72
     0
 73
     1
 90
        0
 40
-0.6
 41
-30.0
 62
     5
 63
     7
 74
     0
 91
        4
 64
     7
 65
   257
 75
     1
175
     1
 42
1.0
 92
        8
 66
     7
 43
1.0
 76
     1
 77
     6
 78
     2
 67
     7
 79
     5
170
     0
171
     0
290
     0
174
     0
 93
        1
 44
0.0
173
     0
291
     1
 45
0.0
1001
ACAD
1000
AcDbSavedByObjectVersion
1070
     0
  0
VISUALSTYLE
  5
36
102
{ACAD_REACTORS
330
2A
102
}
102
{ACAD_XDICTIONARY
360
3EC
102
}
330
2A
100
AcDbVisualStyle
  2
Brighten
 70
    12
 71
     2
 72
     2
 73
     0
 90
        0
 40
-0.6
 41
-30.0
 62
     5
 63
     7
 74
     1
 91
        4
 64
     7
 65
   257
 75
     1
175
     1
 42
1.0
 92
        8
 66
     7
 43
1.0
 76
     1
 77
     6
 78
     2
 67
     7
 79
     5
170
     0
171
     0
290
     0
174
     0
 93
        1
 44
50.0
173
     0
291
     1
 45
0.0
1001
ACAD
1000
AcDbSavedByObjectVersion
1070
     0
  0
VISUALSTYLE
  5
3A
102
{ACAD_REACTORS
330
2A
102
}
102
{ACAD_XDICTIONARY
360
3F4
102
}
330
2A
100
AcDbVisualStyle
  2
ColorChange
 70
    16
 71
     2
 72
     2
 73
     3
 90
        0
 40
-0.6
 41
-30.0
 62
     5
 63
     8
 74
     1
 91
        4
 64
     7
 65
   257
 75
     1
175
     1
 42
1.0
 92
        8
 66
     8
 43
1.0
 76
     1
 77
     6
 78
     2
 67
     7
 79
     5
170
     0
171
     0
290
     0
174
     0
 93
        1
 44
0.0
173
     0
291
     1
 45
0.0
1001
ACAD
1000
AcDbSavedByObjectVersion
1070
     0
  0
VISUALSTYLE
  5
34
102
{ACAD_REACTORS
330
2A
102
}
102
{ACAD_XDICTIONARY
360
3E8
102
}
330
2A
100
AcDbVisualStyle
  2
Conceptual
 70
     9
 71
     3
 72
     2
 73
     0
 90
        0
 40
-0.6
 41
-30.0
 62
     5
 63
     7
 74
     2
 91
        2
 64
     7
 65
   257
 75
     1
175
     1
 42
40.0
 92
        8
 66
     7
 43
1.0
 76
     1
 77
     6
 78
     2
 67
     7
 79
     3
170
     0
171
     0
290
     0
174
     0
 93
        1
 44
0.0
173
     0
291
     0
 45
0.0
1001
ACAD
1000
AcDbSavedByObjectVersion
1070
     0
  0
VISUALSTYLE
  5
35
102
{ACAD_REACTORS
330
2A
102
}
102
{ACAD_XDICTIONARY
360
3EA
102
}
330
2A
100
AcDbVisualStyle
  2
Dim
 70
    11
 71
     2
 72
     2
 73
     0
 90
        0
 40
-0.6
 41
-30.0
 62
     5
 63
     7
 74
     1
 91
        4
 64
     7
 65
   257
 75
     1
175
     1
 42
1.0
 92
        8
 66
     7
 43
1.0
 76
     1
 77
     6
 78
     2
 67
     7
 79
     5
170
     0
171
     0
290
     0
174
     0
 93
        1
 44
-50.0
173
     0
291
     1
 45
0.0
1001
ACAD
1000
AcDbSavedByObjectVersion
1070
     0
  0
VISUALSTYLE
  5
39
102
{ACAD_REACTORS
330
2A
102
}
102
{ACAD_XDICTIONARY
360
3F2
102
}
330
2A
100
AcDbVisualStyle
  2
Facepattern
 70
    15
 71
     2
 72
     2
 73
     0
 90
        0
 40
-0.6
 41
-30.0
 62
     5
 63
     7
 74
     1
 91
        4
 64
     7
 65
   257
 75
     1
175
     1
 42
1.0
 92
        8
 66
     7
 43
1.0
 76
     1
 77
     6
 78
     2
 67
     7
 79
     5
170
     0
171
     0
290
     0
174
     0
 93
        1
 44
0.0
173
     0
291
     1
 45
0.0
1001
ACAD
1000
AcDbSavedByObjectVersion
1070
     0
  0
VISUALSTYLE
  5
2B
102
{ACAD_REACTORS
330
2A
102
}
102
{ACAD_XDICTIONARY
360
3D6
102
}
330
2A
100
AcDbVisualStyle
  2
Flat
 70
     0
 71
     2
 72
     1
 73
     1
 90
        2
 40
-0.6
 41
30.0
 62
     5
 63
     7
 74
     0
 91
        4
 64
     7
 65
   257
 75
     1
175
     1
 42
1.0
 92
        8
 66
     7
 43
1.0
 76
     1
 77
     6
 78
     2
 67
     7
 79
     5
170
     0
171
     0
290
     0
174
     0
 93
       13
 44
0.0
173
     0
291
     1
 45
0.0
1001
ACAD
1000
AcDbSavedByObjectVersion
1070
     0
  0
VISUALSTYLE
  5
2C
102
{ACAD_REACTORS
330
2A
102
}
102
{ACAD_XDICTIONARY
360
3D8
102
}
330
2A
100
AcDbVisualStyle
  2
FlatWithEdges
 70
     1
 71
     2
 72
     1
 73
     1
 90
        2
 40
-0.6
 41
30.0
 62
     5
 63
     7
 74
     1
 91
        4
 64
     7
 65
   257
 75
     1
175
     1
 42
1.0
 92
        0
 66
   257
 43
1.0
 76
     1
 77
     6
 78
     2
 67
     7
 79
     5
170
     0
171
     0
290
     0
174
     0
 93
       13
 44
0.0
173
     0
291
     1
 45
0.0
1001
ACAD
1000
AcDbSavedByObjectVersion
1070
     0
  0
VISUALSTYLE
  5
2D
102
{ACAD_REACTORS
330
2A
102
}
102
{ACAD_XDICTIONARY
360
3DA
102
}
330
2A
100
AcDbVisualStyle
  2
Gouraud
 70
     2
 71
     2
 72
     2
 73
     1
 90
        2
 40
-0.6
 41
30.0
 62
     5
 63
     7
 74
     0
 91
        4
 64
     7
 65
   257
 75
     1
175
     1
 42
1.0
 92
        0
 66
     7
 43
1.0
 76
     1
 77
     6
 78
     2
 67
     7
 79
     5
170
     0
171
     0
290
     0
174
     0
 93
       13
 44
0.0
173
     0
291
     1
 45
0.0
1001
ACAD
1000
AcDbSavedByObjectVersion
1070
     0
  0
VISUALSTYLE
  5
2E
102
{ACAD_REACTORS
330
2A
102
}
102
{ACAD_XDICTIONARY
360
3DC
102
}
330
2A
100
AcDbVisualStyle
  2
GouraudWithEdges
 70
     3
 71
     2
 72
     2
 73
     1
 90
        2
 40
-0.6
 41
30.0
 62
     5
 63
     7
 74
     1
 91
        4
 64
     7
 65
   257
 75
     1
175
     1
 42
1.0
 92
        0
 66
   257
 43
1.0
 76
     1
 77
     6
 78
     2
 67
     7
 79
     5
170
     0
171
     0
290
     0
174
     0
 93
       13
 44
0.0
173
     0
291
     1
 45
0.0
1001
ACAD
1000
AcDbSavedByObjectVersion
1070
     0
  0
VISUALSTYLE
  5
38
102
{ACAD_REACTORS
330
2A
102
}
102
{ACAD_XDICTIONARY
360
3F0
102
}
330
2A
100
AcDbVisualStyle
  2
Linepattern
 70
    14
 71
     2
 72
     2
 73
     0
 90
        0
 40
-0.6
 41
-30.0
 62
     5
 63
     7
 74
     1
 91
        4
 64
     7
 65
   257
 75
     7
175
     7
 42
1.0
 92
        8
 66
     7
 43
1.0
 76
     1
 77
     6
 78
     2
 67
     7
 79
     5
170
     0
171
     0
290
     0
174
     0
 93
        1
 44
0.0
173
     0
291
     1
 45
0.0
1001
ACAD
1000
AcDbSavedByObjectVersion
1070
     0
  0
VISUALSTYLE
  5
33
102
{ACAD_REACTORS
330
2A
102
}
102
{ACAD_XDICTIONARY
360
3E6
102
}
330
2A
100
AcDbVisualStyle
  2
Realistic
 70
     8
 71
     2
 72
     2
 73
     0
 90
        0
 40
-0.6
 41
-30.0
 62
     5
 63
     7
 74
     1
 91
        0
 64
     7
 65
   257
 75
     1
175
     1
 42
1.0
 92
        8
 66
     8
 43
1.0
 76
     1
 77
     6
 78
     2
 67
     7
 79
     5
170
     0
171
     0
290
     0
174
     0
 93
       13
 44
0.0
173
     0
291
     0
 45
0.0
1001
ACAD
1000
AcDbSavedByObjectVersion
1070
     0
  0
VISUALSTYLE
  5
37
102
{ACAD_REACTORS
330
2A
102
}
102
{ACAD_XDICTIONARY
360
3EE
102
}
330
2A
100
AcDbVisualStyle
  2
Thicken
 70
    13
 71
     2
 72
     2
 73
     0
 90
        0
 40
-0.6
 41
-30.0
 62
     5
 63
     7
 74
     1
 91
        4
 64
     7
 65
   257
 75
     1
175
     1
 42
1.0
 92
       12
 66
     7
 43
1.0
 76
     1
 77
     6
 78
     2
 67
     7
 79
     5
170
     0
171
     0
290
     0
174
     0
 93
        1
 44
0.0
173
     0
291
     1
 45
0.0
1001
ACAD
1000
AcDbSavedByObjectVersion
1070
     0
  0
DICTIONARYVAR
  5
3D3
102
{ACAD_REACTORS
330
3D0
102
}
330
3D0
100
DictionaryVariables
280
     0
  1
1:1
  0
DICTIONARYVAR
  5
3D4
102
{ACAD_REACTORS
330
3D0
102
}
330
3D0
100
DictionaryVariables
280
     0
  1
2
  0
DICTIONARYVAR
  5
3D5
102
{ACAD_REACTORS
330
3D0
102
}
330
3D0
100
DictionaryVariables
280
     0
  1
1
  0
DICTIONARY
  5
3F8
330
3D
100
AcDbDictionary
280
     1
281
     1
  3
ACAD_XREC_ROUNDTRIP
360
3F9
  0
DICTIONARY
  5
3F6
330
3C
100
AcDbDictionary
280
     1
281
     1
  3
ACAD_XREC_ROUNDTRIP
360
3F7
  0
DICTIONARY
  5
3FA
330
3E
100
AcDbDictionary
280
     1
281
     1
  3
ACAD_XREC_ROUNDTRIP
360
3FB
  0
DICTIONARY
  5
3DE
330
2F
100
AcDbDictionary
280
     1
281
     1
  3
ACAD_XREC_ROUNDTRIP
360
3DF
  0
DICTIONARY
  5
3E2
330
31
100
AcDbDictionary
280
     1
281
     1
  3
ACAD_XREC_ROUNDTRIP
360
3E3
  0
DICTIONARY
  5
3E0
330
30
100
AcDbDictionary
280
     1
281
     1
  3
ACAD_XREC_ROUNDTRIP
360
3E1
  0
DICTIONARY
  5
3E4
330
32
100
AcDbDictionary
280
     1
281
     1
  3
ACAD_XREC_ROUNDTRIP
360
3E5
  0
DICTIONARY
  5
3EC
330
36
100
AcDbDictionary
280
     1
281
     1
  3
ACAD_XREC_ROUNDTRIP
360
3ED
  0
DICTIONARY
  5
3F4
330
3A
100
AcDbDictionary
280
     1
281
     1
  3
ACAD_XREC_ROUNDTRIP
360
3F5
  0
DICTIONARY
  5
3E8
330
34
100
AcDbDictionary
280
     1
281
     1
  3
ACAD_XREC_ROUNDTRIP
360
3E9
  0
DICTIONARY
  5
3EA
330
35
100
AcDbDictionary
280
     1
281
     1
  3
ACAD_XREC_ROUNDTRIP
360
3EB
  0
DICTIONARY
  5
3F2
330
39
100
AcDbDictionary
280
     1
281
     1
  3
ACAD_XREC_ROUNDTRIP
360
3F3
  0
DICTIONARY
  5
3D6
330
2B
100
AcDbDictionary
280
     1
281
     1
  3
ACAD_XREC_ROUNDTRIP
360
3D7
  0
DICTIONARY
  5
3D8
330
2C
100
AcDbDictionary
280
     1
281
     1
  3
ACAD_XREC_ROUNDTRIP
360
3D9
  0
DICTIONARY
  5
3DA
330
2D
100
AcDbDictionary
280
     1
281
     1
  3
ACAD_XREC_ROUNDTRIP
360
3DB
  0
DICTIONARY
  5
3DC
330
2E
100
AcDbDictionary
280
     1
281
     1
  3
ACAD_XREC_ROUNDTRIP
360
3DD
  0
DICTIONARY
  5
3F0
330
38
100
AcDbDictionary
280
     1
281
     1
  3
ACAD_XREC_ROUNDTRIP
360
3F1
  0
DICTIONARY
  5
3E6
330
33
100
AcDbDictionary
280
     1
281
     1
  3
ACAD_XREC_ROUNDTRIP
360
3E7
  0
DICTIONARY
  5
3EE
330
37
100
AcDbDictionary
280
     1
281
     1
  3
ACAD_XREC_ROUNDTRIP
360
3EF
  0
XRECORD
  5
3F9
102
{ACAD_REACTORS
330
3F8
102
}
330
3F8
100
AcDbXrecord
280
     1
102
MATERIAL
148
0.0
149
0.0
149
0.0
 93
        0
 94
      127
282
     0
 72
     1
 77
     1
171
     1
175
     1
179
     1
273
     0
  0
XRECORD
  5
3F7
102
{ACAD_REACTORS
330
3F6
102
}
330
3F6
100
AcDbXrecord
280
     1
102
MATERIAL
148
0.0
149
0.0
149
0.0
 93
        0
 94
      127
282
     0
 72
     1
 77
     1
171
     1
175
     1
179
     1
273
     0
  0
XRECORD
  5
3FB
102
{ACAD_REACTORS
330
3FA
102
}
330
3FA
100
AcDbXrecord
280
     1
102
MATERIAL
148
0.0
149
0.0
149
0.0
 93
        0
 94
      127
282
     0
 72
     1
 77
     1
171
     1
175
     1
179
     1
273
     0
  0
XRECORD
  5
3DF
102
{ACAD_REACTORS
330
3DE
102
}
330
3DE
100
AcDbXrecord
280
     1
102
RTVSPropertyOp0
 70
     1
102
RTVSPropertyOp1
 70
     1
102
RTVSPropertyOp2
 70
     1
102
RTVSPropertyOp3
 70
     1
102
RTVSPropertyOp4
 70
     1
102
RTVSPropertyOp5
 70
     1
102
RTVSPropertyOp6
 70
     1
102
RTVSPropertyOp7
 70
     1
102
RTVSPropertyOp8
 70
     1
102
RTVSPropertyOp9
 70
     1
102
RTVSPropertyOp10
 70
     1
102
RTVSPropertyOp11
 70
     1
102
RTVSPropertyOp12
 70
     1
102
RTVSPropertyOp13
 70
     1
102
RTVSPropertyOp14
 70
     1
102
RTVSPropertyOp15
 70
     1
102
RTVSPropertyOp16
 70
     1
102
RTVSPropertyOp17
 70
     1
102
RTVSPropertyOp18
 70
     1
102
RTVSPropertyOp19
 70
     1
102
RTVSPropertyOp20
 70
     1
102
RTVSPropertyOp21
 70
     1
102
RTVSPropertyOp22
 70
     1
102
RTVSPropertyOp23
 70
     1
102
RTVSPropertyOp24
 70
     1
102
RTVSPropertyOp25
 70
     1
102
RTVSPropertyOp26
 70
     1
102
RTVSPropertyOp27
 70
     1
  0
XRECORD
  5
3E3
102
{ACAD_REACTORS
330
3E2
102
}
330
3E2
100
AcDbXrecord
280
     1
102
RTVSPropertyOp0
 70
     1
102
RTVSPropertyOp1
 70
     1
102
RTVSPropertyOp2
 70
     1
102
RTVSPropertyOp3
 70
     1
102
RTVSPropertyOp4
 70
     1
102
RTVSPropertyOp5
 70
     1
102
RTVSPropertyOp6
 70
     1
102
RTVSPropertyOp7
 70
     1
102
RTVSPropertyOp8
 70
     1
102
RTVSPropertyOp9
 70
     1
102
RTVSPropertyOp10
 70
     1
102
RTVSPropertyOp11
 70
     1
102
RTVSPropertyOp12
 70
     1
102
RTVSPropertyOp13
 70
     1
102
RTVSPropertyOp14
 70
     1
102
RTVSPropertyOp15
 70
     1
102
RTVSPropertyOp16
 70
     1
102
RTVSPropertyOp17
 70
     1
102
RTVSPropertyOp18
 70
     1
102
RTVSPropertyOp19
 70
     1
102
RTVSPropertyOp20
 70
     1
102
RTVSPropertyOp21
 70
     1
102
RTVSPropertyOp22
 70
     1
102
RTVSPropertyOp23
 70
     1
102
RTVSPropertyOp24
 70
     1
102
RTVSPropertyOp25
 70
     1
102
RTVSPropertyOp26
 70
     1
102
RTVSPropertyOp27
 70
     1
  0
XRECORD
  5
3E1
102
{ACAD_REACTORS
330
3E0
102
}
330
3E0
100
AcDbXrecord
280
     1
102
RTVSPropertyOp0
 70
     1
102
RTVSPropertyOp1
 70
     1
102
RTVSPropertyOp2
 70
     1
102
RTVSPropertyOp3
 70
     1
102
RTVSPropertyOp4
 70
     1
102
RTVSPropertyOp5
 70
     1
102
RTVSPropertyOp6
 70
     1
102
RTVSPropertyOp7
 70
     1
102
RTVSPropertyOp8
 70
     1
102
RTVSPropertyOp9
 70
     1
102
RTVSPropertyOp10
 70
     1
102
RTVSPropertyOp11
 70
     1
102
RTVSPropertyOp12
 70
     1
102
RTVSPropertyOp13
 70
     1
102
RTVSPropertyOp14
 70
     1
102
RTVSPropertyOp15
 70
     1
102
RTVSPropertyOp16
 70
     1
102
RTVSPropertyOp17
 70
     1
102
RTVSPropertyOp18
 70
     1
102
RTVSPropertyOp19
 70
     1
102
RTVSPropertyOp20
 70
     1
102
RTVSPropertyOp21
 70
     1
102
RTVSPropertyOp22
 70
     1
102
RTVSPropertyOp23
 70
     1
102
RTVSPropertyOp24
 70
     1
102
RTVSPropertyOp25
 70
     1
102
RTVSPropertyOp26
 70
     1
102
RTVSPropertyOp27
 70
     1
  0
XRECORD
  5
3E5
102
{ACAD_REACTORS
330
3E4
102
}
330
3E4
100
AcDbXrecord
280
     1
102
RTVSPropertyOp0
 70
     1
102
RTVSPropertyOp1
 70
     1
102
RTVSPropertyOp2
 70
     1
102
RTVSPropertyOp3
 70
     1
102
RTVSPropertyOp4
 70
     1
102
RTVSPropertyOp5
 70
     1
102
RTVSPropertyOp6
 70
     1
102
RTVSPropertyOp7
 70
     1
102
RTVSPropertyOp8
 70
     1
102
RTVSPropertyOp9
 70
     1
102
RTVSPropertyOp10
 70
     1
102
RTVSPropertyOp11
 70
     1
102
RTVSPropertyOp12
 70
     1
102
RTVSPropertyOp13
 70
     1
102
RTVSPropertyOp14
 70
     1
102
RTVSPropertyOp15
 70
     1
102
RTVSPropertyOp16
 70
     1
102
RTVSPropertyOp17
 70
     1
102
RTVSPropertyOp18
 70
     1
102
RTVSPropertyOp19
 70
     1
102
RTVSPropertyOp20
 70
     1
102
RTVSPropertyOp21
 70
     1
102
RTVSPropertyOp22
 70
     1
102
RTVSPropertyOp23
 70
     1
102
RTVSPropertyOp24
 70
     1
102
RTVSPropertyOp25
 70
     1
102
RTVSPropertyOp26
 70
     1
102
RTVSPropertyOp27
 70
     1
  0
XRECORD
  5
3ED
102
{ACAD_REACTORS
330
3EC
102
}
330
3EC
100
AcDbXrecord
280
     1
102
RTVSPropertyOp0
 70
     1
102
RTVSPropertyOp1
 70
     1
102
RTVSPropertyOp2
 70
     1
102
RTVSPropertyOp3
 70
     1
102
RTVSPropertyOp4
 70
     1
102
RTVSPropertyOp5
 70
     1
102
RTVSPropertyOp6
 70
     1
102
RTVSPropertyOp7
 70
     1
102
RTVSPropertyOp8
 70
     1
102
RTVSPropertyOp9
 70
     1
102
RTVSPropertyOp10
 70
     1
102
RTVSPropertyOp11
 70
     1
102
RTVSPropertyOp12
 70
     1
102
RTVSPropertyOp13
 70
     1
102
RTVSPropertyOp14
 70
     1
102
RTVSPropertyOp15
 70
     1
102
RTVSPropertyOp16
 70
     1
102
RTVSPropertyOp17
 70
     1
102
RTVSPropertyOp18
 70
     1
102
RTVSPropertyOp19
 70
     1
102
RTVSPropertyOp20
 70
     1
102
RTVSPropertyOp21
 70
     1
102
RTVSPropertyOp22
 70
     1
102
RTVSPropertyOp23
 70
     1
102
RTVSPropertyOp24
 70
     1
102
RTVSPropertyOp25
 70
     1
102
RTVSPropertyOp26
 70
     1
102
RTVSPropertyOp27
 70
     1
  0
XRECORD
  5
3F5
102
{ACAD_REACTORS
330
3F4
102
}
330
3F4
100
AcDbXrecord
280
     1
102
RTVSPropertyOp0
 70
     1
102
RTVSPropertyOp1
 70
     1
102
RTVSPropertyOp2
 70
     1
102
RTVSPropertyOp3
 70
     1
102
RTVSPropertyOp4
 70
     1
102
RTVSPropertyOp5
 70
     1
102
RTVSPropertyOp6
 70
     1
102
RTVSPropertyOp7
 70
     1
102
RTVSPropertyOp8
 70
     1
102
RTVSPropertyOp9
 70
     1
102
RTVSPropertyOp10
 70
     1
102
RTVSPropertyOp11
 70
     1
102
RTVSPropertyOp12
 70
     1
102
RTVSPropertyOp13
 70
     1
102
RTVSPropertyOp14
 70
     1
102
RTVSPropertyOp15
 70
     1
102
RTVSPropertyOp16
 70
     1
102
RTVSPropertyOp17
 70
     1
102
RTVSPropertyOp18
 70
     1
102
RTVSPropertyOp19
 70
     1
102
RTVSPropertyOp20
 70
     1
102
RTVSPropertyOp21
 70
     1
102
RTVSPropertyOp22
 70
     1
102
RTVSPropertyOp23
 70
     1
102
RTVSPropertyOp24
 70
     1
102
RTVSPropertyOp25
 70
     1
102
RTVSPropertyOp26
 70
     1
102
RTVSPropertyOp27
 70
     1
  0
XRECORD
  5
3E9
102
{ACAD_REACTORS
330
3E8
102
}
330
3E8
100
AcDbXrecord
280
     1
102
RTVSPropertyOp0
 70
     1
102
RTVSPropertyOp1
 70
     1
102
RTVSPropertyOp2
 70
     1
102
RTVSPropertyOp3
 70
     1
102
RTVSPropertyOp4
 70
     1
102
RTVSPropertyOp5
 70
     1
102
RTVSPropertyOp6
 70
     1
102
RTVSPropertyOp7
 70
     1
102
RTVSPropertyOp8
 70
     1
102
RTVSPropertyOp9
 70
     1
102
RTVSPropertyOp10
 70
     1
102
RTVSPropertyOp11
 70
     1
102
RTVSPropertyOp12
 70
     1
102
RTVSPropertyOp13
 70
     1
102
RTVSPropertyOp14
 70
     1
102
RTVSPropertyOp15
 70
     1
102
RTVSPropertyOp16
 70
     1
102
RTVSPropertyOp17
 70
     1
102
RTVSPropertyOp18
 70
     1
102
RTVSPropertyOp19
 70
     1
102
RTVSPropertyOp20
 70
     1
102
RTVSPropertyOp21
 70
     1
102
RTVSPropertyOp22
 70
     1
102
RTVSPropertyOp23
 70
     1
102
RTVSPropertyOp24
 70
     1
102
RTVSPropertyOp25
 70
     1
102
RTVSPropertyOp26
 70
     1
102
RTVSPropertyOp27
 70
     1
  0
XRECORD
  5
3EB
102
{ACAD_REACTORS
330
3EA
102
}
330
3EA
100
AcDbXrecord
280
     1
102
RTVSPropertyOp0
 70
     1
102
RTVSPropertyOp1
 70
     1
102
RTVSPropertyOp2
 70
     1
102
RTVSPropertyOp3
 70
     1
102
RTVSPropertyOp4
 70
     1
102
RTVSPropertyOp5
 70
     1
102
RTVSPropertyOp6
 70
     1
102
RTVSPropertyOp7
 70
     1
102
RTVSPropertyOp8
 70
     1
102
RTVSPropertyOp9
 70
     1
102
RTVSPropertyOp10
 70
     1
102
RTVSPropertyOp11
 70
     1
102
RTVSPropertyOp12
 70
     1
102
RTVSPropertyOp13
 70
     1
102
RTVSPropertyOp14
 70
     1
102
RTVSPropertyOp15
 70
     1
102
RTVSPropertyOp16
 70
     1
102
RTVSPropertyOp17
 70
     1
102
RTVSPropertyOp18
 70
     1
102
RTVSPropertyOp19
 70
     1
102
RTVSPropertyOp20
 70
     1
102
RTVSPropertyOp21
 70
     1
102
RTVSPropertyOp22
 70
     1
102
RTVSPropertyOp23
 70
     1
102
RTVSPropertyOp24
 70
     1
102
RTVSPropertyOp25
 70
     1
102
RTVSPropertyOp26
 70
     1
102
RTVSPropertyOp27
 70
     1
  0
XRECORD
  5
3F3
102
{ACAD_REACTORS
330
3F2
102
}
330
3F2
100
AcDbXrecord
280
     1
102
RTVSPropertyOp0
 70
     1
102
RTVSPropertyOp1
 70
     1
102
RTVSPropertyOp2
 70
     1
102
RTVSPropertyOp3
 70
     1
102
RTVSPropertyOp4
 70
     1
102
RTVSPropertyOp5
 70
     1
102
RTVSPropertyOp6
 70
     1
102
RTVSPropertyOp7
 70
     1
102
RTVSPropertyOp8
 70
     1
102
RTVSPropertyOp9
 70
     1
102
RTVSPropertyOp10
 70
     1
102
RTVSPropertyOp11
 70
     1
102
RTVSPropertyOp12
 70
     1
102
RTVSPropertyOp13
 70
     1
102
RTVSPropertyOp14
 70
     1
102
RTVSPropertyOp15
 70
     1
102
RTVSPropertyOp16
 70
     1
102
RTVSPropertyOp17
 70
     1
102
RTVSPropertyOp18
 70
     1
102
RTVSPropertyOp19
 70
     1
102
RTVSPropertyOp20
 70
     1
102
RTVSPropertyOp21
 70
     1
102
RTVSPropertyOp22
 70
     1
102
RTVSPropertyOp23
 70
     1
102
RTVSPropertyOp24
 70
     1
102
RTVSPropertyOp25
 70
     1
102
RTVSPropertyOp26
 70
     1
102
RTVSPropertyOp27
 70
     1
  0
XRECORD
  5
3D7
102
{ACAD_REACTORS
330
3D6
102
}
330
3D6
100
AcDbXrecord
280
     1
102
RTVSPropertyOp0
 70
     1
102
RTVSPropertyOp1
 70
     1
102
RTVSPropertyOp2
 70
     1
102
RTVSPropertyOp3
 70
     1
102
RTVSPropertyOp4
 70
     1
102
RTVSPropertyOp5
 70
     1
102
RTVSPropertyOp6
 70
     1
102
RTVSPropertyOp7
 70
     1
102
RTVSPropertyOp8
 70
     1
102
RTVSPropertyOp9
 70
     1
102
RTVSPropertyOp10
 70
     1
102
RTVSPropertyOp11
 70
     1
102
RTVSPropertyOp12
 70
     1
102
RTVSPropertyOp13
 70
     1
102
RTVSPropertyOp14
 70
     1
102
RTVSPropertyOp15
 70
     1
102
RTVSPropertyOp16
 70
     1
102
RTVSPropertyOp17
 70
     1
102
RTVSPropertyOp18
 70
     1
102
RTVSPropertyOp19
 70
     1
102
RTVSPropertyOp20
 70
     1
102
RTVSPropertyOp21
 70
     1
102
RTVSPropertyOp22
 70
     1
102
RTVSPropertyOp23
 70
     1
102
RTVSPropertyOp24
 70
     1
102
RTVSPropertyOp25
 70
     1
102
RTVSPropertyOp26
 70
     1
102
RTVSPropertyOp27
 70
     1
  0
XRECORD
  5
3D9
102
{ACAD_REACTORS
330
3D8
102
}
330
3D8
100
AcDbXrecord
280
     1
102
RTVSPropertyOp0
 70
     1
102
RTVSPropertyOp1
 70
     1
102
RTVSPropertyOp2
 70
     1
102
RTVSPropertyOp3
 70
     1
102
RTVSPropertyOp4
 70
     1
102
RTVSPropertyOp5
 70
     1
102
RTVSPropertyOp6
 70
     1
102
RTVSPropertyOp7
 70
     1
102
RTVSPropertyOp8
 70
     1
102
RTVSPropertyOp9
 70
     1
102
RTVSPropertyOp10
 70
     1
102
RTVSPropertyOp11
 70
     1
102
RTVSPropertyOp12
 70
     1
102
RTVSPropertyOp13
 70
     1
102
RTVSPropertyOp14
 70
     1
102
RTVSPropertyOp15
 70
     1
102
RTVSPropertyOp16
 70
     1
102
RTVSPropertyOp17
 70
     1
102
RTVSPropertyOp18
 70
     1
102
RTVSPropertyOp19
 70
     1
102
RTVSPropertyOp20
 70
     1
102
RTVSPropertyOp21
 70
     1
102
RTVSPropertyOp22
 70
     1
102
RTVSPropertyOp23
 70
     1
102
RTVSPropertyOp24
 70
     1
102
RTVSPropertyOp25
 70
     1
102
RTVSPropertyOp26
 70
     1
102
RTVSPropertyOp27
 70
     1
  0
XRECORD
  5
3DB
102
{ACAD_REACTORS
330
3DA
102
}
330
3DA
100
AcDbXrecord
280
     1
102
RTVSPropertyOp0
 70
     1
102
RTVSPropertyOp1
 70
     1
102
RTVSPropertyOp2
 70
     1
102
RTVSPropertyOp3
 70
     1
102
RTVSPropertyOp4
 70
     1
102
RTVSPropertyOp5
 70
     1
102
RTVSPropertyOp6
 70
     1
102
RTVSPropertyOp7
 70
     1
102
RTVSPropertyOp8
 70
     1
102
RTVSPropertyOp9
 70
     1
102
RTVSPropertyOp10
 70
     1
102
RTVSPropertyOp11
 70
     1
102
RTVSPropertyOp12
 70
     1
102
RTVSPropertyOp13
 70
     1
102
RTVSPropertyOp14
 70
     1
102
RTVSPropertyOp15
 70
     1
102
RTVSPropertyOp16
 70
     1
102
RTVSPropertyOp17
 70
     1
102
RTVSPropertyOp18
 70
     1
102
RTVSPropertyOp19
 70
     1
102
RTVSPropertyOp20
 70
     1
102
RTVSPropertyOp21
 70
     1
102
RTVSPropertyOp22
 70
     1
102
RTVSPropertyOp23
 70
     1
102
RTVSPropertyOp24
 70
     1
102
RTVSPropertyOp25
 70
     1
102
RTVSPropertyOp26
 70
     1
102
RTVSPropertyOp27
 70
     1
  0
XRECORD
  5
3DD
102
{ACAD_REACTORS
330
3DC
102
}
330
3DC
100
AcDbXrecord
280
     1
102
RTVSPropertyOp0
 70
     1
102
RTVSPropertyOp1
 70
     1
102
RTVSPropertyOp2
 70
     1
102
RTVSPropertyOp3
 70
     1
102
RTVSPropertyOp4
 70
     1
102
RTVSPropertyOp5
 70
     1
102
RTVSPropertyOp6
 70
     1
102
RTVSPropertyOp7
 70
     1
102
RTVSPropertyOp8
 70
     1
102
RTVSPropertyOp9
 70
     1
102
RTVSPropertyOp10
 70
     1
102
RTVSPropertyOp11
 70
     1
102
RTVSPropertyOp12
 70
     1
102
RTVSPropertyOp13
 70
     1
102
RTVSPropertyOp14
 70
     1
102
RTVSPropertyOp15
 70
     1
102
RTVSPropertyOp16
 70
     1
102
RTVSPropertyOp17
 70
     1
102
RTVSPropertyOp18
 70
     1
102
RTVSPropertyOp19
 70
     1
102
RTVSPropertyOp20
 70
     1
102
RTVSPropertyOp21
 70
     1
102
RTVSPropertyOp22
 70
     1
102
RTVSPropertyOp23
 70
     1
102
RTVSPropertyOp24
 70
     1
102
RTVSPropertyOp25
 70
     1
102
RTVSPropertyOp26
 70
     1
102
RTVSPropertyOp27
 70
     1
  0
XRECORD
  5
3F1
102
{ACAD_REACTORS
330
3F0
102
}
330
3F0
100
AcDbXrecord
280
     1
102
RTVSPropertyOp0
 70
     1
102
RTVSPropertyOp1
 70
     1
102
RTVSPropertyOp2
 70
     1
102
RTVSPropertyOp3
 70
     1
102
RTVSPropertyOp4
 70
     1
102
RTVSPropertyOp5
 70
     1
102
RTVSPropertyOp6
 70
     1
102
RTVSPropertyOp7
 70
     1
102
RTVSPropertyOp8
 70
     1
102
RTVSPropertyOp9
 70
     1
102
RTVSPropertyOp10
 70
     1
102
RTVSPropertyOp11
 70
     1
102
RTVSPropertyOp12
 70
     1
102
RTVSPropertyOp13
 70
     1
102
RTVSPropertyOp14
 70
     1
102
RTVSPropertyOp15
 70
     1
102
RTVSPropertyOp16
 70
     1
102
RTVSPropertyOp17
 70
     1
102
RTVSPropertyOp18
 70
     1
102
RTVSPropertyOp19
 70
     1
102
RTVSPropertyOp20
 70
     1
102
RTVSPropertyOp21
 70
     1
102
RTVSPropertyOp22
 70
     1
102
RTVSPropertyOp23
 70
     1
102
RTVSPropertyOp24
 70
     1
102
RTVSPropertyOp25
 70
     1
102
RTVSPropertyOp26
 70
     1
102
RTVSPropertyOp27
 70
     1
  0
XRECORD
  5
3E7
102
{ACAD_REACTORS
330
3E6
102
}
330
3E6
100
AcDbXrecord
280
     1
102
RTVSPropertyOp0
 70
     1
102
RTVSPropertyOp1
 70
     1
102
RTVSPropertyOp2
 70
     1
102
RTVSPropertyOp3
 70
     1
102
RTVSPropertyOp4
 70
     1
102
RTVSPropertyOp5
 70
     1
102
RTVSPropertyOp6
 70
     1
102
RTVSPropertyOp7
 70
     1
102
RTVSPropertyOp8
 70
     1
102
RTVSPropertyOp9
 70
     1
102
RTVSPropertyOp10
 70
     1
102
RTVSPropertyOp11
 70
     1
102
RTVSPropertyOp12
 70
     1
102
RTVSPropertyOp13
 70
     1
102
RTVSPropertyOp14
 70
     1
102
RTVSPropertyOp15
 70
     1
102
RTVSPropertyOp16
 70
     1
102
RTVSPropertyOp17
 70
     1
102
RTVSPropertyOp18
 70
     1
102
RTVSPropertyOp19
 70
     1
102
RTVSPropertyOp20
 70
     1
102
RTVSPropertyOp21
 70
     1
102
RTVSPropertyOp22
 70
     1
102
RTVSPropertyOp23
 70
     1
102
RTVSPropertyOp24
 70
     1
102
RTVSPropertyOp25
 70
     1
102
RTVSPropertyOp26
 70
     1
102
RTVSPropertyOp27
 70
     1
  0
XRECORD
  5
3EF
102
{ACAD_REACTORS
330
3EE
102
}
330
3EE
100
AcDbXrecord
280
     1
102
RTVSPropertyOp0
 70
     1
102
RTVSPropertyOp1
 70
     1
102
RTVSPropertyOp2
 70
     1
102
RTVSPropertyOp3
 70
     1
102
RTVSPropertyOp4
 70
     1
102
RTVSPropertyOp5
 70
     1
102
RTVSPropertyOp6
 70
     1
102
RTVSPropertyOp7
 70
     1
102
RTVSPropertyOp8
 70
     1
102
RTVSPropertyOp9
 70
     1
102
RTVSPropertyOp10
 70
     1
102
RTVSPropertyOp11
 70
     1
102
RTVSPropertyOp12
 70
     1
102
RTVSPropertyOp13
 70
     1
102
RTVSPropertyOp14
 70
     1
102
RTVSPropertyOp15
 70
     1
102
RTVSPropertyOp16
 70
     1
102
RTVSPropertyOp17
 70
     1
102
RTVSPropertyOp18
 70
     1
102
RTVSPropertyOp19
 70
     1
102
RTVSPropertyOp20
 70
     1
102
RTVSPropertyOp21
 70
     1
102
RTVSPropertyOp22
 70
     1
102
RTVSPropertyOp23
 70
     1
102
RTVSPropertyOp24
 70
     1
102
RTVSPropertyOp25
 70
     1
102
RTVSPropertyOp26
 70
     1
102
RTVSPropertyOp27
 70
     1
  0
ENDSEC
  0
EOF
